osu file format v14

[General]
AudioFilename: audio.mp3
AudioLeadIn: 0
PreviewTime:115835
Countdown: 0
SampleSet: Soft
StackLeniency: 0.7
Mode: 0
LetterboxInBreaks: 0
WidescreenStoryboard: 1

[Editor]
Bookmarks: 2894,14188,25482,36776,48070,59364,70658,81952,93246,104541,115835,118658,127129,138423,149717
DistanceSpacing: 0.6
BeatDivisor: 4
GridSize: 16
TimelineZoom: 2.599998

[Metadata]
Title:Rolling Beat
TitleUnicode:Rolling Beat
Artist:Mitsukiyo
ArtistUnicode:ミツキヨ
Creator:too
Version:Extra
Source:ブルーアーカイブ -Blue Archive-
Tags:ブルアカ future bass instrumental electronic video game yostar nat games simple tech BaAR_Vendel light_u l1ght_u -hitomi amateurre tsukinyuni lecandy onegai shizuku- shikibe mayu kazato asa flame haze newton- ifinixe kyuuchie nagaraia midorijeon
BeatmapID:2827368
BeatmapSetID:1367155

[Difficulty]
HPDrainRate:5.5
CircleSize:4
OverallDifficulty:8.5
ApproachRate:9.3
SliderMultiplier:2
SliderTickRate:1

[Events]
//Background and Video events
0,0,"bg.jpg",0,0
//Break Periods
2,70858,80557
//Storyboard Layer 0 (Background)
//Storyboard Layer 1 (Fail)
//Storyboard Layer 2 (Pass)
//Storyboard Layer 3 (Foreground)
//Storyboard Layer 4 (Overlay)
//Storyboard Sound Samples

[TimingPoints]
70,352.941176470588,4,2,21,40,1,0
2894,-200,4,2,21,40,0,0
13129,-100,4,2,21,40,0,0
14188,-100,4,2,21,55,0,0
16305,-83.3333333333333,4,2,21,55,0,0
16482,-71.4285714285714,4,2,21,55,0,0
16658,-62.5,4,2,21,55,0,0
16835,-55.5555555555556,4,2,21,55,0,0
17011,-100,4,2,21,55,0,0
20099,-100,4,2,21,5,0,0
20188,-100,4,2,21,55,0,0
21952,-83.3333333333333,4,2,21,55,0,0
22129,-71.4285714285714,4,2,21,55,0,0
22305,-62.5,4,2,21,55,0,0
22482,-55.5555555555556,4,2,21,55,0,0
22658,-100,4,2,21,55,0,0
22923,-100,4,2,21,5,0,0
23011,-100,4,2,21,55,0,0
24776,-100,4,2,21,90,0,0
25482,-100,4,2,21,70,0,0
35982,-100,4,2,21,5,0,0
36070,-100,4,2,21,70,0,0
36423,-100,4,2,22,50,0,0
36776,-100,4,2,21,80,0,0
42423,-66.6666666666667,4,2,21,80,0,0
46658,-133.333333333333,4,2,21,80,0,0
47364,-66.6666666666667,4,2,21,80,0,0
47717,-133.333333333333,4,2,21,80,0,0
48069,-50,4,2,22,90,0,1
48423,-100,4,2,21,90,0,1
48511,-100,4,2,22,90,0,1
48599,-200,4,2,22,90,0,1
48776,-55.5555555555556,4,2,22,90,0,1
49129,-55.5555555555556,4,2,21,90,0,1
49217,-55.5555555555556,4,2,22,90,0,1
49835,-55.5555555555556,4,2,21,90,0,1
49923,-55.5555555555556,4,2,22,90,0,1
50188,-83.3333333333334,4,2,22,90,0,1
50364,-71.4285714285715,4,2,22,90,0,1
50541,-62.5,4,2,21,90,0,1
50629,-62.5,4,2,22,90,0,1
50717,-55.5555555555556,4,2,22,90,0,1
50893,-50,4,2,22,90,0,1
51246,-100,4,2,21,90,0,1
51335,-100,4,2,22,90,0,1
51423,-200,4,2,22,90,0,1
51599,-55.5555555555556,4,2,22,90,0,1
51952,-55.5555555555556,4,2,21,90,0,1
52041,-55.5555555555556,4,2,22,90,0,1
52658,-55.5555555555556,4,2,21,90,0,1
52746,-55.5555555555556,4,2,22,90,0,1
53011,-50,4,2,22,90,0,1
53364,-66.6666666666667,4,2,21,90,0,1
53408,-66.6666666666667,4,2,22,90,0,1
53717,-50,4,2,22,90,0,1
54070,-100,4,2,21,90,0,1
54158,-100,4,2,22,90,0,1
54246,-200,4,2,22,90,0,1
54423,-55.5555555555556,4,2,22,90,0,1
54776,-55.5555555555556,4,2,21,90,0,1
54864,-55.5555555555556,4,2,22,90,0,1
55482,-55.5555555555556,4,2,21,90,0,1
55570,-55.5555555555556,4,2,22,90,0,1
55835,-83.3333333333333,4,2,22,90,0,1
56011,-71.4285714285714,4,2,22,90,0,1
56188,-62.5,4,2,21,90,0,1
56276,-62.5,4,2,22,90,0,1
56364,-55.5555555555556,4,2,22,90,0,1
56541,-50,4,2,22,90,0,1
56893,-100,4,2,21,90,0,1
56982,-100,4,2,22,90,0,1
57070,-200,4,2,22,90,0,1
57246,-55.5555555555556,4,2,22,90,0,1
57599,-55.5555555555556,4,2,21,90,0,1
57688,-55.5555555555556,4,2,22,90,0,1
58305,-55.5555555555556,4,2,22,90,0,1
58658,-55.5555555555556,4,2,22,90,0,1
59011,-55.5555555555556,4,2,22,90,0,1
59364,-40,4,2,22,90,0,1
59541,-100,4,2,22,90,0,1
59717,-100,4,2,21,90,0,1
59805,-100,4,2,22,90,0,1
60070,-55.5555555555556,4,2,22,90,0,1
60423,-55.5555555555556,4,2,21,90,0,1
60511,-55.5555555555556,4,2,22,90,0,1
60776,-40,4,2,22,90,0,1
61129,-40,4,2,21,90,0,1
61217,-40,4,2,22,90,0,1
61658,-100,4,2,22,90,0,1
61835,-40,4,2,21,90,0,1
61923,-40,4,2,22,90,0,1
62011,-100,4,2,22,90,0,1
62188,-40,4,2,22,90,0,1
62364,-100,4,2,22,90,0,1
62541,-100,4,2,21,90,0,1
62629,-100,4,2,22,90,0,1
62893,-40,4,2,22,90,0,1
63246,-40,4,2,21,90,0,1
63335,-40,4,2,22,90,0,1
63599,-100,4,2,22,90,0,1
63952,-100,4,2,21,90,0,1
64041,-100,4,2,22,90,0,1
64305,-50,4,2,22,90,0,1
64658,-50,4,2,21,90,0,1
64702,-50,4,2,22,90,0,1
65011,-40,4,2,22,90,0,1
65364,-40,4,2,21,90,0,1
65452,-40,4,2,22,90,0,1
65541,-200,4,2,22,90,0,1
65717,-55.5555555555556,4,2,22,90,0,1
66070,-55.5555555555556,4,2,21,90,0,1
66158,-55.5555555555556,4,2,22,90,0,1
66776,-55.5555555555556,4,2,21,90,0,1
66864,-55.5555555555556,4,2,22,90,0,1
67129,-40,4,2,22,90,0,1
67305,-100,4,2,22,90,0,1
67482,-40,4,2,21,90,0,1
67570,-40,4,2,22,90,0,1
67658,-100,4,2,22,90,0,1
67835,-40,4,2,22,90,0,1
68011,-100,4,2,22,90,0,1
68188,-100,4,2,21,90,0,1
68276,-100,4,2,22,90,0,1
68541,-40,4,2,22,90,0,1
68893,-40,4,2,21,90,0,1
68982,-40,4,2,22,90,0,1
69070,-66.6666666666667,4,2,22,90,0,1
69599,-66.6666666666667,4,2,22,90,0,1
69952,-66.6666666666667,4,2,22,90,0,1
70305,-133.333333333333,4,2,22,90,0,1
70658,-133.333333333333,4,2,22,70,0,0
81952,-100,4,2,21,60,0,0
87335,-100,4,2,21,5,0,0
87423,-100,4,2,21,60,0,0
92982,-100,4,2,21,60,0,0
93070,-100,4,2,21,60,0,0
93246,-100,4,2,21,70,0,0
103746,-100,4,2,21,5,0,0
103835,-100,4,2,21,70,0,0
104188,-100,4,2,22,50,0,0
104541,-100,4,2,21,80,0,0
110188,-66.6666666666667,4,2,21,80,0,0
114423,-133.333333333333,4,2,21,80,0,0
115129,-66.6666666666667,4,2,21,80,0,0
115835,-100,4,2,22,70,0,0
116541,-100,4,2,22,80,0,0
116893,-100,4,2,22,90,0,0
117246,-50,4,2,22,90,0,1
117952,-50,4,2,22,90,0,1
118129,-100,4,2,22,90,0,1
118305,-50,4,2,22,90,0,0
118482,-100,4,2,22,90,0,0
118658,-40,4,2,22,90,0,1
119011,-40,4,2,21,90,0,1
119099,-40,4,2,22,90,0,1
119188,-100,4,2,22,90,0,1
119364,-55.5555555555556,4,2,22,90,0,1
119717,-55.5555555555556,4,2,21,90,0,1
119805,-55.5555555555556,4,2,22,90,0,1
120423,-55.5555555555556,4,2,21,90,0,1
120511,-55.5555555555556,4,2,22,90,0,1
120776,-50,4,2,22,90,0,1
121129,-66.6666666666667,4,2,21,90,0,1
121173,-66.6666666666667,4,2,22,90,0,1
121482,-40,4,2,22,90,0,1
121835,-40,4,2,21,90,0,1
121923,-40,4,2,22,90,0,1
122011,-100,4,2,22,90,0,1
122188,-55.5555555555556,4,2,22,90,0,1
122541,-55.5555555555556,4,2,21,90,0,1
122629,-55.5555555555556,4,2,22,90,0,1
123246,-55.5555555555556,4,2,21,90,0,1
123335,-55.5555555555556,4,2,22,90,0,1
123599,-83.3333333333333,4,2,22,90,0,1
123776,-71.4285714285714,4,2,22,90,0,1
123952,-62.5,4,2,21,90,0,1
124041,-62.5,4,2,22,90,0,1
124129,-55.5555555555556,4,2,22,90,0,1
124305,-40,4,2,22,90,0,1
124658,-40,4,2,21,90,0,1
124746,-40,4,2,22,90,0,1
124835,-100,4,2,22,90,0,1
125011,-55.5555555555556,4,2,22,90,0,1
125364,-55.5555555555556,4,2,21,90,0,1
125452,-55.5555555555556,4,2,22,90,0,1
127129,-40,4,2,22,90,0,1
127482,-40,4,2,21,90,0,1
127570,-40,4,2,22,90,0,1
127658,-100,4,2,22,90,0,1
127835,-55.5555555555556,4,2,22,90,0,1
128188,-55.5555555555556,4,2,21,90,0,1
128276,-55.5555555555556,4,2,22,90,0,1
128893,-55.5555555555556,4,2,21,90,0,1
128982,-55.5555555555556,4,2,22,90,0,1
129246,-83.3333333333334,4,2,22,90,0,1
129423,-71.4285714285715,4,2,22,90,0,1
129599,-62.5,4,2,21,90,0,1
129688,-62.5,4,2,22,90,0,1
129776,-55.5555555555556,4,2,22,90,0,1
129952,-40,4,2,22,90,0,1
130305,-40,4,2,21,90,0,1
130393,-40,4,2,22,90,0,1
130482,-100,4,2,22,90,0,1
130658,-55.5555555555556,4,2,22,90,0,1
131011,-55.5555555555556,4,2,21,90,0,1
131099,-55.5555555555556,4,2,22,90,0,1
131717,-55.5555555555556,4,2,21,90,0,1
131805,-55.5555555555556,4,2,22,90,0,1
132070,-40,4,2,22,90,0,1
132423,-66.6666666666667,4,2,21,90,0,1
132445,-66.6666666666667,4,2,22,90,0,1
132776,-40,4,2,22,90,0,1
133129,-40,4,2,21,90,0,1
133217,-40,4,2,22,90,0,1
133305,-100,4,2,22,90,0,1
133482,-55.5555555555556,4,2,22,90,0,1
133835,-55.5555555555556,4,2,21,90,0,1
133923,-55.5555555555556,4,2,22,90,0,1
134541,-55.5555555555556,4,2,21,90,0,1
134629,-55.5555555555556,4,2,22,90,0,1
135070,-100,4,2,22,90,0,1
135246,-55.5555555555556,4,2,21,90,0,1
135335,-55.5555555555556,4,2,22,90,0,1
135423,-100,4,2,22,90,0,1
135599,-40,4,2,22,90,0,1
135952,-40,4,2,21,90,0,1
136041,-40,4,2,22,90,0,1
136129,-100,4,2,22,90,0,1
136305,-55.5555555555556,4,2,22,90,0,1
136658,-55.5555555555556,4,2,21,90,0,1
136746,-55.5555555555556,4,2,22,90,0,1
138070,-133.333333333333,4,2,22,90,0,1
138422,-100,4,2,22,90,0,0

[Colours]
Combo1 : 0,128,255
Combo2 : 0,64,128
Combo3 : 0,255,255

[HitObjects]
96,157,2894,6,0,B|252:188|204:29|366:55,1,300,6|0,0:0|0:0,0:0:0:0:
416,157,4305,2,0,B|259:188|307:29|146:55,1,300,2|0,0:0|0:0,0:0:0:0:
213,197,5717,2,0,P|91:355|51:160,1,500,2|0,0:0|0:0,0:0:0:0:
141,151,7835,2,0,L|116:248,1,100,2|0,0:0|0:0,0:0:0:0:
236,363,8541,6,0,B|343:328|343:328|415:372|415:372|512:338,1,300,2|0,0:0|0:0,0:0:0:0:
352,240,9952,2,0,B|244:205|244:205|172:249|172:249|75:215,1,300,2|0,0:0|0:0,0:0:0:0:
78,31,11364,2,0,B|133:18|133:18|179:64|179:64|249:45|249:45|304:97|304:97|375:82|375:82|417:121,1,400,2|0,0:0|0:0,0:0:0:0:
113,118,13129,6,0,L|88:124,1,25,2|0,1:2|1:2,0:0:0:0:
110,125,13217,2,0,L|85:131,1,25,2|0,1:2|1:2,0:0:0:0:
107,132,13305,2,0,L|82:138,1,25,2|0,1:2|1:2,0:0:0:0:
104,139,13394,2,0,L|79:145,1,25,2|0,1:2|1:2,0:0:0:0:
102,147,13482,5,2,1:2:0:0:
200,134,13658,1,2,0:0:0:0:
142,277,13835,5,2,0:0:0:0:
333,311,14011,1,2,0:0:0:0:
417,121,14188,6,0,P|367:54|244:46,1,200,6|2,0:0|0:0,0:0:0:0:
200,134,14717,1,2,0:0:0:0:
333,311,14893,5,8,0:0:0:0:
333,311,15070,2,0,P|337:280|331:249,1,50,2|0,0:0|0:0,0:0:0:0:
414,233,15246,2,0,P|395:209|369:191,1,50,2|0,0:0|0:0,0:0:0:0:
417,121,15423,2,0,P|386:117|355:123,1,50,2|0,0:0|0:0,0:0:0:0:
259,40,15599,5,0,0:0:0:0:
259,40,15776,2,0,L|188:55,1,50,2|0,1:2|0:0,0:0:0:0:
98,0,15952,2,0,L|169:15,1,50,2|2,0:0|0:0,0:0:0:0:
349,59,16129,1,2,0:0:0:0:
368,64,16217,1,2,0:0:0:0:
391,69,16305,6,0,P|398:99|429:128,1,59.9999981689454,10|0,0:0|0:0,0:0:0:0:
319,134,16482,2,0,P|289:164|250:173,1,69.9999978637696,2|0,0:0|0:0,0:0:0:0:
422,234,16658,2,0,P|447:284|484:304,1,80,2|0,0:0|0:0,0:0:0:0:
240,313,16835,2,0,P|184:337|135:321,1,89.9999972534181,2|0,0:0|0:0,0:0:0:0:
142,133,17011,6,0,B|193:110|193:110|180:273,1,200,6|2,0:0|0:0,0:0:0:0:
77,343,17541,1,2,0:0:0:0:
422,234,17717,5,8,0:0:0:0:
422,234,17893,2,0,P|391:250|361:250,1,50,2|0,0:0|0:0,0:0:0:0:
366,330,18070,2,0,P|333:319|311:299,1,50,2|0,0:0|0:0,0:0:0:0:
258,358,18246,2,0,P|241:327|241:297,1,50,2|0,0:0|0:0,0:0:0:0:
156,254,18423,6,0,L|164:230,2,25
149,271,18599,1,0,0:0:0:0:
79,125,18776,2,0,L|70:101,2,25,2|0|2,0:0|0:0|0:0,0:0:0:0:
85,144,18952,1,2,0:0:0:0:
1,18,19129,5,10,0:0:0:0:
18,203,19305,1,2,0:0:0:0:
112,15,19482,2,0,L|124:17,4,12.5,0|0|0|0|0,1:0|1:0|1:0|1:0|1:0,0:0:0:0:
153,99,19658,2,0,L|165:96,4,12.5,0|0|0|0|0,1:0|1:0|1:0|1:0|1:0,0:0:0:0:
270,19,19835,6,0,P|323:18|429:63,1,150,6|0,0:0|0:0,0:0:0:0:
429,73,20188,2,0,P|434:95|429:120,1,50,2|0,0:0|0:0,0:0:0:0:
505,140,20364,2,0,P|498:162|481:181,1,50,2|0,0:0|0:0,0:0:0:0:
404,313,20541,5,8,0:0:0:0:
404,313,20717,2,0,L|461:328,1,50,2|0,0:0|0:0,0:0:0:0:
320,319,20893,2,0,L|278:360,1,50,2|0,0:0|0:0,0:0:0:0:
356,243,21070,2,0,L|340:186,1,50,2|0,0:0|0:0,0:0:0:0:
253,88,21246,5,0,0:0:0:0:
253,88,21423,2,0,L|239:136,1,50,2|0,1:2|0:0,0:0:0:0:
182,232,21599,2,0,L|168:183,1,50,2|2,0:0|0:0,0:0:0:0:
79,31,21776,1,2,0:0:0:0:
98,34,21864,1,2,0:0:0:0:
117,40,21952,6,0,P|123:79|110:110,1,59.9999981689454,10|0,0:0|0:0,0:0:0:0:
33,193,22129,2,0,P|27:154|40:123,1,69.9999978637696,2|0,0:0|0:0,0:0:0:0:
133,35,22305,2,0,P|139:78|125:112,1,80,2|0,0:0|0:0,0:0:0:0:
21,202,22482,2,0,P|13:151|30:111,1,89.9999972534181,2|0,0:0|0:0,0:0:0:0:
212,23,22658,6,0,L|385:48,1,150,6|0,0:0|0:0,0:0:0:0:
380,71,23011,2,0,P|366:104|340:123,1,50,2|0,0:0|0:0,0:0:0:0:
417,168,23188,2,0,P|388:189|356:193,1,50,2|0,0:0|0:0,0:0:0:0:
421,360,23364,5,8,0:0:0:0:
421,360,23541,2,0,L|405:290,1,50,2|0,0:0|0:0,0:0:0:0:
474,268,23717,2,0,L|490:198,1,50,2|0,0:0|0:0,0:0:0:0:
376,193,23893,2,0,L|360:123,1,50,2|0,0:0|0:0,0:0:0:0:
508,116,24070,2,0,L|512:95,4,12.5,0|0|0|0|0,1:0|1:0|1:0|1:0|1:0,0:0:0:0:
305,248,24246,5,2,0:0:0:0:
301,268,24335,1,2,0:0:0:0:
297,288,24423,1,2,0:0:0:0:
293,308,24511,1,2,0:0:0:0:
289,328,24599,1,2,0:0:0:0:
285,348,24688,1,2,0:0:0:0:
281,368,24776,5,2,1:2:0:0:
222,355,24864,1,2,1:2:0:0:
178,307,24952,1,2,1:2:0:0:
162,238,25041,1,2,1:2:0:0:
171,163,25129,2,0,L|186:160,4,12.5,2|0|0|0|2,1:2|1:0|1:0|1:0|1:2,0:0:0:0:
262,102,25305,2,0,L|247:99,4,12.5,2|0|0|0|2,1:2|1:0|1:0|1:0|1:2,0:0:0:0:
162,238,25482,5,6,3:2:0:0:
95,47,25658,1,2,0:0:0:0:
35,278,25835,5,2,3:2:0:0:
70,128,26011,1,2,0:0:0:0:
114,355,26188,6,0,L|284:324,1,150,2|0,3:2|0:0,0:0:0:0:
338,371,26541,5,2,3:2:0:0:
217,236,26717,1,2,0:0:0:0:
114,355,26893,5,2,3:2:0:0:
182,133,27070,1,2,0:0:0:0:
182,133,27158,1,0,0:0:0:0:
182,133,27246,2,0,L|333:104,1,150,2|0,3:2|0:0,0:0:0:0:
413,72,27599,5,2,3:2:0:0:
362,222,27776,1,2,0:0:0:0:
325,5,27952,6,0,L|313:6,4,12.5,0|0|0|0|0,1:0|1:0|1:0|1:0|1:0,0:0:0:0:
215,47,28129,2,0,L|203:46,4,12.5,0|0|0|0|0,1:0|1:0|1:0|1:0|1:0,0:0:0:0:
87,0,28305,5,2,3:2:0:0:
32,170,28482,1,2,0:0:0:0:
182,133,28658,5,2,3:2:0:0:
12,90,28835,1,2,0:0:0:0:
158,284,29011,6,0,L|315:250,1,150,2|0,3:2|0:0,0:0:0:0:
402,221,29364,1,2,3:2:0:0:
410,251,29452,1,2,0:0:0:0:
406,283,29541,1,2,0:0:0:0:
392,310,29629,1,2,0:0:0:0:
368,331,29717,5,2,3:2:0:0:
475,163,29893,1,2,0:0:0:0:
304,252,30070,6,0,L|158:284,1,150,2|0,3:2|0:0,0:0:0:0:
33,240,30423,5,2,3:2:0:0:
19,161,30511,1,2,0:0:0:0:
97,147,30599,1,2,0:0:0:0:
111,226,30688,1,2,0:0:0:0:
46,218,30776,5,2,3:2:0:0:
39,175,30864,1,2,0:0:0:0:
82,167,30952,1,2,0:0:0:0:
89,211,31041,1,2,0:0:0:0:
65,193,31129,5,6,3:2:0:0:
201,97,31305,1,2,0:0:0:0:
97,87,31482,5,2,3:2:0:0:
301,185,31658,1,2,0:0:0:0:
449,15,31835,6,0,L|477:177,1,150,2|0,3:2|0:0,0:0:0:0:
425,221,32188,5,2,3:2:0:0:
301,185,32364,1,2,0:0:0:0:
301,185,32452,1,2,0:0:0:0:
301,185,32541,5,2,3:2:0:0:
443,342,32717,1,2,0:0:0:0:
443,342,32805,1,2,0:0:0:0:
443,342,32893,6,0,L|286:305,1,150,2|0,3:2|0:0,0:0:0:0:
205,342,33246,5,2,3:2:0:0:
301,185,33423,1,2,0:0:0:0:
239,2,33599,2,0,L|233:30,6,25,2|0|0|0|2|0|0,1:2|1:2|1:2|1:2|1:2|1:2|1:2,0:0:0:0:
206,48,33952,5,2,3:2:0:0:
334,33,34129,1,2,0:0:0:0:
243,128,34305,5,2,3:2:0:0:
81,89,34482,1,2,0:0:0:0:
273,213,34658,6,0,L|437:178,1,150,2|0,3:2|0:0,0:0:0:0:
383,46,35011,2,0,L|327:31,3,50,2|0|2|0,3:2|1:2|1:2|1:2,0:0:0:0:
256,192,35364,12,0,35982,0:0:0:0:
383,46,36070,5,10,3:2:0:0:
393,92,36158,1,10,0:2:0:0:
403,138,36246,1,10,0:2:0:0:
411,185,36334,1,10,0:2:0:0:
420,232,36423,2,0,L|416:278,2,33.3333333333333,2|0|0,3:2|3:2|3:2,0:0:0:0:
502,125,36599,1,2,3:2:0:0:
411,346,36776,6,0,L|338:331,1,50,6|0,3:2|0:0,0:0:0:0:
282,256,36952,2,0,L|330:266,1,50,2|0,0:0|0:0,0:0:0:0:
423,357,37129,6,0,L|364:344,1,50,2|0,3:2|0:0,0:0:0:0:
269,245,37305,2,0,L|327:257,1,50,2|0,0:0|0:0,0:0:0:0:
205,353,37482,6,0,L|50:384,1,150,2|0,3:2|0:0,0:0:0:0:
24,351,37835,6,0,P|22:320|37:290,1,50,2|0,3:2|0:0,0:0:0:0:
112,206,38011,2,0,P|113:236|99:267,1,50,2|0,0:0|0:0,0:0:0:0:
12,356,38188,6,0,P|10:322|26:290,1,50,2|0,3:2|0:0,0:0:0:0:
123,200,38364,2,0,P|124:233|108:265,1,50,2|0,0:0|0:0,0:0:0:0:
13,91,38541,6,0,P|63:49|123:100,1,150,2|0,3:2|0:0,0:0:0:0:
147,113,38893,6,0,L|208:129,1,50,2|0,3:2|0:0,0:0:0:0:
310,64,39070,2,0,P|302:44|286:58,1,50,2|0,0:0|0:0,0:0:0:0:
151,125,39246,6,0,L|212:141,1,50,2|0,3:2|0:0,0:0:0:0:
310,64,39423,2,0,P|302:44|286:58,1,50,2|0,0:0|0:0,0:0:0:0:
175,208,39599,6,0,L|193:272,1,50,2|0,3:2|0:0,0:0:0:0:
317,270,39776,2,0,L|303:319,1,50,2|0,0:0|0:0,0:0:0:0:
189,209,39952,6,0,L|207:273,1,50,2|0,3:2|0:0,0:0:0:0:
331,271,40129,2,0,L|317:320,1,50,2|0,0:0|0:0,0:0:0:0:
192,31,40305,6,0,L|34:57,1,150,2|0,3:2|0:0,0:0:0:0:
290,70,40658,5,2,3:2:0:0:
290,70,40746,1,0,1:0:0:0:
290,70,40835,1,2,1:2:0:0:
290,70,40923,1,0,1:0:0:0:
290,70,41011,6,0,L|339:58,1,50,2|0,3:2|0:0,0:0:0:0:
199,137,41188,2,0,L|151:125,1,50,2|0,0:0|1:0,0:0:0:0:
244,276,41364,6,0,P|315:250|324:182,1,150,2|0,3:2|0:0,0:0:0:0:
186,216,41717,5,2,3:2:0:0:
162,259,41805,1,2,0:0:0:0:
164,308,41893,1,2,0:0:0:0:
193,348,41982,1,2,0:0:0:0:
240,362,42070,5,2,3:2:0:0:
267,350,42158,1,2,0:0:0:0:
288,370,42246,1,2,0:0:0:0:
313,354,42335,1,2,0:0:0:0:
347,372,42423,6,0,P|388:317|398:226,1,150.000005722046,0|0,3:2|0:0,0:0:0:0:
369,148,42688,2,0,P|357:112|359:75,1,75.0000028610231,0|0,3:2|0:0,0:0:0:0:
418,8,42864,1,0,3:2:0:0:
439,97,42953,1,8,0:0:0:0:
439,97,43041,1,0,3:2:0:0:
354,70,43129,6,0,P|281:51|176:64,1,150.000005722046,0|2,3:2|0:0,0:0:0:0:
110,126,43393,2,0,P|63:127|33:109,1,75.0000028610231,0|0,3:2|0:0,0:0:0:0:
0,41,43570,1,0,3:2:0:0:
89,48,43658,1,8,0:0:0:0:
89,48,43746,1,0,3:2:0:0:
113,139,43835,6,0,L|147:296,1,150.000005722046,0|0,3:2|0:0,0:0:0:0:
44,378,44099,2,0,L|63:300,1,75.0000028610231,0|0,3:2|0:0,0:0:0:0:
224,266,44276,1,0,3:2:0:0:
216,349,44364,1,8,0:0:0:0:
216,349,44452,1,0,3:2:0:0:
290,322,44541,6,0,P|370:327|403:348,1,75.0000028610231,0|0,3:2|0:0,0:0:0:0:
457,381,44717,1,2,0:0:0:0:
457,381,44805,2,0,P|474:341|470:305,1,75.0000028610231,0|0,3:2|0:0,0:0:0:0:
512,244,44982,2,0,P|434:243|405:271,2,75.0000028610231,0|8|0,3:2|0:0|3:2,0:0:0:0:
363,324,45246,5,8,0:3:0:0:
338,280,45335,1,8,0:3:0:0:
337,232,45423,1,8,0:3:0:0:
360,191,45511,1,8,0:3:0:0:
435,219,45599,5,8,0:3:0:0:
402,255,45688,1,8,0:3:0:0:
357,274,45776,1,8,0:3:0:0:
309,265,45864,1,8,0:3:0:0:
241,207,45952,5,4,0:3:0:0:
233,157,46041,1,4,0:3:0:0:
225,108,46129,1,4,0:3:0:0:
217,58,46217,1,4,0:3:0:0:
146,0,46305,5,12,0:3:0:0:
130,50,46393,1,12,0:3:0:0:
116,103,46482,1,12,0:3:0:0:
103,155,46570,1,12,0:3:0:0:
123,180,46658,6,0,L|134:234,3,37.5000014305115,2|2|2|2,0:0|0:0|0:0|0:0,0:0:0:0:
35,209,47011,2,0,L|24:263,3,37.5000014305115,2|2|2|2,0:0|0:0|0:0|0:0,0:0:0:0:
72,307,47364,6,0,L|90:311,4,18.7500007152558,2|0|0|0|2,1:2|1:0|1:0|1:0|1:2,0:0:0:0:
214,258,47541,2,0,L|246:251,4,18.7500007152558,2|0|0|0|2,1:2|1:0|1:0|1:0|1:2,0:0:0:0:
346,318,47717,6,0,L|357:372,1,37.5000014305115,2|2,0:0|0:0,0:0:0:0:
391,203,47893,2,0,L|402:149,1,37.5000014305115,2|2,0:0|0:0,0:0:0:0:
91,312,48070,6,0,L|393:285,1,300,6|0,0:0|0:0,0:0:0:0:
502,324,48423,6,0,L|489:386,1,50,8|0,0:0|0:0,0:0:0:0:
474,237,48599,2,0,L|479:212,1,25,2|0,0:0|0:0,0:0:0:0:
343,367,48776,6,0,P|249:322|212:244,1,179.999994506836,10|2,0:0|0:0,0:0:0:0:
91,312,49041,2,0,P|82:208|132:137,1,179.999994506836,10|2,0:0|0:0,0:0:0:0:
25,67,49305,2,0,P|94:19|163:25,1,89.9999972534181,10|0,0:0|0:0,0:0:0:0:
23,162,49482,6,0,P|121:196|202:167,1,179.999994506836,10|2,0:0|0:0,0:0:0:0:
240,301,49747,2,0,P|319:233|334:148,1,179.999994506836,10|2,0:0|0:0,0:0:0:0:
459,174,50011,2,0,P|443:91|390:46,1,89.9999972534181,10|2,0:0|0:0,0:0:0:0:
332,37,50188,6,0,L|259:17,1,59.9999981689454,10|0,0:0|0:0,0:0:0:0:
190,175,50364,2,0,L|259:155,1,69.9999978637696,10|0,0:0|0:0,0:0:0:0:
351,31,50541,6,0,L|270:9,1,80,10|0,0:0|0:0,0:0:0:0:
179,191,50717,2,0,L|299:158,1,89.9999972534181,10|0,0:0|0:0,0:0:0:0:
484,93,50893,6,0,B|443:36|443:36|411:335,1,300,14|0,0:0|0:0,0:0:0:0:
454,336,51246,6,0,L|467:384,1,50,8|0,0:0|0:0,0:0:0:0:
374,325,51423,2,0,L|366:360,1,25,2|0,0:0|0:0,0:0:0:0:
251,317,51599,6,0,L|227:217,1,89.9999972534181,10|0,0:0|0:0,0:0:0:0:
256,192,51776,1,2,0:0:0:0:
156,254,51864,6,0,L|132:154,1,89.9999972534181,10|8,0:0|0:0,0:0:0:0:
161,129,52041,1,2,0:0:0:0:
62,199,52129,6,0,L|38:99,1,89.9999972534181,10|0,0:0|0:0,0:0:0:0:
105,47,52305,6,0,P|154:17|216:2,1,89.9999972534181,10|0,0:0|0:0,0:0:0:0:
263,94,52482,1,2,0:0:0:0:
161,129,52570,6,0,P|210:99|272:84,1,89.9999972534181,10|8,0:0|0:0,0:0:0:0:
328,200,52747,1,2,0:0:0:0:
230,230,52835,6,0,P|279:200|341:185,1,89.9999972534181,10|0,0:0|0:0,0:0:0:0:
476,267,53011,6,0,B|527:307|527:307|451:317|451:317|426:292|378:302|378:302|267:321,1,300,10|0,0:0|0:0,0:0:0:0:
72,311,53364,6,0,P|50:281|47:244,1,75.0000028610231,10|0,1:2|1:2,0:0:0:0:
123,214,53541,2,0,P|144:243|147:280,1,75.0000028610231,2|0,1:2|1:2,0:0:0:0:
14,370,53717,6,0,P|124:316|319:322,1,300,14|0,0:0|0:0,0:0:0:0:
390,356,54070,6,0,B|392:356|424:362|456:338,1,50,8|0,0:0|0:0,0:0:0:0:
428,268,54246,2,0,P|411:276|385:276,1,25,2|0,0:0|0:0,0:0:0:0:
264,86,54423,6,0,B|266:-4|266:-4|335:95,1,179.999994506836,10|2,0:0|0:0,0:0:0:0:
282,201,54688,2,0,B|202:244|202:244|254:134,1,179.999994506836,10|2,0:0|0:0,0:0:0:0:
372,126,54952,2,0,L|448:172,1,89.9999972534181,10|0,0:0|0:0,0:0:0:0:
487,23,55129,6,0,L|365:67,1,89.9999972534181,10|0,0:0|0:0,0:0:0:0:
313,143,55305,1,2,0:0:0:0:
313,143,55393,1,10,0:0:0:0:
313,143,55482,1,8,0:0:0:0:
334,211,55570,1,2,0:0:0:0:
394,250,55658,1,10,0:0:0:0:
465,247,55746,1,0,0:0:0:0:
508,163,55835,6,0,L|433:175,1,59.9999981689454,10|0,0:0|0:0,0:0:0:0:
309,297,56011,2,0,L|238:269,1,69.9999978637696,10|0,0:0|0:0,0:0:0:0:
22,108,56188,6,0,L|104:121,1,80,10|0,0:0|0:0,0:0:0:0:
156,194,56364,2,0,L|241:161,1,89.9999972534181,10|0,0:0|0:0,0:0:0:0:
355,59,56541,6,0,B|374:7|319:-56|209:8|232:93|327:87|345:150|295:210,1,300,14|0,0:0|0:0,0:0:0:0:
244,272,56893,6,0,P|256:306|274:327,1,50,8|0,0:0|0:0,0:0:0:0:
338,329,57070,2,0,P|337:342|331:353,1,25,2|0,0:0|0:0,0:0:0:0:
169,367,57246,6,0,P|141:275|57:182,1,179.999994506836,10|2,0:0|0:0,0:0:0:0:
244,272,57511,2,0,P|328:226|454:220,1,179.999994506836,10|2,0:0|0:0,0:0:0:0:
239,161,57776,2,0,P|171:124|70:119,1,89.9999972534181,10|0,0:0|0:0,0:0:0:0:
0,68,57952,5,4,0:3:0:0:
31,72,58041,1,4,0:3:0:0:
62,77,58129,1,4,0:3:0:0:
93,82,58217,1,4,0:3:0:0:
160,42,58305,5,4,0:3:0:0:
188,38,58394,1,4,0:3:0:0:
216,33,58482,1,4,0:3:0:0:
244,29,58570,1,4,0:3:0:0:
302,73,58658,5,12,0:3:0:0:
326,77,58747,1,12,0:3:0:0:
349,81,58835,1,12,0:3:0:0:
372,84,58923,1,12,0:3:0:0:
436,35,59011,6,0,L|486:23,2,44.999998626709,2|0|0,1:2|1:2|1:2,0:0:0:0:
466,82,59188,2,0,L|509:92,2,44.999998626709,2|0|0,1:2|1:2|1:2,0:0:0:0:
479,236,59364,6,0,P|454:273|355:225,1,125,6|0,0:0|0:0,0:0:0:0:
343,207,59541,6,0,L|354:158,1,50,2|0,0:0|0:0,0:0:0:0:
304,270,59717,1,8,0:0:0:0:
304,270,59893,2,0,L|234:299,1,50,2|0,0:0|0:0,0:0:0:0:
72,220,60070,6,0,L|218:252,1,89.9999972534181,10|0,0:0|0:0,0:0:0:0:
151,45,60246,1,2,0:0:0:0:
151,45,60334,2,0,L|50:155,1,89.9999972534181,10|8,0:0|0:0,0:0:0:0:
263,201,60510,1,2,0:0:0:0:
263,201,60599,2,0,L|217:58,1,89.9999972534181,10|0,0:0|0:0,0:0:0:0:
72,220,60776,6,0,L|100:355,1,125,10|0,0:0|0:0,0:0:0:0:
173,384,60952,1,2,0:0:0:0:
173,384,61041,1,10,0:0:0:0:
173,384,61129,1,8,0:0:0:0:
230,336,61217,1,2,0:0:0:0:
303,321,61305,1,10,0:0:0:0:
372,346,61393,1,0,0:0:0:0:
445,330,61482,6,0,P|498:291|506:236,1,125,10|0,0:0|0:0,0:0:0:0:
497,152,61658,2,0,P|502:137|507:157,1,50,10|0,0:0|0:0,0:0:0:0:
472,63,61835,6,0,P|419:102|411:157,1,125,10|0,0:0|0:0,0:0:0:0:
420,241,62011,2,0,P|414:255|410:236,1,50,10|0,0:0|0:0,0:0:0:0:
328,141,62188,6,0,L|170:127,1,125,14|0,0:0|0:0,0:0:0:0:
126,121,62364,6,0,L|121:174,1,50,2|0,0:0|0:0,0:0:0:0:
139,36,62541,1,8,0:0:0:0:
139,36,62717,2,0,L|192:41,1,50,2|0,0:0|0:0,0:0:0:0:
116,257,62893,6,0,B|95:317|95:317|79:248,1,125,10|0,0:0|0:0,0:0:0:0:
23,155,63070,1,2,0:0:0:0:
23,155,63158,1,10,0:0:0:0:
23,155,63246,2,0,P|-2:125|37:147,1,125,8|2,0:0|0:0,0:0:0:0:
52,317,63423,6,0,B|96:362|96:362|134:313,1,125,10|0,0:0|0:0,0:0:0:0:
258,210,63599,6,0,P|287:202|323:214,1,50,10|0,0:0|0:0,0:0:0:0:
373,263,63776,1,2,0:0:0:0:
373,263,63864,1,10,0:0:0:0:
289,284,63952,5,8,0:0:0:0:
281,304,64041,1,2,0:0:0:0:
279,288,64129,1,10,0:0:0:0:
287,308,64218,1,0,0:0:0:0:
373,263,64305,6,0,B|419:207|383:112|294:123|294:123|268:171|309:207,1,300,10|0,0:0|0:0,0:0:0:0:
367,347,64658,2,0,P|424:334|452:294,1,100,10|0,1:2|1:2,0:0:0:0:
479,178,64835,1,2,1:2:0:0:
479,178,65011,6,0,B|415:208|415:208|114:153,1,375,14|0,0:0|0:0,0:0:0:0:
312,112,65364,5,8,0:0:0:0:
312,112,65541,2,0,B|336:116,1,25,2|0,0:0|0:0,0:0:0:0:
172,54,65717,6,0,L|70:72,1,89.9999972534181,10|0,0:0|0:0,0:0:0:0:
115,153,65893,1,2,0:0:0:0:
184,40,65982,6,0,L|82:58,1,89.9999972534181,10|8,0:0|0:0,0:0:0:0:
122,143,66158,1,2,0:0:0:0:
193,26,66246,6,0,L|295:44,1,89.9999972534181,10|0,0:0|0:0,0:0:0:0:
421,99,66423,6,0,P|420:144|395:181,1,89.9999972534181,10|0,0:0|0:0,0:0:0:0:
303,187,66599,1,2,0:0:0:0:
435,100,66688,6,0,P|433:144|408:181,1,89.9999972534181,10|8,0:0|0:0,0:0:0:0:
311,181,66864,1,2,0:0:0:0:
447,99,66952,6,0,P|431:57|397:29,1,89.9999972534181,10|0,0:0|0:0,0:0:0:0:
318,176,67129,6,0,P|310:226|327:319,1,125,10|0,0:0|0:0,0:0:0:0:
376,361,67305,2,0,P|392:333|396:308,1,50,10|0,0:0|0:0,0:0:0:0:
175,231,67482,6,0,P|102:231|35:259,1,125,10|0,0:0|0:0,0:0:0:0:
24,320,67658,2,0,P|52:325|81:322,1,50,10|0,0:0|0:0,0:0:0:0:
318,176,67835,6,0,B|349:171|368:146|368:146|383:174|420:183,1,125,14|0,0:0|0:0,0:0:0:0:
293,98,68011,6,0,P|301:83|302:103,1,50,2|0,0:0|0:0,0:0:0:0:
448,108,68188,1,8,0:0:0:0:
448,108,68364,2,0,P|440:93|439:113,1,50,2|0,0:0|0:0,0:0:0:0:
147,94,68541,6,0,B|64:102|64:102|34:147,1,125,10|0,0:0|0:0,0:0:0:0:
53,248,68717,1,2,0:0:0:0:
119,178,68805,6,0,B|153:253|153:253|129:302,1,125,10|8,0:0|0:0,0:0:0:0:
33,336,68981,1,2,0:0:0:0:
220,341,69070,6,0,P|239:336|215:334,1,75.0000028610231,10|0,0:0|0:0,0:0:0:0:
231,161,69246,5,4,0:3:0:0:
291,171,69334,1,4,0:3:0:0:
352,183,69422,1,4,0:3:0:0:
414,194,69511,1,4,0:3:0:0:
494,231,69599,5,4,0:3:0:0:
446,239,69687,1,4,0:3:0:0:
397,248,69775,1,4,0:3:0:0:
347,257,69864,1,4,0:3:0:0:
283,285,69952,5,12,0:3:0:0:
319,291,70040,1,12,0:3:0:0:
355,298,70128,1,12,0:3:0:0:
392,304,70217,1,12,0:3:0:0:
459,351,70305,6,0,L|462:378,2,18.7500007152558,2|0|0,1:2|1:2|1:2,0:0:0:0:
448,359,70482,2,0,L|451:386,2,18.7500007152558,2|0|0,1:2|1:2|1:2,0:0:0:0:
351,380,70658,1,4,0:0:0:0:
85,184,81952,5,2,1:2:0:0:
215,220,82129,1,2,0:0:0:0:
19,255,82305,1,2,1:2:0:0:
171,86,82482,1,2,0:0:0:0:
177,323,82658,5,0,1:2:0:0:
177,323,82835,2,0,P|207:317|240:285,1,50,2|0,0:0|0:0,0:0:0:0:
297,249,83011,2,0,L|296:195,1,50,2|0,1:2|0:0,0:0:0:0:
367,308,83188,2,0,P|388:320|413:324,1,50,2|0,0:0|0:0,0:0:0:0:
504,314,83364,6,0,P|498:288|464:253,1,50,0|0,1:2|0:0,0:0:0:0:
402,191,83541,2,0,P|406:175|415:195,1,50,2|0,0:0|0:0,0:0:0:0:
297,361,83717,1,2,1:2:0:0:
297,335,83805,1,2,0:0:0:0:
297,361,83893,1,2,0:0:0:0:
297,335,83982,1,2,0:0:0:0:
223,306,84070,6,0,L|203:233,1,50,2|0,1:2|0:0,0:0:0:0:
164,152,84246,2,0,P|170:135|175:155,1,50,2|0,0:0|0:0,0:0:0:0:
112,239,84423,2,0,L|98:287,1,50,2|0,1:2|0:0,0:0:0:0:
69,138,84599,2,0,B|48:122|48:122|24:124,1,50,2|0,0:0|0:0,0:0:0:0:
223,18,84776,5,2,1:2:0:0:
223,18,84952,2,0,L|287:30,1,50,2|0,0:0|0:0,0:0:0:0:
325,133,85129,5,2,1:2:0:0:
325,133,85305,2,0,L|389:121,1,50,2|0,0:0|0:0,0:0:0:0:
460,89,85482,6,0,P|470:60|469:32,1,50,0|0,1:2|0:0,0:0:0:0:
390,142,85658,2,0,P|359:147|336:162,1,50,2|0,0:0|0:0,0:0:0:0:
470,176,85835,2,0,P|490:199|514:212,1,50,2|0,1:2|0:0,0:0:0:0:
382,49,86011,6,0,P|379:39|390:51,1,50,2|0,0:0|0:0,0:0:0:0:
389,221,86188,2,0,L|401:302,1,50,0|0,1:2|0:0,0:0:0:0:
429,338,86364,2,0,P|462:316|472:277,1,50,2|0,0:0|0:0,0:0:0:0:
297,223,86541,1,2,1:2:0:0:
271,223,86629,1,2,0:0:0:0:
297,223,86717,1,2,0:0:0:0:
271,223,86806,1,2,0:0:0:0:
221,163,86893,6,0,L|166:155,1,50,2|0,1:2|0:0,0:0:0:0:
74,196,87070,2,0,L|220:162,1,150,2|0,0:0|0:0,0:0:0:0:
189,80,87423,2,0,L|134:72,1,50,2|0,0:0|0:0,0:0:0:0:
40,122,87599,5,2,1:2:0:0:
95,0,87776,1,2,0:0:0:0:
74,196,87952,1,2,1:2:0:0:
5,51,88129,1,2,0:0:0:0:
189,80,88305,5,0,1:2:0:0:
189,80,88482,2,0,P|221:99|246:129,1,50,2|0,0:0|0:0,0:0:0:0:
275,188,88658,2,0,L|273:241,1,50,2|0,1:2|0:0,0:0:0:0:
325,106,88835,2,0,P|344:89|366:78,1,50,2|0,0:0|0:0,0:0:0:0:
454,64,89011,6,0,P|449:39|436:19,1,50,0|0,1:2|0:0,0:0:0:0:
394,162,89188,2,0,P|398:178|407:158,1,50,2|0,0:0|0:0,0:0:0:0:
279,28,89364,1,2,1:2:0:0:
278,53,89452,1,2,0:0:0:0:
279,28,89540,1,2,0:0:0:0:
278,53,89629,1,2,0:0:0:0:
276,138,89717,6,0,L|274:191,1,50,2|0,1:2|0:0,0:0:0:0:
307,294,89893,2,0,P|304:313|294:296,1,50,2|0,0:0|0:0,0:0:0:0:
144,244,90070,2,0,L|192:258,1,50,2|0,1:2|0:0,0:0:0:0:
26,320,90246,2,0,B|20:334|20:334|55:335,1,50,2|0,0:0|0:0,0:0:0:0:
154,377,90423,5,2,1:2:0:0:
154,377,90599,2,0,L|139:312,1,50,2|0,0:0|0:0,0:0:0:0:
192,258,90776,5,2,1:2:0:0:
192,258,90952,2,0,L|207:193,1,50,2|0,0:0|0:0,0:0:0:0:
131,79,91129,6,0,P|121:50|122:22,1,50,0|0,1:2|0:0,0:0:0:0:
201,132,91305,2,0,P|232:137|255:152,1,50,2|0,0:0|0:0,0:0:0:0:
121,166,91482,2,0,P|101:189|77:202,1,50,2|0,1:2|0:0,0:0:0:0:
11,91,91658,6,0,P|14:81|3:93,1,50,2|0,0:0|0:0,0:0:0:0:
3,243,91835,2,0,L|-3:281,2,25,0|0|0,1:2|1:2|1:2,0:0:0:0:
131,79,92011,2,0,P|155:57|188:49,1,50,2|0,0:0|0:0,0:0:0:0:
270,128,92188,1,2,1:2:0:0:
295,132,92276,1,2,0:0:0:0:
270,128,92364,1,2,0:0:0:0:
295,132,92453,1,2,0:0:0:0:
358,91,92540,6,0,L|413:83,1,50,2|2,1:2|0:0,0:0:0:0:
505,124,92717,2,0,L|359:90,1,150,2|0,0:0|1:2,0:0:0:0:
268,29,93070,2,0,L|323:21,1,50,2|0,1:2|1:2,0:0:0:0:
446,8,93246,5,6,3:2:0:0:
396,186,93423,1,2,0:0:0:0:
358,89,93599,5,2,3:2:0:0:
505,124,93776,1,2,0:0:0:0:
421,283,93952,6,0,P|357:281|297:192,1,150,2|0,3:2|0:0,0:0:0:0:
305,181,94305,5,2,3:2:0:0:
244,336,94482,1,2,0:0:0:0:
226,222,94658,5,2,3:2:0:0:
323,384,94835,1,2,0:0:0:0:
230,134,95011,6,0,P|163:122|57:145,1,150,2|0,3:2|0:0,0:0:0:0:
2,260,95364,5,2,3:2:0:0:
15,98,95541,1,2,0:0:0:0:
77,313,95717,6,0,L|79:336,4,12.5,0|0|0|0|0,1:0|1:0|1:0|1:0|1:0,0:0:0:0:
4,372,95893,2,0,L|2:384,4,12.5,0|0|0|0|0,1:0|1:0|1:0|1:0|1:0,0:0:0:0:
167,297,96070,5,2,3:2:0:0:
2,354,96246,1,2,0:0:0:0:
236,236,96423,5,2,3:2:0:0:
71,179,96599,1,2,0:0:0:0:
275,332,96776,6,0,L|430:288,1,150,2|0,3:2|0:0,0:0:0:0:
473,185,97129,1,2,3:2:0:0:
473,185,97217,1,2,0:0:0:0:
473,185,97305,1,2,0:0:0:0:
492,287,97482,6,0,L|501:349,1,50,2|0,3:2|0:0,0:0:0:0:
383,168,97658,2,0,L|392:106,1,50,2|0,0:0|0:0,0:0:0:0:
275,332,97835,6,0,P|159:322|130:294,1,150,2|0,3:2|0:0,0:0:0:0:
49,197,98188,5,2,3:2:0:0:
62,118,98276,1,2,0:0:0:0:
140,132,98364,1,2,0:0:0:0:
127,211,98453,1,2,0:0:0:0:
68,181,98541,5,2,3:2:0:0:
76,139,98629,1,2,0:0:0:0:
119,145,98717,1,2,0:0:0:0:
111,189,98806,1,2,0:0:0:0:
97,162,98893,5,6,3:2:0:0:
41,290,99070,1,2,0:0:0:0:
234,223,99246,5,2,3:2:0:0:
194,45,99423,1,2,0:0:0:0:
141,246,99599,6,0,P|186:306|271:312,1,150,2|0,3:2|0:0,0:0:0:0:
359,251,99952,1,2,3:2:0:0:
359,251,100041,1,0,0:0:0:0:
359,251,100129,1,2,0:0:0:0:
234,223,100305,5,2,3:2:0:0:
374,384,100482,1,2,0:0:0:0:
345,129,100658,6,0,P|370:69|460:47,1,150,2|0,3:2|0:0,0:0:0:0:
470,15,101011,1,2,3:2:0:0:
437,139,101188,1,2,0:0:0:0:
224,57,101364,2,0,L|187:44,6,25,2|0|0|0|2|0|0,1:2|1:2|1:2|1:2|1:2|1:2|1:2,0:0:0:0:
300,15,101717,5,2,3:2:0:0:
128,86,101893,1,2,0:0:0:0:
342,80,102070,5,2,3:2:0:0:
86,23,102246,1,2,0:0:0:0:
376,9,102423,6,0,P|434:33|479:137,1,150,2|0,3:2|0:0,0:0:0:0:
447,225,102776,2,0,P|446:257|471:279,3,50,2|0|2|0,3:2|1:2|1:2|1:2,0:0:0:0:
256,192,103129,12,0,103746,0:0:0:0:
161,56,103835,5,10,3:2:0:0:
151,102,103923,1,10,0:2:0:0:
141,148,104011,1,10,0:2:0:0:
133,195,104099,1,10,0:2:0:0:
124,242,104188,2,0,L|128:288,2,33.3333333333333,2|0|0,3:2|3:2|3:2,0:0:0:0:
42,135,104364,1,2,3:2:0:0:
224,244,104541,6,0,P|263:249|293:239,1,50,6|0,3:2|0:0,0:0:0:0:
338,152,104717,2,0,P|362:149|387:155,1,50,2|0,0:0|0:0,0:0:0:0:
223,253,104893,6,0,P|262:258|292:248,1,50,2|0,3:2|0:0,0:0:0:0:
337,161,105069,2,0,P|361:158|386:164,1,50,2|0,0:0|0:0,0:0:0:0:
239,333,105246,6,0,B|203:357|203:357|66:346,1,150,2|0,3:2|0:0,0:0:0:0:
46,247,105599,6,0,L|36:198,1,50,2|0,3:2|0:0,0:0:0:0:
9,336,105776,2,0,L|-1:385,1,50,2|0,0:0|0:0,0:0:0:0:
58,247,105952,6,0,L|48:198,1,50,2|0,3:2|0:0,0:0:0:0:
21,336,106129,2,0,L|11:385,1,50,2|0,0:0|0:0,0:0:0:0:
61,126,106305,6,0,P|119:96|204:157,1,150,2|0,3:2|0:0,0:0:0:0:
216,152,106658,6,0,P|247:155|288:146,1,50,2|0,3:2|0:0,0:0:0:0:
357,80,106835,2,0,P|352:62|348:83,1,50,2|0,0:0|0:0,0:0:0:0:
216,161,107011,6,0,P|247:164|288:155,1,50,2|0,3:2|0:0,0:0:0:0:
357,80,107188,2,0,P|352:62|348:83,1,50,2|0,0:0|0:0,0:0:0:0:
314,234,107364,6,0,L|304:299,1,50,2|0,3:2|0:0,0:0:0:0:
425,186,107541,2,0,L|435:251,1,50,2|0,0:0|0:0,0:0:0:0:
324,243,107717,6,0,L|314:308,1,50,2|0,3:2|0:0,0:0:0:0:
435,195,107894,2,0,L|445:260,1,50,2|0,0:0|0:0,0:0:0:0:
293,364,108070,6,0,B|222:354|255:281|178:266,1,150,2|0,3:2|0:0,0:0:0:0:
23,289,108423,5,2,3:2:0:0:
23,289,108511,1,0,1:0:0:0:
23,289,108600,1,2,1:2:0:0:
23,289,108688,1,0,0:0:0:0:
23,289,108776,6,0,L|71:301,1,50,2|0,3:2|0:0,0:0:0:0:
100,180,108953,2,0,L|149:168,1,50,2|0,0:0|0:0,0:0:0:0:
245,58,109129,6,0,P|316:84|325:152,1,150,2|0,3:2|0:0,0:0:0:0:
210,225,109482,5,2,3:2:0:0:
186,268,109570,1,2,0:0:0:0:
188,317,109658,1,2,0:0:0:0:
217,357,109747,1,2,0:0:0:0:
264,371,109835,5,2,3:2:0:0:
291,359,109923,1,2,0:0:0:0:
312,379,110011,1,2,0:0:0:0:
337,363,110100,1,2,0:0:0:0:
387,384,110188,6,0,L|410:209,1,150.000005722046,0|0,3:2|0:0,0:0:0:0:
325,150,110452,2,0,L|311:45,1,75.0000028610231,0|0,3:2|0:0,0:0:0:0:
346,0,110629,1,0,3:2:0:0:
428,32,110717,1,8,0:0:0:0:
428,32,110805,1,0,3:2:0:0:
397,107,110893,6,0,P|456:174|533:154,1,150.000005722046,0|2,3:2|0:0,0:0:0:0:
481,93,111158,2,0,P|445:91|406:103,1,75.0000028610231,0|0,3:2|0:0,0:0:0:0:
325,150,111335,1,0,3:2:0:0:
315,75,111423,1,8,0:0:0:0:
315,75,111511,1,0,3:2:0:0:
337,171,111599,6,0,P|297:257|218:286,1,150.000005722046,0|0,3:2|0:0,0:0:0:0:
141,257,111864,2,0,P|93:278|78:309,1,75.0000028610231,0|0,3:2|0:0,0:0:0:0:
77,379,112041,1,0,3:2:0:0:
153,338,112129,1,8,0:0:0:0:
153,338,112217,1,0,3:2:0:0:
138,248,112305,6,0,P|143:168|164:135,1,75.0000028610231,0|0,3:2|0:0,0:0:0:0:
188,101,112481,1,2,0:0:0:0:
188,101,112569,2,0,P|148:84|112:88,1,75.0000028610231,0|0,3:2|0:0,0:0:0:0:
51,46,112746,2,0,P|50:124|78:153,2,75.0000028610231,0|8|0,3:2|0:0|3:2,0:0:0:0:
227,13,113011,5,8,0:3:0:0:
269,6,113100,1,8,0:3:0:0:
309,18,113188,1,8,0:3:0:0:
336,50,113276,1,8,0:3:0:0:
288,121,113364,5,8,0:3:0:0:
256,157,113452,1,8,0:3:0:0:
211,171,113540,1,8,0:3:0:0:
162,163,113629,1,8,0:3:0:0:
117,86,113717,5,4,0:3:0:0:
109,135,113806,1,4,0:3:0:0:
101,184,113894,1,4,0:3:0:0:
93,234,113982,1,4,0:3:0:0:
51,303,114070,5,12,0:3:0:0:
105,319,114158,1,12,0:3:0:0:
162,334,114247,1,12,0:3:0:0:
217,350,114335,1,12,0:3:0:0:
256,336,114423,6,0,L|292:343,3,37.5000014305115,2|2|2|2,0:0|0:0|0:0|0:0,0:0:0:0:
51,303,114776,2,0,L|-3:314,3,37.5000014305115,2|2|2|2,0:0|0:0|0:0|0:0,0:0:0:0:
187,281,115129,6,0,L|207:283,4,18.7500007152558,2|0|0|0|2,1:2|1:0|1:0|1:0|1:2,0:0:0:0:
324,175,115305,2,0,L|356:168,4,18.7500007152558,2|0|0|0|2,1:2|1:0|1:0|1:0|1:2,0:0:0:0:
158,22,115482,5,2,0:0:0:0:
116,72,115570,1,2,0:0:0:0:
102,133,115658,1,2,0:0:0:0:
108,198,115746,1,2,0:0:0:0:
141,248,115835,6,0,L|201:258,3,50,2|0|2|0,1:2|1:2|1:2|1:2,0:0:0:0:
274,166,116187,2,0,L|334:176,1,50,2|0,1:2|1:2,0:0:0:0:
400,84,116364,2,0,L|460:94,3,50,2|0|2|0,1:2|1:2|1:2|1:2,0:0:0:0:
274,166,116717,2,0,L|214:156,1,50,2|0,1:2|1:2,0:0:0:0:
28,177,116893,6,0,L|18:111,1,50,2|0,1:2|1:2,0:0:0:0:
75,5,117070,2,0,L|67:54,1,50,2|0,1:2|1:2,0:0:0:0:
62,249,117246,6,0,P|143:206|116:100,1,200,14|2,0:0|0:0,0:0:0:0:
0,286,117511,2,0,P|39:323|109:311,1,100,10|0,0:0|0:0,0:0:0:0:
236,277,117688,1,2,0:0:0:0:
180,346,117776,2,0,B|82:324,1,100,10|0,0:0|0:0,0:0:0:0:
290,212,117952,6,0,L|406:187,1,100,10|0,0:0|0:0,0:0:0:0:
505,284,118129,2,0,L|456:272,1,50,10|0,0:0|0:0,0:0:0:0:
322,117,118305,6,0,L|206:92,1,100,10|0,0:0|0:0,0:0:0:0:
106,188,118482,2,0,L|154:176,1,50,10|0,0:0|0:0,0:0:0:0:
397,58,118658,6,0,B|445:9|445:9|107:32,1,375,14|0,0:0|0:0,0:0:0:0:
0,51,119011,5,8,0:0:0:0:
0,51,119188,2,0,L|3:111,1,50,2|0,0:0|0:0,0:0:0:0:
19,211,119364,6,0,P|120:276|185:232,1,179.999994506836,10|2,0:0|0:0,0:0:0:0:
130,108,119629,2,0,P|23:162|28:241,1,179.999994506836,10|2,0:0|0:0,0:0:0:0:
164,256,119893,2,0,P|188:205|152:145,1,89.9999972534181,10|0,0:0|0:0,0:0:0:0:
249,62,120070,6,0,L|464:29,1,179.999994506836,10|2,0:0|0:0,0:0:0:0:
361,202,120335,2,0,L|224:32,1,179.999994506836,10|2,0:0|0:0,0:0:0:0:
426,34,120599,2,0,L|378:155,1,89.9999972534181,10|0,0:0|0:0,0:0:0:0:
306,259,120776,6,0,B|271:345|355:386|355:386|451:341|400:244,1,300,10|0,0:0|0:0,0:0:0:0:
217,153,121129,6,0,P|172:153|134:179,1,75.0000028610231,10|0,1:2|1:2,0:0:0:0:
164,256,121305,2,0,P|201:257|234:242,1,75.0000028610231,2|0,1:2|1:2,0:0:0:0:
248,61,121482,6,0,B|384:42|312:215|379:319|499:291|506:236,1,375,14|0,0:0|0:0,0:0:0:0:
512,178,121835,5,8,0:0:0:0:
512,178,122011,2,0,P|480:175|444:193,1,50,2|0,0:0|0:0,0:0:0:0:
425,106,122188,6,0,P|389:132|376:176,1,89.9999972534181,10|0,0:0|0:0,0:0:0:0:
373,256,122364,1,2,0:0:0:0:
309,125,122452,6,0,P|290:165|300:210,1,89.9999972534181,10|8,0:0|0:0,0:0:0:0:
348,331,122628,1,2,0:0:0:0:
244,275,122717,6,0,P|214:241|210:197,1,89.9999972534181,10|0,0:0|0:0,0:0:0:0:
221,92,122893,6,0,L|121:111,1,89.9999972534181,10|0,0:0|0:0,0:0:0:0:
15,83,123070,1,2,0:0:0:0:
15,83,123158,1,10,0:0:0:0:
15,83,123246,1,8,0:0:0:0:
70,35,123335,1,2,0:0:0:0:
139,16,123423,1,10,0:0:0:0:
211,19,123512,1,0,0:0:0:0:
302,0,123599,6,0,L|394:28,1,59.9999981689454,10|0,0:0|0:0,0:0:0:0:
352,98,123776,2,0,L|417:168,1,69.9999978637696,10|0,0:0|0:0,0:0:0:0:
330,220,123952,2,0,L|351:313,1,80,10|0,0:0|0:0,0:0:0:0:
243,274,124129,2,0,L|217:361,1,89.9999972534181,10|0,0:0|0:0,0:0:0:0:
27,260,124305,6,0,P|46:121|135:245,1,375,14|0,0:0|0:0,0:0:0:0:
25,346,124658,5,8,0:0:0:0:
25,346,124835,2,0,P|48:345|40:337,1,50,2|0,0:0|0:0,0:0:0:0:
136,242,125011,6,0,P|144:158|30:131,1,179.999994506836,10|2,0:0|0:0,0:0:0:0:
198,46,125276,2,0,P|282:38|309:152,1,179.999994506836,10|2,0:0|0:0,0:0:0:0:
244,197,125541,2,0,P|234:141|258:91,1,89.9999972534181,10|0,0:0|0:0,0:0:0:0:
397,3,125717,5,4,0:3:0:0:
404,44,125805,1,4,0:3:0:0:
413,86,125893,1,4,0:3:0:0:
422,128,125982,1,4,0:3:0:0:
459,161,126070,5,4,0:3:0:0:
452,194,126158,1,4,0:3:0:0:
445,227,126246,1,4,0:3:0:0:
438,261,126335,1,4,0:3:0:0:
394,289,126423,5,12,0:3:0:0:
398,314,126511,1,12,0:3:0:0:
403,338,126599,1,12,0:3:0:0:
409,364,126688,1,12,0:3:0:0:
452,384,126776,6,0,P|473:363|487:339,2,44.999998626709,2|0|0,1:2|1:2|1:2,0:0:0:0:
490,381,126952,2,0,P|497:352|497:324,2,44.999998626709,2|0|0,1:2|1:2|1:2,0:0:0:0:
322,277,127129,6,0,P|270:263|177:301,1,125,6|0,0:0|0:0,0:0:0:0:
68,323,127305,2,0,B|100:336|128:322|128:322|144:354|199:364,1,125,2|0,0:0|0:0,0:0:0:0:
93,247,127482,5,8,0:0:0:0:
93,247,127658,2,0,P|60:244|20:265,1,50,2|0,0:0|0:0,0:0:0:0:
14,384,127835,6,0,P|52:365|55:288,1,89.9999972534181,10|0,0:0|0:0,0:0:0:0:
22,171,128011,1,2,0:0:0:0:
22,171,128099,2,0,P|41:133|118:130,1,89.9999972534181,10|8,0:0|0:0,0:0:0:0:
249,122,128276,1,2,0:0:0:0:
249,122,128364,2,0,P|287:103|290:26,1,89.9999972534181,10|0,0:0|0:0,0:0:0:0:
141,13,128541,6,0,L|173:142,1,89.9999972534181,10|0,0:0|0:0,0:0:0:0:
200,235,128717,1,2,0:0:0:0:
200,235,128805,1,10,0:0:0:0:
200,235,128893,1,8,0:0:0:0:
276,244,128982,1,2,0:0:0:0:
346,215,129070,1,10,0:0:0:0:
385,150,129158,1,0,0:0:0:0:
455,121,129246,6,0,P|482:157|486:207,1,59.9999981689454,10|0,0:0|0:0,0:0:0:0:
416,42,129423,2,0,P|370:30|304:65,1,69.9999978637696,10|0,0:0|0:0,0:0:0:0:
485,186,129599,2,0,P|485:232|458:271,1,80,10|0,0:0|0:0,0:0:0:0:
341,46,129776,2,0,P|277:79|263:119,1,89.9999972534181,10|0,0:0|0:0,0:0:0:0:
228,310,129952,6,0,P|171:351|89:340,1,125,14|0,0:0|0:0,0:0:0:0:
207,201,130129,2,0,P|268:204|316:243,1,125,2|0,0:0|0:0,0:0:0:0:
72,284,130305,5,8,0:0:0:0:
72,284,130482,2,0,P|45:315|40:343,1,50,2|0,0:0|0:0,0:0:0:0:
22,208,130658,6,0,L|-9:81,1,89.9999972534181,10|0,0:0|0:0,0:0:0:0:
113,43,130835,1,2,0:0:0:0:
113,43,130923,2,0,L|91:130,1,89.9999972534181,10|8,0:0|0:0,0:0:0:0:
207,201,131099,1,2,0:0:0:0:
207,201,131187,2,0,L|185:113,1,89.9999972534181,10|0,0:0|0:0,0:0:0:0:
191,19,131364,6,0,P|234:29|264:62,1,89.9999972534181,10|0,0:0|0:0,0:0:0:0:
372,49,131541,1,2,0:0:0:0:
372,49,131629,2,0,P|386:92|372:134,1,89.9999972534181,10|8,0:0|0:0,0:0:0:0:
437,222,131805,1,2,0:0:0:0:
437,222,131893,2,0,P|407:254|364:264,1,89.9999972534181,10|0,0:0|0:0,0:0:0:0:
230,319,132070,6,0,B|173:339|129:271|151:197|227:175|295:217|288:276|260:313|260:313|235:340|240:373|254:383,1,375,10|0,0:0|0:0,0:0:0:0:
319,360,132423,6,0,L|345:354,4,18.7500007152558,10|0|0|0|0,1:2|1:2|1:2|1:2|1:2,0:0:0:0:
159,384,132599,2,0,L|140:379,4,18.7500007152558,2|0|0|0|0,1:2|1:2|1:2|1:2|1:2,0:0:0:0:
364,264,132776,6,0,P|348:203|311:154,1,125,14|0,0:0|0:0,0:0:0:0:
208,63,132952,2,0,P|268:77|330:73,1,125,2|0,0:0|0:0,0:0:0:0:
396,7,133129,5,8,0:0:0:0:
396,7,133305,2,0,L|406:81,1,50,2|0,0:0|0:0,0:0:0:0:
502,145,133482,6,0,L|469:322,1,179.999994506836,10|2,0:0|0:0,0:0:0:0:
337,355,133746,1,10,0:0:0:0:
337,355,133835,2,0,P|270:341|245:298,1,89.9999972534181,8|2,0:0|0:0,0:0:0:0:
284,237,134011,2,0,P|350:250|375:293,1,89.9999972534181,10|0,0:0|0:0,0:0:0:0:
469,322,134188,6,0,L|495:180,1,89.9999972534181,10|0,0:0|0:0,0:0:0:0:
323,117,134364,1,2,0:0:0:0:
323,117,134452,1,10,0:0:0:0:
323,117,134541,1,8,0:0:0:0:
397,125,134629,1,2,0:0:0:0:
420,198,134717,1,10,0:0:0:0:
361,252,134806,1,2,0:0:0:0:
284,237,134893,6,0,L|167:218,1,89.9999972534181,10|0,0:0|0:0,0:0:0:0:
96,215,135070,2,0,L|112:266,1,50,10|0,0:0|0:0,0:0:0:0:
169,382,135246,6,0,L|243:290,1,89.9999972534181,10|0,0:0|0:0,0:0:0:0:
284,237,135423,2,0,L|225:227,1,50,10|0,0:0|0:0,0:0:0:0:
47,111,135599,6,0,L|274:147,1,125,14|0,0:0|0:0,0:0:0:0:
299,67,135776,2,0,L|175:47,1,125,2|0,0:0|0:0,0:0:0:0:
25,24,135952,5,8,0:0:0:0:
25,24,136129,2,0,L|86:33,1,50,2|0,0:0|0:0,0:0:0:0:
287,149,136305,6,0,P|341:142|367:111,1,89.9999972534181,10|0,0:0|0:0,0:0:0:0:
170,130,136482,5,2,0:0:0:0:
213,241,136570,2,0,P|246:284|285:291,1,89.9999972534181,10|8,0:0|0:0,0:0:0:0:
170,146,136747,5,2,0:0:0:0:
96,222,136835,2,0,P|75:272|88:310,1,89.9999972534181,10|0,0:0|0:0,0:0:0:0:
239,383,137011,5,4,0:3:0:0:
291,371,137099,1,4,0:3:0:0:
344,359,137188,1,4,0:3:0:0:
396,348,137276,1,4,0:3:0:0:
475,317,137364,5,4,0:3:0:0:
433,307,137452,1,4,0:3:0:0:
391,297,137541,1,4,0:3:0:0:
349,288,137629,1,4,0:3:0:0:
290,260,137717,5,12,0:3:0:0:
321,252,137805,1,12,0:3:0:0:
352,245,137894,1,12,0:3:0:0:
384,238,137982,1,12,0:3:0:0:
431,172,138070,6,0,L|437:143,2,18.7500007152558,2|0|0,1:2|1:2|1:2,0:0:0:0:
490,225,138246,2,0,L|486:243,2,18.7500007152558,2|0|0,1:2|1:2|1:2,0:0:0:0:
358,114,138423,1,4,0:0:0:0:
