osu file format v14

[General]
AudioFilename: audio.mp3
AudioLeadIn: 0
PreviewTime: 13041
Countdown: 0
SampleSet: Soft
StackLeniency: 0.4
Mode: 0
LetterboxInBreaks: 0
WidescreenStoryboard: 1

[Editor]
Bookmarks: 2807,14101,25395,36689,47983,59277,70571,81865,93159,104454,115748,118571,127042,138336,149630
DistanceSpacing: 0.2
BeatDivisor: 4
GridSize: 32
TimelineZoom: 2.3

[Metadata]
Title:Rolling Beat
TitleUnicode:Rolling Beat
Artist:Mitsukiyo
ArtistUnicode:ミツキヨ
Creator:E4pi4mak
Version:Liquidity
Source:ブルーアーカイブ -Blue Archive-
Tags:ブルアカ future bass instrumental electronic video game yostar nat games simple tech ost 61 vgm original sound track soundtrack Kudou Chitose mrrrk midorijeon
BeatmapID:4109198
BeatmapSetID:1953422

[Difficulty]
HPDrainRate:5
CircleSize:4
OverallDifficulty:9
ApproachRate:9.3
SliderMultiplier:1.4
SliderTickRate:1

[Events]
//Background and Video events
0,0,"bg.png",0,0
//Break Periods
//Storyboard Layer 0 (Background)
//Storyboard Layer 1 (Fail)
//Storyboard Layer 2 (Pass)
//Storyboard Layer 3 (Foreground)
//Storyboard Layer 4 (Overlay)
//Storyboard Sound Samples

[TimingPoints]
2806,352.941176470588,4,2,1,52,1,0
2806,-200,4,2,1,52,0,0
3335,-200,4,2,1,5,0,0
3423,-200,4,2,1,52,0,0
3511,-100,4,2,1,52,0,0
4217,-166.666666666667,4,2,2,52,0,0
4746,-166.666666666667,4,2,2,5,0,0
4835,-166.666666666667,4,2,2,52,0,0
4923,-83.3333333333333,4,2,2,52,0,0
5629,-333.333333333333,4,2,2,52,0,0
6158,-333.333333333333,4,2,2,5,0,0
6247,-333.333333333333,4,2,2,52,0,0
6335,-166.666666666667,4,2,2,52,0,0
8453,-200,4,2,2,52,0,0
8982,-200,4,2,2,5,0,0
9070,-200,4,2,2,52,0,0
9158,-100,4,2,2,52,0,0
9864,-166.666666666667,4,2,2,52,0,0
10393,-166.666666666667,4,2,2,5,0,0
10482,-166.666666666667,4,2,2,52,0,0
10570,-83.3333333333333,4,2,2,52,0,0
11276,-250,4,2,2,52,0,0
11805,-250,4,2,2,5,0,0
11894,-250,4,2,2,52,0,0
11982,-125,4,2,2,52,0,0
14100,-100,4,2,1,64,0,0
14364,-100,4,2,1,5,0,0
14453,-100,4,2,3,64,0,0
15688,-100,4,2,2,64,0,0
16217,-100,4,2,3,64,0,0
17187,-100,4,2,3,5,0,0
17276,-100,4,2,3,64,0,0
18511,-100,4,2,2,64,0,0
19041,-100,4,2,3,64,0,0
19394,-100,4,2,2,64,0,0
20011,-100,4,2,2,5,0,0
20100,-100,4,2,2,64,0,0
20453,-100,4,2,3,64,0,0
21335,-100,4,2,2,64,0,0
21864,-100,4,2,3,64,0,0
22834,-100,4,2,3,5,0,0
22923,-100,4,2,3,64,0,0
23982,-100,4,2,2,64,0,0
24158,-100,4,2,4,64,0,0
24688,-100,4,2,5,64,0,0
24776,-100,4,2,4,64,0,0
25041,-100,4,2,6,64,0,0
25217,-100,4,2,2,64,0,0
25394,-83.3333333333333,4,2,7,70,0,0
25570,-83.3333333333333,4,2,2,70,0,0
25747,-83.3333333333333,4,2,3,70,0,0
25923,-83.3333333333333,4,2,2,70,0,0
26100,-83.3333333333333,4,2,3,70,0,0
26276,-83.3333333333333,4,2,2,70,0,0
26453,-83.3333333333333,4,2,8,70,0,0
26541,-83.3333333333333,4,2,2,70,0,0
26805,-83.3333333333333,4,2,3,70,0,0
26982,-83.3333333333333,4,2,2,70,0,0
27158,-83.3333333333333,4,2,8,70,0,0
27335,-83.3333333333333,4,2,2,70,0,0
27511,-83.3333333333333,4,2,8,70,0,0
27908,-83.3333333333333,4,2,2,70,0,0
28217,-83.3333333333333,4,2,3,70,0,0
28482,-83.3333333333333,4,2,2,70,0,0
28570,-83.3333333333333,4,2,3,70,0,0
28747,-83.3333333333333,4,2,2,70,0,0
28923,-83.3333333333333,4,2,3,70,0,0
29100,-83.3333333333333,4,2,2,70,0,0
29276,-83.3333333333333,4,2,8,70,0,0
29364,-83.3333333333333,4,2,2,70,0,0
29629,-83.3333333333333,4,2,3,70,0,0
29894,-83.3333333333333,4,2,2,70,0,0
29982,-83.3333333333333,4,2,3,70,0,0
30158,-83.3333333333333,4,2,2,70,0,0
30335,-83.3333333333333,4,2,8,70,0,0
30688,-83.3333333333333,4,2,9,70,0,0
30732,-83.3333333333333,4,2,2,70,0,0
31041,-83.3333333333333,4,2,7,70,0,0
31217,-83.3333333333333,4,2,2,70,0,0
31394,-83.3333333333333,4,2,3,70,0,0
31570,-83.3333333333333,4,2,2,70,0,0
31747,-83.3333333333333,4,2,3,70,0,0
31923,-83.3333333333333,4,2,2,70,0,0
32100,-83.3333333333333,4,2,8,70,0,0
32188,-83.3333333333333,4,2,2,70,0,0
32453,-83.3333333333333,4,2,3,70,0,0
32629,-83.3333333333333,4,2,2,70,0,0
32805,-83.3333333333333,4,2,8,70,0,0
32982,-83.3333333333333,4,2,2,70,0,0
33158,-83.3333333333333,4,2,8,70,0,0
33555,-83.3333333333333,4,2,2,70,0,0
33864,-83.3333333333333,4,2,3,70,0,0
34129,-83.3333333333333,4,2,2,70,0,0
34217,-83.3333333333333,4,2,3,70,0,0
34394,-83.3333333333333,4,2,2,70,0,0
34570,-83.3333333333333,4,2,3,70,0,0
34747,-83.3333333333333,4,2,2,70,0,0
34923,-83.3333333333333,4,2,8,70,0,0
35011,-83.3333333333333,4,2,2,70,0,0
35276,-83.3333333333333,4,2,8,70,0,0
35320,-83.3333333333333,4,2,2,70,0,0
35453,-83.3333333333333,4,2,4,70,0,0
35629,-83.3333333333333,4,2,5,70,0,0
35717,-83.3333333333333,4,2,4,70,0,0
35982,-83.3333333333333,4,2,5,70,0,0
36070,-83.3333333333333,4,2,4,70,0,0
36335,-83.3333333333333,4,2,10,70,0,0
36423,-83.3333333333333,4,2,2,70,0,0
36688,-71.4285714285714,4,2,7,70,0,0
36864,-71.4285714285714,4,2,3,70,0,0
38100,-50,4,2,3,70,0,0
38805,-71.4285714285714,4,2,3,70,0,0
39158,-71.4285714285714,4,2,8,70,0,0
39203,-71.4285714285714,4,2,2,70,0,0
39511,-71.4285714285714,4,2,3,70,0,0
40570,-71.4285714285714,4,2,8,70,0,0
40658,-71.4285714285714,4,2,2,70,0,0
40923,-71.4285714285714,4,2,3,70,0,0
41982,-71.4285714285714,4,2,9,70,0,0
42026,-71.4285714285714,4,2,2,70,0,0
42335,-62.5,4,2,7,70,0,0
42511,-62.5,4,2,7,5,0,0
42600,-62.5,4,2,3,70,0,0
43217,-62.5,4,2,3,5,0,0
43305,-133.333333333333,4,2,3,70,0,0
43570,-62.5,4,2,8,70,0,0
43747,-62.5,4,2,3,70,0,0
43923,-62.5,4,2,3,5,0,0
44011,-62.5,4,2,3,70,0,0
44629,-62.5,4,2,3,5,0,0
44717,-62.5,4,2,3,70,0,0
44894,-62.5,4,2,2,70,0,0
45158,-62.5,4,2,4,70,0,0
46570,-62.5,4,2,11,70,0,0
46658,-62.5,4,2,4,70,0,0
47276,-62.5,4,2,11,70,0,0
47320,-62.5,4,2,2,70,0,0
47364,-62.5,4,2,11,70,0,0
47497,-62.5,4,2,2,70,0,0
47541,-62.5,4,2,11,70,0,0
47629,-62.5,4,2,12,70,0,0
47717,-62.5,4,2,4,70,0,0
47982,-40,4,2,1,80,0,1
48158,-40,4,2,13,80,0,1
48246,-40,4,2,13,5,0,1
48335,-50,4,2,13,80,0,1
48688,-57.1428571428571,4,2,2,80,0,1
49041,-57.1428571428571,4,2,13,80,0,1
49128,-57.1428571428571,4,2,13,5,0,1
49217,-57.1428571428571,4,2,3,80,0,1
49394,-57.1428571428571,4,2,2,80,0,1
49747,-57.1428571428571,4,2,13,80,0,1
49923,-57.1428571428571,4,2,3,80,0,1
50100,-50,4,2,3,80,0,1
50453,-50,4,2,14,80,0,1
50629,-50,4,2,2,80,0,1
50805,-40,4,2,1,80,0,1
50982,-40,4,2,13,80,0,1
51069,-40,4,2,13,5,0,1
51158,-50,4,2,13,80,0,1
51511,-57.1428571428571,4,2,2,80,0,1
51864,-57.1428571428571,4,2,13,80,0,1
51952,-57.1428571428571,4,2,13,5,0,1
52041,-57.1428571428571,4,2,3,80,0,1
52217,-57.1428571428571,4,2,2,80,0,1
52570,-57.1428571428571,4,2,13,80,0,1
52747,-57.1428571428571,4,2,3,80,0,1
52923,-50,4,2,3,80,0,1
53276,-50,4,2,15,80,0,1
53320,-50,4,2,2,80,0,1
53629,-40,4,2,1,80,0,1
53805,-40,4,2,13,80,0,1
53893,-40,4,2,13,5,0,1
53982,-50,4,2,13,80,0,1
54335,-57.1428571428571,4,2,2,80,0,1
54688,-57.1428571428571,4,2,13,80,0,1
54776,-57.1428571428571,4,2,13,5,0,1
54864,-57.1428571428571,4,2,3,80,0,1
55041,-57.1428571428571,4,2,2,80,0,1
55394,-57.1428571428571,4,2,13,80,0,1
55570,-57.1428571428571,4,2,3,80,0,1
55747,-50,4,2,3,80,0,1
56100,-50,4,2,14,80,0,1
56276,-50,4,2,2,80,0,1
56453,-40,4,2,1,80,0,1
56629,-40,4,2,13,80,0,1
56717,-40,4,2,13,5,0,1
56805,-50,4,2,13,80,0,1
57158,-57.1428571428571,4,2,2,80,0,1
57511,-57.1428571428571,4,2,13,80,0,1
57599,-57.1428571428571,4,2,13,5,0,1
57688,-57.1428571428571,4,2,3,80,0,1
57864,-100,4,2,16,80,0,1
57953,-100,4,2,4,80,0,1
58217,-133.333333333333,4,2,17,80,0,1
58305,-133.333333333333,4,2,4,80,0,1
58570,-133.333333333333,4,2,17,80,0,1
58658,-133.333333333333,4,2,4,80,0,1
58923,-66.6666666666667,4,2,4,80,0,1
58967,-66.6666666666667,4,2,2,80,0,1
59276,-37.037037037037,4,2,5,80,0,1
59453,-37.037037037037,4,2,5,80,0,1
59540,-37.037037037037,4,2,5,5,0,1
59629,-50,4,2,18,80,0,1
59805,-50,4,2,2,80,0,1
59982,-50,4,2,6,80,0,1
60158,-50,4,2,2,80,0,1
60335,-50,4,2,18,80,0,1
60423,-50,4,2,18,5,0,1
60511,-50,4,2,3,80,0,1
60688,-50,4,2,6,80,0,1
60864,-50,4,2,2,80,0,1
61041,-50,4,2,18,80,0,1
61129,-50,4,2,3,80,0,1
61394,-50,4,2,7,80,0,1
61570,-66.6666666666667,4,2,2,80,0,1
61747,-50,4,2,19,80,0,1
61923,-66.6666666666667,4,2,5,80,0,1
62100,-37.037037037037,4,2,5,80,0,1
62276,-37.037037037037,4,2,5,80,0,1
62364,-37.037037037037,4,2,5,5,0,1
62453,-50,4,2,18,80,0,1
62629,-50,4,2,2,80,0,1
62805,-50,4,2,6,80,0,1
62982,-50,4,2,2,80,0,1
63158,-50,4,2,18,80,0,1
63246,-50,4,2,18,5,0,1
63335,-50,4,2,3,80,0,1
63511,-50,4,2,6,80,0,1
63688,-50,4,2,2,80,0,1
63864,-50,4,2,18,80,0,1
63953,-50,4,2,3,80,0,1
64217,-50,4,2,7,80,0,1
64394,-50,4,2,2,80,0,1
64570,-50,4,2,20,80,0,1
64614,-50,4,2,2,80,0,1
64923,-37.037037037037,4,2,5,80,0,1
65100,-37.037037037037,4,2,5,80,0,1
65187,-37.037037037037,4,2,5,5,0,1
65276,-50,4,2,18,80,0,1
65453,-50,4,2,2,80,0,1
65629,-50,4,2,6,80,0,1
65805,-50,4,2,2,80,0,1
65982,-50,4,2,18,80,0,1
66070,-50,4,2,18,5,0,1
66158,-50,4,2,3,80,0,1
66335,-50,4,2,6,80,0,1
66511,-50,4,2,2,80,0,1
66688,-50,4,2,18,80,0,1
66776,-50,4,2,3,80,0,1
67041,-50,4,2,7,80,0,1
67217,-50,4,2,2,80,0,1
67394,-50,4,2,19,80,0,1
67570,-66.6666666666667,4,2,5,80,0,1
67747,-37.037037037037,4,2,5,80,0,1
67923,-37.037037037037,4,2,5,80,0,1
68100,-37.037037037037,4,2,18,80,0,1
68276,-37.037037037037,4,2,2,80,0,1
68453,-50,4,2,6,80,0,1
68629,-50,4,2,2,80,0,1
68805,-50,4,2,18,80,0,1
68893,-50,4,2,18,5,0,1
68982,-50,4,2,3,80,0,1
69158,-66.6666666666667,4,2,21,80,0,1
69247,-66.6666666666667,4,2,4,80,0,1
69511,-66.6666666666667,4,2,22,80,0,1
69600,-66.6666666666667,4,2,4,80,0,1
69864,-66.6666666666667,4,2,22,80,0,1
69953,-66.6666666666667,4,2,4,80,0,1
70217,-66.6666666666667,4,2,8,80,0,1
70261,-66.6666666666667,4,2,2,80,0,1
70570,-133.333333333333,4,2,23,52,0,0
70923,-133.333333333333,4,2,18,52,0,0
71100,-133.333333333333,4,2,2,52,0,0
71276,-133.333333333333,4,2,1,52,0,0
71453,-133.333333333333,4,2,2,52,0,0
71629,-133.333333333333,4,2,18,52,0,0
71805,-133.333333333333,4,2,2,52,0,0
71982,-133.333333333333,4,2,1,52,0,0
72158,-133.333333333333,4,2,2,52,0,0
72335,-133.333333333333,4,2,18,52,0,0
72423,-133.333333333333,4,2,2,52,0,0
72688,-133.333333333333,4,2,18,52,0,0
72864,-133.333333333333,4,2,2,52,0,0
73041,-133.333333333333,4,2,18,52,0,0
73217,-133.333333333333,4,2,2,52,0,0
73394,-133.333333333333,4,2,18,52,0,0
73923,-133.333333333333,4,2,2,52,0,0
74100,-133.333333333333,4,2,1,52,0,0
74276,-133.333333333333,4,2,2,52,0,0
74453,-133.333333333333,4,2,18,52,0,0
74629,-133.333333333333,4,2,2,52,0,0
74805,-133.333333333333,4,2,18,52,0,0
75776,-133.333333333333,4,2,2,52,0,0
75864,-133.333333333333,4,2,1,52,0,0
76041,-133.333333333333,4,2,2,52,0,0
76217,-133.333333333333,4,2,18,52,0,0
76747,-133.333333333333,4,2,2,52,0,0
76923,-133.333333333333,4,2,1,52,0,0
77100,-133.333333333333,4,2,2,52,0,0
77276,-133.333333333333,4,2,18,52,0,0
77453,-133.333333333333,4,2,2,52,0,0
77629,-133.333333333333,4,2,1,52,0,0
77805,-133.333333333333,4,2,2,52,0,0
77982,-133.333333333333,4,2,18,52,0,0
78070,-133.333333333333,4,2,2,52,0,0
78335,-133.333333333333,4,2,18,52,0,0
78511,-133.333333333333,4,2,2,52,0,0
78688,-133.333333333333,4,2,18,52,0,0
78864,-133.333333333333,4,2,2,52,0,0
79041,-133.333333333333,4,2,18,52,0,0
79570,-133.333333333333,4,2,2,52,0,0
79747,-133.333333333333,4,2,1,52,0,0
79923,-133.333333333333,4,2,2,52,0,0
80100,-133.333333333333,4,2,18,52,0,0
80276,-133.333333333333,4,2,2,52,0,0
80453,-133.333333333333,4,2,18,52,0,0
81423,-133.333333333333,4,2,2,52,0,0
81511,-133.333333333333,4,2,1,52,0,0
81688,-133.333333333333,4,2,2,52,0,0
81864,-100,4,2,24,64,0,0
82217,-100,4,2,18,64,0,0
82394,-100,4,2,2,64,0,0
82570,-100,4,2,1,64,0,0
82747,-100,4,2,2,64,0,0
82923,-100,4,2,18,64,0,0
83100,-100,4,2,2,64,0,0
83276,-100,4,2,1,64,0,0
83453,-100,4,2,2,64,0,0
83629,-100,4,2,18,64,0,0
83717,-100,4,2,2,64,0,0
83982,-100,4,2,18,64,0,0
84158,-100,4,2,2,64,0,0
84335,-100,4,2,18,64,0,0
84511,-100,4,2,2,64,0,0
84688,-100,4,2,18,64,0,0
84864,-100,4,2,2,64,0,0
85041,-100,4,2,18,64,0,0
85217,-100,4,2,2,64,0,0
85394,-100,4,2,1,64,0,0
85570,-100,4,2,2,64,0,0
85747,-100,4,2,18,64,0,0
85923,-100,4,2,2,64,0,0
86100,-100,4,2,18,64,0,0
86276,-100,4,2,2,64,0,0
86453,-100,4,2,18,64,0,0
86541,-100,4,2,2,64,0,0
86805,-100,4,2,18,64,0,0
86982,-100,4,2,2,64,0,0
87158,-100,4,2,1,64,0,0
87335,-100,4,2,2,64,0,0
87511,-100,4,2,18,64,0,0
87688,-100,4,2,2,64,0,0
87864,-100,4,2,18,64,0,0
88041,-100,4,2,2,64,0,0
88217,-100,4,2,1,64,0,0
88394,-100,4,2,2,64,0,0
88570,-100,4,2,18,64,0,0
88747,-100,4,2,2,64,0,0
88923,-100,4,2,1,64,0,0
89100,-100,4,2,2,64,0,0
89276,-100,4,2,18,64,0,0
89364,-100,4,2,2,64,0,0
89629,-100,4,2,18,64,0,0
89805,-100,4,2,2,64,0,0
89982,-100,4,2,18,64,0,0
90158,-100,4,2,2,64,0,0
90335,-100,4,2,18,64,0,0
90864,-100,4,2,2,64,0,0
91041,-100,4,2,1,64,0,0
91217,-100,4,2,2,64,0,0
91394,-100,4,2,18,64,0,0
91570,-100,4,2,2,64,0,0
91747,-100,4,2,25,64,0,0
91923,-100,4,2,4,64,0,0
92100,-100,4,2,26,64,0,0
92188,-100,4,2,4,64,0,0
92453,-100,4,2,26,64,0,0
92629,-100,4,2,4,64,0,0
92805,-100,4,2,25,64,0,0
92982,-100,4,2,2,64,0,0
93158,-83.3333333333333,4,2,7,70,0,0
93335,-83.3333333333333,4,2,2,70,0,0
93511,-83.3333333333333,4,2,3,70,0,0
93688,-83.3333333333333,4,2,2,70,0,0
93864,-83.3333333333333,4,2,3,70,0,0
94041,-83.3333333333333,4,2,2,70,0,0
94128,-83.3333333333333,4,2,2,5,0,0
94217,-83.3333333333333,4,2,8,70,0,0
94305,-83.3333333333333,4,2,2,70,0,0
94570,-83.3333333333333,4,2,3,70,0,0
94747,-83.3333333333333,4,2,2,70,0,0
94923,-83.3333333333333,4,2,8,70,0,0
95100,-83.3333333333333,4,2,2,70,0,0
95276,-83.3333333333333,4,2,8,70,0,0
95673,-83.3333333333333,4,2,2,70,0,0
95982,-83.3333333333333,4,2,3,70,0,0
96247,-83.3333333333333,4,2,2,70,0,0
96335,-83.3333333333333,4,2,3,70,0,0
96511,-83.3333333333333,4,2,2,70,0,0
96688,-83.3333333333333,4,2,3,70,0,0
96864,-83.3333333333333,4,2,2,70,0,0
96952,-83.3333333333333,4,2,2,5,0,0
97041,-83.3333333333333,4,2,8,70,0,0
97129,-83.3333333333333,4,2,2,70,0,0
97394,-83.3333333333333,4,2,3,70,0,0
97658,-83.3333333333333,4,2,2,70,0,0
97747,-83.3333333333333,4,2,3,70,0,0
97923,-83.3333333333333,4,2,2,70,0,0
98100,-83.3333333333333,4,2,8,70,0,0
98453,-83.3333333333333,4,2,9,70,0,0
98497,-83.3333333333333,4,2,2,70,0,0
98805,-83.3333333333333,4,2,7,70,0,0
98982,-83.3333333333333,4,2,2,70,0,0
99158,-83.3333333333333,4,2,3,70,0,0
99335,-83.3333333333333,4,2,2,70,0,0
99511,-83.3333333333333,4,2,3,70,0,0
99688,-83.3333333333333,4,2,2,70,0,0
99775,-83.3333333333333,4,2,2,5,0,0
99864,-83.3333333333333,4,2,8,70,0,0
99953,-83.3333333333333,4,2,2,70,0,0
100217,-83.3333333333333,4,2,3,70,0,0
100394,-83.3333333333333,4,2,2,70,0,0
100570,-83.3333333333333,4,2,8,70,0,0
100747,-83.3333333333333,4,2,2,70,0,0
100923,-83.3333333333333,4,2,8,70,0,0
101320,-83.3333333333333,4,2,2,70,0,0
101629,-83.3333333333333,4,2,3,70,0,0
101894,-83.3333333333333,4,2,2,70,0,0
101982,-83.3333333333333,4,2,3,70,0,0
102158,-83.3333333333333,4,2,2,70,0,0
102335,-83.3333333333333,4,2,3,70,0,0
102511,-83.3333333333333,4,2,2,70,0,0
102688,-83.3333333333333,4,2,8,70,0,0
102776,-83.3333333333333,4,2,2,70,0,0
103041,-83.3333333333333,4,2,8,70,0,0
103085,-83.3333333333333,4,2,2,70,0,0
103217,-83.3333333333333,4,2,4,70,0,0
103394,-83.3333333333333,4,2,5,70,0,0
103482,-83.3333333333333,4,2,4,70,0,0
103747,-83.3333333333333,4,2,5,70,0,0
103835,-83.3333333333333,4,2,4,70,0,0
104100,-83.3333333333333,4,2,28,70,0,0
104453,-71.4285714285714,4,2,7,70,0,0
104629,-71.4285714285714,4,2,3,70,0,0
105864,-50,4,2,3,70,0,0
106923,-50,4,2,8,70,0,0
106967,-50,4,2,2,70,0,0
107276,-71.4285714285714,4,2,3,70,0,0
108335,-71.4285714285714,4,2,8,70,0,0
108423,-71.4285714285714,4,2,2,70,0,0
108688,-71.4285714285714,4,2,3,70,0,0
109747,-71.4285714285714,4,2,9,70,0,0
109791,-71.4285714285714,4,2,2,70,0,0
110100,-62.5,4,2,7,70,0,0
110276,-62.5,4,2,7,5,0,0
110364,-62.5,4,2,3,70,0,0
110981,-62.5,4,2,3,5,0,0
111070,-133.333333333333,4,2,3,70,0,0
111335,-133.333333333333,4,2,8,70,0,0
111511,-62.5,4,2,3,70,0,0
111687,-62.5,4,2,3,5,0,0
111776,-62.5,4,2,3,70,0,0
112393,-62.5,4,2,3,5,0,0
112482,-62.5,4,2,3,70,0,0
112658,-62.5,4,2,2,70,0,0
112923,-62.5,4,2,4,70,0,0
113629,-55.5555555555556,4,2,4,70,0,0
114335,-55.5555555555556,4,2,29,70,0,0
114423,-55.5555555555556,4,2,4,70,0,0
115041,-55.5555555555556,4,2,2,70,0,0
115747,-100,4,2,4,60,0,0
116453,-100,4,2,2,70,0,0
116629,-71.4285714285714,4,2,2,75,0,0
116805,-55.5555555555556,4,2,30,80,0,0
116982,-45.4545454545455,4,2,2,80,0,0
117158,-45.4545454545455,4,2,9,80,0,1
117335,-45.4545454545455,4,2,2,80,0,1
117511,-45.4545454545455,4,2,13,80,0,1
117688,-45.4545454545455,4,2,3,80,0,1
118217,-45.4545454545455,4,2,14,80,0,1
118394,-45.4545454545455,4,2,2,80,0,1
118570,-37.037037037037,4,2,1,80,0,1
118747,-37.037037037037,4,2,13,80,0,1
118834,-37.037037037037,4,2,13,5,0,1
118923,-50,4,2,13,80,0,1
119276,-50,4,2,2,80,0,1
119629,-50,4,2,13,80,0,1
119717,-50,4,2,13,5,0,1
119805,-50,4,2,3,80,0,1
119982,-50,4,2,2,80,0,1
120335,-50,4,2,13,80,0,1
120511,-50,4,2,3,80,0,1
121041,-50,4,2,15,80,0,1
121085,-50,4,2,2,80,0,1
121394,-40,4,2,1,80,0,1
121570,-40,4,2,13,80,0,1
121658,-40,4,2,13,5,0,1
121747,-50,4,2,13,80,0,1
122100,-50,4,2,2,80,0,1
122453,-50,4,2,13,80,0,1
122540,-50,4,2,13,5,0,1
122629,-50,4,2,3,80,0,1
122805,-50,4,2,2,80,0,1
123158,-50,4,2,13,80,0,1
123335,-50,4,2,3,80,0,1
123864,-50,4,2,14,80,0,1
124041,-50,4,2,2,80,0,1
124217,-40,4,2,1,80,0,1
124394,-40,4,2,13,80,0,1
124481,-40,4,2,13,5,0,1
124570,-50,4,2,13,80,0,1
124923,-50,4,2,2,80,0,1
125276,-50,4,2,13,80,0,1
125364,-50,4,2,13,5,0,1
125453,-50,4,2,3,80,0,1
125629,-100,4,2,16,80,0,1
125717,-100,4,2,4,80,0,1
125982,-133.333333333333,4,2,17,80,0,1
126070,-133.333333333333,4,2,4,80,0,1
126335,-133.333333333333,4,2,17,80,0,1
126423,-133.333333333333,4,2,4,80,0,1
126688,-66.6666666666667,4,2,4,80,0,1
126732,-66.6666666666667,4,2,2,80,0,1
127041,-33.3333333333333,4,2,5,80,0,1
127217,-33.3333333333333,4,2,5,80,0,1
127305,-33.3333333333333,4,2,5,5,0,1
127394,-50,4,2,18,80,0,1
127570,-50,4,2,2,80,0,1
127747,-41.6666666666667,4,2,6,80,0,1
127923,-41.6666666666667,4,2,2,80,0,1
128100,-41.6666666666667,4,2,18,80,0,1
128276,-41.6666666666667,4,2,3,80,0,1
128453,-41.6666666666667,4,2,6,80,0,1
128629,-41.6666666666667,4,2,2,80,0,1
128805,-41.6666666666667,4,2,18,80,0,1
128894,-41.6666666666667,4,2,3,80,0,1
129158,-50,4,2,7,80,0,1
129335,-50,4,2,2,80,0,1
129511,-50,4,2,19,80,0,1
129688,-50,4,2,5,80,0,1
129864,-33.3333333333333,4,2,5,80,0,1
130041,-33.3333333333333,4,2,5,80,0,1
130128,-33.3333333333333,4,2,5,5,0,1
130217,-50,4,2,18,80,0,1
130394,-50,4,2,2,80,0,1
130570,-41.6666666666667,4,2,6,80,0,1
130747,-41.6666666666667,4,2,2,80,0,1
130923,-41.6666666666667,4,2,18,80,0,1
131100,-41.6666666666667,4,2,3,80,0,1
131276,-41.6666666666667,4,2,6,80,0,1
131453,-41.6666666666667,4,2,2,80,0,1
131629,-41.6666666666667,4,2,18,80,0,1
131717,-41.6666666666667,4,2,3,80,0,1
131982,-50,4,2,7,80,0,1
132158,-50,4,2,2,80,0,1
132335,-50,4,2,20,80,0,1
132379,-50,4,2,2,80,0,1
132688,-33.3333333333333,4,2,5,80,0,1
132864,-33.3333333333333,4,2,5,80,0,1
132952,-33.3333333333333,4,2,5,5,0,1
133041,-50,4,2,18,80,0,1
133217,-50,4,2,2,80,0,1
133394,-50,4,2,6,80,0,1
133570,-50,4,2,2,80,0,1
133747,-50,4,2,18,80,0,1
133834,-50,4,2,18,5,0,1
133923,-50,4,2,3,80,0,1
134100,-50,4,2,6,80,0,1
134276,-50,4,2,2,80,0,1
134453,-50,4,2,18,80,0,1
134541,-50,4,2,3,80,0,1
134805,-50,4,2,7,80,0,1
134982,-50,4,2,2,80,0,1
135158,-50,4,2,19,80,0,1
135335,-50,4,2,5,80,0,1
135511,-33.3333333333333,4,2,5,80,0,1
135688,-33.3333333333333,4,2,5,80,0,1
135864,-33.3333333333333,4,2,18,80,0,1
136041,-33.3333333333333,4,2,2,80,0,1
136217,-41.6666666666667,4,2,6,80,0,1
136394,-41.6666666666667,4,2,2,80,0,1
136570,-41.6666666666667,4,2,18,80,0,1
136747,-41.6666666666667,4,2,3,80,0,1
136923,-100,4,2,21,80,0,1
137011,-100,4,2,4,80,0,1
137276,-133.333333333333,4,2,22,80,0,1
137364,-133.333333333333,4,2,4,80,0,1
137629,-133.333333333333,4,2,22,80,0,1
137717,-133.333333333333,4,2,4,80,0,1
137982,-66.6666666666667,4,2,8,80,0,1
138026,-66.6666666666667,4,2,2,80,0,1
138335,-200,4,2,23,60,0,0
138688,-200,4,2,2,60,0,0
142923,-100,4,2,2,60,0,0
143982,-200,4,2,1,60,0,0
144335,-200,4,2,2,60,0,0
148041,-200,4,2,31,60,0,0
148129,-200,4,2,31,5,0,0
149629,-200,4,2,31,5,0,0

[Colours]
Combo1 : 245,206,101
Combo2 : 111,215,111
Combo3 : 241,116,179
Combo4 : 218,204,194
Combo5 : 125,203,249

[HitObjects]
252,4,2806,6,0,L|272:117,1,105,6|0,1:2|0:0,0:0:0:0:
353,123,3423,1,0,0:0:0:0:
353,123,3511,2,0,L|414:132,6,35
270,107,4217,2,0,L|254:244,1,125.999996154785,2|0,2:2|0:0,0:0:0:0:
176,252,4835,1,0,0:0:0:0:
176,252,4923,2,0,L|126:260,6,41.9999987182618
255,232,5629,2,0,L|266:295,1,62.9999980773926,2|0,2:2|0:0,0:0:0:0:
349,328,6247,1,0,0:0:0:0:
349,328,6335,1,0,0:0:0:0:
343,203,6511,2,0,L|374:210,4,20.9999993591309
265,294,7570,1,0,0:0:0:0:
264,298,7658,1,0,0:0:0:0:
263,302,7747,2,0,L|257:329,6,20.9999993591309,2|0|0|0|0|0|0,2:2|0:0|0:0|0:0|0:0|0:0|0:0,0:0:0:0:
433,245,8453,6,0,P|403:198|354:193,1,105,2|0,2:2|0:0,0:0:0:0:
315,123,9070,1,0,0:0:0:0:
315,123,9158,2,0,P|310:101|311:82,6,35
357,192,9864,2,0,P|311:215|252:160,1,125.999996154785,2|0,2:2|0:0,0:0:0:0:
232,99,10482,1,0,0:0:0:0:
232,99,10570,2,0,P|227:78|228:58,6,41.9999987182618
255,175,11276,2,0,P|226:181|201:229,1,84,2|0,2:2|0:0,0:0:0:0:
267,288,11894,1,0,0:0:0:0:
267,288,11982,1,0,0:0:0:0:
138,284,12158,2,0,P|133:306|134:325,4,28
0,190,13041,6,0,L|41:182,1,28,2|2,2:2|2:2,0:0:0:0:
72,78,13217,2,0,L|80:119,1,28,2|2,2:2|2:2,0:0:0:0:
105,245,13394,5,2,2:2:0:0:
105,245,13570,1,2,2:2:0:0:
208,262,13747,21,2,2:2:0:0:
317,169,13923,5,2,2:2:0:0:
240,2,14100,6,0,P|249:62|250:111,1,105.000004005432,6|0,1:2|0:0,0:0:0:0:
243,114,14453,1,2,2:2:0:0:
169,70,14629,1,2,2:2:0:0:
317,169,14805,1,8,2:2:0:0:
247,226,14981,1,2,2:2:0:0:
260,100,15158,1,2,2:2:0:0:
198,333,15335,2,0,P|204:242|216:192,1,140,2|10,2:2|2:2,0:0:0:0:
283,303,15864,2,0,P|315:303|332:300,3,35,2|2|2|2,1:2|2:2|2:2|2:2,0:0:0:0:
157,252,16217,1,10,2:2:0:0:
215,349,16394,1,2,2:2:0:0:
94,303,16570,2,0,P|47:304|1:312,1,70,2|2,2:2|2:2,0:0:0:0:
296,382,16923,22,0,P|305:322|306:273,1,105.000004005432,2|0,1:2|0:0,0:0:0:0:
299,270,17276,1,2,2:2:0:0:
216,323,17453,1,2,2:2:0:0:
390,227,17629,2,0,P|366:184|347:160,2,70,8|2|2,2:2|2:2|2:2,0:0:0:0:
308,374,18158,1,2,2:2:0:0:
308,374,18688,22,0,L|352:366,1,35,2|2,1:2|2:2,0:0:0:0:
390,227,18864,2,0,L|398:271,1,35,2|2,2:2|2:2,0:0:0:0:
460,348,19041,5,10,2:2:0:0:
427,346,19217,21,2,2:2:0:0:
319,288,19394,6,0,P|306:272|304:268,2,17.5,10|8|8,2:2|2:2|2:2,0:0:0:0:
283,127,19570,21,10,2:2:0:0:
437,46,19747,22,0,P|376:51|328:51,1,105,2|0,1:2|0:0,0:0:0:0:
323,45,20100,1,2,2:2:0:0:
488,111,20276,1,2,2:2:0:0:
338,243,20453,1,8,2:2:0:0:
316,158,20629,1,2,2:2:0:0:
399,143,20805,1,2,2:2:0:0:
166,72,20982,2,0,P|247:79|327:74,1,140,2|10,2:2|2:2,0:0:0:0:
112,139,21511,2,0,P|121:167|123:184,1,35,2|2,1:2|2:2,0:0:0:0:
199,212,21688,2,0,P|208:240|210:257,1,35,2|2,2:2|2:2,0:0:0:0:
144,376,21864,21,10,2:2:0:0:
313,337,22041,1,2,2:2:0:0:
231,264,22217,2,0,P|228:224|215:189,1,70,2|2,2:2|2:2,0:0:0:0:
291,31,22570,6,0,P|286:92|286:140,1,105,2|0,1:2|0:0,0:0:0:0:
292,145,22923,1,2,2:2:0:0:
209,38,23100,1,2,2:2:0:0:
372,123,23276,2,0,P|434:136|468:134,2,70,8|2|2,2:2|2:2|2:2,0:0:0:0:
288,43,23805,1,2,2:2:0:0:
320,235,23982,6,0,L|314:263,2,17.5,8|8|8,2:2|2:2|2:2,0:0:0:0:
374,139,24158,6,0,L|386:194,5,35,8|8|8|8|8|8,2:2|2:2|1:2|2:2|2:2|2:2,0:0:0:0:
484,116,24688,21,10,2:2:0:0:
512,71,24776,5,8,2:2:0:0:
486,23,24864,21,8,2:2:0:0:
449,24,24953,5,8,2:2:0:0:
435,36,25041,22,0,L|440:56,2,17.5,10|8|8,2:2|2:2|2:2,0:0:0:0:
363,81,25217,6,0,L|357:98,2,17.5,10|8|8,2:2|2:2|2:2,0:0:0:0:
436,186,25394,5,14,1:2:0:0:
267,204,25570,1,2,2:2:0:0:
436,186,25747,1,10,2:2:0:0:
267,204,25923,1,10,2:2:0:0:
445,268,26100,2,0,P|382:271|342:281,1,83.9999974365235,10|8,2:2|2:2,0:0:0:0:
121,384,26453,6,0,P|115:357|106:326,1,41.9999987182618,10|8,2:2|2:2,0:0:0:0:
144,163,26629,2,0,P|151:198|155:219,1,41.9999987182618,10|8,2:2|2:2,0:0:0:0:
123,384,26805,1,10,2:2:0:0:
144,163,26982,1,10,2:2:0:0:
204,381,27158,2,0,P|189:332|181:277,1,83.9999974365235,10|8,2:2|2:2,0:0:0:0:
342,66,27511,5,10,2:2:0:0:
259,81,27688,1,2,2:2:0:0:
288,238,27864,1,10,2:2:0:0:
371,223,28041,1,10,2:2:0:0:
174,9,28217,5,10,2:2:0:0:
215,180,28394,1,2,2:2:0:0:
174,9,28570,1,10,2:2:0:0:
215,180,28747,1,10,2:2:0:0:
93,22,28923,2,0,P|105:75|107:120,1,83.9999974365235,10|8,2:2|2:2,0:0:0:0:
0,246,29276,5,10,2:2:0:0:
0,246,29364,1,8,2:2:0:0:
0,246,29453,2,0,P|28:234|56:233,1,41.9999987182618,10|8,2:2|2:2,0:0:0:0:
236,265,29629,2,0,P|207:274|172:275,1,41.9999987182618,10|0,2:2|0:0,0:0:0:0:
0,246,29805,1,2,2:2:0:0:
226,181,29982,2,0,P|191:194|116:203,1,83.9999974365235,10|8,2:2|2:2,0:0:0:0:
302,356,30335,6,0,P|308:321|315:299,3,41.9999987182618,10|2|2|2,2:2|2:2|2:2|2:2,0:0:0:0:
317,151,30688,2,0,P|311:186|304:208,3,41.9999987182618,10|10|10|10,2:2|2:2|2:2|2:2,0:0:0:0:
391,289,31041,5,14,2:2:0:0:
151,216,31217,1,2,2:2:0:0:
391,289,31394,1,10,2:2:0:0:
151,216,31570,1,10,2:2:0:0:
366,362,31747,2,0,P|306:344|264:326,1,83.9999974365235,10|8,2:2|2:2,0:0:0:0:
67,300,32100,6,0,P|77:268|90:243,1,41.9999987182618,10|8,2:2|2:2,0:0:0:0:
227,122,32277,2,0,P|220:142|212:161,1,41.9999987182618,10|8,2:2|2:2,0:0:0:0:
67,300,32453,1,10,2:2:0:0:
227,122,32629,1,10,2:2:0:0:
130,368,32805,2,0,P|147:321|169:271,1,83.9999974365235,10|8,2:2|2:2,0:0:0:0:
36,80,33158,5,10,2:2:0:0:
56,163,33335,1,2,2:2:0:0:
227,122,33511,1,10,2:2:0:0:
207,39,33688,1,10,2:2:0:0:
0,263,33864,5,10,2:2:0:0:
165,220,34041,1,2,2:2:0:0:
0,263,34217,1,10,2:2:0:0:
165,220,34394,1,10,2:2:0:0:
24,338,34570,2,0,P|66:322|105:315,1,83.9999974365235,10|8,2:2|2:2,0:0:0:0:
331,379,34923,5,10,2:2:0:0:
331,379,35011,1,8,2:2:0:0:
331,379,35100,2,0,P|317:337|308:319,1,41.9999987182618,10|8,2:2|2:2,0:0:0:0:
248,231,35276,6,0,L|254:202,2,20.9999993591309,10|8|8,2:2|2:2|2:2,0:0:0:0:
316,155,35453,6,0,L|302:99,5,41.9999987182618,10|8|10|8|8|8,2:2|2:2|2:2|2:2|2:2|2:2,0:0:0:0:
175,187,35982,5,10,2:2:0:0:
111,142,36070,5,10,2:2:0:0:
124,80,36158,5,10,2:2:0:0:
173,68,36247,5,10,2:2:0:0:
199,88,36335,6,0,L|191:126,4,27.9999991455078,10|0|0|2|0,1:2|1:1|1:1|1:2|1:1,0:0:0:0:
248,231,36688,6,0,L|357:208,1,97.9999970092774,14|2,1:2|2:2,0:0:0:0:
425,194,37041,1,10,1:2:0:0:
175,258,37217,1,2,2:2:0:0:
175,258,37305,1,0,0:0:0:0:
175,258,37394,1,10,1:2:0:0:
343,210,37570,1,0,0:0:0:0:
212,378,37747,5,10,2:2:0:0:
132,152,37923,1,2,1:2:0:0:
212,378,38100,6,0,P|206:346|194:316,4,35,10|0|0|0|2,1:2|0:0|0:0|0:0|2:2,0:0:0:0:
132,152,38453,6,0,P|138:184|150:214,4,35,10|0|0|0|0,1:2|0:0|0:0|0:0|0:0,0:0:0:0:
260,270,38805,5,10,1:2:0:0:
377,216,38982,1,2,2:2:0:0:
258,351,39158,1,10,2:2:0:0:
152,276,39335,1,10,1:2:0:0:
197,94,39511,6,0,L|306:71,1,97.9999970092774,10|2,1:2|2:2,0:0:0:0:
494,35,39864,2,0,P|453:45|428:48,2,48.9999985046387,10|0|2,1:2|0:0|2:2,0:0:0:0:
149,105,40217,2,0,P|190:95|215:92,2,48.9999985046387,10|0|0,1:2|0:0|0:0,0:0:0:0:
360,37,40570,5,10,2:2:0:0:
360,37,40658,1,8,2:2:0:0:
360,37,40747,2,0,P|375:76|377:94,1,48.9999985046387,10|8,1:2|2:2,0:0:0:0:
512,144,40923,6,0,L|504:178,4,24.4999992523194,10|0|0|0|2,1:2|0:0|0:0|0:0|2:2,0:0:0:0:
287,112,41276,6,0,L|295:78,4,24.4999992523194,10|0|0|0|0,1:2|0:0|0:0|0:0|0:0,0:0:0:0:
442,229,41629,5,10,1:2:0:0:
364,246,41717,5,2,2:2:0:0:
312,261,41805,5,2,2:2:0:0:
280,271,41894,5,2,1:2:0:0:
256,283,41982,6,0,L|244:319,2,24.4999992523194,10|8|10,2:2|2:2|2:2,0:0:0:0:
321,352,42158,6,0,L|332:388,2,24.4999992523194,10|8|8,1:2|2:2|2:2,0:0:0:0:
171,176,42335,6,0,B|179:96|201:150|218:52,1,112,14|0,1:2|0:0,0:0:0:0:
171,176,42600,1,10,1:2:0:0:
23,48,42776,1,2,2:2:0:0:
23,48,42864,1,8,1:2:0:0:
23,48,42953,1,0,0:0:0:0:
23,48,43041,2,0,B|87:26|75:73|164:47,1,112,10|0,1:2|0:0,0:0:0:0:
49,125,43305,2,0,P|44:154|28:189,1,52.5000020027161,10|2,1:2|2:2,0:0:0:0:
152,254,43570,5,10,1:2:0:0:
152,254,43658,1,10,1:2:0:0:
87,305,43747,2,0,B|95:227|126:278|128:159,1,112,10|0,1:2|0:0,0:0:0:0:
87,305,44011,1,10,1:2:0:0:
277,348,44188,1,2,2:2:0:0:
277,348,44276,1,8,1:2:0:0:
277,348,44364,1,0,0:0:0:0:
277,348,44453,2,0,B|207:316|227:356|144:329,1,112,10|0,1:2|0:0,0:0:0:0:
274,255,44717,1,10,1:2:0:0:
274,255,44805,2,0,P|279:226|295:191,3,56,0|10|8|8,0:0|1:2|1:2|1:2,0:0:0:0:
188,31,45158,5,10,1:2:0:0:
108,9,45247,5,10,1:2:0:0:
65,70,45335,5,10,1:2:0:0:
77,113,45423,5,10,1:2:0:0:
99,123,45511,6,0,L|171:109,1,56,10|10,1:2|1:2,0:0:0:0:
181,198,45688,2,0,L|126:208,1,56,10|10,1:2|1:2,0:0:0:0:
323,353,45864,5,8,1:2:0:0:
408,340,45953,5,10,1:2:0:0:
433,259,46041,5,10,1:2:0:0:
419,229,46129,5,8,1:2:0:0:
403,224,46217,6,0,L|348:234,1,56,8|8,1:2|1:2,0:0:0:0:
329,148,46394,2,0,L|383:137,1,56,10|10,1:2|1:2,0:0:0:0:
255,0,46570,5,2,1:2:0:0:
255,8,46658,1,8,2:2:0:0:
255,18,46746,1,8,2:2:0:0:
255,27,46834,1,8,2:2:0:0:
227,52,46923,6,0,L|291:41,3,56,8|8|8|8,2:2|2:2|2:2|2:2,0:0:0:0:
273,123,47276,6,0,L|284:172,2,28,8|8|8,1:2|2:2|2:2,0:0:0:0:
236,252,47453,2,0,L|225:203,2,28,8|8|8,2:2|2:2|2:2,0:0:0:0:
258,384,47629,5,10,1:2:0:0:
258,373,47717,1,8,2:2:0:0:
258,359,47805,1,8,2:2:0:0:
258,347,47893,1,8,2:2:0:0:
293,336,47982,6,0,L|11:293,1,262.5,6|0,1:1|0:0,0:0:0:0:
142,284,48335,2,0,L|131:202,1,70,10|0,2:2|0:0,0:0:0:0:
199,148,48511,1,2,2:2:0:0:
324,247,48688,6,0,L|503:227,1,122.500001168251,2|2,1:1|2:2,0:0:0:0:
338,229,48952,2,0,L|517:209,1,122.500001168251,2|0,1:1|0:0,0:0:0:0:
353,214,49217,1,2,1:1:0:0:
263,44,49393,2,0,L|248:183,1,122.500001168251,2|2,1:1|2:2,0:0:0:0:
281,30,49658,2,0,L|266:169,1,122.500001168251,2|2,1:1|2:2,0:0:0:0:
299,20,49923,1,2,1:1:0:0:
509,310,50100,5,2,1:1:0:0:
435,360,50276,2,0,P|401:355|357:313,1,70,2|0,2:2|0:0,0:0:0:0:
286,158,50453,1,10,1:2:0:0:
244,234,50629,2,0,P|219:251|170:246,1,70,2|0,2:2|0:0,0:0:0:0:
97,346,50805,6,0,L|67:77,1,262.5,2|0,1:1|0:0,0:0:0:0:
110,260,51158,2,0,L|192:249,1,70,10|0,2:2|0:0,0:0:0:0:
179,250,51511,6,0,L|160:82,1,122.500001168251,2|2,1:1|2:2,0:0:0:0:
197,261,51776,2,0,L|178:93,1,122.500001168251,2|0,1:1|0:0,0:0:0:0:
214,274,52041,1,2,1:1:0:0:
411,124,52217,2,0,L|243:143,1,122.500001168251,2|2,1:1|2:2,0:0:0:0:
422,106,52482,2,0,L|254:125,1,122.500001168251,2|2,1:1|2:2,0:0:0:0:
435,89,52747,1,2,1:1:0:0:
125,0,52923,5,2,1:1:0:0:
125,0,53011,1,0,0:0:0:0:
125,0,53100,2,0,P|147:19|155:68,1,70,2|0,2:2|0:0,0:0:0:0:
13,216,53276,2,0,P|48:194|100:197,1,70,10|8,1:2|2:2,0:0:0:0:
155,224,53453,1,10,2:2:0:0:
255,377,53629,6,0,L|221:75,1,262.5,2|0,1:1|0:0,0:0:0:0:
215,307,53982,2,0,L|130:317,1,70,10|0,2:2|0:0,0:0:0:0:
145,315,54335,6,0,L|-9:330,1,122.500001168251,2|2,1:1|2:2,0:0:0:0:
156,301,54600,2,0,L|2:316,1,122.500001168251,2|0,1:1|0:0,0:0:0:0:
169,288,54864,1,2,1:1:0:0:
81,97,55041,2,0,L|96:251,1,122.500001168251,2|2,1:1|2:2,0:0:0:0:
96,83,55306,2,0,L|111:237,1,122.500001168251,2|2,1:1|2:2,0:0:0:0:
111,72,55570,1,2,1:1:0:0:
293,321,55747,6,0,P|264:344|209:335,1,70,2|0,1:1|0:0,0:0:0:0:
169,288,55923,1,2,2:2:0:0:
315,235,56100,2,0,P|278:230|245:185,1,70,10|0,1:2|0:0,0:0:0:0:
250,123,56276,1,2,2:2:0:0:
472,0,56453,6,0,L|434:275,1,262.5,2|0,1:1|0:0,0:0:0:0:
432,74,56805,2,0,L|338:59,1,70,10|0,2:2|0:0,0:0:0:0:
362,62,57158,6,0,L|339:230,1,122.500001168251,2|2,1:1|2:2,0:0:0:0:
349,48,57423,2,0,L|326:216,1,122.500001168251,2|0,1:1|0:0,0:0:0:0:
332,37,57688,1,2,1:1:0:0:
75,233,57864,5,10,1:2:0:0:
148,219,57953,5,8,2:2:0:0:
194,212,58041,6,0,L|255:203,1,35,10|8,2:2|2:2,0:0:0:0:
332,37,58217,5,10,1:2:0:0:
284,25,58305,5,10,2:2:0:0:
257,20,58394,6,0,L|220:13,1,26.2500010013581,10|10,2:2|2:2,0:0:0:0:
81,119,58570,5,10,1:2:0:0:
84,128,58658,1,8,2:2:0:0:
87,137,58747,1,10,2:2:0:0:
90,146,58835,1,8,2:2:0:0:
94,156,58923,6,0,L|106:192,2,26.2500010013581,10|8|8,1:1|2:2|2:2,0:0:0:0:
51,47,59100,6,0,L|39:11,2,26.2500010013581,10|8|8,2:2|2:2|2:2,0:0:0:0:
314,197,59276,6,0,B|202:215|202:215|172:269|172:269|24:298,1,283.500001081467,6|0,1:1|0:0,0:0:0:0:
234,185,59629,2,0,L|218:110,1,70,10|0,2:2|0:0,0:0:0:0:
202,37,59805,1,2,2:2:0:0:
387,149,59982,6,0,B|405:183|405:183|386:302,1,140,2|2,1:1|2:2,0:0:0:0:
477,138,60247,2,0,B|495:172|495:172|476:291,1,140,2|0,1:1|0:0,0:0:0:0:
421,71,60511,1,2,1:1:0:0:
274,257,60688,1,2,1:1:0:0:
202,37,60864,1,2,2:2:0:0:
202,37,60953,1,2,1:1:0:0:
202,37,61041,2,0,B|236:55|236:55|355:36,1,140,10|2,2:2|1:1,0:0:0:0:
62,130,61394,6,0,P|82:135|111:188,1,70,2|0,1:1|0:0,0:0:0:0:
69,262,61570,1,2,2:2:0:0:
194,133,61747,2,0,P|204:150|187:208,1,70,10|0,1:2|0:0,0:0:0:0:
69,262,61923,2,0,L|146:250,1,52.5000020027161,2|0,2:2|0:0,0:0:0:0:
404,101,62100,6,0,B|387:207|387:207|427:254|427:254|406:366,1,283.500001081467,2|0,1:1|0:0,0:0:0:0:
356,161,62453,2,0,L|281:149,1,70,10|0,2:2|0:0,0:0:0:0:
272,66,62629,2,0,L|261:14,2,35,2|0|0,2:2|0:0|0:0,0:0:0:0:
286,149,62805,6,0,L|469:121,1,140,2|2,1:1|2:2,0:0:0:0:
272,66,63070,2,0,L|454:37,1,140,2|0,1:1|0:0,0:0:0:0:
209,117,63335,1,2,1:1:0:0:
342,283,63511,1,2,1:1:0:0:
152,346,63688,1,2,2:2:0:0:
152,346,63776,1,2,1:1:0:0:
152,346,63864,2,0,L|-30:317,1,140,10|2,2:2|1:1,0:0:0:0:
122,60,64217,5,2,1:1:0:0:
122,60,64305,1,0,0:0:0:0:
122,60,64394,2,0,P|118:113|102:135,1,70,2|0,2:2|0:0,0:0:0:0:
207,283,64570,2,0,P|185:242|150:227,1,70,10|8,1:2|2:2,0:0:0:0:
82,238,64747,1,10,2:2:0:0:
8,36,64923,6,0,B|217:7|217:7|225:46|272:77,1,283.500001081467,6|0,1:1|0:0,0:0:0:0:
92,49,65276,2,0,P|88:102|72:124,1,70,10|0,2:2|0:0,0:0:0:0:
4,151,65453,1,2,2:2:0:0:
79,115,65629,6,0,P|135:164|111:251,1,140,2|2,1:1|2:2,0:0:0:0:
240,157,65894,2,0,P|180:166|129:233,1,140,2|0,1:1|0:0,0:0:0:0:
285,243,66158,1,2,1:1:0:0:
92,362,66335,1,2,1:1:0:0:
79,115,66511,1,2,2:2:0:0:
79,115,66600,1,2,1:1:0:0:
79,115,66688,2,0,P|186:95|208:50,1,140,10|2,2:2|1:1,0:0:0:0:
378,251,67041,6,0,P|372:212|344:178,1,70,2|0,1:1|0:0,0:0:0:0:
274,162,67217,1,2,2:2:0:0:
482,87,67394,2,0,P|448:139|418:143,1,70,10|0,1:2|0:0,0:0:0:0:
274,162,67570,2,0,L|193:154,1,52.5000020027161,2|0,2:2|0:0,0:0:0:0:
146,368,67747,6,0,L|120:167,1,189.000000720978,2|2,1:1|2:2,0:0:0:0:
98,272,68011,1,0,0:0:0:0:
98,272,68100,2,0,L|124:171,1,94.5000003604889,10|0,2:2|0:0,0:0:0:0:
149,100,68276,1,2,2:2:0:0:
319,311,68453,6,0,B|284:312|266:291|266:291|150:306,1,140,2|2,1:1|2:2,0:0:0:0:
328,228,68717,2,0,B|327:193|348:175|348:175|333:59,1,140,2|0,1:1|0:0,0:0:0:0:
414,238,68982,1,2,1:1:0:0:
335,384,69158,5,10,1:2:0:0:
319,311,69247,5,8,2:2:0:0:
311,275,69335,6,0,L|299:199,1,52.5000020027161,10|8,2:2|2:2,0:0:0:0:
337,94,69511,5,10,1:2:0:0:
304,99,69600,5,10,2:2:0:0:
285,102,69688,6,0,L|231:110,1,52.5000020027161,10|10,2:2|2:2,0:0:0:0:
103,45,69864,5,10,1:2:0:0:
105,55,69953,1,8,2:2:0:0:
107,65,70041,1,10,2:2:0:0:
109,75,70129,1,8,2:2:0:0:
111,85,70217,6,0,L|120:130,2,26.2500010013581,10|8|8,1:1|2:2|2:2,0:0:0:0:
25,65,70394,6,0,L|0:70,2,26.2500010013581,10|8|8,2:2|2:2|2:2,0:0:0:0:
184,39,70570,5,2,2:2:0:0:
184,39,70923,1,2,2:2:0:0:
208,113,71100,1,2,2:2:0:0:
350,83,71276,1,2,2:3:0:0:
377,164,71453,1,2,2:2:0:0:
377,164,71541,2,0,L|352:243,1,78.7500030040742,0|2,0:0|2:2,0:0:0:0:
443,371,71982,5,2,2:3:0:0:
367,343,72158,2,0,L|361:296,5,26.2500010013581,2|0|2|2|2|2,2:2|0:0|2:2|2:2|2:2|2:2,0:0:0:0:
364,317,72688,2,0,L|292:329,1,52.5000020027161,2|2,2:2|2:2,0:0:0:0:
307,328,72953,1,0,0:0:0:0:
302,332,73041,2,0,L|231:321,1,52.5000020027161,2|2,2:2|2:2,0:0:0:0:
0,249,73394,5,2,2:2:0:0:
0,249,73747,1,2,2:2:0:0:
18,171,73923,1,2,2:2:0:0:
143,200,74100,1,2,2:3:0:0:
164,125,74276,1,2,2:2:0:0:
164,125,74364,2,0,L|132:49,1,78.7500030040742,0|2,0:0|2:2,0:0:0:0:
256,0,74805,5,2,2:2:0:0:
256,0,75158,1,2,2:2:0:0:
256,0,75511,6,0,L|342:13,2,78.7500030040742,2|2|2,2:2|2:2|2:2,0:0:0:0:
257,96,76217,5,2,2:2:0:0:
272,102,76570,1,2,2:2:0:0:
195,144,76747,1,2,2:2:0:0:
301,226,76923,1,2,2:3:0:0:
208,345,77100,1,2,2:2:0:0:
208,345,77188,2,0,L|218:258,1,78.7500030040742,0|2,0:0|2:2,0:0:0:0:
388,192,77629,5,2,2:3:0:0:
353,288,77805,2,0,L|344:251,5,26.2500010013581,2|0|2|2|2|2,2:2|0:0|2:2|2:2|2:2|2:2,0:0:0:0:
308,190,78335,2,0,L|239:176,1,52.5000020027161,2|2,2:2|2:2,0:0:0:0:
251,181,78600,1,0,0:0:0:0:
246,183,78688,2,0,L|182:191,1,52.5000020027161,2|2,2:2|2:2,0:0:0:0:
0,118,79041,5,2,2:2:0:0:
0,118,79394,1,2,2:2:0:0:
81,105,79570,1,2,2:2:0:0:
115,224,79747,1,2,2:3:0:0:
168,158,79923,1,2,2:2:0:0:
168,158,80011,1,0,0:0:0:0:
168,158,80100,2,0,L|229:172,1,52.5000020027161,2|2,2:2|2:2,0:0:0:0:
402,88,80453,5,2,2:2:0:0:
402,88,80805,1,2,2:2:0:0:
402,88,81158,6,0,L|426:175,2,78.7500030040742,2|2|2,2:2|2:2|2:2,0:0:0:0:
512,237,81864,6,0,L|465:226,1,35,2|0,2:2|0:0,0:0:0:0:
420,294,82041,1,0,0:0:0:0:
320,206,82217,2,0,L|273:217,1,35,2|0,2:2|0:0,0:0:0:0:
216,165,82394,1,2,2:2:0:0:
442,77,82570,2,0,L|435:111,1,35,2|0,2:3|0:0,0:0:0:0:
344,128,82747,1,2,2:2:0:0:
344,128,82835,1,0,0:0:0:0:
344,128,82923,2,0,L|362:31,1,70,2|2,2:2|2:2,0:0:0:0:
216,165,83276,2,0,L|187:169,4,17.5,2|0|0|0|2,2:3|0:0|0:0|0:0|2:2,0:0:0:0:
183,90,83629,2,0,L|122:97,3,35,2|2|2|2,2:2|2:2|2:2|2:2,0:0:0:0:
148,93,83982,2,0,L|53:64,1,70,2|2,2:2|2:2,0:0:0:0:
76,75,84247,1,0,0:0:0:0:
71,78,84335,2,0,L|90:171,1,70,2|2,2:2|2:2,0:0:0:0:
198,340,84688,6,0,L|214:271,2,70,2|2|2,2:2|2:2|2:2,0:0:0:0:
292,288,85217,1,2,2:2:0:0:
125,250,85394,1,2,2:3:0:0:
213,271,85570,1,2,2:2:0:0:
213,271,85658,1,0,0:0:0:0:
213,271,85747,2,0,L|199:173,1,70,2|2,2:2|2:2,0:0:0:0:
292,288,86100,2,0,L|321:292,4,17.5,2|0|0|0|2,2:2|0:0|0:0|0:0|2:2,0:0:0:0:
322,211,86453,2,0,L|383:218,3,35,2|2|2|2,2:2|2:2|2:2|2:2,0:0:0:0:
356,214,86805,2,0,L|397:294,1,70,2|2,2:2|2:2,0:0:0:0:
439,185,87070,1,0,0:0:0:0:
439,185,87158,2,0,L|471:113,1,70,2|2,2:3|2:2,0:0:0:0:
388,277,87511,6,0,L|443:296,1,35,2|0,2:2|0:0,0:0:0:0:
464,365,87688,1,2,2:2:0:0:
388,277,87864,2,0,L|428:259,1,35,2|0,2:2|0:0,0:0:0:0:
333,212,88041,1,2,2:2:0:0:
312,325,88217,2,0,L|299:271,1,35,2|0,2:3|0:0,0:0:0:0:
212,271,88394,1,2,2:2:0:0:
212,271,88482,1,0,0:0:0:0:
212,271,88570,2,0,L|230:362,1,70,2|2,2:2|2:2,0:0:0:0:
274,207,88923,2,0,L|303:211,4,17.5,2|0|0|0|2,2:3|0:0|0:0|0:0|2:2,0:0:0:0:
247,121,89276,2,0,L|281:124,3,35,2|2|2|2,2:2|2:2|2:2|2:2,0:0:0:0:
281,124,89629,2,0,L|240:38,1,70,2|2,2:2|2:2,0:0:0:0:
253,56,89894,1,0,0:0:0:0:
255,51,89982,2,0,L|343:16,1,70,2|2,2:2|2:2,0:0:0:0:
193,192,90335,6,0,L|117:177,2,70,2|0|2,2:2|0:0|2:2,0:0:0:0:
74,245,90864,1,2,2:2:0:0:
308,305,91041,1,2,2:3:0:0:
221,278,91217,1,2,2:2:0:0:
221,278,91305,1,0,0:0:0:0:
221,278,91394,2,0,L|316:253,1,70,2|2,2:2|2:2,0:0:0:0:
475,73,91747,6,0,L|481:101,2,17.5,10|8|8,2:2|2:2|2:2,0:0:0:0:
403,129,91923,6,0,L|391:184,5,35,10|8|10|10|10|10,2:2|2:2|2:2|2:2|2:2|2:2,0:0:0:0:
259,51,92453,5,10,2:2:0:0:
264,67,92541,5,8,2:2:0:0:
269,83,92629,6,0,L|282:128,1,35,10|8,2:2|2:2,0:0:0:0:
210,173,92805,6,0,L|204:201,2,17.5,10|8|8,2:2|2:2|2:2,0:0:0:0:
304,220,92982,6,0,L|310:192,2,17.5,10|8|8,2:2|2:2|2:2,0:0:0:0:
215,333,93158,5,14,1:2:0:0:
394,307,93335,1,2,2:2:0:0:
215,333,93511,1,10,2:2:0:0:
394,307,93688,2,0,P|391:271|378:244,1,41.9999987182618,10|0,2:2|0:0,0:0:0:0:
464,235,93864,2,0,P|420:225|336:196,1,125.999996154785,10|0,2:2|0:0,0:0:0:0:
338,192,94217,1,10,2:2:0:0:
394,307,94394,2,0,P|397:343|410:370,1,41.9999987182618,10|8,2:2|2:2,0:0:0:0:
411,142,94570,1,10,2:2:0:0:
394,307,94747,1,10,2:2:0:0:
338,192,94923,2,0,P|328:151|306:98,1,83.9999974365235,10|10,2:2|2:2,0:0:0:0:
475,0,95276,5,10,2:2:0:0:
411,59,95453,2,0,P|385:53|359:35,1,41.9999987182618,2|0,2:2|0:0,0:0:0:0:
197,98,95629,6,0,P|188:102|180:109,2,20.9999993591309,10|8|8,2:2|2:2|2:2,0:0:0:0:
257,160,95805,6,0,P|248:164|240:171,2,20.9999993591309,10|8|8,2:2|2:2|2:2,0:0:0:0:
472,135,95982,5,10,2:2:0:0:
435,318,96158,1,2,2:2:0:0:
472,135,96335,1,10,2:2:0:0:
435,318,96511,2,0,P|468:301|495:297,1,41.9999987182618,10|0,2:2|0:0,0:0:0:0:
389,243,96688,2,0,P|339:236|242:198,1,125.999996154785,10|0,2:2|0:0,0:0:0:0:
201,308,97041,1,10,2:2:0:0:
201,308,97129,1,8,2:2:0:0:
201,308,97217,2,0,P|256:288|268:288,1,41.9999987182618,10|8,2:2|2:2,0:0:0:0:
389,243,97394,1,10,2:2:0:0:
267,211,97570,1,2,2:2:0:0:
435,142,97747,1,10,2:2:0:0:
435,142,97835,1,2,2:2:0:0:
435,142,97923,2,0,P|449:187|467:214,1,41.9999987182618,10|2,2:2|2:2,0:0:0:0:
286,76,98100,6,0,P|295:46|298:17,3,41.9999987182618,10|2|2|2,2:2|2:2|2:2|2:2,0:0:0:0:
429,72,98453,2,0,P|422:91|418:112,3,41.9999987182618,10|10|10|10,2:2|2:2|2:2|2:2,0:0:0:0:
206,143,98805,5,14,2:2:0:0:
247,298,98982,1,2,2:2:0:0:
206,143,99158,1,10,2:2:0:0:
247,298,99335,2,0,P|256:270|273:247,1,41.9999987182618,10|0,2:2|0:0,0:0:0:0:
206,143,99511,2,0,P|190:204|157:273,1,125.999996154785,10|0,2:2|0:0,0:0:0:0:
153,268,99864,1,10,2:2:0:0:
282,185,100041,2,0,P|314:181|344:173,1,41.9999987182618,10|8,2:2|2:2,0:0:0:0:
206,143,100217,1,10,2:2:0:0:
247,298,100394,1,10,2:2:0:0:
281,105,100570,2,0,P|259:56|252:20,1,83.9999974365235,10|10,2:2|2:2,0:0:0:0:
76,0,100923,5,10,2:2:0:0:
36,73,101100,2,0,P|49:116|51:139,1,41.9999987182618,2|0,2:2|0:0,0:0:0:0:
206,143,101276,6,0,L|227:147,2,20.9999993591309,10|8|8,2:2|2:2|2:2,0:0:0:0:
177,220,101453,6,0,L|198:224,2,20.9999993591309,10|8|8,2:2|2:2|2:2,0:0:0:0:
0,194,101629,5,10,2:2:0:0:
41,371,101805,1,2,2:2:0:0:
0,194,101982,1,10,2:2:0:0:
41,371,102158,2,0,P|59:331|71:318,1,41.9999987182618,10|0,2:2|0:0,0:0:0:0:
81,177,102335,2,0,P|84:218|96:258,1,83.9999974365235,10|8,2:2|2:2,0:0:0:0:
281,309,102688,5,10,2:2:0:0:
281,309,102776,1,8,2:2:0:0:
281,309,102864,2,0,L|218:293,1,41.9999987182618,10|8,2:2|2:2,0:0:0:0:
17,279,103041,6,0,L|9:307,2,20.9999993591309,10|8|8,2:2|2:2|2:2,0:0:0:0:
96,258,103217,6,0,P|104:231|114:210,5,41.9999987182618,10|8|10|10|10|10,2:2|2:2|2:2|2:2|2:2|2:2,0:0:0:0:
0,184,103747,5,10,2:2:0:0:
76,151,103835,5,10,2:2:0:0:
92,91,103923,5,10,2:2:0:0:
60,61,104011,5,10,2:2:0:0:
41,78,104100,6,0,L|51:115,4,27.9999991455078,10|0|0|0|0,1:2|1:1|1:1|1:1|1:1,0:0:0:0:
109,218,104453,6,0,L|226:249,1,97.9999970092774,14|2,1:2|2:2,0:0:0:0:
388,299,104805,1,10,1:2:0:0:
131,307,104982,2,0,P|171:318|215:326,1,48.9999985046387,2|0,2:2|0:0,0:0:0:0:
388,299,105158,2,0,L|285:267,1,97.9999970092774,10|0,1:2|0:0,0:0:0:0:
104,349,105511,5,10,2:2:0:0:
180,127,105688,1,2,1:2:0:0:
104,349,105864,6,0,P|119:310|128:293,4,35,10|0|0|0|2,1:2|0:0|0:0|0:0|2:2,0:0:0:0:
180,127,106217,6,0,P|165:166|156:183,4,35,10|0|0|0|0,1:2|0:0|0:0|0:0|0:0,0:0:0:0:
0,142,106570,5,10,1:2:0:0:
146,242,106747,1,2,2:2:0:0:
88,129,106923,1,10,2:2:0:0:
213,55,107100,1,10,1:2:0:0:
0,9,107276,6,0,L|20:121,1,97.9999970092774,10|2,1:2|2:2,0:0:0:0:
61,322,107629,1,10,1:2:0:0:
61,322,107717,1,0,0:0:0:0:
61,322,107805,1,2,2:2:0:0:
17,105,107982,2,0,L|29:172,1,48.9999985046387,10|0,1:2|0:0,0:0:0:0:
43,237,108158,1,0,0:0:0:0:
93,48,108335,5,10,2:2:0:0:
93,48,108423,1,8,2:2:0:0:
93,48,108511,2,0,P|134:41|161:29,1,48.9999985046387,10|8,1:2|2:2,0:0:0:0:
170,156,108688,6,0,L|160:191,4,24.4999992523194,10|0|0|0|2,1:2|0:0|0:0|0:0|2:2,0:0:0:0:
8,23,109041,6,0,L|18:-12,4,24.4999992523194,10|0|0|0|0,1:2|0:0|0:0|0:0|0:0,0:0:0:0:
210,82,109394,5,10,1:2:0:0:
281,61,109482,5,2,2:2:0:0:
331,51,109570,5,2,2:2:0:0:
371,52,109658,5,2,1:2:0:0:
387,55,109747,6,0,L|400:90,2,24.4999992523194,10|8|10,2:2|2:2|2:2,0:0:0:0:
321,140,109923,6,0,L|308:175,2,24.4999992523194,10|8|8,1:2|2:2|2:2,0:0:0:0:
417,235,110100,6,0,B|337:219|382:264|275:239,1,112,14|0,1:2|0:0,0:0:0:0:
417,235,110364,1,10,1:2:0:0:
217,154,110541,1,2,2:2:0:0:
217,154,110629,1,8,1:2:0:0:
217,154,110717,1,0,0:0:0:0:
217,154,110805,2,0,B|243:223|195:188|225:292,1,112,10|0,1:2|0:0,0:0:0:0:
88,204,111070,2,0,P|131:191|155:178,1,52.5000020027161,10|2,1:2|2:2,0:0:0:0:
252,123,111335,5,10,1:2:0:0:
252,123,111423,1,10,1:2:0:0:
218,44,111511,2,0,B|191:113|239:78|209:182,1,112,10|0,1:2|0:0,0:0:0:0:
218,44,111776,1,10,1:2:0:0:
28,177,111953,1,2,2:2:0:0:
28,177,112041,1,8,1:2:0:0:
28,177,112129,1,0,0:0:0:0:
28,177,112217,2,0,B|108:161|63:206|170:181,1,112,10|0,1:2|0:0,0:0:0:0:
124,71,112482,1,10,1:2:0:0:
124,71,112570,2,0,P|128:43|137:17,3,56,0|10|8|8,0:0|1:2|1:2|1:2,0:0:0:0:
216,153,112923,5,10,1:2:0:0:
286,200,113011,5,10,1:2:0:0:
349,161,113100,5,10,1:2:0:0:
355,116,113188,5,10,1:2:0:0:
335,94,113276,6,0,L|270:103,1,56,10|10,1:2|1:2,0:0:0:0:
264,17,113453,6,0,L|329:8,1,56,10|10,1:2|1:2,0:0:0:0:
286,200,113629,5,8,1:2:0:0:
216,153,113717,5,10,1:2:0:0:
148,210,113806,5,10,1:2:0:0:
139,262,113894,5,8,1:2:0:0:
176,291,113982,6,0,L|251:281,1,62.9999980773926,8|8,1:2|1:2,0:0:0:0:
248,369,114159,6,0,L|172:379,1,62.9999980773926,10|10,1:2|1:2,0:0:0:0:
286,200,114335,5,2,1:2:0:0:
298,201,114423,1,8,2:2:0:0:
310,202,114511,1,8,2:2:0:0:
322,203,114600,1,8,2:2:0:0:
336,166,114688,6,0,L|353:235,3,62.9999980773926,10|10|10|10,2:2|2:2|2:2|2:2,0:0:0:0:
414,281,115041,6,0,L|446:287,2,31.4999990386963,10|8|10,1:2|2:2|2:2,0:0:0:0:
436,103,115217,6,0,L|405:109,2,31.4999990386963,10|8|10,2:2|2:2|2:2,0:0:0:0:
286,200,115394,5,2,1:2:0:0:
268,198,115482,1,2,2:2:0:0:
250,197,115570,1,2,2:2:0:0:
232,195,115659,1,2,2:2:0:0:
157,157,115747,6,0,L|150:113,7,35,10|8|10|8|10|8|10|8,2:2|2:2|2:2|2:2|2:2|2:2|2:2|2:2,0:0:0:0:
232,195,116453,2,0,P|262:219|268:239,1,35,8|8,2:2|2:2,0:0:0:0:
344,197,116629,2,0,P|339:245|307:274,1,48.9999985046387,10|8,2:2|2:2,0:0:0:0:
150,301,116805,2,0,P|197:267|227:276,1,62.9999980773926,10|8,2:2|2:2,0:0:0:0:
416,279,116982,2,0,P|374:323|328:315,1,77.0000023498536,10|8,2:2|2:2,0:0:0:0:
149,144,117158,6,0,B|136:114|136:114|157:73|153:21|153:21|182:-5,1,154.000004699707,6|2,1:1|2:2,0:0:0:0:
173,151,117423,2,0,B|160:121|160:121|181:80|177:28|177:28|206:2,1,154.000004699707,2|2,1:1|2:2,0:0:0:0:
196,157,117688,1,2,1:1:0:0:
0,35,117864,6,0,P|42:10|88:17,1,77.0000023498536,2|0,1:1|0:0,0:0:0:0:
126,67,118041,1,2,2:2:0:0:
194,189,118217,2,0,P|217:146|261:129,1,77.0000023498536,10|0,1:2|0:0,0:0:0:0:
318,157,118394,1,2,2:2:0:0:
391,344,118570,6,0,B|369:318|369:318|384:197|312:57,1,283.500001081467,2|0,1:1|0:0,0:0:0:0:
329,261,118923,2,0,L|233:276,1,70,10|0,2:2|0:0,0:0:0:0:
259,271,119276,6,0,L|418:299,1,140,2|2,1:1|2:2,0:0:0:0:
245,288,119541,2,0,L|404:316,1,140,2|0,1:1|0:0,0:0:0:0:
230,303,119805,1,2,1:1:0:0:
392,211,119982,2,0,L|365:63,1,140,2|2,1:1|2:2,0:0:0:0:
369,203,120247,2,0,L|342:55,1,140,2|2,1:1|2:2,0:0:0:0:
344,196,120511,1,2,1:1:0:0:
505,10,120688,5,2,1:1:0:0:
505,10,120776,1,0,0:0:0:0:
505,10,120864,2,0,P|482:33|474:92,1,70,2|0,2:2|0:0,0:0:0:0:
508,236,121041,2,0,P|466:190|437:183,1,70,10|8,1:2|2:2,0:0:0:0:
344,196,121217,1,10,2:2:0:0:
333,377,121394,6,0,L|289:107,1,262.5,2|0,1:1|0:0,0:0:0:0:
345,301,121747,2,0,L|434:287,1,70,10|0,2:2|0:0,0:0:0:0:
416,291,122100,6,0,L|256:251,1,140,2|2,1:1|2:2,0:0:0:0:
433,274,122364,2,0,L|273:234,1,140,2|0,1:1|0:0,0:0:0:0:
449,259,122629,1,2,1:1:0:0:
190,197,122805,2,0,L|216:343,1,140,2|2,1:1|2:2,0:0:0:0:
172,213,123070,2,0,L|198:359,1,140,2|2,1:1|2:2,0:0:0:0:
154,234,123335,1,2,1:1:0:0:
351,291,123511,6,0,P|300:296|277:327,1,70,2|0,1:1|0:0,0:0:0:0:
407,354,123688,1,2,2:2:0:0:
457,145,123864,2,0,P|478:176|470:231,1,70,10|0,1:2|0:0,0:0:0:0:
433,274,124041,1,2,2:2:0:0:
252,124,124217,6,0,L|539:92,1,262.5,2|0,1:1|0:0,0:0:0:0:
333,134,124570,2,0,L|345:221,1,70,10|0,2:2|0:0,0:0:0:0:
342,203,124923,6,0,L|380:57,1,140,2|2,1:1|2:2,0:0:0:0:
359,220,125188,2,0,L|397:74,1,140,2|0,1:1|0:0,0:0:0:0:
375,239,125453,1,2,1:1:0:0:
140,68,125629,5,10,1:2:0:0:
219,55,125717,5,8,2:2:0:0:
262,49,125805,6,0,L|318:39,1,35,10|8,2:2|2:2,0:0:0:0:
375,239,125982,5,10,1:2:0:0:
325,232,126070,5,10,2:2:0:0:
295,226,126158,6,0,L|260:220,1,26.2500010013581,10|10,2:2|2:2,0:0:0:0:
431,64,126335,5,10,1:2:0:0:
433,74,126423,1,8,2:2:0:0:
435,84,126511,1,10,2:2:0:0:
438,94,126600,1,8,2:2:0:0:
441,103,126688,6,0,L|449:132,2,26.2500010013581,10|8|8,1:1|2:2|2:2,0:0:0:0:
310,146,126864,6,0,L|317:121,2,26.2500010013581,10|8|8,2:2|2:2|2:2,0:0:0:0:
458,372,127041,6,0,B|457:303|435:260|435:260|486:199|486:199|447:144|452:49,1,315.000012016297,6|0,1:1|0:0,0:0:0:0:
410,311,127394,2,0,L|321:325,1,70,10|0,2:2|0:0,0:0:0:0:
259,334,127570,1,2,2:2:0:0:
116,80,127747,6,0,B|154:106|154:106|187:234,1,167.999994873047,2|2,1:1|2:2,0:0:0:0:
260,43,128011,2,0,B|239:84|239:84|272:212,1,167.999994873047,2|0,1:1|0:0,0:0:0:0:
176,22,128276,1,2,1:1:0:0:
245,279,128453,1,2,1:1:0:0:
492,96,128629,1,2,2:2:0:0:
492,96,128717,1,2,1:1:0:0:
492,96,128805,2,0,B|452:119|452:119|322:95,1,167.999994873047,10|2,2:2|1:1,0:0:0:0:
272,356,129158,6,0,P|312:330|323:288,1,70,2|0,1:1|0:0,0:0:0:0:
309,230,129335,1,2,2:2:0:0:
438,318,129511,2,0,P|419:282|374:261,1,70,10|0,1:2|0:0,0:0:0:0:
309,230,129688,2,0,L|327:149,1,70,2|0,2:2|0:0,0:0:0:0:
56,141,129864,6,0,B|118:110|177:118|177:118|216:49|216:49|272:61|353:17,1,315.000012016297,2|0,1:1|0:0,0:0:0:0:
140,156,130217,2,0,L|149:225,1,70,10|0,2:2|0:0,0:0:0:0:
220,291,130394,2,0,L|271:302,2,35,2|0|0,2:2|0:0|0:0,0:0:0:0:
149,225,130570,6,0,L|192:54,1,167.999994873047,2|2,1:1|2:2,0:0:0:0:
220,291,130835,2,0,L|262:119,1,167.999994873047,2|0,1:1|0:0,0:0:0:0:
287,344,131100,1,2,1:1:0:0:
350,105,131276,1,2,1:1:0:0:
75,178,131453,1,2,2:2:0:0:
75,178,131541,1,2,1:1:0:0:
75,178,131629,2,0,L|118:7,1,167.999994873047,10|2,2:2|1:1,0:0:0:0:
411,26,131982,5,2,1:1:0:0:
411,26,132070,1,0,0:0:0:0:
411,26,132158,2,0,P|441:46|451:108,1,70,2|0,2:2|0:0,0:0:0:0:
475,194,132335,2,0,P|426:190|397:167,1,70,10|8,1:2|2:2,0:0:0:0:
367,108,132511,1,10,2:2:0:0:
430,286,132688,6,0,B|359:290|336:349|336:349|325:231|215:207,1,315.000012016297,6|0,1:1|0:0,0:0:0:0:
430,286,133041,2,0,L|452:193,1,70,10|0,2:2|0:0,0:0:0:0:
467,142,133217,1,2,2:2:0:0:
430,286,133394,6,0,P|399:216|355:163,1,140,2|2,1:1|2:2,0:0:0:0:
225,206,133658,2,0,P|321:174|369:165,1,140,2|0,1:1|0:0,0:0:0:0:
330,261,133923,1,2,1:1:0:0:
387,75,134100,1,2,1:1:0:0:
219,104,134276,1,2,2:2:0:0:
219,104,134364,1,2,1:1:0:0:
219,104,134453,2,0,P|304:72|360:61,1,140,10|2,2:2|1:1,0:0:0:0:
427,287,134805,6,0,P|382:249|352:251,1,70,2|0,1:1|0:0,0:0:0:0:
311,300,134982,1,2,2:2:0:0:
512,165,135158,2,0,P|491:222|458:232,1,70,10|0,1:2|0:0,0:0:0:0:
311,300,135335,2,0,L|227:282,1,70,2|0,2:2|0:0,0:0:0:0:
338,41,135511,6,0,L|374:256,1,210.000008010865,2|2,1:1|2:2,0:0:0:0:
254,120,135776,1,0,0:0:0:0:
254,120,135864,2,0,B|265:187|265:187|337:228,1,105.000004005432,10|0,2:2|0:0,0:0:0:0:
451,277,136041,1,2,2:2:0:0:
222,40,136217,6,0,B|181:49|174:84|174:84|122:75|71:105,1,167.999994873047,2|2,1:1|2:2,0:0:0:0:
254,120,136482,2,0,B|248:155|209:167|209:167|171:197|186:269,1,167.999994873047,2|0,1:1|0:0,0:0:0:0:
307,57,136747,1,2,1:1:0:0:
326,283,136923,5,10,1:2:0:0:
253,270,137011,5,8,2:2:0:0:
218,263,137100,6,0,L|156:252,1,35,10|8,2:2|2:2,0:0:0:0:
43,308,137276,5,10,1:2:0:0:
56,264,137364,5,10,2:2:0:0:
62,242,137453,6,0,L|73:202,1,26.2500010013581,10|10,2:2|2:2,0:0:0:0:
268,189,137629,5,10,1:2:0:0:
257,186,137717,1,8,2:2:0:0:
246,184,137805,1,10,2:2:0:0:
235,182,137894,1,8,2:2:0:0:
224,180,137982,6,0,L|181:172,2,26.2500010013581,10|8|8,1:1|2:2|2:2,0:0:0:0:
183,256,138158,6,0,L|226:264,2,26.2500010013581,10|8|8,2:2|2:2|2:2,0:0:0:0:
273,363,138335,5,6,1:2:0:0:
273,363,138688,1,2,2:2:0:0:
339,313,138864,2,0,P|329:280|320:233,1,70,2|2,2:2|2:2,0:0:0:0:
422,335,139394,1,2,2:2:0:0:
422,335,139570,1,2,2:2:0:0:
422,335,139923,1,10,2:2:0:0:
464,262,140100,2,0,L|495:257,3,17.5,2|2|2|2,1:2|2:2|2:2|2:2,0:0:0:0:
464,262,140453,2,0,L|421:248,1,35,10|2,2:2|2:2,0:0:0:0:
397,184,140805,1,2,2:2:0:0:
397,184,140982,1,2,2:2:0:0:
493,98,141158,6,0,L|508:171,1,70,2|2,1:2|2:2,0:0:0:0:
415,74,141688,1,2,2:2:0:0:
415,74,142041,2,0,P|386:78|373:83,1,35,2|2,2:2|2:2,0:0:0:0:
478,24,142394,1,2,2:2:0:0:
478,24,142923,5,0,1:1:0:0:
415,74,143100,1,0,0:0:0:0:
418,87,143188,1,0,0:0:0:0:
422,100,143276,2,0,L|431:137,2,35,8|0|0,2:2|0:0|0:0,0:0:0:0:
341,122,143629,2,0,L|272:109,1,70,8|8,2:2|2:2,0:0:0:0:
255,0,143982,5,2,1:2:0:0:
255,0,144335,1,2,2:2:0:0:
267,89,144511,2,0,P|231:92|189:103,1,70,2|2,2:2|2:2,0:0:0:0:
339,39,145041,1,2,2:2:0:0:
339,39,145217,1,2,2:2:0:0:
339,39,145570,1,10,2:2:0:0:
415,123,145747,2,0,L|410:153,3,17.5,2|2|2|2,1:2|2:2|2:2|2:2,0:0:0:0:
415,123,146100,2,0,L|404:77,1,35,10|2,2:2|2:2,0:0:0:0:
470,41,146453,1,2,2:2:0:0:
470,41,146629,1,2,2:2:0:0:
363,205,146805,6,0,L|286:194,1,70,2|2,1:2|2:2,0:0:0:0:
235,251,147335,1,2,2:2:0:0:
235,251,147688,1,2,2:2:0:0:
275,181,147864,1,2,2:2:0:0:
223,108,148041,2,0,B|66:120|66:120|247:78,1,315,2|0,2:2|0:0,0:0:0:0:
