osu file format v14

[General]
AudioFilename: audio.mp3
AudioLeadIn: 0
PreviewTime: 13041
Countdown: 0
SampleSet: Soft
StackLeniency: 0.5
Mode: 0
LetterboxInBreaks: 0
WidescreenStoryboard: 1

[Editor]
Bookmarks: 2807,14101,25395,36689,42341,47983,59277,70571,81865,93159,104454,110106,115748,118571,127042,138336,149630
DistanceSpacing: 0.4
BeatDivisor: 4
GridSize: 16
TimelineZoom: 2.3

[Metadata]
Title:Rolling Beat
TitleUnicode:Rolling Beat
Artist:Mitsukiyo
ArtistUnicode:ミツキヨ
Creator:E4pi4mak
Version:Hard
Source:ブルーアーカイブ -Blue Archive-
Tags:ブルアカ future bass instrumental electronic video game yostar nat games simple tech ost 61 vgm original sound track soundtrack Kudou Chitose mrrrk midorijeon
BeatmapID:4057593
BeatmapSetID:1953422

[Difficulty]
HPDrainRate:4
CircleSize:3.6
OverallDifficulty:6
ApproachRate:8
SliderMultiplier:1.4
SliderTickRate:1

[Events]
//Background and Video events
0,0,"bg.png",0,0
//Break Periods
2,70770,75467
//Storyboard Layer 0 (Background)
//Storyboard Layer 1 (Fail)
//Storyboard Layer 2 (Pass)
//Storyboard Layer 3 (Foreground)
//Storyboard Layer 4 (Overlay)
//Storyboard Sound Samples

[TimingPoints]
2806,352.941176470588,4,2,1,52,1,0
4217,-100,4,2,2,52,0,0
13041,-100,4,2,2,52,0,0
13923,-100,4,2,2,52,0,0
14100,-100,4,2,1,64,0,0
14182,-100,4,2,1,64,0,0
14453,-100,4,2,3,64,0,0
14535,-100,4,2,3,64,0,0
15687,-100,4,2,2,64,0,0
15770,-100,4,2,2,64,0,0
16217,-100,4,2,3,64,0,0
16299,-100,4,2,3,64,0,0
16393,-100,4,2,3,64,0,0
16570,-100,4,2,3,64,0,0
16746,-100,4,2,3,64,0,0
16923,-100,4,2,3,64,0,0
18511,-100,4,2,2,64,0,0
18593,-100,4,2,2,64,0,0
19041,-100,4,2,3,64,0,0
19123,-100,4,2,3,64,0,0
19394,-100,4,2,2,64,0,0
19476,-100,4,2,2,64,0,0
19570,-100,4,2,2,64,0,0
19747,-100,4,2,2,64,0,0
20453,-100,4,2,3,64,0,0
20535,-100,4,2,3,64,0,0
21334,-100,4,2,2,64,0,0
21417,-100,4,2,2,64,0,0
21864,-100,4,2,3,64,0,0
21946,-100,4,2,3,64,0,0
22040,-100,4,2,3,64,0,0
22217,-100,4,2,3,64,0,0
22393,-100,4,2,3,64,0,0
22570,-100,4,2,3,64,0,0
23982,-100,4,2,2,64,0,0
24064,-100,4,2,2,64,0,0
24158,-100,4,2,4,64,0,0
24240,-100,4,2,4,64,0,0
24688,-100,4,2,5,64,0,0
24770,-100,4,2,5,64,0,0
24776,-100,4,2,4,64,0,0
24858,-100,4,2,4,64,0,0
25041,-100,4,2,6,64,0,0
25123,-100,4,2,6,64,0,0
25217,-100,4,2,2,64,0,0
25299,-100,4,2,2,64,0,0
25394,-90.9090909090909,4,2,7,70,0,0
25476,-90.9090909090909,4,2,7,70,0,0
25570,-90.9090909090909,4,2,2,70,0,0
25652,-90.9090909090909,4,2,2,70,0,0
25747,-90.9090909090909,4,2,3,70,0,0
25829,-90.9090909090909,4,2,3,70,0,0
25923,-90.9090909090909,4,2,2,70,0,0
26005,-90.9090909090909,4,2,2,70,0,0
26100,-90.9090909090909,4,2,3,70,0,0
26182,-90.9090909090909,4,2,3,70,0,0
26276,-90.9090909090909,4,2,2,70,0,0
26358,-90.9090909090909,4,2,2,70,0,0
26453,-90.9090909090909,4,2,8,70,0,0
26535,-90.9090909090909,4,2,8,70,0,0
26541,-90.9090909090909,4,2,2,70,0,0
26623,-90.9090909090909,4,2,2,70,0,0
26629,-90.9090909090909,4,2,2,70,0,0
26805,-90.9090909090909,4,2,3,70,0,0
26887,-90.9090909090909,4,2,3,70,0,0
26981,-90.9090909090909,4,2,2,70,0,0
27064,-90.9090909090909,4,2,2,70,0,0
27158,-90.9090909090909,4,2,8,70,0,0
27240,-90.9090909090909,4,2,8,70,0,0
27335,-90.9090909090909,4,2,2,70,0,0
27417,-90.9090909090909,4,2,2,70,0,0
27511,-90.9090909090909,4,2,8,70,0,0
27593,-90.9090909090909,4,2,8,70,0,0
27687,-90.9090909090909,4,2,8,70,0,0
27864,-90.9090909090909,4,2,8,70,0,0
27908,-90.9090909090909,4,2,2,70,0,0
27990,-90.9090909090909,4,2,2,70,0,0
28217,-90.9090909090909,4,2,3,70,0,0
28299,-90.9090909090909,4,2,3,70,0,0
28393,-90.9090909090909,4,2,3,70,0,0
28482,-90.9090909090909,4,2,2,70,0,0
28564,-90.9090909090909,4,2,2,70,0,0
28570,-90.9090909090909,4,2,3,70,0,0
28652,-90.9090909090909,4,2,3,70,0,0
28747,-90.9090909090909,4,2,2,70,0,0
28829,-90.9090909090909,4,2,2,70,0,0
28923,-90.9090909090909,4,2,3,70,0,0
29005,-90.9090909090909,4,2,3,70,0,0
29099,-90.9090909090909,4,2,2,70,0,0
29182,-90.9090909090909,4,2,2,70,0,0
29276,-90.9090909090909,4,2,8,70,0,0
29358,-90.9090909090909,4,2,8,70,0,0
29364,-90.9090909090909,4,2,2,70,0,0
29446,-90.9090909090909,4,2,2,70,0,0
29629,-90.9090909090909,4,2,3,70,0,0
29711,-90.9090909090909,4,2,3,70,0,0
29805,-90.9090909090909,4,2,3,70,0,0
29894,-90.9090909090909,4,2,2,70,0,0
29976,-90.9090909090909,4,2,2,70,0,0
29982,-90.9090909090909,4,2,3,70,0,0
30064,-90.9090909090909,4,2,3,70,0,0
30158,-90.9090909090909,4,2,2,70,0,0
30240,-90.9090909090909,4,2,2,70,0,0
30335,-90.9090909090909,4,2,8,70,0,0
30417,-90.9090909090909,4,2,8,70,0,0
30688,-90.9090909090909,4,2,9,70,0,0
30732,-90.9090909090909,4,2,2,70,0,0
30770,-90.9090909090909,4,2,2,70,0,0
30814,-90.9090909090909,4,2,2,70,0,0
30864,-90.9090909090909,4,2,2,70,0,0
31041,-90.9090909090909,4,2,7,70,0,0
31123,-90.9090909090909,4,2,7,70,0,0
31217,-90.9090909090909,4,2,2,70,0,0
31299,-90.9090909090909,4,2,2,70,0,0
31394,-90.9090909090909,4,2,3,70,0,0
31476,-90.9090909090909,4,2,3,70,0,0
31570,-90.9090909090909,4,2,2,70,0,0
31652,-90.9090909090909,4,2,2,70,0,0
31747,-90.9090909090909,4,2,3,70,0,0
31829,-90.9090909090909,4,2,3,70,0,0
31923,-90.9090909090909,4,2,2,70,0,0
32005,-90.9090909090909,4,2,2,70,0,0
32100,-90.9090909090909,4,2,8,70,0,0
32182,-90.9090909090909,4,2,8,70,0,0
32188,-90.9090909090909,4,2,2,70,0,0
32270,-90.9090909090909,4,2,2,70,0,0
32276,-90.9090909090909,4,2,2,70,0,0
32453,-90.9090909090909,4,2,3,70,0,0
32535,-90.9090909090909,4,2,3,70,0,0
32629,-90.9090909090909,4,2,2,70,0,0
32711,-90.9090909090909,4,2,2,70,0,0
32805,-90.9090909090909,4,2,8,70,0,0
32887,-90.9090909090909,4,2,8,70,0,0
32982,-90.9090909090909,4,2,2,70,0,0
33064,-90.9090909090909,4,2,2,70,0,0
33158,-90.9090909090909,4,2,8,70,0,0
33240,-90.9090909090909,4,2,8,70,0,0
33334,-90.9090909090909,4,2,8,70,0,0
33511,-90.9090909090909,4,2,8,70,0,0
33555,-90.9090909090909,4,2,2,70,0,0
33637,-90.9090909090909,4,2,2,70,0,0
33864,-90.9090909090909,4,2,3,70,0,0
33946,-90.9090909090909,4,2,3,70,0,0
34040,-90.9090909090909,4,2,3,70,0,0
34129,-90.9090909090909,4,2,2,70,0,0
34211,-90.9090909090909,4,2,2,70,0,0
34217,-90.9090909090909,4,2,3,70,0,0
34299,-90.9090909090909,4,2,3,70,0,0
34394,-90.9090909090909,4,2,2,70,0,0
34476,-90.9090909090909,4,2,2,70,0,0
34570,-90.9090909090909,4,2,3,70,0,0
34652,-90.9090909090909,4,2,3,70,0,0
34746,-90.9090909090909,4,2,2,70,0,0
34829,-90.9090909090909,4,2,2,70,0,0
34923,-90.9090909090909,4,2,8,70,0,0
35005,-90.9090909090909,4,2,8,70,0,0
35011,-90.9090909090909,4,2,2,70,0,0
35093,-90.9090909090909,4,2,2,70,0,0
35276,-90.9090909090909,4,2,8,70,0,0
35320,-90.9090909090909,4,2,2,70,0,0
35358,-90.9090909090909,4,2,2,70,0,0
35402,-90.9090909090909,4,2,2,70,0,0
35452,-90.9090909090909,4,2,4,70,0,0
35535,-90.9090909090909,4,2,4,70,0,0
35629,-90.9090909090909,4,2,5,70,0,0
35711,-90.9090909090909,4,2,5,70,0,0
35717,-90.9090909090909,4,2,4,70,0,0
35799,-90.9090909090909,4,2,4,70,0,0
35805,-90.9090909090909,4,2,4,70,0,0
35982,-90.9090909090909,4,2,5,70,0,0
36064,-90.9090909090909,4,2,5,70,0,0
36070,-90.9090909090909,4,2,4,70,0,0
36152,-90.9090909090909,4,2,4,70,0,0
36335,-90.9090909090909,4,2,10,70,0,0
36417,-90.9090909090909,4,2,10,70,0,0
36423,-90.9090909090909,4,2,2,70,0,0
36505,-90.9090909090909,4,2,2,70,0,0
36688,-90.9090909090909,4,2,7,70,0,0
36770,-90.9090909090909,4,2,7,70,0,0
36864,-90.9090909090909,4,2,3,70,0,0
36946,-90.9090909090909,4,2,3,70,0,0
37570,-90.9090909090909,4,2,3,5,0,0
37747,-90.9090909090909,4,2,3,70,0,0
38276,-90.9090909090909,4,2,3,70,0,0
38453,-90.9090909090909,4,2,3,70,0,0
38629,-90.9090909090909,4,2,3,5,0,0
38805,-90.9090909090909,4,2,3,70,0,0
38981,-90.9090909090909,4,2,3,70,0,0
39158,-90.9090909090909,4,2,8,70,0,0
39203,-90.9090909090909,4,2,2,70,0,0
39240,-90.9090909090909,4,2,2,70,0,0
39285,-90.9090909090909,4,2,2,70,0,0
39511,-90.9090909090909,4,2,3,70,0,0
39593,-90.9090909090909,4,2,3,70,0,0
40393,-90.9090909090909,4,2,3,5,0,0
40570,-90.9090909090909,4,2,8,70,0,0
40652,-90.9090909090909,4,2,8,70,0,0
40658,-90.9090909090909,4,2,2,70,0,0
40740,-90.9090909090909,4,2,2,70,0,0
40923,-90.9090909090909,4,2,3,70,0,0
41005,-90.9090909090909,4,2,3,70,0,0
41099,-90.9090909090909,4,2,3,70,0,0
41276,-90.9090909090909,4,2,3,70,0,0
41452,-90.9090909090909,4,2,3,5,0,0
41629,-90.9090909090909,4,2,3,70,0,0
41982,-90.9090909090909,4,2,9,70,0,0
42026,-90.9090909090909,4,2,2,70,0,0
42064,-90.9090909090909,4,2,2,70,0,0
42108,-90.9090909090909,4,2,2,70,0,0
42158,-90.9090909090909,4,2,2,70,0,0
42335,-90.9090909090909,4,2,7,70,0,0
42417,-90.9090909090909,4,2,7,70,0,0
42600,-90.9090909090909,4,2,3,70,0,0
42682,-90.9090909090909,4,2,3,70,0,0
43570,-90.9090909090909,4,2,8,70,0,0
43652,-90.9090909090909,4,2,8,70,0,0
43747,-90.9090909090909,4,2,3,70,0,0
43829,-90.9090909090909,4,2,3,70,0,0
44894,-90.9090909090909,4,2,2,70,0,0
44976,-90.9090909090909,4,2,2,70,0,0
45158,-90.9090909090909,4,2,4,70,0,0
45240,-90.9090909090909,4,2,4,70,0,0
46570,-90.9090909090909,4,2,11,70,0,0
46652,-90.9090909090909,4,2,11,70,0,0
46658,-90.9090909090909,4,2,4,70,0,0
46740,-90.9090909090909,4,2,4,70,0,0
46746,-90.9090909090909,4,2,4,70,0,0
46923,-90.9090909090909,4,2,4,70,0,0
47276,-90.9090909090909,4,2,11,70,0,0
47320,-90.9090909090909,4,2,2,70,0,0
47358,-90.9090909090909,4,2,2,70,0,0
47364,-90.9090909090909,4,2,11,70,0,0
47402,-90.9090909090909,4,2,11,70,0,0
47446,-90.9090909090909,4,2,11,70,0,0
47452,-90.9090909090909,4,2,11,70,0,0
47497,-90.9090909090909,4,2,2,70,0,0
47541,-90.9090909090909,4,2,11,70,0,0
47579,-90.9090909090909,4,2,11,70,0,0
47623,-90.9090909090909,4,2,11,70,0,0
47629,-90.9090909090909,4,2,12,70,0,0
47711,-90.9090909090909,4,2,12,70,0,0
47717,-90.9090909090909,4,2,4,70,0,0
47799,-90.9090909090909,4,2,4,70,0,0
47982,-83.3333333333333,4,2,1,80,0,1
48064,-83.3333333333333,4,2,1,80,0,1
48158,-83.3333333333333,4,2,13,80,0,1
48240,-83.3333333333333,4,2,13,80,0,1
48246,-83.3333333333333,4,2,13,5,0,1
48335,-83.3333333333333,4,2,13,80,0,1
48688,-83.3333333333333,4,2,2,80,0,1
48952,-83.3333333333333,4,2,2,80,0,1
49041,-83.3333333333333,4,2,13,80,0,1
49217,-83.3333333333333,4,2,3,80,0,1
49394,-83.3333333333333,4,2,2,80,0,1
49658,-83.3333333333333,4,2,2,80,0,1
49747,-83.3333333333333,4,2,13,80,0,1
49923,-83.3333333333333,4,2,3,80,0,1
50453,-83.3333333333333,4,2,14,80,0,1
50629,-83.3333333333333,4,2,2,80,0,1
50805,-83.3333333333333,4,2,1,80,0,1
50887,-83.3333333333333,4,2,1,80,0,1
50982,-83.3333333333333,4,2,13,80,0,1
51064,-83.3333333333333,4,2,13,80,0,1
51069,-83.3333333333333,4,2,13,5,0,1
51158,-83.3333333333333,4,2,13,80,0,1
51511,-83.3333333333333,4,2,2,80,0,1
51864,-83.3333333333333,4,2,13,80,0,1
52041,-83.3333333333333,4,2,3,80,0,1
52217,-83.3333333333333,4,2,2,80,0,1
52570,-83.3333333333333,4,2,13,80,0,1
52747,-83.3333333333333,4,2,3,80,0,1
53276,-83.3333333333333,4,2,15,80,0,1
53320,-83.3333333333333,4,2,2,80,0,1
53358,-83.3333333333333,4,2,2,80,0,1
53402,-83.3333333333333,4,2,2,80,0,1
53452,-83.3333333333333,4,2,2,80,0,1
53629,-83.3333333333333,4,2,1,80,0,1
53711,-83.3333333333333,4,2,1,80,0,1
53805,-83.3333333333333,4,2,13,80,0,1
53887,-83.3333333333333,4,2,13,80,0,1
53893,-83.3333333333333,4,2,13,5,0,1
53982,-83.3333333333333,4,2,13,80,0,1
54335,-83.3333333333333,4,2,2,80,0,1
54599,-83.3333333333333,4,2,2,80,0,1
54688,-83.3333333333333,4,2,13,80,0,1
54864,-83.3333333333333,4,2,3,80,0,1
55041,-83.3333333333333,4,2,2,80,0,1
55305,-83.3333333333333,4,2,2,80,0,1
55394,-83.3333333333333,4,2,13,80,0,1
55570,-83.3333333333333,4,2,3,80,0,1
56100,-83.3333333333333,4,2,14,80,0,1
56276,-83.3333333333333,4,2,2,80,0,1
56453,-83.3333333333333,4,2,1,80,0,1
56535,-83.3333333333333,4,2,1,80,0,1
56629,-83.3333333333333,4,2,13,80,0,1
56711,-83.3333333333333,4,2,13,80,0,1
56717,-83.3333333333333,4,2,13,5,0,1
56805,-83.3333333333333,4,2,13,80,0,1
57158,-83.3333333333333,4,2,2,80,0,1
57511,-83.3333333333333,4,2,13,80,0,1
57688,-83.3333333333333,4,2,3,80,0,1
57864,-83.3333333333333,4,2,16,80,0,1
57946,-83.3333333333333,4,2,16,80,0,1
57953,-83.3333333333333,4,2,4,80,0,1
58035,-83.3333333333333,4,2,4,80,0,1
58217,-83.3333333333333,4,2,17,80,0,1
58299,-83.3333333333333,4,2,17,80,0,1
58305,-83.3333333333333,4,2,4,80,0,1
58387,-83.3333333333333,4,2,4,80,0,1
58570,-83.3333333333333,4,2,17,80,0,1
58652,-83.3333333333333,4,2,17,80,0,1
58658,-83.3333333333333,4,2,4,80,0,1
58740,-83.3333333333333,4,2,4,80,0,1
58923,-83.3333333333333,4,2,4,80,0,1
58967,-83.3333333333333,4,2,2,80,0,1
59005,-83.3333333333333,4,2,2,80,0,1
59049,-83.3333333333333,4,2,2,80,0,1
59276,-83.3333333333333,4,2,5,80,0,1
59358,-83.3333333333333,4,2,5,80,0,1
59453,-83.3333333333333,4,2,5,80,0,1
59535,-83.3333333333333,4,2,5,80,0,1
59540,-83.3333333333333,4,2,5,5,0,1
59629,-83.3333333333333,4,2,18,80,0,1
59711,-83.3333333333333,4,2,18,80,0,1
59805,-83.3333333333333,4,2,2,80,0,1
59887,-83.3333333333333,4,2,2,80,0,1
59982,-83.3333333333333,4,2,6,80,0,1
60158,-83.3333333333333,4,2,2,80,0,1
60246,-83.3333333333333,4,2,2,80,0,1
60335,-83.3333333333333,4,2,18,80,0,1
60417,-83.3333333333333,4,2,18,80,0,1
60511,-83.3333333333333,4,2,3,80,0,1
60593,-83.3333333333333,4,2,3,80,0,1
60688,-83.3333333333333,4,2,6,80,0,1
60864,-83.3333333333333,4,2,2,80,0,1
60952,-83.3333333333333,4,2,2,80,0,1
61041,-83.3333333333333,4,2,18,80,0,1
61123,-83.3333333333333,4,2,18,80,0,1
61129,-83.3333333333333,4,2,3,80,0,1
61211,-83.3333333333333,4,2,3,80,0,1
61394,-83.3333333333333,4,2,7,80,0,1
61476,-83.3333333333333,4,2,7,80,0,1
61570,-83.3333333333333,4,2,2,80,0,1
61652,-83.3333333333333,4,2,2,80,0,1
61747,-83.3333333333333,4,2,19,80,0,1
61829,-83.3333333333333,4,2,19,80,0,1
61923,-83.3333333333333,4,2,5,80,0,1
62005,-83.3333333333333,4,2,5,80,0,1
62100,-83.3333333333333,4,2,5,80,0,1
62182,-83.3333333333333,4,2,5,80,0,1
62276,-83.3333333333333,4,2,5,80,0,1
62358,-83.3333333333333,4,2,5,80,0,1
62364,-83.3333333333333,4,2,5,5,0,1
62453,-83.3333333333333,4,2,18,80,0,1
62535,-83.3333333333333,4,2,18,80,0,1
62629,-83.3333333333333,4,2,2,80,0,1
62711,-83.3333333333333,4,2,2,80,0,1
62805,-83.3333333333333,4,2,6,80,0,1
62982,-83.3333333333333,4,2,2,80,0,1
63158,-83.3333333333333,4,2,18,80,0,1
63240,-83.3333333333333,4,2,18,80,0,1
63335,-83.3333333333333,4,2,3,80,0,1
63417,-83.3333333333333,4,2,3,80,0,1
63511,-83.3333333333333,4,2,6,80,0,1
63688,-83.3333333333333,4,2,2,80,0,1
63864,-83.3333333333333,4,2,18,80,0,1
63946,-83.3333333333333,4,2,18,80,0,1
63953,-83.3333333333333,4,2,3,80,0,1
64035,-83.3333333333333,4,2,3,80,0,1
64217,-83.3333333333333,4,2,7,80,0,1
64299,-83.3333333333333,4,2,7,80,0,1
64394,-83.3333333333333,4,2,2,80,0,1
64476,-83.3333333333333,4,2,2,80,0,1
64570,-83.3333333333333,4,2,20,80,0,1
64614,-83.3333333333333,4,2,2,80,0,1
64652,-83.3333333333333,4,2,2,80,0,1
64696,-83.3333333333333,4,2,2,80,0,1
64746,-83.3333333333333,4,2,2,80,0,1
64923,-83.3333333333333,4,2,5,80,0,1
65005,-83.3333333333333,4,2,5,80,0,1
65100,-83.3333333333333,4,2,5,80,0,1
65182,-83.3333333333333,4,2,5,80,0,1
65187,-83.3333333333333,4,2,5,5,0,1
65276,-83.3333333333333,4,2,18,80,0,1
65358,-83.3333333333333,4,2,18,80,0,1
65453,-83.3333333333333,4,2,2,80,0,1
65535,-83.3333333333333,4,2,2,80,0,1
65629,-83.3333333333333,4,2,6,80,0,1
65805,-83.3333333333333,4,2,2,80,0,1
65893,-83.3333333333333,4,2,2,80,0,1
65982,-83.3333333333333,4,2,18,80,0,1
66064,-83.3333333333333,4,2,18,80,0,1
66158,-83.3333333333333,4,2,3,80,0,1
66240,-83.3333333333333,4,2,3,80,0,1
66335,-83.3333333333333,4,2,6,80,0,1
66511,-83.3333333333333,4,2,2,80,0,1
66599,-83.3333333333333,4,2,2,80,0,1
66688,-83.3333333333333,4,2,18,80,0,1
66770,-83.3333333333333,4,2,18,80,0,1
66776,-83.3333333333333,4,2,3,80,0,1
66858,-83.3333333333333,4,2,3,80,0,1
67041,-83.3333333333333,4,2,7,80,0,1
67123,-83.3333333333333,4,2,7,80,0,1
67217,-83.3333333333333,4,2,2,80,0,1
67299,-83.3333333333333,4,2,2,80,0,1
67394,-83.3333333333333,4,2,19,80,0,1
67476,-83.3333333333333,4,2,19,80,0,1
67570,-83.3333333333333,4,2,5,80,0,1
67652,-83.3333333333333,4,2,5,80,0,1
67747,-83.3333333333333,4,2,5,80,0,1
67829,-83.3333333333333,4,2,5,80,0,1
67923,-83.3333333333333,4,2,5,80,0,1
68005,-83.3333333333333,4,2,5,80,0,1
68011,-83.3333333333333,4,2,5,5,0,1
68100,-83.3333333333333,4,2,18,80,0,1
68182,-83.3333333333333,4,2,18,80,0,1
68276,-83.3333333333333,4,2,2,80,0,1
68358,-83.3333333333333,4,2,2,80,0,1
68453,-83.3333333333333,4,2,6,80,0,1
68629,-83.3333333333333,4,2,2,80,0,1
68717,-83.3333333333333,4,2,2,80,0,1
68805,-83.3333333333333,4,2,18,80,0,1
68887,-83.3333333333333,4,2,18,80,0,1
68982,-83.3333333333333,4,2,3,80,0,1
69064,-83.3333333333333,4,2,3,80,0,1
69158,-83.3333333333333,4,2,21,80,0,1
69240,-83.3333333333333,4,2,21,80,0,1
69247,-83.3333333333333,4,2,4,80,0,1
69329,-83.3333333333333,4,2,4,80,0,1
69511,-83.3333333333333,4,2,22,80,0,1
69593,-83.3333333333333,4,2,22,80,0,1
69600,-83.3333333333333,4,2,4,80,0,1
69682,-83.3333333333333,4,2,4,80,0,1
69864,-83.3333333333333,4,2,22,80,0,1
69946,-83.3333333333333,4,2,22,80,0,1
69953,-83.3333333333333,4,2,4,80,0,1
70035,-83.3333333333333,4,2,4,80,0,1
70217,-83.3333333333333,4,2,8,80,0,1
70261,-83.3333333333333,4,2,2,80,0,1
70299,-83.3333333333333,4,2,2,80,0,1
70343,-83.3333333333333,4,2,2,80,0,1
70570,-100,4,2,23,52,0,0
70652,-100,4,2,23,52,0,0
70923,-100,4,2,18,52,0,0
71005,-100,4,2,18,52,0,0
71100,-100,4,2,2,52,0,0
71182,-100,4,2,2,52,0,0
71276,-100,4,2,1,52,0,0
71453,-100,4,2,2,52,0,0
71629,-100,4,2,18,52,0,0
71711,-100,4,2,18,52,0,0
71805,-100,4,2,2,52,0,0
71887,-100,4,2,2,52,0,0
71982,-100,4,2,1,52,0,0
72158,-100,4,2,2,52,0,0
72335,-100,4,2,18,52,0,0
72417,-100,4,2,18,52,0,0
72423,-100,4,2,2,52,0,0
72505,-100,4,2,2,52,0,0
72688,-100,4,2,18,52,0,0
72770,-100,4,2,18,52,0,0
72864,-100,4,2,2,52,0,0
72946,-100,4,2,2,52,0,0
73041,-100,4,2,18,52,0,0
73123,-100,4,2,18,52,0,0
73217,-100,4,2,2,52,0,0
73299,-100,4,2,2,52,0,0
73394,-100,4,2,18,52,0,0
73476,-100,4,2,18,52,0,0
73923,-100,4,2,2,52,0,0
74005,-100,4,2,2,52,0,0
74100,-100,4,2,1,52,0,0
74276,-100,4,2,2,52,0,0
74453,-100,4,2,18,52,0,0
74535,-100,4,2,18,52,0,0
74629,-100,4,2,2,52,0,0
74711,-100,4,2,2,52,0,0
74805,-100,4,2,18,52,0,0
74887,-100,4,2,18,52,0,0
75776,-100,4,2,2,52,0,0
75858,-100,4,2,2,52,0,0
75864,-100,4,2,1,52,0,0
76041,-100,4,2,2,52,0,0
76217,-100,4,2,18,52,0,0
76299,-100,4,2,18,52,0,0
76747,-100,4,2,2,52,0,0
76829,-100,4,2,2,52,0,0
76923,-100,4,2,1,52,0,0
77099,-100,4,2,2,52,0,0
77276,-100,4,2,18,52,0,0
77358,-100,4,2,18,52,0,0
77453,-100,4,2,2,52,0,0
77535,-100,4,2,2,52,0,0
77629,-100,4,2,1,52,0,0
77805,-100,4,2,2,52,0,0
77982,-100,4,2,18,52,0,0
78064,-100,4,2,18,52,0,0
78070,-100,4,2,2,52,0,0
78152,-100,4,2,2,52,0,0
78335,-100,4,2,18,52,0,0
78417,-100,4,2,18,52,0,0
78511,-100,4,2,2,52,0,0
78593,-100,4,2,2,52,0,0
78688,-100,4,2,18,52,0,0
78770,-100,4,2,18,52,0,0
78864,-100,4,2,2,52,0,0
78946,-100,4,2,2,52,0,0
79041,-100,4,2,18,52,0,0
79123,-100,4,2,18,52,0,0
79570,-100,4,2,2,52,0,0
79652,-100,4,2,2,52,0,0
79747,-100,4,2,1,52,0,0
79923,-100,4,2,2,52,0,0
80100,-100,4,2,18,52,0,0
80182,-100,4,2,18,52,0,0
80276,-100,4,2,2,52,0,0
80358,-100,4,2,2,52,0,0
80453,-100,4,2,18,52,0,0
80535,-100,4,2,18,52,0,0
81423,-100,4,2,2,52,0,0
81505,-100,4,2,2,52,0,0
81511,-100,4,2,1,52,0,0
81688,-100,4,2,2,52,0,0
81864,-100,4,2,24,64,0,0
81946,-100,4,2,24,64,0,0
82217,-100,4,2,18,64,0,0
82299,-100,4,2,18,64,0,0
82394,-100,4,2,2,64,0,0
82476,-100,4,2,2,64,0,0
82570,-100,4,2,1,64,0,0
82746,-100,4,2,2,64,0,0
82923,-100,4,2,18,64,0,0
83005,-100,4,2,18,64,0,0
83100,-100,4,2,2,64,0,0
83182,-100,4,2,2,64,0,0
83276,-100,4,2,1,64,0,0
83452,-100,4,2,2,64,0,0
83629,-100,4,2,18,64,0,0
83711,-100,4,2,18,64,0,0
83717,-100,4,2,2,64,0,0
83799,-100,4,2,2,64,0,0
83982,-100,4,2,18,64,0,0
84064,-100,4,2,18,64,0,0
84158,-100,4,2,2,64,0,0
84240,-100,4,2,2,64,0,0
84335,-100,4,2,18,64,0,0
84417,-100,4,2,18,64,0,0
84511,-100,4,2,2,64,0,0
84593,-100,4,2,2,64,0,0
84688,-100,4,2,18,64,0,0
84770,-100,4,2,18,64,0,0
84864,-100,4,2,2,64,0,0
84946,-100,4,2,2,64,0,0
85041,-100,4,2,18,64,0,0
85123,-100,4,2,18,64,0,0
85217,-100,4,2,2,64,0,0
85299,-100,4,2,2,64,0,0
85394,-100,4,2,1,64,0,0
85569,-100,4,2,2,64,0,0
85747,-100,4,2,18,64,0,0
85829,-100,4,2,18,64,0,0
85923,-100,4,2,2,64,0,0
86005,-100,4,2,2,64,0,0
86100,-100,4,2,18,64,0,0
86182,-100,4,2,18,64,0,0
86275,-100,4,2,2,64,0,0
86358,-100,4,2,2,64,0,0
86453,-100,4,2,18,64,0,0
86535,-100,4,2,18,64,0,0
86541,-100,4,2,2,64,0,0
86623,-100,4,2,2,64,0,0
86805,-100,4,2,18,64,0,0
86887,-100,4,2,18,64,0,0
86982,-100,4,2,2,64,0,0
87064,-100,4,2,2,64,0,0
87158,-100,4,2,1,64,0,0
87334,-100,4,2,2,64,0,0
87511,-100,4,2,18,64,0,0
87593,-100,4,2,18,64,0,0
87688,-100,4,2,2,64,0,0
87770,-100,4,2,2,64,0,0
87864,-100,4,2,18,64,0,0
87946,-100,4,2,18,64,0,0
88041,-100,4,2,2,64,0,0
88123,-100,4,2,2,64,0,0
88217,-100,4,2,1,64,0,0
88393,-100,4,2,2,64,0,0
88570,-100,4,2,18,64,0,0
88652,-100,4,2,18,64,0,0
88747,-100,4,2,2,64,0,0
88829,-100,4,2,2,64,0,0
88923,-100,4,2,1,64,0,0
89099,-100,4,2,2,64,0,0
89276,-100,4,2,18,64,0,0
89358,-100,4,2,18,64,0,0
89364,-100,4,2,2,64,0,0
89446,-100,4,2,2,64,0,0
89629,-100,4,2,18,64,0,0
89711,-100,4,2,18,64,0,0
89805,-100,4,2,2,64,0,0
89887,-100,4,2,2,64,0,0
89982,-100,4,2,18,64,0,0
90064,-100,4,2,18,64,0,0
90158,-100,4,2,2,64,0,0
90240,-100,4,2,2,64,0,0
90335,-100,4,2,18,64,0,0
90417,-100,4,2,18,64,0,0
90864,-100,4,2,2,64,0,0
90946,-100,4,2,2,64,0,0
91041,-100,4,2,1,64,0,0
91216,-100,4,2,2,64,0,0
91394,-100,4,2,18,64,0,0
91476,-100,4,2,18,64,0,0
91570,-100,4,2,2,64,0,0
91652,-100,4,2,2,64,0,0
91747,-100,4,2,25,64,0,0
91829,-100,4,2,25,64,0,0
91923,-100,4,2,4,64,0,0
92005,-100,4,2,4,64,0,0
92100,-100,4,2,26,64,0,0
92182,-100,4,2,26,64,0,0
92188,-100,4,2,4,64,0,0
92270,-100,4,2,4,64,0,0
92453,-100,4,2,26,64,0,0
92535,-100,4,2,26,64,0,0
92629,-100,4,2,4,64,0,0
92711,-100,4,2,4,64,0,0
92805,-100,4,2,25,64,0,0
92887,-100,4,2,25,64,0,0
92982,-100,4,2,2,64,0,0
93064,-100,4,2,2,64,0,0
93158,-90.9090909090909,4,2,7,70,0,0
93240,-90.9090909090909,4,2,7,70,0,0
93334,-90.9090909090909,4,2,2,70,0,0
93417,-90.9090909090909,4,2,2,70,0,0
93511,-90.9090909090909,4,2,3,70,0,0
93593,-90.9090909090909,4,2,3,70,0,0
93688,-90.9090909090909,4,2,2,70,0,0
93770,-90.9090909090909,4,2,2,70,0,0
93864,-90.9090909090909,4,2,3,70,0,0
93946,-90.9090909090909,4,2,3,70,0,0
94040,-90.9090909090909,4,2,2,70,0,0
94123,-90.9090909090909,4,2,2,70,0,0
94217,-90.9090909090909,4,2,8,70,0,0
94299,-90.9090909090909,4,2,8,70,0,0
94305,-90.9090909090909,4,2,2,70,0,0
94387,-90.9090909090909,4,2,2,70,0,0
94393,-90.9090909090909,4,2,2,70,0,0
94569,-90.9090909090909,4,2,3,70,0,0
94652,-90.9090909090909,4,2,3,70,0,0
94745,-90.9090909090909,4,2,2,70,0,0
94829,-90.9090909090909,4,2,2,70,0,0
94923,-90.9090909090909,4,2,8,70,0,0
95005,-90.9090909090909,4,2,8,70,0,0
95100,-90.9090909090909,4,2,2,70,0,0
95182,-90.9090909090909,4,2,2,70,0,0
95276,-90.9090909090909,4,2,8,70,0,0
95358,-90.9090909090909,4,2,8,70,0,0
95452,-90.9090909090909,4,2,8,70,0,0
95629,-90.9090909090909,4,2,8,70,0,0
95673,-90.9090909090909,4,2,2,70,0,0
95755,-90.9090909090909,4,2,2,70,0,0
95805,-90.9090909090909,4,2,2,70,0,0
95982,-90.9090909090909,4,2,3,70,0,0
96064,-90.9090909090909,4,2,3,70,0,0
96158,-90.9090909090909,4,2,3,70,0,0
96247,-90.9090909090909,4,2,2,70,0,0
96329,-90.9090909090909,4,2,2,70,0,0
96335,-90.9090909090909,4,2,3,70,0,0
96417,-90.9090909090909,4,2,3,70,0,0
96511,-90.9090909090909,4,2,2,70,0,0
96593,-90.9090909090909,4,2,2,70,0,0
96688,-90.9090909090909,4,2,3,70,0,0
96770,-90.9090909090909,4,2,3,70,0,0
96864,-90.9090909090909,4,2,2,70,0,0
96946,-90.9090909090909,4,2,2,70,0,0
97041,-90.9090909090909,4,2,8,70,0,0
97123,-90.9090909090909,4,2,8,70,0,0
97129,-90.9090909090909,4,2,2,70,0,0
97211,-90.9090909090909,4,2,2,70,0,0
97394,-90.9090909090909,4,2,3,70,0,0
97476,-90.9090909090909,4,2,3,70,0,0
97570,-90.9090909090909,4,2,3,70,0,0
97658,-90.9090909090909,4,2,2,70,0,0
97740,-90.9090909090909,4,2,2,70,0,0
97747,-90.9090909090909,4,2,3,70,0,0
97829,-90.9090909090909,4,2,3,70,0,0
97923,-90.9090909090909,4,2,2,70,0,0
98005,-90.9090909090909,4,2,2,70,0,0
98100,-90.9090909090909,4,2,8,70,0,0
98182,-90.9090909090909,4,2,8,70,0,0
98453,-90.9090909090909,4,2,9,70,0,0
98497,-90.9090909090909,4,2,2,70,0,0
98535,-90.9090909090909,4,2,2,70,0,0
98579,-90.9090909090909,4,2,2,70,0,0
98629,-90.9090909090909,4,2,2,70,0,0
98805,-90.9090909090909,4,2,7,70,0,0
98887,-90.9090909090909,4,2,7,70,0,0
98981,-90.9090909090909,4,2,2,70,0,0
99064,-90.9090909090909,4,2,2,70,0,0
99158,-90.9090909090909,4,2,3,70,0,0
99240,-90.9090909090909,4,2,3,70,0,0
99335,-90.9090909090909,4,2,2,70,0,0
99417,-90.9090909090909,4,2,2,70,0,0
99511,-90.9090909090909,4,2,3,70,0,0
99593,-90.9090909090909,4,2,3,70,0,0
99687,-90.9090909090909,4,2,2,70,0,0
99770,-90.9090909090909,4,2,2,70,0,0
99864,-90.9090909090909,4,2,8,70,0,0
99946,-90.9090909090909,4,2,8,70,0,0
99953,-90.9090909090909,4,2,2,70,0,0
100035,-90.9090909090909,4,2,2,70,0,0
100217,-90.9090909090909,4,2,3,70,0,0
100299,-90.9090909090909,4,2,3,70,0,0
100393,-90.9090909090909,4,2,2,70,0,0
100476,-90.9090909090909,4,2,2,70,0,0
100570,-90.9090909090909,4,2,8,70,0,0
100652,-90.9090909090909,4,2,8,70,0,0
100747,-90.9090909090909,4,2,2,70,0,0
100829,-90.9090909090909,4,2,2,70,0,0
100923,-90.9090909090909,4,2,8,70,0,0
101005,-90.9090909090909,4,2,8,70,0,0
101099,-90.9090909090909,4,2,8,70,0,0
101276,-90.9090909090909,4,2,8,70,0,0
101320,-90.9090909090909,4,2,2,70,0,0
101402,-90.9090909090909,4,2,2,70,0,0
101452,-90.9090909090909,4,2,2,70,0,0
101629,-90.9090909090909,4,2,3,70,0,0
101711,-90.9090909090909,4,2,3,70,0,0
101805,-90.9090909090909,4,2,3,70,0,0
101894,-90.9090909090909,4,2,2,70,0,0
101976,-90.9090909090909,4,2,2,70,0,0
101982,-90.9090909090909,4,2,3,70,0,0
102064,-90.9090909090909,4,2,3,70,0,0
102158,-90.9090909090909,4,2,2,70,0,0
102240,-90.9090909090909,4,2,2,70,0,0
102335,-90.9090909090909,4,2,3,70,0,0
102417,-90.9090909090909,4,2,3,70,0,0
102511,-90.9090909090909,4,2,2,70,0,0
102593,-90.9090909090909,4,2,2,70,0,0
102688,-90.9090909090909,4,2,8,70,0,0
102770,-90.9090909090909,4,2,8,70,0,0
102776,-90.9090909090909,4,2,2,70,0,0
102858,-90.9090909090909,4,2,2,70,0,0
103041,-90.9090909090909,4,2,8,70,0,0
103085,-90.9090909090909,4,2,2,70,0,0
103123,-90.9090909090909,4,2,2,70,0,0
103167,-90.9090909090909,4,2,2,70,0,0
103217,-90.9090909090909,4,2,4,70,0,0
103299,-90.9090909090909,4,2,4,70,0,0
103394,-90.9090909090909,4,2,5,70,0,0
103476,-90.9090909090909,4,2,5,70,0,0
103482,-90.9090909090909,4,2,4,70,0,0
103564,-90.9090909090909,4,2,4,70,0,0
103747,-90.9090909090909,4,2,5,70,0,0
103829,-90.9090909090909,4,2,5,70,0,0
103835,-90.9090909090909,4,2,4,70,0,0
103917,-90.9090909090909,4,2,4,70,0,0
104100,-90.9090909090909,4,2,28,70,0,0
104182,-90.9090909090909,4,2,28,70,0,0
104453,-90.9090909090909,4,2,7,70,0,0
104535,-90.9090909090909,4,2,7,70,0,0
104629,-90.9090909090909,4,2,3,70,0,0
104711,-90.9090909090909,4,2,3,70,0,0
105334,-90.9090909090909,4,2,3,5,0,0
105511,-90.9090909090909,4,2,3,70,0,0
106040,-90.9090909090909,4,2,3,70,0,0
106217,-90.9090909090909,4,2,3,70,0,0
106393,-90.9090909090909,4,2,3,5,0,0
106570,-90.9090909090909,4,2,3,70,0,0
106746,-90.9090909090909,4,2,3,70,0,0
106923,-90.9090909090909,4,2,8,70,0,0
106967,-90.9090909090909,4,2,2,70,0,0
107005,-90.9090909090909,4,2,2,70,0,0
107049,-90.9090909090909,4,2,2,70,0,0
107099,-90.9090909090909,4,2,2,70,0,0
107276,-90.9090909090909,4,2,3,70,0,0
107358,-90.9090909090909,4,2,3,70,0,0
108158,-90.9090909090909,4,2,3,5,0,0
108335,-90.9090909090909,4,2,8,70,0,0
108417,-90.9090909090909,4,2,8,70,0,0
108423,-90.9090909090909,4,2,2,70,0,0
108505,-90.9090909090909,4,2,2,70,0,0
108688,-90.9090909090909,4,2,3,70,0,0
108770,-90.9090909090909,4,2,3,70,0,0
108864,-90.9090909090909,4,2,3,70,0,0
109041,-90.9090909090909,4,2,3,70,0,0
109217,-90.9090909090909,4,2,3,5,0,0
109394,-90.9090909090909,4,2,3,70,0,0
109747,-90.9090909090909,4,2,9,70,0,0
109791,-90.9090909090909,4,2,2,70,0,0
109829,-90.9090909090909,4,2,2,70,0,0
109873,-90.9090909090909,4,2,2,70,0,0
109923,-90.9090909090909,4,2,2,70,0,0
110100,-90.9090909090909,4,2,7,70,0,0
110182,-90.9090909090909,4,2,7,70,0,0
110364,-90.9090909090909,4,2,3,70,0,0
110446,-90.9090909090909,4,2,3,70,0,0
111335,-90.9090909090909,4,2,8,70,0,0
111417,-90.9090909090909,4,2,8,70,0,0
111511,-90.9090909090909,4,2,3,70,0,0
111593,-90.9090909090909,4,2,3,70,0,0
112658,-90.9090909090909,4,2,2,70,0,0
112740,-90.9090909090909,4,2,2,70,0,0
112923,-90.9090909090909,4,2,4,70,0,0
113005,-90.9090909090909,4,2,4,70,0,0
113805,-90.9090909090909,4,2,4,70,0,0
113982,-90.9090909090909,4,2,4,70,0,0
114335,-90.9090909090909,4,2,29,70,0,0
114417,-90.9090909090909,4,2,29,70,0,0
114423,-90.9090909090909,4,2,4,70,0,0
114505,-90.9090909090909,4,2,4,70,0,0
114511,-90.9090909090909,4,2,4,70,0,0
114688,-90.9090909090909,4,2,4,70,0,0
115041,-90.9090909090909,4,2,2,70,0,0
115123,-90.9090909090909,4,2,2,70,0,0
115217,-90.9090909090909,4,2,2,70,0,0
115394,-90.9090909090909,4,2,2,70,0,0
115747,-90.9090909090909,4,2,4,60,0,0
115829,-90.9090909090909,4,2,4,60,0,0
116453,-90.9090909090909,4,2,2,70,0,0
116535,-90.9090909090909,4,2,2,70,0,0
116629,-90.9090909090909,4,2,2,75,0,0
116711,-90.9090909090909,4,2,2,75,0,0
116805,-90.9090909090909,4,2,30,80,0,0
116887,-90.9090909090909,4,2,30,80,0,0
116982,-90.9090909090909,4,2,2,80,0,0
117064,-90.9090909090909,4,2,2,80,0,0
117158,-76.9230769230769,4,2,9,80,0,1
117240,-76.9230769230769,4,2,9,80,0,1
117335,-76.9230769230769,4,2,2,80,0,1
117417,-76.9230769230769,4,2,2,80,0,1
117511,-76.9230769230769,4,2,13,80,0,1
117688,-76.9230769230769,4,2,3,80,0,1
118217,-76.9230769230769,4,2,14,80,0,1
118394,-76.9230769230769,4,2,2,80,0,1
118570,-76.9230769230769,4,2,1,80,0,1
118652,-76.9230769230769,4,2,1,80,0,1
118747,-76.9230769230769,4,2,13,80,0,1
118829,-76.9230769230769,4,2,13,80,0,1
118834,-76.9230769230769,4,2,13,5,0,1
118923,-76.9230769230769,4,2,13,80,0,1
119276,-76.9230769230769,4,2,2,80,0,1
119629,-76.9230769230769,4,2,13,80,0,1
119805,-76.9230769230769,4,2,3,80,0,1
119982,-76.9230769230769,4,2,2,80,0,1
120246,-76.9230769230769,4,2,2,80,0,1
120335,-76.9230769230769,4,2,13,80,0,1
120511,-76.9230769230769,4,2,3,80,0,1
121041,-76.9230769230769,4,2,15,80,0,1
121085,-76.9230769230769,4,2,2,80,0,1
121123,-76.9230769230769,4,2,2,80,0,1
121167,-76.9230769230769,4,2,2,80,0,1
121394,-76.9230769230769,4,2,1,80,0,1
121476,-76.9230769230769,4,2,1,80,0,1
121570,-76.9230769230769,4,2,13,80,0,1
121652,-76.9230769230769,4,2,13,80,0,1
121658,-76.9230769230769,4,2,13,5,0,1
121747,-76.9230769230769,4,2,13,80,0,1
122100,-76.9230769230769,4,2,2,80,0,1
122364,-76.9230769230769,4,2,2,80,0,1
122453,-76.9230769230769,4,2,13,80,0,1
122629,-76.9230769230769,4,2,3,80,0,1
122805,-76.9230769230769,4,2,2,80,0,1
123158,-76.9230769230769,4,2,13,80,0,1
123335,-76.9230769230769,4,2,3,80,0,1
123864,-76.9230769230769,4,2,14,80,0,1
124041,-76.9230769230769,4,2,2,80,0,1
124217,-76.9230769230769,4,2,1,80,0,1
124299,-76.9230769230769,4,2,1,80,0,1
124394,-76.9230769230769,4,2,13,80,0,1
124476,-76.9230769230769,4,2,13,80,0,1
124481,-76.9230769230769,4,2,13,5,0,1
124570,-76.9230769230769,4,2,13,80,0,1
124923,-76.9230769230769,4,2,2,80,0,1
125276,-76.9230769230769,4,2,13,80,0,1
125453,-76.9230769230769,4,2,3,80,0,1
125629,-76.9230769230769,4,2,16,80,0,1
125711,-76.9230769230769,4,2,16,80,0,1
125717,-76.9230769230769,4,2,4,80,0,1
125799,-76.9230769230769,4,2,4,80,0,1
125982,-76.9230769230769,4,2,17,80,0,1
126064,-76.9230769230769,4,2,17,80,0,1
126070,-76.9230769230769,4,2,4,80,0,1
126152,-76.9230769230769,4,2,4,80,0,1
126335,-76.9230769230769,4,2,17,80,0,1
126417,-76.9230769230769,4,2,17,80,0,1
126423,-76.9230769230769,4,2,4,80,0,1
126505,-76.9230769230769,4,2,4,80,0,1
126688,-76.9230769230769,4,2,4,80,0,1
126732,-76.9230769230769,4,2,2,80,0,1
126770,-76.9230769230769,4,2,2,80,0,1
126814,-76.9230769230769,4,2,2,80,0,1
127041,-76.9230769230769,4,2,5,80,0,1
127123,-76.9230769230769,4,2,5,80,0,1
127217,-76.9230769230769,4,2,5,80,0,1
127299,-76.9230769230769,4,2,5,80,0,1
127305,-76.9230769230769,4,2,5,5,0,1
127394,-76.9230769230769,4,2,18,80,0,1
127476,-76.9230769230769,4,2,18,80,0,1
127570,-76.9230769230769,4,2,2,80,0,1
127652,-76.9230769230769,4,2,2,80,0,1
127747,-76.9230769230769,4,2,6,80,0,1
127923,-76.9230769230769,4,2,2,80,0,1
128011,-76.9230769230769,4,2,2,80,0,1
128100,-76.9230769230769,4,2,18,80,0,1
128182,-76.9230769230769,4,2,18,80,0,1
128276,-76.9230769230769,4,2,3,80,0,1
128358,-76.9230769230769,4,2,3,80,0,1
128453,-76.9230769230769,4,2,6,80,0,1
128629,-76.9230769230769,4,2,2,80,0,1
128717,-76.9230769230769,4,2,2,80,0,1
128806,-76.9230769230769,4,2,18,80,0,1
128887,-76.9230769230769,4,2,18,80,0,1
128894,-76.9230769230769,4,2,3,80,0,1
128976,-76.9230769230769,4,2,3,80,0,1
129158,-76.9230769230769,4,2,7,80,0,1
129240,-76.9230769230769,4,2,7,80,0,1
129335,-76.9230769230769,4,2,2,80,0,1
129417,-76.9230769230769,4,2,2,80,0,1
129511,-76.9230769230769,4,2,19,80,0,1
129593,-76.9230769230769,4,2,19,80,0,1
129688,-76.9230769230769,4,2,5,80,0,1
129770,-76.9230769230769,4,2,5,80,0,1
129864,-76.9230769230769,4,2,5,80,0,1
129946,-76.9230769230769,4,2,5,80,0,1
130041,-76.9230769230769,4,2,5,80,0,1
130123,-76.9230769230769,4,2,5,80,0,1
130128,-76.9230769230769,4,2,5,5,0,1
130217,-76.9230769230769,4,2,18,80,0,1
130299,-76.9230769230769,4,2,18,80,0,1
130394,-76.9230769230769,4,2,2,80,0,1
130476,-76.9230769230769,4,2,2,80,0,1
130570,-76.9230769230769,4,2,6,80,0,1
130747,-76.9230769230769,4,2,2,80,0,1
130923,-76.9230769230769,4,2,18,80,0,1
131005,-76.9230769230769,4,2,18,80,0,1
131100,-76.9230769230769,4,2,3,80,0,1
131182,-76.9230769230769,4,2,3,80,0,1
131276,-76.9230769230769,4,2,6,80,0,1
131453,-76.9230769230769,4,2,2,80,0,1
131629,-76.9230769230769,4,2,18,80,0,1
131711,-76.9230769230769,4,2,18,80,0,1
131717,-76.9230769230769,4,2,3,80,0,1
131799,-76.9230769230769,4,2,3,80,0,1
131982,-76.9230769230769,4,2,7,80,0,1
132064,-76.9230769230769,4,2,7,80,0,1
132158,-76.9230769230769,4,2,2,80,0,1
132240,-76.9230769230769,4,2,2,80,0,1
132335,-76.9230769230769,4,2,20,80,0,1
132379,-76.9230769230769,4,2,2,80,0,1
132417,-76.9230769230769,4,2,2,80,0,1
132461,-76.9230769230769,4,2,2,80,0,1
132688,-76.9230769230769,4,2,5,80,0,1
132770,-76.9230769230769,4,2,5,80,0,1
132864,-76.9230769230769,4,2,5,80,0,1
132946,-76.9230769230769,4,2,5,80,0,1
132952,-76.9230769230769,4,2,5,5,0,1
133041,-76.9230769230769,4,2,18,80,0,1
133123,-76.9230769230769,4,2,18,80,0,1
133217,-76.9230769230769,4,2,2,80,0,1
133299,-76.9230769230769,4,2,2,80,0,1
133394,-76.9230769230769,4,2,6,80,0,1
133570,-76.9230769230769,4,2,2,80,0,1
133658,-76.9230769230769,4,2,2,80,0,1
133747,-76.9230769230769,4,2,18,80,0,1
133829,-76.9230769230769,4,2,18,80,0,1
133923,-76.9230769230769,4,2,3,80,0,1
134005,-76.9230769230769,4,2,3,80,0,1
134100,-76.9230769230769,4,2,6,80,0,1
134276,-76.9230769230769,4,2,2,80,0,1
134364,-76.9230769230769,4,2,2,80,0,1
134453,-76.9230769230769,4,2,18,80,0,1
134535,-76.9230769230769,4,2,18,80,0,1
134541,-76.9230769230769,4,2,3,80,0,1
134623,-76.9230769230769,4,2,3,80,0,1
134805,-76.9230769230769,4,2,7,80,0,1
134887,-76.9230769230769,4,2,7,80,0,1
134982,-76.9230769230769,4,2,2,80,0,1
135064,-76.9230769230769,4,2,2,80,0,1
135158,-76.9230769230769,4,2,19,80,0,1
135240,-76.9230769230769,4,2,19,80,0,1
135335,-76.9230769230769,4,2,5,80,0,1
135417,-76.9230769230769,4,2,5,80,0,1
135511,-76.9230769230769,4,2,5,80,0,1
135593,-76.9230769230769,4,2,5,80,0,1
135688,-76.9230769230769,4,2,5,80,0,1
135770,-76.9230769230769,4,2,5,80,0,1
135775,-76.9230769230769,4,2,5,5,0,1
135864,-76.9230769230769,4,2,18,80,0,1
135946,-76.9230769230769,4,2,18,80,0,1
136041,-76.9230769230769,4,2,2,80,0,1
136123,-76.9230769230769,4,2,2,80,0,1
136217,-76.9230769230769,4,2,6,80,0,1
136394,-76.9230769230769,4,2,2,80,0,1
136570,-76.9230769230769,4,2,18,80,0,1
136652,-76.9230769230769,4,2,18,80,0,1
136747,-76.9230769230769,4,2,3,80,0,1
136829,-76.9230769230769,4,2,3,80,0,1
136923,-76.9230769230769,4,2,21,80,0,1
137005,-76.9230769230769,4,2,21,80,0,1
137011,-76.9230769230769,4,2,4,80,0,1
137093,-76.9230769230769,4,2,4,80,0,1
137276,-76.9230769230769,4,2,22,80,0,1
137358,-76.9230769230769,4,2,22,80,0,1
137364,-76.9230769230769,4,2,4,80,0,1
137446,-76.9230769230769,4,2,4,80,0,1
137629,-76.9230769230769,4,2,22,80,0,1
137711,-76.9230769230769,4,2,22,80,0,1
137717,-76.9230769230769,4,2,4,80,0,1
137799,-76.9230769230769,4,2,4,80,0,1
137982,-76.9230769230769,4,2,8,80,0,1
138026,-76.9230769230769,4,2,2,80,0,1
138064,-76.9230769230769,4,2,2,80,0,1
138108,-76.9230769230769,4,2,2,80,0,1
138335,-76.9230769230769,4,2,23,60,0,0
138417,-76.9230769230769,4,2,23,60,0,0
138688,-76.9230769230769,4,2,2,60,0,0
138770,-76.9230769230769,4,2,2,60,0,0
143982,-76.9230769230769,4,2,1,60,0,0
144064,-76.9230769230769,4,2,1,60,0,0
144335,-76.9230769230769,4,2,2,60,0,0
144417,-76.9230769230769,4,2,2,60,0,0
148041,-76.9230769230769,4,2,31,60,0,0
148123,-76.9230769230769,4,2,31,60,0,0

[Colours]
Combo1 : 245,206,101
Combo2 : 111,215,111
Combo3 : 241,116,179
Combo4 : 218,204,194
Combo5 : 125,203,249

[HitObjects]
295,353,13041,6,0,P|299:336|304:319,3,35,2|2|2|2,2:2|2:2|2:2|2:2,0:0:0:0:
277,285,13394,1,2,2:2:0:0:
315,210,13570,1,2,2:2:0:0:
255,141,13747,2,0,P|209:148|158:157,1,70,2|2,2:2|2:2,0:0:0:0:
82,195,14100,6,0,P|99:128|113:54,1,140,6|2,1:2|2:2,0:0:0:0:
48,3,14629,1,2,2:2:0:0:
48,3,14805,1,8,2:2:0:0:
10,77,14982,2,0,P|46:87|93:89,1,70,2|2,2:2|2:2,0:0:0:0:
121,161,15335,2,0,P|177:165|274:185,1,140,2|10,2:2|2:2,0:0:0:0:
303,252,15864,2,0,P|333:257|353:262,3,35,2|2|2|2,1:2|2:2|2:2|2:2,0:0:0:0:
364,290,16217,2,0,P|348:339|342:377,1,70,10|2,2:2|2:2,0:0:0:0:
438,353,16570,1,2,2:2:0:0:
486,177,16923,6,0,P|477:140|382:115,1,140,2|2,1:2|2:2,0:0:0:0:
334,176,17453,1,2,2:2:0:0:
334,176,17629,1,8,2:2:0:0:
383,247,17805,2,0,P|417:253|450:265,2,70,2|2|2,2:2|2:2|2:2,0:0:0:0:
348,332,18335,1,0,0:0:0:0:
348,332,18511,1,10,2:2:0:0:
259,305,18688,6,0,P|242:300|224:298,3,35,2|2|2|2,1:2|2:2|2:2|2:2,0:0:0:0:
182,326,19041,1,10,2:2:0:0:
199,218,19217,1,2,2:2:0:0:
110,263,19394,2,0,B|81:284|81:284|24:274,1,70,10|10,2:2|2:2,0:0:0:0:
74,179,19747,6,0,P|86:116|117:31,1,140,2|2,1:2|2:2,0:0:0:0:
188,12,20276,1,2,2:2:0:0:
188,12,20453,1,8,2:2:0:0:
273,28,20629,2,0,P|311:35|350:38,1,70,2|2,2:2|2:2,0:0:0:0:
264,117,20982,2,0,P|202:104|102:102,1,140,2|10,2:2|2:2,0:0:0:0:
65,161,21511,2,0,P|25:155|9:156,3,35,2|2|2|2,1:2|2:2|2:2|2:2,0:0:0:0:
1,119,21864,2,0,P|14:85|17:42,1,70,10|2,2:2|2:2,0:0:0:0:
94,12,22217,1,2,2:2:0:0:
221,101,22570,6,0,P|194:143|184:263,1,140,2|2,1:2|2:2,0:0:0:0:
225,307,23100,1,2,2:2:0:0:
225,307,23276,1,8,2:2:0:0:
269,231,23453,2,0,P|309:235|347:251,2,70,2|2|2,2:2|2:2|2:2,0:0:0:0:
175,237,23982,6,0,B|144:254|144:254|88:251,1,70,8|8,2:2|2:2,0:0:0:0:
58,180,24335,2,0,B|43:179|43:179|26:188,2,35,8|8|8,1:2|2:2|2:2,0:0:0:0:
120,109,24688,1,10,2:2:0:0:
120,109,24776,1,8,2:2:0:0:
120,109,24864,1,8,2:2:0:0:
36,66,25041,2,0,B|41:35|41:35|21:-10,1,70,10|10,2:2|2:2,0:0:0:0:
159,22,25394,6,0,P|198:13|260:10,1,77.0000023498536,14|2,1:2|2:2,0:0:0:0:
303,68,25747,1,10,2:2:0:0:
303,68,25923,1,10,2:2:0:0:
257,139,26100,2,0,P|223:147|179:151,1,77.0000023498536,10|8,2:2|2:2,0:0:0:0:
101,243,26453,6,0,B|84:288|77:322|78:323,1,77.0000023498536,10|10,2:2|2:2,0:0:0:0:
184,277,26805,2,0,B|164:320|160:356|161:357,1,77.0000023498536,10|10,2:2|2:2,0:0:0:0:
260,318,27158,1,10,2:2:0:0:
440,289,27511,6,0,P|426:248|420:204,1,77.0000023498536,10|2,2:2|2:2,0:0:0:0:
342,181,27864,2,0,B|322:147|322:147|337:108,1,77.0000023498536,10|10,2:2|2:2,0:0:0:0:
364,20,28217,6,0,P|321:14|267:-5,1,77.0000023498536,10|2,2:2|2:2,0:0:0:0:
217,48,28570,1,10,2:2:0:0:
217,48,28747,1,10,2:2:0:0:
248,130,28923,2,0,P|200:137|151:155,1,77.0000023498536,10|8,2:2|2:2,0:0:0:0:
118,210,29276,6,0,P|126:233|130:252,3,38.5000011749268,10|8|10|8,2:2|2:2|2:2|2:2,0:0:0:0:
167,273,29629,2,0,P|182:315|189:368,1,77.0000023498536,10|2,2:2|2:2,0:0:0:0:
275,384,29982,2,0,P|282:346|295:310,1,77.0000023498536,10|8,2:2|2:2,0:0:0:0:
403,271,30335,5,10,2:2:0:0:
403,271,30423,1,2,2:2:0:0:
403,271,30511,1,2,2:2:0:0:
456,204,30688,2,0,B|427:178|427:178|366:185,1,77.0000023498536,10|10,2:2|2:2,0:0:0:0:
312,277,31041,6,0,P|268:284|221:306,1,77.0000023498536,14|2,2:2|2:2,0:0:0:0:
168,250,31394,1,10,2:2:0:0:
168,250,31570,1,10,2:2:0:0:
224,180,31747,2,0,P|237:144|242:106,1,77.0000023498536,10|8,2:2|2:2,0:0:0:0:
155,35,32100,6,0,P|109:30|65:18,1,77.0000023498536,10|10,2:2|2:2,0:0:0:0:
126,118,32453,2,0,P|80:113|36:101,1,77.0000023498536,10|10,2:2|2:2,0:0:0:0:
81,196,32805,1,10,2:2:0:0:
221,291,33158,6,0,P|175:296|131:308,1,77.0000023498536,10|2,2:2|2:2,0:0:0:0:
68,264,33511,2,0,B|58:227|58:227|84:190,1,77.0000023498536,10|10,2:2|2:2,0:0:0:0:
188,162,33864,6,0,P|173:118|167:80,1,77.0000023498536,10|2,2:2|2:2,0:0:0:0:
219,21,34217,1,10,2:2:0:0:
219,21,34394,1,10,2:2:0:0:
297,53,34570,2,0,P|310:89|317:126,1,77.0000023498536,10|8,2:2|2:2,0:0:0:0:
270,215,34923,6,0,P|259:252|256:274,3,38.5000011749268,10|8|10|8,2:2|2:2|2:2|2:2,0:0:0:0:
282,291,35276,2,0,B|320:300|320:300|357:277,1,77.0000023498536,10|10,2:2|2:2,0:0:0:0:
410,213,35629,2,0,P|396:167|391:116,1,77.0000023498536,10|8,2:2|2:2,0:0:0:0:
460,75,35982,5,10,2:2:0:0:
460,75,36070,1,10,2:2:0:0:
460,75,36158,1,10,2:2:0:0:
390,5,36335,2,0,L|331:-4,2,38.5000011749268,10|2|2,1:2|1:2|1:2,0:0:0:0:
287,61,36688,5,14,1:2:0:0:
287,61,36864,1,2,2:2:0:0:
259,143,37041,1,10,1:2:0:0:
259,143,37217,1,2,2:2:0:0:
337,174,37394,2,0,P|322:232|306:276,1,77.0000023498536,10|0,1:2|0:0,0:0:0:0:
216,361,37747,5,10,2:2:0:0:
196,278,37923,1,2,1:2:0:0:
127,337,38100,2,0,P|70:344|43:354,1,77.0000023498536,10|2,1:2|2:2,0:0:0:0:
112,248,38453,2,0,P|55:255|28:265,1,77.0000023498536,10|0,1:2|0:0,0:0:0:0:
0,151,38805,6,0,P|16:112|26:73,1,77.0000023498536,10|2,1:2|2:2,0:0:0:0:
75,9,39158,2,0,B|101:32|101:32|142:24,1,77.0000023498536,10|10,2:2|1:2,0:0:0:0:
245,0,39511,5,10,1:2:0:0:
245,0,39688,1,2,2:2:0:0:
269,85,39864,1,10,1:2:0:0:
269,85,40041,1,2,2:2:0:0:
348,57,40217,2,0,P|396:44|427:41,1,77.0000023498536,10|0,1:2|0:0,0:0:0:0:
482,169,40570,6,0,P|476:199|471:224,3,38.5000011749268,10|8|10|8,2:2|2:2|1:2|2:2,0:0:0:0:
441,233,40923,2,0,P|398:219|352:216,1,77.0000023498536,10|2,1:2|2:2,0:0:0:0:
417,316,41276,2,0,P|374:302|328:299,1,77.0000023498536,10|0,1:2|0:0,0:0:0:0:
264,352,41629,5,10,1:2:0:0:
264,352,41717,1,2,2:2:0:0:
264,352,41805,1,2,2:2:0:0:
188,291,41982,2,0,B|213:262|213:262|272:257,1,77.0000023498536,10|10,2:2|1:2,0:0:0:0:
364,219,42335,6,0,B|342:188|356:162|356:162|385:143|389:86,2,115.50000352478,14|10|8,1:2|1:2|1:2,0:0:0:0:
449,238,43041,2,0,B|482:219|480:189|480:189|462:160|482:106,2,115.50000352478,10|10|10,1:2|1:2|1:2,0:0:0:0:
364,219,43747,2,0,B|294:246|344:255|254:280,2,115.50000352478,10|10|8,1:2|1:2|1:2,0:0:0:0:
251,185,44453,2,0,B|181:158|231:149|141:124,2,115.50000352478,10|10|8,1:2|1:2|1:2,0:0:0:0:
333,138,45158,6,0,P|326:100|321:82,3,38.5000011749268,10|10|10|10,1:2|1:2|1:2|1:2,0:0:0:0:
354,68,45511,2,0,P|347:30|342:12,3,38.5000011749268,10|10|10|10,1:2|1:2|1:2|1:2,0:0:0:0:
308,10,45864,2,0,B|283:18|274:27|274:27|254:17|213:23,1,77.0000023498536,8|10,1:2|1:2,0:0:0:0:
232,112,46217,1,8,1:2:0:0:
232,112,46305,1,8,1:2:0:0:
232,112,46394,1,10,1:2:0:0:
140,156,46570,6,0,P|157:209|166:255,1,77.0000023498536,2|8,1:2|2:2,0:0:0:0:
247,266,46923,2,0,P|276:275|298:288,3,38.5000011749268,8|8|8|8,2:2|2:2|2:2|2:2,0:0:0:0:
306,318,47276,2,0,B|278:350|278:350|293:405,1,77.0000023498536,8|8,1:2|2:2,0:0:0:0:
381,384,47629,1,10,1:2:0:0:
381,384,47717,1,8,2:2:0:0:
381,384,47805,1,8,2:2:0:0:
460,314,47982,6,0,P|483:246|497:175,1,125.999996154785,6|0,1:1|0:0,0:0:0:0:
490,181,48335,1,10,2:2:0:0:
362,44,48688,2,0,P|296:26|229:1,1,125.999996154785,2|2,1:1|1:1,0:0:0:0:
230,12,49041,2,0,P|216:63|194:110,1,83.9999974365235,10|2,2:2|1:1,0:0:0:0:
219,183,49394,2,0,P|285:201|352:226,1,125.999996154785,2|2,1:1|1:1,0:0:0:0:
351,217,49747,2,0,P|365:166|387:119,1,83.9999974365235,10|2,2:2|1:1,0:0:0:0:
454,78,50100,5,2,1:1:0:0:
454,78,50276,1,2,2:2:0:0:
362,44,50453,1,10,1:2:0:0:
362,44,50629,1,2,2:2:0:0:
326,129,50805,2,0,P|300:194|279:276,1,125.999996154785,2|0,1:1|0:0,0:0:0:0:
290,259,51158,1,10,2:2:0:0:
218,88,51511,2,0,P|157:70|114:52,1,83.9999974365235,2|2,1:1|2:2,0:0:0:0:
128,54,51776,1,2,1:1:0:0:
118,46,51864,2,0,P|92:87|75:138,1,83.9999974365235,10|2,2:2|1:1,0:0:0:0:
66,216,52217,2,0,P|127:234|170:252,1,83.9999974365235,2|2,1:1|2:2,0:0:0:0:
155,249,52482,1,2,1:1:0:0:
162,259,52570,2,0,P|138:294|123:332,1,83.9999974365235,10|2,2:2|1:1,0:0:0:0:
263,335,52923,5,2,1:1:0:0:
263,335,53100,2,0,P|332:349|387:272,1,167.999994873047,2|10,2:2|2:2,0:0:0:0:
313,204,53629,6,0,P|290:136|276:65,1,125.999996154785,2|0,1:1|0:0,0:0:0:0:
285,72,53982,1,10,2:2:0:0:
387,244,54335,2,0,P|330:251|252:277,1,125.999996154785,2|2,1:1|1:1,0:0:0:0:
259,283,54688,2,0,P|202:302|172:322,1,83.9999974365235,10|2,2:2|1:1,0:0:0:0:
100,274,55041,2,0,P|93:217|67:139,1,125.999996154785,2|2,1:1|1:1,0:0:0:0:
59,151,55394,2,0,P|40:94|20:64,1,83.9999974365235,10|2,2:2|1:1,0:0:0:0:
85,0,55747,5,2,1:1:0:0:
85,0,55923,1,2,2:2:0:0:
148,71,56100,1,10,1:2:0:0:
148,71,56276,1,2,2:2:0:0:
209,0,56453,2,0,P|258:7|344:12,1,125.999996154785,2|0,1:1|0:0,0:0:0:0:
345,6,56805,1,10,2:2:0:0:
468,145,57158,2,0,P|445:197|435:255,1,83.9999974365235,2|2,1:1|2:2,0:0:0:0:
439,235,57423,1,2,1:1:0:0:
439,247,57511,2,0,P|380:234|345:217,1,83.9999974365235,10|2,2:2|1:1,0:0:0:0:
256,192,57864,5,10,1:2:0:0:
256,192,57953,1,8,2:2:0:0:
256,192,58041,1,10,2:2:0:0:
289,106,58217,2,0,L|277:55,2,41.9999987182618,10|10|10,1:2|2:2|2:2,0:0:0:0:
381,100,58570,2,0,L|396:49,2,41.9999987182618,10|8|10,1:2|2:2|2:2,0:0:0:0:
442,169,58923,2,0,B|464:141|464:141|515:136,1,83.9999974365235,10|10,1:1|2:2,0:0:0:0:
505,269,59276,6,0,L|352:248,1,125.999996154785,6|0,1:1|0:0,0:0:0:0:
368,256,59629,2,0,B|344:279|344:279|312:271|263:298,1,83.9999974365235,10|2,2:2|2:2,0:0:0:0:
208,226,59982,2,0,P|192:160|186:123,1,83.9999974365235,2|2,1:1|2:2,0:0:0:0:
190,131,60247,1,2,1:1:0:0:
191,118,60335,2,0,P|133:132|93:151,1,83.9999974365235,10|2,2:2|1:1,0:0:0:0:
277,121,60688,2,0,P|290:50|306:13,1,83.9999974365235,2|2,1:1|2:2,0:0:0:0:
303,30,60953,1,2,1:1:0:0:
314,24,61041,2,0,P|369:31|411:28,1,83.9999974365235,10|2,2:2|1:1,0:0:0:0:
207,15,61394,5,2,1:1:0:0:
207,15,61570,1,2,2:2:0:0:
229,109,61747,1,10,1:2:0:0:
229,109,61923,1,2,2:2:0:0:
136,120,62100,2,0,P|67:133|-5:151,1,125.999996154785,2|0,1:1|0:0,0:0:0:0:
19,156,62453,2,0,B|42:188|42:188|29:212|32:254,1,83.9999974365235,10|2,2:2|2:2,0:0:0:0:
128,247,62805,6,0,P|218:224|269:219,1,125.999996154785,2|2,1:1|1:1,0:0:0:0:
261,227,63158,2,0,P|278:182|311:133,1,83.9999974365235,10|2,2:2|1:1,0:0:0:0:
295,305,63511,1,2,1:1:0:0:
387,331,63688,1,2,2:2:0:0:
387,331,63776,1,2,1:1:0:0:
387,331,63864,2,0,P|426:296|471:276,1,83.9999974365235,10|2,2:2|1:1,0:0:0:0:
356,233,64217,5,2,1:1:0:0:
356,233,64394,2,0,B|346:122|296:198|287:71,1,167.999994873047,2|10,2:2|2:2,0:0:0:0:
348,0,64923,6,0,L|477:22,1,125.999996154785,6|0,1:1|0:0,0:0:0:0:
481,29,65276,2,0,B|479:57|499:78|499:78|484:110,1,83.9999974365235,10|2,2:2|2:2,0:0:0:0:
387,180,65629,2,0,P|407:216|428:286,1,83.9999974365235,2|2,1:1|2:2,0:0:0:0:
421,268,65894,1,2,1:1:0:0:
419,280,65982,2,0,P|360:313|329:346,1,83.9999974365235,10|2,2:2|1:1,0:0:0:0:
270,248,66335,2,0,P|266:298|246:354,1,83.9999974365235,2|2,1:1|2:2,0:0:0:0:
252,342,66600,1,2,1:1:0:0:
243,351,66688,2,0,P|175:350|132:363,1,83.9999974365235,10|2,2:2|1:1,0:0:0:0:
190,250,67041,5,2,1:1:0:0:
190,250,67217,1,2,2:2:0:0:
281,227,67394,1,10,1:2:0:0:
281,227,67570,1,2,2:2:0:0:
256,137,67747,2,0,P|246:97|213:8,1,125.999996154785,2|0,1:1|0:0,0:0:0:0:
204,14,68100,1,10,2:2:0:0:
123,53,68276,1,2,2:2:0:0:
147,152,68453,2,0,P|96:165|19:196,1,125.999996154785,2|2,1:1|1:1,0:0:0:0:
31,204,68805,2,0,P|52:260|59:300,1,83.9999974365235,10|2,2:2|1:1,0:0:0:0:
9,372,69158,5,10,1:2:0:0:
9,372,69247,1,8,2:2:0:0:
9,372,69335,1,10,2:2:0:0:
107,361,69511,2,0,P|144:383|153:386,2,41.9999987182618,10|10|10,1:2|2:2|2:2,0:0:0:0:
56,283,69864,2,0,P|71:259|78:236,2,41.9999987182618,10|8|10,1:2|2:2|2:2,0:0:0:0:
156,286,70217,2,0,B|195:275|195:275|236:220,1,83.9999974365235,10|10,1:1|2:2,0:0:0:0:
256,144,70570,5,2,2:2:0:0:
256,144,76217,6,0,P|239:66|218:0,1,140,2|2,2:2|2:2,0:0:0:0:
139,32,76747,2,0,P|159:98|173:167,1,140,2|2,2:2|2:2,0:0:0:0:
95,191,77276,1,2,2:2:0:0:
95,191,77453,1,2,2:2:0:0:
135,353,77805,1,2,2:2:0:0:
135,353,77982,2,0,P|171:345|182:345,3,35,2|2|2|2,2:2|2:2|2:2|2:2,0:0:0:0:
203,320,78335,2,0,P|195:278|172:233,1,70,2|2,2:2|2:2,0:0:0:0:
266,234,78688,2,0,P|277:266|283:300,1,70,2|2,2:2|2:2,0:0:0:0:
367,296,79041,6,0,P|379:241|424:156,1,140,2|2,2:2|2:2,0:0:0:0:
492,131,79570,1,2,2:2:0:0:
492,131,79923,2,0,P|464:88|457:63,1,70,2|2,2:2|2:2,0:0:0:0:
509,3,80276,2,0,B|399:68|430:-18|303:45,1,210,2|2,2:2|2:2,0:0:0:0:
308,42,81864,6,0,P|297:92|295:134,2,70,2|0|2,2:2|0:0|2:2,0:0:0:0:
354,178,82394,2,0,P|341:225|339:331,1,140,2|2,2:2|2:2,0:0:0:0:
264,358,82923,1,2,2:2:0:0:
208,294,83100,2,0,P|224:226|224:156,1,140,2|2,2:2|2:2,0:0:0:0:
151,97,83629,2,0,P|125:103|95:106,3,35,2|2|2|2,2:2|2:2|2:2|2:2,0:0:0:0:
78,130,83982,2,0,P|81:178|104:216,1,70,2|2,2:2|2:2,0:0:0:0:
188,237,84335,2,0,P|200:202|199:167,1,70,2|2,2:2|2:2,0:0:0:0:
151,97,84688,6,0,P|156:49|171:16,2,70,2|2|2,2:2|2:2|2:2,0:0:0:0:
244,45,85217,2,0,P|290:53|390:57,1,140,2|2,2:2|2:2,0:0:0:0:
462,26,85747,1,2,2:2:0:0:
503,98,85923,2,0,P|503:152|449:252,1,140,2|2,2:2|2:2,0:0:0:0:
387,209,86453,2,0,P|351:204|337:205,3,35,2|2|2|2,2:2|2:2|2:2|2:2,0:0:0:0:
310,230,86805,1,2,2:2:0:0:
288,140,86982,2,0,B|197:157|247:102|156:118,1,140,2|2,2:2|2:2,0:0:0:0:
70,204,87511,6,0,P|35:207|-3:214,2,70,2|2|2,2:2|2:2|2:2,0:0:0:0:
129,265,88041,2,0,P|189:261|292:228,1,140,2|2,2:2|2:2,0:0:0:0:
329,295,88570,1,2,2:2:0:0:
409,271,88747,2,0,P|442:212|401:132,1,140,2|2,2:2|2:2,0:0:0:0:
340,119,89276,2,0,P|297:129|291:129,3,35,2|2|2|2,2:2|2:2|2:2|2:2,0:0:0:0:
257,119,89629,2,0,P|249:80|218:34,1,70,2|2,2:2|2:2,0:0:0:0:
162,130,89982,2,0,P|170:169|201:215,1,70,2|2,2:2|2:2,0:0:0:0:
275,237,90335,6,0,P|316:246|351:266,2,70,2|0|2,2:2|0:0|2:2,0:0:0:0:
221,302,90864,2,0,P|165:317|85:253,1,140,2|2,2:2|2:2,0:0:0:0:
97,193,91394,1,2,2:2:0:0:
173,158,91570,1,2,2:2:0:0:
135,82,91747,2,0,B|149:49|149:49|137:3,1,70,10|10,2:2|2:2,0:0:0:0:
54,41,92100,2,0,L|13:30,2,35,10|10|10,2:2|2:2|2:2,0:0:0:0:
46,127,92453,2,0,P|66:159|77:214,1,70,10|10,2:2|2:2,0:0:0:0:
184,207,92805,2,0,B|159:231|159:231|153:271,1,70,10|10,2:2|2:2,0:0:0:0:
117,359,93158,6,0,P|179:363|218:376,1,77.0000023498536,14|2,1:2|2:2,0:0:0:0:
254,297,93511,1,10,2:2:0:0:
254,297,93688,1,10,2:2:0:0:
297,377,93864,2,0,P|334:384|373:384,1,77.0000023498536,10|8,2:2|2:2,0:0:0:0:
405,286,94217,6,0,B|444:278|476:237,1,77.0000023498536,10|10,2:2|2:2,0:0:0:0:
374,203,94569,2,0,B|407:178|416:131,1,77.0000023498536,10|10,2:2|2:2,0:0:0:0:
292,163,94923,2,0,P|302:137|309:109,3,38.5000011749268,10|2|10|2,2:2|2:2|2:2|2:2,0:0:0:0:
336,91,95276,6,0,P|317:47|310:8,1,77.0000023498536,10|2,2:2|2:2,0:0:0:0:
218,9,95629,2,0,B|180:4|180:4|142:43,1,77.0000023498536,10|10,2:2|2:2,0:0:0:0:
51,69,95982,6,0,P|81:100|104:141,1,77.0000023498536,10|2,2:2|2:2,0:0:0:0:
76,221,96335,1,10,2:2:0:0:
76,221,96511,1,10,2:2:0:0:
134,293,96688,2,0,P|102:338|91:388,1,77.0000023498536,10|8,2:2|2:2,0:0:0:0:
200,380,97041,5,10,2:2:0:0:
200,380,97129,1,8,2:2:0:0:
200,380,97217,1,10,2:2:0:0:
267,317,97394,2,0,P|253:271|247:230,1,77.0000023498536,10|2,2:2|2:2,0:0:0:0:
160,211,97747,2,0,P|153:182|141:156,2,38.5000011749268,10|2|10,2:2|2:2|2:2,0:0:0:0:
242,149,98100,5,10,2:2:0:0:
247,139,98188,1,2,2:2:0:0:
250,129,98276,1,2,2:2:0:0:
344,114,98453,2,0,B|336:77|336:77|306:52,1,77.0000023498536,10|10,2:2|2:2,0:0:0:0:
180,36,98805,6,0,P|132:47|82:75,1,77.0000023498536,14|2,2:2|2:2,0:0:0:0:
70,143,99158,1,10,2:2:0:0:
70,143,99335,1,10,2:2:0:0:
158,170,99511,2,0,P|173:205|180:243,1,77.0000023498536,10|8,2:2|2:2,0:0:0:0:
272,327,99864,6,0,P|281:286|303:246,1,77.0000023498536,10|10,2:2|2:2,0:0:0:0:
392,296,100217,2,0,P|390:254|400:209,1,77.0000023498536,10|10,2:2|2:2,0:0:0:0:
498,250,100570,2,0,P|491:209|493:194,3,38.5000011749268,10|2|10|2,2:2|2:2|2:2|2:2,0:0:0:0:
512,177,100923,6,0,P|495:141|491:83,1,77.0000023498536,10|2,2:2|2:2,0:0:0:0:
413,51,101276,2,0,B|373:44|373:44|335:79,1,77.0000023498536,10|10,2:2|2:2,0:0:0:0:
335,182,101629,6,0,P|271:158|232:157,1,77.0000023498536,10|2,2:2|2:2,0:0:0:0:
171,170,101982,1,10,2:2:0:0:
171,170,102158,1,10,2:2:0:0:
232,239,102335,2,0,P|217:279|210:333,1,77.0000023498536,10|8,2:2|2:2,0:0:0:0:
284,369,102688,6,0,P|310:363|331:361,3,38.5000011749268,10|8|10|8,2:2|2:2|2:2|2:2,0:0:0:0:
356,330,103041,2,0,B|367:293|367:293|343:248,1,77.0000023498536,10|10,2:2|2:2,0:0:0:0:
280,213,103394,1,10,2:2:0:0:
280,213,103482,1,10,2:2:0:0:
280,213,103570,1,10,2:2:0:0:
373,163,103747,1,10,2:2:0:0:
375,151,103835,1,10,2:2:0:0:
378,139,103923,1,10,2:2:0:0:
307,85,104100,2,0,L|296:42,2,38.5000011749268,10|0|0,1:2|1:1|1:1,0:0:0:0:
394,0,104453,5,14,1:2:0:0:
394,0,104629,1,2,2:2:0:0:
481,29,104805,1,10,1:2:0:0:
481,29,104982,1,2,2:2:0:0:
445,113,105158,2,0,P|428:159|421:214,1,77.0000023498536,10|0,1:2|0:0,0:0:0:0:
471,295,105511,5,10,2:2:0:0:
510,211,105688,1,2,1:2:0:0:
418,223,105864,2,0,B|384:219|352:181,1,77.0000023498536,10|2,1:2|2:2,0:0:0:0:
453,133,106217,2,0,B|419:129|387:91,1,77.0000023498536,10|0,1:2|0:0,0:0:0:0:
293,6,106570,6,0,P|258:14|225:46,1,77.0000023498536,10|2,1:2|2:2,0:0:0:0:
130,50,106923,2,0,B|132:89|132:89|173:129,1,77.0000023498536,10|10,2:2|1:2,0:0:0:0:
278,162,107276,5,10,1:2:0:0:
278,162,107453,1,2,2:2:0:0:
265,251,107629,1,10,1:2:0:0:
265,251,107805,1,2,2:2:0:0:
174,233,107982,2,0,P|118:223|80:222,1,77.0000023498536,10|0,1:2|0:0,0:0:0:0:
16,305,108335,6,0,P|26:329|32:355,3,38.5000011749268,10|8|10|8,2:2|2:2|1:2|2:2,0:0:0:0:
71,360,108688,2,0,P|112:343|166:339,1,77.0000023498536,10|2,1:2|2:2,0:0:0:0:
41,267,109041,2,0,P|82:250|136:246,1,77.0000023498536,10|0,1:2|0:0,0:0:0:0:
236,270,109394,5,10,1:2:0:0:
236,270,109482,1,2,2:2:0:0:
236,270,109570,1,2,2:2:0:0:
296,337,109747,2,0,B|326:312|326:312|324:274,1,77.0000023498536,10|10,2:2|1:2,0:0:0:0:
252,155,110100,6,0,B|217:142|181:177|181:177|163:157|121:151,2,115.50000352478,14|10|8,1:2|1:2|1:2,0:0:0:0:
189,262,110805,2,0,B|154:275|118:240|118:240|100:260|58:266,2,115.50000352478,10|10|10,1:2|1:2|1:2,0:0:0:0:
277,355,111511,2,0,B|252:282|304:314|266:212,2,115.50000352478,10|10|8,1:2|1:2|1:2,0:0:0:0:
363,316,112217,2,0,B|406:251|347:269|410:180,2,115.50000352478,10|10|8,1:2|1:2|1:2,0:0:0:0:
275,242,112923,6,0,P|236:248|215:256,3,38.5000011749268,10|10|10|10,1:2|1:2|1:2|1:2,0:0:0:0:
200,225,113276,2,0,P|161:231|140:239,3,38.5000011749268,10|10|10|10,1:2|1:2|1:2|1:2,0:0:0:0:
132,261,113629,2,0,B|133:284|121:302|121:302|144:324|155:359,1,77.0000023498536,8|10,1:2|1:2,0:0:0:0:
66,374,113982,1,8,1:2:0:0:
66,374,114070,1,8,1:2:0:0:
66,374,114158,1,10,1:2:0:0:
44,248,114335,6,0,P|57:209|61:172,1,77.0000023498536,2|8,1:2|2:2,0:0:0:0:
135,118,114688,2,0,P|164:121|188:126,3,38.5000011749268,10|10|10|10,2:2|2:2|2:2|2:2,0:0:0:0:
215,104,115041,2,0,B|230:68|230:68|204:23,1,77.0000023498536,10|10,1:2|2:2,0:0:0:0:
135,0,115394,1,2,1:2:0:0:
135,0,115482,1,2,2:2:0:0:
135,0,115570,1,2,2:2:0:0:
32,74,115747,6,0,P|91:133|138:280,1,231.000007049561,10|10,2:2|2:2,0:0:0:0:
75,339,116453,2,0,P|12:345|-21:356,2,77.0000023498536,8|10|10,2:2|2:2|2:2,0:0:0:0:
142,284,116982,1,10,2:2:0:0:
170,187,117158,6,0,P|216:184|309:150,1,136.499993751526,6|2,1:1|1:1,0:0:0:0:
308,143,117511,2,0,P|317:191|339:236,1,90.9999958343508,10|2,2:2|1:1,0:0:0:0:
393,308,117864,5,2,1:1:0:0:
393,308,118041,1,2,2:2:0:0:
471,245,118217,1,10,1:2:0:0:
471,245,118394,1,2,2:2:0:0:
411,164,118570,2,0,P|424:84|454:7,1,136.499993751526,2|0,1:1|0:0,0:0:0:0:
452,22,118923,1,10,2:2:0:0:
323,173,119276,2,0,P|260:150|189:131,1,136.499993751526,2|2,1:1|1:1,0:0:0:0:
179,136,119629,2,0,P|161:186|138:230,1,90.9999958343508,10|2,2:2|1:1,0:0:0:0:
200,307,119982,2,0,P|263:330|334:349,1,136.499993751526,2|2,1:1|1:1,0:0:0:0:
342,342,120335,2,0,P|360:292|383:248,1,90.9999958343508,10|2,2:2|1:1,0:0:0:0:
268,214,120688,5,2,1:1:0:0:
268,214,120864,2,0,P|210:194|237:86,1,181.999991668702,2|10,2:2|2:2,0:0:0:0:
308,129,121394,6,0,P|384:120|464:104,1,136.499993751526,2|0,1:1|0:0,0:0:0:0:
453,99,121747,1,10,2:2:0:0:
492,276,122100,2,0,P|447:286|402:289,1,90.9999958343508,2|2,1:1|2:2,0:0:0:0:
388,287,122364,1,2,1:1:0:0:
374,285,122453,2,0,P|329:291|286:307,1,90.9999958343508,10|2,2:2|1:1,0:0:0:0:
179,268,122805,2,0,P|173:215|151:146,1,90.9999958343508,2|2,1:1|2:2,0:0:0:0:
156,167,123070,1,2,1:1:0:0:
147,156,123158,2,0,P|191:149|234:133,1,90.9999958343508,10|2,2:2|1:1,0:0:0:0:
314,44,123511,5,2,1:1:0:0:
314,44,123688,1,2,2:2:0:0:
228,3,123864,1,10,1:2:0:0:
228,3,124041,1,2,2:2:0:0:
178,89,124217,2,0,P|200:146|218:227,1,136.499993751526,2|0,1:1|0:0,0:0:0:0:
213,230,124570,1,10,2:2:0:0:
308,363,124923,2,0,P|355:336|435:313,1,136.499993751526,2|2,1:1|1:1,0:0:0:0:
444,318,125276,2,0,P|417:256|408:218,1,90.9999958343508,10|2,2:2|1:1,0:0:0:0:
408,132,125629,5,10,1:2:0:0:
408,132,125717,1,8,2:2:0:0:
408,132,125805,1,10,2:2:0:0:
311,105,125982,2,0,L|293:57,2,45.4999979171754,10|10|10,1:2|2:2|2:2,0:0:0:0:
246,167,126335,2,0,L|196:145,2,45.4999979171754,10|8|10,1:2|2:2|2:2,0:0:0:0:
266,257,126688,2,0,B|230:283|230:283|223:342,1,90.9999958343508,10|10,1:1|2:2,0:0:0:0:
364,333,127041,6,0,L|339:169,1,136.499993751526,6|0,1:1|0:0,0:0:0:0:
335,190,127394,2,0,B|328:153|328:153|336:126|362:114,1,90.9999958343508,10|2,2:2|2:2,0:0:0:0:
431,23,127747,2,0,P|376:9|305:2,1,90.9999958343508,2|2,1:1|2:2,0:0:0:0:
328,5,128011,1,2,1:1:0:0:
315,9,128100,2,0,P|289:56|261:79,1,90.9999958343508,10|2,2:2|1:1,0:0:0:0:
307,181,128453,2,0,P|252:167|181:160,1,90.9999958343508,2|2,1:1|2:2,0:0:0:0:
205,167,128717,1,2,1:1:0:0:
194,175,128806,2,0,P|168:222|140:245,1,90.9999958343508,10|2,2:2|1:1,0:0:0:0:
233,360,129158,5,2,1:1:0:0:
233,360,129335,1,2,2:2:0:0:
260,266,129511,1,10,1:2:0:0:
260,266,129688,1,2,2:2:0:0:
357,287,129864,2,0,P|430:303|499:310,1,136.499993751526,2|0,1:1|0:0,0:0:0:0:
501,305,130217,2,0,B|496:279|475:261|475:261|476:209,1,90.9999958343508,10|2,2:2|2:2,0:0:0:0:
402,164,130570,6,0,P|395:82|384:27,1,136.499993751526,2|2,1:1|1:1,0:0:0:0:
372,22,130923,2,0,B|347:30|337:48|337:48|325:31|284:19,1,90.9999958343508,10|2,2:2|1:1,0:0:0:0:
275,121,131276,1,2,1:1:0:0:
259,219,131453,1,2,2:2:0:0:
259,219,131541,1,2,1:1:0:0:
259,219,131629,2,0,B|228:211|220:192|220:192|206:215|171:222,1,90.9999958343508,10|2,2:2|1:1,0:0:0:0:
364,232,131982,5,2,1:1:0:0:
364,232,132158,2,0,B|410:238|429:273|429:273|433:316|394:376,1,181.999991668702,2|10,2:2|2:2,0:0:0:0:
290,350,132688,6,0,P|220:355|133:366,1,136.499993751526,6|0,1:1|0:0,0:0:0:0:
144,368,133041,1,10,2:2:0:0:
8,219,133394,2,0,P|41:294|47:343,1,90.9999958343508,2|2,1:1|2:2,0:0:0:0:
44,315,133658,1,2,1:1:0:0:
44,328,133747,2,0,B|61:296|106:280|106:280|140:237,1,90.9999958343508,10|2,2:2|1:1,0:0:0:0:
208,185,134100,2,0,P|141:136|112:97,1,90.9999958343508,2|2,1:1|2:2,0:0:0:0:
130,119,134364,1,2,1:1:0:0:
124,108,134453,2,0,B|125:144|94:180|94:180|86:234,1,90.9999958343508,10|2,2:2|1:1,0:0:0:0:
143,293,134805,5,2,1:1:0:0:
143,293,134982,1,2,2:2:0:0:
232,275,135158,1,10,1:2:0:0:
232,275,135335,1,2,2:2:0:0:
208,185,135511,2,0,P|193:117|190:31,1,136.499993751526,2|0,1:1|0:0,0:0:0:0:
200,43,135864,1,10,2:2:0:0:
296,20,136041,1,2,2:2:0:0:
327,130,136217,2,0,P|400:117|464:90,1,136.499993751526,2|2,1:1|1:1,0:0:0:0:
464,84,136570,2,0,P|491:125|506:176,1,90.9999958343508,10|2,2:2|1:1,0:0:0:0:
440,275,136923,5,10,1:2:0:0:
440,275,137011,1,8,2:2:0:0:
440,275,137100,1,10,2:2:0:0:
512,338,137276,2,0,L|500:391,2,45.4999979171754,10|10|10,1:2|2:2|2:2,0:0:0:0:
512,237,137629,2,0,L|469:270,2,45.4999979171754,10|8|10,1:2|2:2|2:2,0:0:0:0:
512,146,137982,2,0,B|467:134|467:134|415:165,1,90.9999958343508,10|10,1:1|2:2,0:0:0:0:
362,243,138335,5,6,1:2:0:0:
