osu file format v14

[General]
AudioFilename: audio.mp3
AudioLeadIn: 0
PreviewTime: 115834
Countdown: 0
SampleSet: Soft
StackLeniency: 0
Mode: 0
LetterboxInBreaks: 0
WidescreenStoryboard: 1

[Editor]
DistanceSpacing: 1.3
BeatDivisor: 4
GridSize: 4
TimelineZoom: 1.400001

[Metadata]
Title:Rolling Beat
TitleUnicode:Rolling Beat
Artist:Mitsukiyo
ArtistUnicode:ミツキヨ
Creator:Bearizm
Version:Hard
Source:ブルーアーカイブ -Blue Archive-
Tags:-kevincela- captin1 amateurre shizuku- ayesha altugle kazato asa shikibe mayu newton- kyuuchie yostar nexon video game instrumental future bass ost 61 vgm
BeatmapID:3971841
BeatmapSetID:1918662

[Difficulty]
HPDrainRate:5
CircleSize:3.6
OverallDifficulty:6
ApproachRate:8
SliderMultiplier:1.4
SliderTickRate:1

[Events]
//Background and Video events
0,0,"BG3.jpg",0,0
//Break Periods
2,70858,78378
//Storyboard Layer 0 (Background)
//Storyboard Layer 1 (Fail)
//Storyboard Layer 2 (Pass)
//Storyboard Layer 3 (Foreground)
//Storyboard Layer 4 (Overlay)
//Storyboard Sound Samples

[TimingPoints]
70,352.941176470588,4,2,1,80,1,0
2893,-133.333333333333,4,2,1,80,0,0
2981,-133.333333333333,4,2,1,50,0,0
3952,-133.333333333333,4,2,1,5,0,0
4305,-133.333333333333,4,2,1,50,0,0
5364,-133.333333333333,4,2,1,5,0,0
5717,-133.333333333333,4,2,1,50,0,0
9599,-133.333333333333,4,2,1,5,0,0
9952,-133.333333333333,4,2,1,50,0,0
11011,-133.333333333333,4,2,1,5,0,0
11364,-133.333333333333,4,2,1,50,0,0
12775,-133.333333333333,4,2,1,5,0,0
13128,-133.333333333333,4,2,1,50,0,0
14187,-100,4,2,1,60,0,0
15775,-100,4,2,10,60,0,0
15952,-100,4,2,1,60,0,0
18599,-100,4,2,10,60,0,0
18775,-100,4,2,1,60,0,0
19481,-100,4,2,10,60,0,0
19834,-100,4,2,1,60,0,0
21422,-100,4,2,10,60,0,0
21599,-100,4,2,1,60,0,0
24069,-100,4,2,10,60,0,0
24246,-100,4,2,2,60,0,0
24775,-100,4,2,1,60,0,0
25128,-100,4,2,10,60,0,0
25481,-90.9090909090909,4,2,2,70,0,1
25569,-90.9090909090909,4,2,2,70,0,0
27952,-90.9090909090909,4,2,10,70,0,0
28305,-90.9090909090909,4,2,2,70,0,0
30775,-90.9090909090909,4,2,10,70,0,0
31128,-90.9090909090909,4,2,2,70,0,0
33599,-90.9090909090909,4,2,10,70,0,0
33952,-90.9090909090909,4,2,2,70,0,0
35364,-90.9090909090909,4,2,10,70,0,0
35540,-90.9090909090909,4,2,2,70,0,0
36422,-90.9090909090909,4,2,2,50,0,0
36775,-83.3333333333333,4,2,2,80,0,1
36864,-83.3333333333333,4,2,2,80,0,0
41628,-83.3333333333333,4,2,2,5,0,0
41717,-83.3333333333333,4,2,2,80,0,0
42069,-83.3333333333333,4,2,10,80,0,0
42422,-83.3333333333333,4,2,2,80,0,1
46658,-83.3333333333333,4,2,2,80,0,0
47364,-83.3333333333333,4,2,10,80,0,0
47717,-83.3333333333333,4,2,2,80,0,0
48069,-76.9230769230769,4,2,3,90,0,1
50452,-76.9230769230769,4,2,3,5,0,1
50540,-76.9230769230769,4,2,3,90,0,1
50805,-76.9230769230769,4,2,3,5,0,1
50893,-76.9230769230769,4,2,3,90,0,1
53364,-76.9230769230769,4,2,10,90,0,1
53717,-76.9230769230769,4,2,3,90,0,1
56099,-76.9230769230769,4,2,3,5,0,1
56187,-76.9230769230769,4,2,3,90,0,1
57952,-76.9230769230769,4,2,11,90,0,1
59011,-76.9230769230769,4,2,10,90,0,0
59364,-71.4285714285714,4,2,3,90,0,1
59628,-71.4285714285714,4,2,3,5,0,1
59717,-71.4285714285714,4,2,3,90,0,1
62452,-71.4285714285714,4,2,3,5,0,1
62540,-71.4285714285714,4,2,3,90,0,1
64569,-71.4285714285714,4,2,3,5,0,1
64658,-71.4285714285714,4,2,10,90,0,1
65011,-71.4285714285714,4,2,3,90,0,1
65275,-71.4285714285714,4,2,3,5,0,1
65364,-71.4285714285714,4,2,3,90,0,1
67393,-71.4285714285714,4,2,3,5,0,1
67481,-71.4285714285714,4,2,3,90,0,1
67746,-71.4285714285714,4,2,3,5,0,1
67834,-71.4285714285714,4,2,3,90,0,1
69246,-71.4285714285714,4,2,11,90,0,1
70305,-71.4285714285714,4,2,10,90,0,1
70658,-100,4,2,2,90,0,0
79128,-100,4,2,3,20,0,0
81599,-100,4,2,3,60,0,0
91834,-100,4,2,10,60,0,0
92011,-100,4,2,3,60,0,0
92893,-100,4,2,10,60,0,0
93246,-90.9090909090909,4,2,2,70,0,1
93334,-90.9090909090909,4,2,2,70,0,0
95717,-90.9090909090909,4,2,10,70,0,0
96069,-90.9090909090909,4,2,2,70,0,0
98540,-90.9090909090909,4,2,10,70,0,0
98893,-90.9090909090909,4,2,2,70,0,0
101364,-90.9090909090909,4,2,10,70,0,0
101717,-90.9090909090909,4,2,2,70,0,0
103128,-90.9090909090909,4,2,10,70,0,0
103305,-90.9090909090909,4,2,2,70,0,0
104187,-90.9090909090909,4,2,2,50,0,0
104540,-83.3333333333333,4,2,2,80,0,1
104628,-83.3333333333333,4,2,2,80,0,0
107011,-83.3333333333333,4,2,10,80,0,0
107364,-83.3333333333333,4,2,2,80,0,0
109834,-83.3333333333333,4,2,10,80,0,0
110187,-83.3333333333333,4,2,2,80,0,1
114422,-83.3333333333333,4,2,2,80,0,0
115128,-83.3333333333333,4,2,10,80,0,0
115481,-83.3333333333333,4,2,2,80,0,0
116452,-83.3333333333333,4,2,2,5,0,0
116540,-83.3333333333333,4,2,10,80,0,0
116893,-83.3333333333333,4,2,10,85,0,0
117246,-76.9230769230769,4,2,3,90,0,1
121128,-76.9230769230769,4,2,10,90,0,1
121481,-76.9230769230769,4,2,3,90,0,1
125717,-76.9230769230769,4,2,11,90,0,1
126775,-76.9230769230769,4,2,10,90,0,0
127128,-71.4285714285714,4,2,3,90,0,1
127393,-71.4285714285714,4,2,3,5,0,1
127481,-71.4285714285714,4,2,3,90,0,1
130217,-71.4285714285714,4,2,3,5,0,1
130305,-71.4285714285714,4,2,3,90,0,1
132334,-71.4285714285714,4,2,3,5,0,1
132422,-71.4285714285714,4,2,10,90,0,1
132775,-71.4285714285714,4,2,3,90,0,1
135158,-71.4285714285714,4,2,3,5,0,1
135246,-71.4285714285714,4,2,3,90,0,1
137011,-71.4285714285714,4,2,11,90,0,1
138069,-71.4285714285714,4,2,10,90,0,1
138422,-71.4285714285714,4,2,2,90,0,0

[Colours]
Combo1 : 255,147,147
Combo2 : 121,188,255
Combo3 : 51,153,255
Combo4 : 255,187,187

[HitObjects]
118,322,2893,6,0,P|81:292|226:212,1,315.000012016297,4|0,3:0|0:0,0:0:0:0:
280,289,4305,2,0,P|414:301|383:169,1,315.000012016297,2|0,0:0|0:0,0:0:0:0:
278,182,5717,2,0,B|399:174|429:1|255:-68|176:44|195:118|195:118|145:71|70:114|95:212|165:202,1,630.000024032594,2|0,0:0|0:0,0:0:0:0:
163,202,8540,6,0,P|327:168|477:140,1,315.000012016297
465,246,9952,2,0,P|310:275|156:307,1,315.000012016297,2|0,0:0|0:0,0:0:0:0:
53,329,11364,2,0,B|-31:202|-13:83|129:26|189:166|124:212,1,420.000016021729,2|0,0:0|0:0,0:0:0:0:
125,212,13128,6,0,L|90:205,3,26.2500010013581,2|2|2|2,0:0|0:0|0:0|0:0,0:0:0:0:
140,219,13481,2,0,L|131:166,1,52.5000020027161,2|2,0:3|0:0,0:0:0:0:
241,119,13834,2,0,L|232:171,1,52.5000020027161,2|2,0:0|0:0,0:0:0:0:
315,222,14187,6,0,B|355:215|369:183|369:183|376:220|416:240,1,140,6|2,3:2|0:0,0:0:0:0:
420,335,14717,2,0,P|386:341|350:351,1,70,2|8,0:0|0:3,0:0:0:0:
265,304,15069,2,0,P|229:301|194:322,1,70,2|2,0:0|0:0,0:0:0:0:
113,363,15422,2,0,B|79:327|79:327|102:240,1,140,2|10,0:0|0:0,0:0:0:0:
77,140,15952,6,0,L|69:105,3,35,2|2|2|2,3:2|0:0|0:0|0:0,0:0:0:0:
93,150,16305,2,0,L|161:136,1,70,8|2,0:3|0:0,0:0:0:0:
247,184,16658,2,0,L|315:170,1,70,2|2,0:0|0:0,0:0:0:0:
362,83,17011,6,0,P|398:78|449:170,1,140,2|2,3:2|0:0,0:0:0:0:
392,229,17540,2,0,P|398:262|403:300,1,70,2|8,0:0|0:3,0:0:0:0:
325,358,17893,1,2,0:0:0:0:
241,306,18069,1,2,0:0:0:0:
155,354,18246,2,0,B|50:379|50:379|69:350,1,140,2|10,0:0|0:0,0:0:0:0:
43,257,18775,6,0,L|-1:245,3,35,2|2|2|2,3:2|0:0|0:0|0:0,0:0:0:0:
58,252,19128,2,0,L|68:183,1,70,8|2,0:3|0:0,0:0:0:0:
88,44,19481,1,10,0:0:0:0:
9,103,19658,1,10,0:0:0:0:
68,182,19834,6,0,P|135:171|208:165,1,140,2|2,3:2|0:0,0:0:0:0:
305,166,20364,2,0,P|326:139|329:104,1,70,2|8,0:0|0:3,0:0:0:0:
428,92,20717,2,0,P|440:124|468:143,1,70,2|2,0:0|0:0,0:0:0:0:
485,240,21069,2,0,P|434:264|364:309,1,140,2|10,0:0|0:0,0:0:0:0:
267,289,21599,6,0,P|267:268|272:254,3,35,2|2|2|2,3:2|0:0|0:0|0:0,0:0:0:0:
269,304,21952,2,0,P|234:309|210:332,1,70,8|2,0:3|0:0,0:0:0:0:
114,356,22305,2,0,P|79:350|55:327,1,70,2|2,0:0|0:0,0:0:0:0:
115,249,22658,6,0,B|143:210|143:210|109:123,1,140,2|2,3:2|0:0,0:0:0:0:
70,33,23187,2,0,P|99:14|134:14,1,70,2|8,0:0|0:3,0:0:0:0:
199,88,23540,1,2,0:0:0:0:
296,78,23717,2,0,L|365:70,1,70,2|2,0:0|0:0,0:0:0:0:
442,11,24069,5,10,0:0:0:0:
506,84,24246,1,0,1:0:0:0:
503,92,24334,1,0,1:0:0:0:
500,100,24422,2,0,P|488:133|476:166,1,70,0|0,3:0|1:0,0:0:0:0:
380,189,24775,2,0,P|369:173|364:156,3,35,10|0|0|0,0:3|0:0|0:0|0:0,0:0:0:0:
395,201,25128,1,10,0:0:0:0:
423,338,25305,1,10,0:0:0:0:
338,284,25481,6,0,P|300:292|274:319,1,77.0000023498536,14|2,0:0|0:0,0:0:0:0:
174,332,25834,2,0,L|97:342,1,77.0000023498536,10|2,0:0|0:0,0:0:0:0:
25,271,26187,2,0,P|43:193|58:119,1,154.000004699707,10|10,0:0|0:0,0:0:0:0:
20,26,26717,1,2,0:0:0:0:
118,42,26893,2,0,L|194:29,1,77.0000023498536,10|2,0:0|0:0,0:0:0:0:
292,12,27246,1,10,0:0:0:0:
292,12,27599,2,0,P|315:42|313:82,1,77.0000023498536,10|2,0:0|0:0,0:0:0:0:
313,180,27952,2,0,P|276:171|237:164,1,77.0000023498536,8|10,1:2|0:0,0:0:0:0:
122,214,28305,6,0,B|110:250|110:250|128:285,1,77.0000023498536,10|2,0:0|0:0,0:0:0:0:
227,269,28658,2,0,B|238:232|238:232|220:197,1,77.0000023498536,10|2,0:0|0:0,0:0:0:0:
158,119,29011,2,0,P|84:135|9:157,1,154.000004699707,10|10,0:0|0:0,0:0:0:0:
25,256,29540,1,2,0:0:0:0:
40,354,29717,2,0,P|72:375|110:371,1,77.0000023498536,10|2,0:0|0:0,0:0:0:0:
208,352,30069,1,10,0:0:0:0:
208,352,30422,2,0,L|215:314,3,38.5000011749268,10|2|2|2,0:0|0:0|0:0|0:0,0:0:0:0:
290,339,30775,2,0,L|297:301,3,38.5000011749268,10|10|10|10,1:2|0:0|0:0|0:0,0:0:0:0:
301,354,31128,6,0,L|378:340,1,77.0000023498536,14|2,0:0|0:0,0:0:0:0:
427,253,31481,2,0,L|351:239,1,77.0000023498536,10|2,0:0|0:0,0:0:0:0:
292,157,31834,2,0,B|337:126|337:126|434:145,1,154.000004699707,10|10,0:0|0:0,0:0:0:0:
499,67,32364,1,2,0:0:0:0:
415,12,32540,2,0,P|379:17|339:28,1,77.0000023498536,10|2,0:0|0:0,0:0:0:0:
245,62,32893,1,10,0:0:0:0:
245,62,33246,2,0,P|206:49|188:20,1,77.0000023498536,10|2,0:0|0:0,0:0:0:0:
91,47,33599,2,0,P|92:88|71:114,1,77.0000023498536,8|10,1:2|0:0,0:0:0:0:
13,197,33952,6,0,L|88:218,1,77.0000023498536,10|2,0:0|0:0,0:0:0:0:
88,318,34305,2,0,L|13:339,1,77.0000023498536,10|2,0:0|0:0,0:0:0:0:
161,268,34658,2,0,L|311:226,1,154.000004699707,10|10,0:0|0:0,0:0:0:0:
393,279,35187,1,2,0:0:0:0:
446,194,35364,1,10,1:2:0:0:
361,141,35540,1,2,0:0:0:0:
362,131,35628,1,0,0:0:0:0:
364,121,35717,2,0,L|375:46,1,77.0000023498536,10|0,0:0|0:0,0:0:0:0:
275,49,36069,2,0,L|270:11,3,38.5000011749268,10|2|2|2,0:0|0:0|0:0|0:0,0:0:0:0:
264,63,36422,2,0,L|188:56,1,77.0000023498536,2|0,3:0|3:0,0:0:0:0:
56,3,36775,6,0,B|71:41|71:41|46:75,1,83.9999974365235,14|0,3:2|0:0,0:0:0:0:
18,172,37128,2,0,B|-7:206|-7:206|8:244,1,83.9999974365235,10|0,3:2|0:0,0:0:0:0:
7,345,37481,2,0,P|66:309|130:303,1,125.999996154785,10|2,3:2|3:2,0:0:0:0:
132,321,37834,2,0,B|172:333|172:333|207:310,1,83.9999974365235,10|2,0:0|3:2,0:0:0:0:
297,264,38187,6,0,P|288:302|283:350,1,83.9999974365235,10|0,3:2|0:0,0:0:0:0:
383,356,38540,2,0,P|392:318|397:270,1,83.9999974365235,10|0,3:2|0:0,0:0:0:0:
427,177,38893,2,0,B|387:168|387:168|350:188|350:188|307:181,1,125.999996154785,10|2,3:2|3:2,0:0:0:0:
297,160,39246,1,10,0:0:0:0:
259,23,39422,1,2,3:2:0:0:
345,74,39599,6,0,P|263:64|177:58,1,167.999994873047,10|10,3:2|3:2,0:0:0:0:
33,200,40305,2,0,P|95:192|158:186,1,125.999996154785,10|2,3:2|3:2,0:0:0:0:
148,173,40658,2,0,P|140:211|135:257,1,83.9999974365235,8|2,0:0|3:2,0:0:0:0:
235,266,41011,6,0,P|242:227|248:182,1,83.9999974365235,10|0,3:2|0:0,0:0:0:0:
265,83,41364,2,0,P|316:70|380:127,1,125.999996154785,10|0,3:2|0:0,0:0:0:0:
361,123,41717,2,0,L|353:166,3,41.9999987182618,10|2|2|2,3:2|0:0|0:0|3:2,0:0:0:0:
433,194,42069,2,0,L|440:152,3,41.9999987182618,10|10|10|10,1:2|0:0|3:2|0:0,0:0:0:0:
489,258,42422,6,0,P|432:235|378:264,2,125.999996154785,6|8|8,3:2|0:0|0:0,0:0:0:0:
433,339,43128,2,0,P|369:327|295:317,1,125.999996154785,10|10,0:0|0:0,0:0:0:0:
162,359,43658,5,8,0:0:0:0:
152,362,43746,1,8,0:0:0:0:
142,364,43834,2,0,B|103:328|103:328|122:254,1,125.999996154785,8|8,0:0|0:0,0:0:0:0:
163,111,44364,1,8,0:0:0:0:
108,26,44540,2,0,B|162:-5|162:-5|220:29,1,125.999996154785,10|10,0:0|0:0,0:0:0:0:
350,98,45069,1,8,0:0:0:0:
282,173,45246,6,0,L|269:133,3,41.9999987182618,0|2|2|2,3:0|3:2|3:2|3:2,0:0:0:0:
364,194,45599,2,0,L|397:170,3,41.9999987182618,0|2|2|2,3:0|3:2|3:2|3:2,0:0:0:0:
369,278,45952,2,0,L|402:302,3,41.9999987182618,0|0|0|0,3:0|3:0|3:0|3:0,0:0:0:0:
291,309,46305,2,0,L|278:347,3,41.9999987182618,0|0|0|0,3:0|3:0|3:0|3:0,0:0:0:0:
237,243,46658,1,4,3:0:0:0:
237,243,47364,5,8,0:0:0:0:
154,300,47540,1,8,0:0:0:0:
84,209,47717,2,0,L|91:165,3,41.9999987182618,2|2|2|2,0:3|0:0|0:0|0:0,0:0:0:0:
80,230,48069,6,0,L|62:44,1,181.999991668702,6|8,3:2|0:3,0:0:0:0:
259,8,48775,2,0,L|245:143,1,136.499993751526,2|2,3:2|3:2,0:0:0:0:
243,163,49128,1,8,0:3:0:0:
306,240,49305,1,2,3:2:0:0:
342,147,49481,6,0,B|382:151|400:182|400:182|402:149|435:130,1,136.499993751526,2|2,3:2|3:2,0:0:0:0:
456,124,49834,1,8,0:3:0:0:
495,216,50011,1,2,3:2:0:0:
456,308,50187,2,0,P|396:324|319:354,1,136.499993751526,2|0,3:2|0:0,0:0:0:0:
325,338,50540,2,0,B|281:330|281:330|239:349|239:349|195:341,1,136.499993751526,8|0,0:3|0:0,0:0:0:0:
176,350,50893,6,0,P|164:294|264:244,1,181.999991668702,2|8,3:2|0:3,0:0:0:0:
447,174,51599,2,0,P|440:106|430:36,1,136.499993751526,2|2,3:2|3:2,0:0:0:0:
437,24,51952,1,8,0:3:0:0:
342,57,52128,1,2,3:2:0:0:
257,2,52305,6,0,P|196:25|190:90,1,136.499993751526,2|2,3:2|3:2,0:0:0:0:
211,95,52658,2,0,B|238:131|238:131|217:173,1,90.9999958343508,8|2,0:3|3:2,0:0:0:0:
128,218,53011,2,0,L|36:203,1,90.9999958343508,2|0,3:2|0:0,0:0:0:0:
94,308,53364,2,0,L|2:293,1,90.9999958343508,10|8,3:2|0:0,0:0:0:0:
191,297,53717,6,0,B|219:276|255:293|264:325|264:325|272:359|308:372|335:356,1,181.999991668702,6|8,3:2|0:3,0:0:0:0:
503,250,54422,2,0,P|435:256|366:268,1,136.499993751526,2|2,3:2|3:2,0:0:0:0:
353,260,54775,1,8,0:3:0:0:
291,180,54952,1,2,3:2:0:0:
389,166,55128,6,0,B|423:124|423:124|386:50,1,136.499993751526,2|2,3:2|3:2,0:0:0:0:
378,40,55481,1,8,0:3:0:0:
277,34,55658,1,2,3:2:0:0:
177,29,55834,2,0,P|156:69|128:160,1,136.499993751526,2|0,3:2|0:0,0:0:0:0:
140,170,56187,1,8,0:3:0:0:
20,330,56540,6,0,P|58:253|144:257,1,181.999991668702,2|8,3:2|0:3,0:0:0:0:
201,339,57069,1,2,0:0:0:0:
300,323,57246,2,0,B|345:316|345:316|384:340|384:340|430:333,1,136.499993751526,2|2,3:2|3:2,0:0:0:0:
443,343,57599,2,0,P|446:300|453:253,1,90.9999958343508,10|2,0:3|3:2,0:0:0:0:
474,113,57952,6,0,L|481:67,3,45.4999979171754,14|8|8|8,3:2|0:0|0:0|0:0,0:0:0:0:
396,91,58305,2,0,L|403:45,3,45.4999979171754,14|8|8|8,3:2|0:0|0:0|0:0,0:0:0:0:
320,140,58658,2,0,L|313:186,3,45.4999979171754,14|8|8|8,3:2|0:0|0:0|0:0,0:0:0:0:
242,118,59011,2,0,L|235:164,3,45.4999979171754,14|8|8|8,3:2|0:0|0:0|0:0,0:0:0:0:
259,39,59364,6,0,P|212:25|135:83,1,146.999995513916,14|0,3:2|0:0,0:3:0:0:
120,78,59717,2,0,P|128:125|134:176,1,97.9999970092774,12|2,0:3|0:0,0:3:0:0:
57,297,60069,2,0,P|100:263|143:266,1,97.9999970092774,10|0,3:2|0:0,0:0:0:0:
146,279,60334,1,2,3:2:0:0:
152,291,60422,2,0,P|201:294|249:301,1,97.9999970092774,12|2,0:3|3:2,0:0:0:0:
344,351,60775,6,0,B|373:311|373:311|352:267,1,97.9999970092774,10|0,3:2|0:0,0:0:0:0:
344,255,61040,1,2,3:2:0:0:
336,242,61128,1,12,0:3:0:0:
285,146,61305,1,2,3:2:0:0:
349,59,61481,2,0,P|274:116|169:124,1,195.999994018555,10|12,3:2|0:3,0:0:0:0:
175,125,62187,6,0,P|145:172|196:235,1,146.999995513916,10|0,3:2|0:0,0:0:0:0:
210,236,62540,2,0,P|201:281|195:332,1,97.9999970092774,12|2,0:3|0:0,0:0:0:0:
326,379,62893,2,0,P|320:330|310:282,1,97.9999970092774,10|0,3:2|0:0,0:0:0:0:
306,268,63158,1,2,3:2:0:0:
301,254,63246,2,0,P|330:216|381:210,1,97.9999970092774,12|2,0:3|3:2,0:0:0:0:
430,115,63599,6,0,P|401:77|350:71,1,97.9999970092774,10|2,3:2|0:0,0:0:0:0:
347,83,63864,1,2,3:2:0:0:
341,96,63952,2,0,B|296:113|296:113|254:87,1,97.9999970092774,12|2,0:3|3:2,0:0:0:0:
177,10,64305,2,0,P|195:64|210:156,1,146.999995513916,10|0,3:2|0:0,0:0:0:0:
197,170,64658,1,10,3:2:0:0:
106,227,64834,1,10,0:0:0:0:
20,159,65011,6,0,P|-5:226|20:293,1,146.999995513916,14|0,3:2|0:0,0:0:0:0:
22,311,65364,2,0,P|68:305|100:343,1,97.9999970092774,12|2,0:3|0:0,0:0:0:0:
206,323,65717,2,0,L|305:312,1,97.9999970092774,10|0,3:2|0:0,0:0:0:0:
315,320,65981,1,2,3:2:0:0:
327,327,66069,2,0,B|373:342|373:342|405:305,1,97.9999970092774,12|2,0:3|3:2,0:0:0:0:
353,210,66422,6,0,L|361:113,1,97.9999970092774,10|0,3:2|0:0,0:0:0:0:
373,103,66687,1,2,3:2:0:0:
384,94,66775,2,0,L|288:80,1,97.9999970092774,12|2,0:3|3:2,0:0:0:0:
195,137,67128,2,0,P|139:142|86:73,1,146.999995513916,10|0,3:2|0:0,0:0:0:0:
88,63,67481,2,0,P|97:118|33:177,1,146.999995513916,12|0,0:3|0:0,0:0:0:0:
25,165,67834,6,0,P|36:237|46:310,2,146.999995513916,10|2|2,3:2|3:2|3:2,0:0:0:0:
86,76,68540,2,0,P|142:71|195:140,1,146.999995513916,10|2,3:2|3:2,0:0:0:0:
194,155,68893,2,0,L|290:140,1,97.9999970092774,14|2,0:3|3:2,0:0:0:0:
387,61,69246,6,0,L|379:13,3,48.9999985046387,14|8|8|8,3:2|0:0|0:0|0:0,0:0:0:0:
457,109,69599,2,0,L|505:101,3,48.9999985046387,14|8|8|8,3:2|0:0|0:0|0:0,0:0:0:0:
409,179,69952,2,0,L|417:227,3,48.9999985046387,14|8|8|8,3:2|0:0|0:0|0:0,0:0:0:0:
339,131,70305,2,0,L|290:139,3,48.9999985046387,12|8|8|8,3:2|0:0|0:0|0:0,0:0:0:0:
329,220,70658,5,4,3:0:0:0:
256,192,79128,12,2,81599,0:3:0:0:
329,220,81952,6,0,P|319:253|312:288,1,70,10|0,0:0|0:0,0:0:0:0:
242,199,82305,2,0,P|232:232|225:267,1,70,10|0,0:0|0:0,0:0:0:0:
137,311,82658,2,0,P|101:318|52:277,2,105,10|2|2,0:0|0:0|0:0,0:0:0:0:
225,266,83364,6,0,P|260:274|283:304,1,70,10|2,0:0|0:0,0:0:0:0:
373,265,83717,2,0,P|361:232|373:199,1,70,10|2,0:0|0:0,0:0:0:0:
453,144,84069,2,0,B|478:111|478:111|458:51,2,105,10|2|2,0:0|0:0|0:0,0:0:0:0:
373,199,84775,6,0,L|305:186,1,70,10|0,0:0|0:0,0:0:0:0:
373,113,85128,2,0,L|304:99,1,70,10|0,0:0|0:0,0:0:0:0:
248,18,85481,2,0,P|216:12|164:57,1,105,10|2,0:0|0:0,0:0:0:0:
193,200,86011,1,2,0:0:0:0:
113,142,86187,6,0,P|79:149|56:175,1,70,10|2,0:0|0:0,0:0:0:0:
74,271,86540,2,0,P|63:303|74:336,1,70,10|2,0:0|0:0,0:0:0:0:
162,379,86893,1,10,0:0:0:0:
308,365,87158,1,2,0:0:0:0:
454,352,87422,1,2,0:0:0:0:
376,291,87599,6,0,P|385:226|399:151,1,140,10|10,0:0|0:0,0:0:0:0:
252,21,88305,2,0,P|261:72|269:125,1,105,10|2,0:0|0:0,0:0:0:0:
291,270,88834,1,2,0:0:0:0:
213,209,89011,6,0,P|174:213|149:234,1,70,10|2,0:0|0:0,0:0:0:0:
67,179,89364,2,0,P|83:143|77:111,1,70,10|2,0:0|0:0,0:0:0:0:
42,22,89717,1,10,0:0:0:0:
187,41,89981,2,0,L|291:55,1,105,2|2,0:0|0:0,0:0:0:0:
387,33,90422,6,0,P|375:63|365:102,1,70,10|0,0:0|0:0,0:0:0:0:
474,58,90775,2,0,P|465:91|452:124,1,70,10|0,0:0|0:0,0:0:0:0:
385,196,91128,1,10,0:0:0:0:
423,338,91393,1,2,0:0:0:0:
277,359,91658,1,2,0:0:0:0:
331,277,91834,6,0,P|307:251|274:243,1,70,8|2,0:0|0:0,0:0:0:0:
214,165,92187,2,0,L|219:128,3,35,10|0|0|0,0:0|0:0|0:0|0:0,0:0:0:0:
202,176,92540,2,0,P|169:188|136:181,1,70,2|0,0:3|0:0,0:0:0:0:
48,136,92893,1,10,0:0:0:0:
19,273,93069,1,10,0:0:0:0:
93,340,93246,6,0,L|168:327,1,77.0000023498536,14|2,0:0|0:0,0:0:0:0:
266,349,93599,2,0,P|305:333|318:302,1,77.0000023498536,10|2,0:0|0:0,0:0:0:0:
287,206,93952,2,0,L|135:180,1,154.000004699707,10|10,0:0|0:0,0:0:0:0:
71,102,94481,1,2,0:0:0:0:
149,39,94658,2,0,L|224:52,1,77.0000023498536,10|2,0:0|0:0,0:0:0:0:
323,69,95011,1,10,0:0:0:0:
323,69,95364,2,0,L|332:145,1,77.0000023498536,10|2,0:0|0:0,0:0:0:0:
432,152,95717,2,0,L|423:228,1,77.0000023498536,10|10,1:2|0:0,0:0:0:0:
474,350,96069,6,0,P|449:317|413:310,1,77.0000023498536,10|2,0:0|0:0,0:0:0:0:
325,265,96422,2,0,P|283:270|259:297,1,77.0000023498536,10|2,0:0|0:0,0:0:0:0:
190,367,96775,2,0,P|115:348|28:341,1,154.000004699707,10|10,0:0|0:0,0:0:0:0:
2,246,97305,1,2,0:0:0:0:
90,199,97481,2,0,P|107:165|95:129,1,77.0000023498536,10|2,0:0|0:0,0:0:0:0:
42,44,97834,1,10,0:0:0:0:
42,44,98187,2,0,L|48:5,3,38.5000011749268,10|2|2|2,0:0|0:0|0:0|0:0,0:0:0:0:
125,49,98540,2,0,L|131:10,3,38.5000011749268,10|10|10|10,1:2|0:0|0:0|0:0,0:0:0:0:
140,61,98893,6,0,L|217:51,1,77.0000023498536,14|2,0:0|0:0,0:0:0:0:
301,103,99246,2,0,L|378:93,1,77.0000023498536,10|2,0:0|0:0,0:0:0:0:
453,27,99599,2,0,P|431:65|406:173,1,154.000004699707,10|10,0:0|0:0,0:0:0:0:
466,251,100128,1,2,0:0:0:0:
408,333,100305,2,0,B|372:344|372:344|339:322,1,77.0000023498536,10|2,0:0|0:0,0:0:0:0:
255,266,100658,1,10,0:0:0:0:
255,266,101011,2,0,P|217:274|195:308,1,77.0000023498536,10|2,0:0|0:0,0:0:0:0:
112,359,101364,2,0,P|90:326|96:289,1,77.0000023498536,10|10,1:2|0:0,0:0:0:0:
144,186,101717,6,0,P|107:189|68:196,1,77.0000023498536,10|2,0:0|0:0,0:0:0:0:
18,108,102069,2,0,P|56:102|94:97,1,77.0000023498536,10|2,0:0|0:0,0:0:0:0:
149,13,102422,2,0,B|188:36|191:76|191:76|209:43|252:40,1,154.000004699707,10|10,0:0|0:0,0:0:0:0:
343,84,102952,1,2,0:0:0:0:
423,25,103128,1,10,1:2:0:0:
459,118,103305,1,2,0:0:0:0:
458,128,103393,1,0,0:0:0:0:
456,138,103481,2,0,L|445:213,1,77.0000023498536,10|0,0:0|0:0,0:0:0:0:
424,322,103834,2,0,L|417:363,3,38.5000011749268,10|2|2|2,0:0|0:0|0:0|0:0,0:0:0:0:
427,308,104187,2,0,L|350:318,1,77.0000023498536,2|0,3:0|3:0,0:0:0:0:
258,329,104540,6,0,B|219:347|219:347|183:323|183:322,1,83.9999974365235,14|2,3:2|0:0,0:0:0:0:
186,231,104893,2,0,B|225:213|225:213|261:237|261:238,1,83.9999974365235,10|2,3:2|0:0,0:0:0:0:
103,284,105246,2,0,P|95:228|81:160,1,125.999996154785,10|0,3:2|3:0,0:0:0:0:
66,142,105599,2,0,P|88:105|126:95,1,83.9999974365235,10|2,0:0|3:2,0:0:0:0:
190,29,105952,6,0,P|219:58|261:61,1,83.9999974365235,10|0,3:2|0:0,0:0:0:0:
350,82,106305,2,0,P|379:53|421:50,1,83.9999974365235,10|0,3:2|0:0,0:0:0:0:
487,113,106658,2,0,P|461:171|442:232,1,125.999996154785,10|0,3:2|3:0,0:0:0:0:
452,247,107011,1,8,1:2:0:0:
367,282,107187,1,8,3:2:0:0:
420,357,107364,6,0,P|371:326|279:373,1,167.999994873047,10|10,3:2|3:2,0:0:0:0:
95,358,108069,2,0,P|114:295|149:240,1,125.999996154785,10|0,3:2|3:0,0:0:0:0:
159,234,108422,2,0,P|132:200|94:192,1,83.9999974365235,10|2,0:0|3:2,0:0:0:0:
45,112,108775,2,0,P|72:78|110:70,1,83.9999974365235,10|0,3:2|0:0,0:0:0:0:
188,118,109128,2,0,B|233:145|233:145|305:118,1,125.999996154785,10|0,3:2|0:0,0:0:0:0:
304,103,109481,2,0,L|311:59,3,41.9999987182618,10|2|2|2,3:2|0:0|0:0|3:2,0:0:0:0:
390,88,109834,2,0,L|384:130,3,41.9999987182618,10|10|10|10,1:2|0:0|3:2|0:0,0:0:0:0:
460,40,110187,6,0,B|500:74|500:74|488:146,1,125.999996154785,6|10,3:2|0:0,0:0:0:0:
462,283,110717,1,8,0:0:0:0:
383,235,110893,2,0,P|341:231|281:288,1,125.999996154785,10|10,0:0|0:0,0:0:0:0:
159,348,111422,1,8,0:0:0:0:
149,349,111511,1,8,0:0:0:0:
139,350,111599,2,0,B|108:332|106:301|106:301|89:330|52:334,1,125.999996154785,8|8,0:0|0:0,0:0:0:0:
6,203,112128,1,8,0:0:0:0:
95,180,112305,2,0,B|126:162|128:131|128:131|145:160|182:164,1,125.999996154785,10|10,0:0|0:0,0:0:0:0:
273,58,112834,1,8,0:0:0:0:
357,95,113011,6,0,P|371:85|385:65,3,41.9999987182618,0|2|2|2,3:0|3:2|3:2|3:2,0:0:0:0:
355,182,113364,2,0,P|368:192|392:199,3,41.9999987182618,0|2|2|2,3:0|3:2|3:2|3:2,0:0:0:0:
271,206,113717,2,0,P|265:222|265:246,3,41.9999987182618,0|0|0|0,3:0|3:0|3:0|3:0,0:0:0:0:
222,133,114069,2,0,P|204:132|181:140,3,41.9999987182618,0|0|0|0,3:0|3:0|3:0|3:0,0:0:0:0:
273,58,114422,1,4,3:0:0:0:
273,58,115128,5,8,0:0:0:0:
193,9,115305,1,8,0:0:0:0:
108,67,115481,2,0,L|66:69,3,41.9999987182618,2|2|2|2,0:0|0:0|0:0|0:0,0:0:0:0:
120,57,115834,6,0,B|110:128|110:128|132:156|132:156|89:215|89:215|103:248|103:248|92:325|92:325,1,293.999991027832,0|0,1:0|1:0,0:0:0:0:
110,317,116540,6,0,L|152:315,3,41.9999987182618,8|8|8|8,0:0|0:0|0:0|0:0,0:0:0:0:
53,258,116893,2,0,L|11:260,3,41.9999987182618,2|8|8|8,0:3|0:0|0:0|0:0,0:0:0:0:
115,200,117246,6,0,B|148:165|148:165|127:79,1,136.499993751526,6|2,3:2|3:2,0:0:0:0:
121,62,117599,1,8,0:3:0:0:
203,6,117775,1,2,3:2:0:0:
282,66,117952,2,0,B|330:72|366:61|388:13|388:13|385:40|417:68,1,181.999991668702,2|8,3:2|0:3,0:0:0:0:
408,59,118658,6,0,B|461:44|461:44|426:177,1,181.999991668702,2|8,3:2|0:3,0:0:0:0:
452,366,119364,2,0,L|316:350,1,136.499993751526,2|2,3:2|3:2,0:0:0:0:
308,337,119717,1,8,0:3:0:0:
213,368,119893,1,2,3:2:0:0:
137,302,120069,6,0,P|122:259|182:199,1,136.499993751526,2|2,3:2|3:2,0:0:0:0:
199,205,120422,2,0,B|224:167|224:167|202:127,1,90.9999958343508,8|2,0:3|3:2,0:0:0:0:
165,33,120775,2,0,P|202:8|254:16,1,90.9999958343508,2|0,3:2|0:0,0:0:0:0:
323,76,121128,2,0,P|368:81|417:86,1,90.9999958343508,10|8,3:2|0:0,0:0:0:0:
468,169,121481,6,0,B|431:196|431:196|341:184|341:184|306:213,1,181.999991668702,6|8,3:2|0:3,0:0:0:0:
306,212,122187,2,0,L|328:347,1,136.499993751526,2|2,3:2|3:2,0:0:0:0:
314,358,122540,2,0,L|223:344,1,90.9999958343508,8|2,0:3|3:2,0:0:0:0:
104,320,122893,6,0,P|120:274|203:254,1,136.499993751526,2|2,3:2|3:2,0:0:0:0:
216,260,123246,2,0,P|208:218|203:171,1,90.9999958343508,8|2,0:3|3:2,0:0:0:0:
111,128,123599,2,0,P|72:151|28:141,1,90.9999958343508,2|0,3:2|0:0,0:0:0:0:
16,42,123952,2,0,P|54:18|98:28,1,90.9999958343508,8|0,0:3|0:0,0:0:0:0:
189,65,124305,6,0,B|249:74|249:74|305:51|305:51|369:59,1,181.999991668702,2|8,3:2|0:3,0:0:0:0:
454,13,124834,1,2,0:0:0:0:
483,109,125011,2,0,P|445:137|396:220,1,136.499993751526,2|2,3:2|3:2,0:0:0:0:
376,215,125364,2,0,P|408:249|421:291,1,90.9999958343508,10|2,0:3|3:2,0:0:0:0:
343,354,125717,6,0,L|298:346,3,45.4999979171754,14|8|8|8,3:2|0:0|0:0|0:0,0:0:0:0:
312,268,126069,2,0,L|267:260,3,45.4999979171754,14|8|8|8,3:2|0:0|0:0|0:0,0:0:0:0:
223,332,126422,2,0,L|178:324,3,45.4999979171754,14|8|8|8,3:2|0:0|0:0|0:0,0:0:0:0:
192,246,126775,2,0,L|147:238,3,45.4999979171754,14|8|8|8,3:2|0:0|0:0|0:0,0:0:0:0:
244,185,127128,6,0,P|221:136|131:137,1,146.999995513916,14|0,3:2|0:0,0:0:0:0:
126,141,127481,2,0,P|130:85|137:43,1,97.9999970092774,12|2,0:3|0:0,0:0:0:0:
30,22,127834,2,0,P|0:60|9:111,1,97.9999970092774,10|0,3:2|0:0,0:0:0:0:
20,111,128099,1,2,3:2:0:0:
33,116,128187,2,0,P|25:164|22:213,1,97.9999970092774,12|2,0:3|3:2,0:0:0:0:
24,321,128540,6,0,B|67:343|67:343|112:314,1,97.9999970092774,10|0,3:2|0:0,0:0:0:0:
121,308,128805,1,2,3:2:0:0:
133,300,128893,2,0,B|174:273|174:273|217:295,1,97.9999970092774,12|2,0:3|3:2,0:0:0:0:
313,345,129246,2,0,B|357:369|357:369|336:221,1,195.999994018555,10|12,3:2|0:3,0:0:0:0:
333,8,129952,6,0,B|300:-9|300:-9|316:98,1,146.999995513916,10|0,3:2|0:0,0:0:0:0:
319,116,130305,2,0,P|271:106|214:100,1,97.9999970092774,12|2,0:3|0:0,0:0:0:0:
129,43,130658,2,0,P|83:52|58:92,1,97.9999970092774,10|0,3:2|0:0,0:0:0:0:
66,105,130922,1,2,3:2:0:0:
74,117,131011,2,0,B|96:160|96:160|75:204,1,97.9999970092774,12|2,0:3|3:2,0:0:0:0:
42,308,131364,6,0,L|138:291,1,97.9999970092774,10|2,3:2|0:0,0:0:0:0:
151,298,131628,1,2,3:2:0:0:
163,305,131717,2,0,L|259:288,1,97.9999970092774,12|2,0:3|3:2,0:0:0:0:
351,347,132069,2,0,P|362:280|379:202,1,146.999995513916,10|0,3:2|0:0,0:0:0:0:
381,188,132422,1,10,3:2:0:0:
472,131,132599,1,8,0:0:0:0:
436,24,132775,6,0,B|388:51|385:99|385:99|359:54|302:48,1,195.999994018555,14|12,3:2|0:3,0:0:0:0:
86,33,133481,2,0,P|129:55|143:104,1,97.9999970092774,10|0,3:2|0:0,0:0:0:0:
137,113,133746,1,2,3:2:0:0:
130,126,133834,2,0,P|91:157|98:204,1,97.9999970092774,12|2,0:3|3:2,0:0:0:0:
174,278,134187,6,0,L|272:260,1,97.9999970092774,10|0,3:2|0:0,0:0:0:0:
278,248,134452,1,2,3:2:0:0:
286,235,134540,2,0,L|274:337,1,97.9999970092774,12|2,0:3|3:2,0:0:0:0:
378,363,134893,2,0,L|395:217,1,146.999995513916,10|0,3:2|0:0,0:0:0:0:
412,221,135246,2,0,P|453:190|455:146,1,97.9999970092774,12|2,0:3|0:0,0:0:0:0:
367,81,135599,6,0,P|437:62|495:17,2,146.999995513916,10|2|2,3:2|3:2|3:2,0:0:0:0:
275,25,136305,2,0,P|226:17|168:88,1,146.999995513916,10|2,3:2|3:2,0:0:0:0:
180,98,136658,1,14,0:3:0:0:
255,173,136834,1,2,3:2:0:0:
233,303,137011,6,0,L|185:297,3,48.9999985046387,14|8|8|8,3:2|0:0|0:0|0:0,0:0:0:0:
315,318,137364,2,0,L|309:366,3,48.9999985046387,14|8|8|8,3:2|0:0|0:0|0:0,0:0:0:0:
330,236,137717,2,0,L|378:242,3,48.9999985046387,14|8|8|8,3:2|0:0|0:0|0:0,0:0:0:0:
248,221,138069,2,0,L|254:173,3,48.9999985046387,14|8|8|8,3:2|0:0|0:0|0:0,0:0:0:0:
233,303,138422,5,4,3:2:0:0:
