osu file format v14

[General]
AudioFilename: audio.mp3
AudioLeadIn: 0
PreviewTime: 115834
Countdown: 0
SampleSet: Soft
StackLeniency: 0
Mode: 0
LetterboxInBreaks: 0
WidescreenStoryboard: 1

[Editor]
DistanceSpacing: 1
BeatDivisor: 4
GridSize: 4
TimelineZoom: 1.900001

[Metadata]
Title:Rolling Beat
TitleUnicode:Rolling Beat
Artist:Mitsukiyo
ArtistUnicode:ミツキヨ
Creator:Bearizm
Version:Easy
Source:ブルーアーカイブ -Blue Archive-
Tags:-kevincela- captin1 amateurre shizuku- ayesha altugle kazato asa shikibe mayu newton- kyuuchie yostar nexon video game instrumental future bass ost 61 vgm
BeatmapID:3990060
BeatmapSetID:1918662

[Difficulty]
HPDrainRate:3
CircleSize:3
OverallDifficulty:3
ApproachRate:3
SliderMultiplier:1
SliderTickRate:1

[Events]
//Background and Video events
0,0,"BG3.jpg",0,0
//Break Periods
2,70858,80512
//Storyboard Layer 0 (Background)
//Storyboard Layer 1 (Fail)
//Storyboard Layer 2 (Pass)
//Storyboard Layer 3 (Foreground)
//Storyboard Layer 4 (Overlay)
//Storyboard Sound Samples

[TimingPoints]
70,352.941176470588,4,2,1,80,1,0
2893,-100,4,2,1,80,0,0
2981,-100,4,2,1,50,0,0
14187,-100,4,2,1,60,0,0
15775,-100,4,2,10,60,0,0
15952,-100,4,2,1,60,0,0
18599,-100,4,2,10,60,0,0
18775,-100,4,2,1,60,0,0
19481,-100,4,2,10,60,0,0
19834,-100,4,2,1,60,0,0
21422,-100,4,2,10,60,0,0
21599,-100,4,2,1,60,0,0
24069,-100,4,2,10,60,0,0
24246,-100,4,2,2,60,0,0
24775,-100,4,2,1,60,0,0
25128,-100,4,2,10,60,0,0
25481,-100,4,2,2,70,0,1
25569,-100,4,2,2,70,0,0
27952,-100,4,2,10,70,0,0
28305,-100,4,2,2,70,0,0
30775,-100,4,2,10,70,0,0
31128,-100,4,2,2,70,0,0
33599,-100,4,2,10,70,0,0
33952,-100,4,2,2,70,0,0
35364,-100,4,2,10,70,0,0
35540,-100,4,2,2,70,0,0
36422,-100,4,2,2,50,0,0
36775,-100,4,2,2,80,0,1
36864,-100,4,2,2,80,0,0
42069,-100,4,2,10,80,0,0
42422,-100,4,2,2,80,0,1
46658,-100,4,2,2,80,0,0
47364,-100,4,2,10,80,0,0
47717,-100,4,2,2,80,0,0
48069,-100,4,2,3,90,0,1
53364,-100,4,2,10,90,0,1
53717,-100,4,2,3,90,0,1
57952,-100,4,2,11,90,0,1
59011,-100,4,2,10,90,0,0
59364,-100,4,2,3,90,0,1
64658,-100,4,2,10,90,0,1
65011,-100,4,2,3,90,0,1
69246,-100,4,2,11,90,0,1
70305,-100,4,2,10,90,0,1
70658,-100,4,2,2,90,0,0
79128,-100,4,2,3,90,0,0
81952,-100,4,2,3,60,0,0
91834,-100,4,2,10,60,0,0
92011,-100,4,2,3,60,0,0
92893,-100,4,2,10,60,0,0
93246,-100,4,2,2,70,0,1
93334,-100,4,2,2,70,0,0
95717,-100,4,2,10,70,0,0
96069,-100,4,2,2,70,0,0
98540,-100,4,2,10,70,0,0
98893,-100,4,2,2,70,0,0
101364,-100,4,2,10,70,0,0
101717,-100,4,2,2,70,0,0
103128,-100,4,2,10,70,0,0
103305,-100,4,2,2,70,0,0
104187,-100,4,2,2,50,0,0
104540,-100,4,2,2,80,0,1
104628,-100,4,2,2,80,0,0
107011,-100,4,2,10,80,0,0
107364,-100,4,2,2,80,0,0
109834,-100,4,2,10,80,0,0
110187,-100,4,2,2,80,0,1
114422,-100,4,2,2,80,0,0
115128,-100,4,2,10,80,0,0
115481,-100,4,2,2,80,0,0
116540,-100,4,2,10,80,0,0
116893,-100,4,2,10,85,0,0
117246,-100,4,2,3,90,0,1
121128,-100,4,2,10,90,0,1
121481,-100,4,2,3,90,0,1
125717,-100,4,2,11,90,0,1
126775,-100,4,2,10,90,0,0
127128,-100,4,2,3,90,0,1
132422,-100,4,2,10,90,0,1
132775,-100,4,2,3,90,0,1
137011,-100,4,2,11,90,0,1
138069,-100,4,2,10,90,0,1
138422,-100,4,2,2,90,0,0

[Colours]
Combo1 : 255,147,147
Combo2 : 121,188,255
Combo3 : 51,153,255
Combo4 : 255,187,187

[HitObjects]
96,196,2893,6,0,P|38:48|186:104,1,400,4|2,3:0|0:0,0:0:0:0:
504,346,5717,2,0,B|411:413|291:357|262:254|262:254|234:140|117:99|30:152,1,600,2|0,0:0|0:0,0:0:0:0:
14,351,8540,6,0,B|111:331|111:331|208:360|208:360|251:271|251:271|350:249,1,400,0|2,0:0|0:0,0:0:0:0:
476,32,11364,2,0,B|380:4|380:4|403:203|403:203|307:176,1,400,2|0,0:0|0:0,0:0:0:0:
245,97,13128,2,0,P|214:91|155:128,1,100,2|2,0:0|0:3,0:0:0:0:
123,218,13834,1,2,0:0:0:0:
199,282,14187,6,0,P|103:269|-1:263,2,200,6|8|0,3:2|0:3|0:0,0:0:0:0:
271,351,15952,1,2,3:2:0:0:
362,311,16305,2,0,P|385:276|374:221,1,100,8|2,0:3|0:0,0:0:0:0:
338,127,17011,6,0,P|329:78|448:21,2,200,2|8|0,3:2|0:3|0:0,0:0:0:0:
374,221,18775,1,2,3:2:0:0:
426,306,19128,2,0,P|381:286|333:298,1,100,8|10,0:3|0:0,0:0:0:0:
255,361,19834,6,0,L|155:346,1,100,2|2,3:2|0:0,0:0:0:0:
63,306,20540,2,0,P|47:198|31:106,1,200,8|0,0:3|0:0,0:0:0:0:
90,27,21599,1,2,3:2:0:0:
173,81,21952,2,0,P|207:82|251:35,1,100,8|2,0:3|0:0,0:0:0:0:
349,54,22658,6,0,P|354:102|394:130,1,100,2|2,3:2|0:0,0:0:0:0:
486,90,23364,2,0,P|443:149|415:278,1,200,8|10,0:3|0:0,0:0:0:0:
448,365,24422,1,0,3:0:0:0:
349,381,24775,2,0,P|315:344|320:296,1,100,10|10,0:3|2:0,2:0:0:0:
323,196,25481,6,0,B|276:179|276:179|231:200,1,100,14|10,0:0|0:0,0:0:0:0:
142,248,26187,2,0,B|97:269|97:269|50:252,1,100,10|10,0:0|0:0,0:0:0:0:
17,156,26893,2,0,P|25:104|32:53,1,100,10|10,0:0|0:0,0:0:0:0:
131,47,27599,2,0,P|137:96|145:145,1,100,10|8,0:0|1:2,0:0:0:0:
230,200,28305,6,0,P|281:200|315:169,1,100,10|10,0:0|0:0,0:0:0:0:
393,105,29011,2,0,P|444:105|478:136,1,100,10|10,0:0|0:0,0:0:0:0:
463,235,29717,1,10,0:0:0:0:
449,333,30069,1,10,0:0:0:0:
349,347,30422,2,0,P|306:351|250:362,1,100,10|10,0:0|1:2,0:0:0:0:
177,292,31128,6,0,P|196:245|238:225,2,100,14|10|10,0:0|0:0|0:0,0:0:0:0:
77,307,32187,2,0,P|46:266|0:258,2,100,10|10|10,0:0|0:0|0:0,0:0:0:0:
114,214,33246,2,0,P|108:164|99:116,1,100,10|8,0:0|1:2,0:0:0:0:
171,45,33952,6,0,P|210:57|240:107,1,100,10|10,0:0|0:0,0:0:0:0:
245,205,34658,1,10,0:0:0:0:
193,290,35011,2,0,P|205:329|255:359,1,100,10|10,0:0|1:2,0:0:0:0:
353,364,35717,1,10,0:0:0:0:
431,302,36069,2,0,P|439:249|452:203,1,100,10|2,0:0|3:0,0:0:0:0:
489,111,36775,6,0,P|468:86|403:82,1,100,14|10,3:2|3:2,0:0:0:0:
324,142,37481,2,0,P|303:167|238:171,1,100,10|10,3:2|0:0,0:0:0:0:
185,87,38187,2,0,P|137:164|97:267,1,200,10|10,3:2|3:2,0:0:0:0:
178,325,39246,1,10,0:0:0:0:
256,264,39599,6,0,P|260:215|230:176,1,100,10|10,3:2|3:2,0:0:0:0:
185,87,40305,2,0,P|137:74|94:96,1,100,10|8,3:2|0:0,0:0:0:0:
58,190,41011,2,0,B|27:183|14:162|14:162|30:310,1,200,10|10,3:2|3:2,0:0:0:0:
97,381,42069,1,10,1:2:0:0:
171,314,42422,6,0,P|272:298|374:292,1,200,6|10,3:2|0:0,0:0:0:0:
439,364,43481,1,2,0:0:0:0:
510,293,43834,2,0,P|515:235|392:205,1,200,8|10,0:0|0:0,0:0:0:0:
369,292,44893,1,2,0:0:0:0:
256,192,45069,12,4,46658,3:0:0:0:
369,292,48069,6,0,P|333:271|280:288,1,100,6|8,3:2|0:3,0:0:0:0:
207,356,48775,2,0,P|157:342|109:333,1,100,2|8,3:2|0:3,0:0:0:0:
77,238,49481,2,0,P|126:224|175:215,1,100,2|8,3:2|0:3,0:0:0:0:
240,139,50187,2,0,P|247:90|214:57,1,100,2|8,3:2|0:3,0:0:0:0:
123,13,50893,6,0,P|213:21|326:35,1,200,2|2,3:2|3:2,0:0:0:0:
418,6,51952,1,8,0:3:0:0:
498,65,52305,2,0,P|506:114|473:150,1,100,2|8,3:2|0:3,0:0:0:0:
382,188,53011,1,2,3:2:0:0:
368,287,53364,1,10,3:2:0:0:
437,358,53717,6,0,B|372:342|372:342|308:365|308:365|243:351,1,200,6|2,3:2|3:2,0:0:0:0:
182,272,54775,1,8,0:3:0:0:
116,347,55128,2,0,P|88:322|81:263,1,100,2|8,3:2|0:3,0:0:0:0:
141,182,55834,2,0,P|169:157|176:98,1,100,2|8,3:2|0:3,0:0:0:0:
173,0,56540,6,0,P|180:67|267:167,1,200,2|2,3:2|3:2,0:0:0:0:
362,148,57599,1,10,0:3:0:0:
459,127,57952,2,0,P|492:160|488:217,1,100,14|14,3:2|3:2,0:0:0:0:
425,285,58658,1,14,3:2:0:0:
326,270,59011,1,14,3:2:0:0:
260,345,59364,6,0,P|219:347|161:360,1,100,14|12,3:2|0:3,0:3:0:0:
67,325,60069,2,0,P|37:283|48:231,1,100,10|12,3:2|0:3,0:0:0:0:
13,141,60775,2,0,P|34:94|84:77,1,100,10|12,3:2|0:3,0:0:0:0:
168,119,61481,1,10,3:2:0:0:
239,49,61834,1,12,0:3:0:0:
336,72,62187,6,0,P|311:169|292:271,1,200,10|10,3:2|3:2,0:0:0:0:
368,333,63246,1,12,0:3:0:0:
460,296,63599,2,0,P|492:254|481:208,1,100,10|12,3:2|0:3,0:0:0:0:
493,111,64305,1,10,3:2:0:0:
400,149,64658,1,10,3:2:0:0:
336,72,65011,6,0,B|305:49|265:68|256:102|256:102|246:140|207:154|178:136,1,200,14|10,3:2|3:2,0:0:0:0:
92,85,66069,1,12,0:3:0:0:
5,135,66422,2,0,P|17:183|25:241,1,100,10|12,3:2|0:3,0:0:0:0:
6,330,67128,2,0,P|44:361|93:353,1,100,10|12,3:2|0:3,0:0:0:0:
165,283,67834,6,0,P|205:303|222:356,1,100,10|12,3:2|0:3,0:0:0:0:
322,343,68540,2,0,P|311:295|336:253,1,100,10|14,3:2|0:3,0:0:0:0:
435,274,69246,1,14,3:2:0:0:
484,187,69599,1,14,3:2:0:0:
417,113,69952,1,14,3:2:0:0:
326,155,70305,1,12,3:2:0:0:
336,253,70658,5,4,3:0:0:0:
70,347,81952,6,0,L|48:246,1,100,10|10,0:0|0:0,0:0:0:0:
29,150,82658,2,0,L|51:49,1,100,10|8,0:0|0:0,0:0:0:0:
142,11,83364,2,0,B|183:39|183:39|154:188,1,200,10|10,0:0|0:0,0:0:0:0:
222,259,84422,1,10,0:0:0:0:
316,225,84775,6,0,B|365:215|365:215|405:244,1,100,10|10,0:0|0:0,0:0:0:0:
388,343,85481,2,0,B|339:353|339:353|299:324,1,100,10|8,0:0|0:0,0:0:0:0:
222,259,86187,2,0,B|190:237|149:254|140:289|140:289|130:326|90:338|61:319,1,200,10|10,0:0|0:0,0:0:0:0:
42,222,87246,1,8,0:0:0:0:
22,123,87599,6,0,P|55:86|103:85,1,100,10|10,0:0|0:0,0:0:0:0:
190,36,88305,2,0,P|238:46|263:87,1,100,10|8,0:0|0:0,0:0:0:0:
214,174,89011,2,0,B|257:201|257:201|349:166|349:166|359:116,1,200,10|10,0:0|0:0,0:0:0:0:
410,30,90069,1,10,0:0:0:0:
495,82,90422,6,0,P|518:112|503:175,1,100,10|10,0:0|0:0,0:0:0:0:
426,228,91128,2,0,P|415:273|408:330,1,100,10|8,0:0|0:0,0:0:0:0:
311,352,91834,2,0,P|288:323|225:314,1,100,8|10,0:0|0:0,0:0:0:0:
132,343,92540,1,2,0:3:0:0:
35,371,92893,1,10,0:0:0:0:
59,274,93246,6,0,P|52:227|39:176,1,100,14|10,0:0|0:0,0:0:0:0:
4,82,93952,1,10,0:0:0:0:
78,15,94305,2,0,P|125:24|150:73,1,100,10|10,0:0|0:0,0:0:0:0:
156,166,95011,1,10,0:0:0:0:
254,147,95364,2,0,P|301:137|358:129,1,100,10|10,0:0|1:2,0:0:0:0:
438,78,96069,6,0,B|465:112|465:112|446:173,1,100,10|10,0:0|0:0,0:0:0:0:
418,261,96775,1,10,0:0:0:0:
339,323,97128,6,0,B|305:350|305:350|244:331,1,100,10|10,0:0|0:0,0:0:0:0:
155,303,97834,1,10,0:0:0:0:
207,217,98187,2,0,P|223:178|201:124,1,100,10|10,0:0|1:2,0:0:0:0:
113,81,98893,6,0,P|67:88|14:102,2,100,14|10|10,0:0|0:0|0:0,0:0:0:0:
186,14,99952,2,0,P|232:2|277:26,1,100,10|10,0:0|0:0,0:0:0:0:
349,95,100658,1,10,0:0:0:0:
447,76,101011,2,0,P|409:110|406:158,1,100,10|10,0:0|1:2,0:0:0:0:
463,239,101717,5,10,0:0:0:0:
421,330,102069,1,10,0:0:0:0:
321,339,102422,1,10,0:0:0:0:
263,256,102775,1,10,0:0:0:0:
162,264,103128,2,0,B|131:277|122:304|122:304|108:162,1,200,10|10,1:2|0:0,0:0:0:0:
28,102,104187,1,2,3:0:0:0:
119,62,104540,6,0,P|172:69|217:78,1,100,14|10,3:2|3:2,0:0:0:0:
302,24,105246,2,0,P|343:29|377:75,1,100,10|10,3:2|0:0,0:0:0:0:
475,59,105952,2,0,B|425:72|391:120|399:166|399:166|421:180|429:213,1,200,10|10,3:2|3:2,0:0:0:0:
402,308,107011,1,8,1:2:0:0:
305,280,107364,6,0,P|285:247|304:190,2,100,10|10|10,3:2|3:2|3:2,0:0:0:0:
402,308,108422,1,10,0:0:0:0:
429,213,108775,2,0,B|421:180|399:166|399:166|446:151|484:111|475:58,1,200,10|10,3:2|3:2,0:0:0:0:
395,0,109834,1,10,1:2:0:0:
302,38,110187,6,0,B|255:55|255:55|165:12|165:12|118:30,1,200,6|10,3:2|0:0,0:0:0:0:
26,71,111246,1,2,0:0:0:0:
107,128,111599,2,0,P|157:189|208:304,1,200,8|10,0:0|0:0,0:0:0:0:
130,364,112658,1,2,0:0:0:0:
256,192,112834,12,4,114422,3:0:0:0:
373,227,115834,6,0,B|315:215|315:215|243:265|243:265|190:192|190:192|129:179,1,300,0|2,1:0|0:3,0:0:0:0:
69,98,117246,2,0,P|94:52|141:40,1,100,6|8,3:2|0:3,0:0:0:0:
229,79,117952,1,2,3:2:0:0:
328,64,118305,1,8,0:3:0:0:
427,50,118658,6,0,P|405:147|386:266,1,200,2|2,3:2|3:2,0:0:0:0:
423,340,119717,1,8,0:3:0:0:
326,364,120069,2,0,P|286:350|263:300,1,100,2|8,3:2|0:3,0:0:0:0:
228,205,120775,2,0,P|188:219|165:269,1,100,2|10,3:2|3:2,0:0:0:0:
123,359,121481,6,0,B|63:315|63:315|76:191,1,200,6|2,3:2|3:2,0:0:0:0:
90,90,122540,1,8,0:3:0:0:
171,32,122893,2,0,B|221:25|221:25|260:55,1,100,2|8,3:2|0:3,0:0:0:0:
336,120,123599,2,0,B|375:150|375:150|425:143,1,100,2|8,3:2|0:3,0:0:0:0:
498,74,124305,6,0,P|463:111|463:256,1,200,2|2,3:2|3:2,0:0:0:0:
408,337,125364,1,10,0:3:0:0:
309,354,125717,2,0,P|276:340|253:283,1,100,14|14,3:2|3:2,0:0:0:0:
218,189,126422,1,14,3:2:0:0:
123,155,126775,1,14,3:2:0:0:
30,191,127128,6,0,P|15:140|5:94,1,100,14|12,3:2|0:3,0:0:0:0:
75,22,127834,2,0,P|120:12|161:47,1,100,10|12,3:2|0:3,0:0:0:0:
231,115,128540,2,0,P|185:105|144:140,1,100,10|12,3:2|0:3,0:0:0:0:
149,237,129246,1,10,3:2:0:0:
238,281,129599,1,12,0:3:0:0:
334,255,129952,6,0,B|404:228|404:228|417:104,1,200,10|10,3:2|3:2,0:0:0:0:
484,30,131011,1,12,0:3:0:0:
385,10,131364,2,0,P|339:21|285:38,1,100,10|12,3:2|0:3,0:0:0:0:
225,114,132069,2,0,P|177:99|128:87,1,100,10|10,3:2|3:2,0:0:0:0:
47,28,132775,6,0,P|80:58|87:204,1,200,14|10,3:2|3:2,0:0:0:0:
21,279,133834,1,12,0:3:0:0:
81,358,134187,2,0,P|129:356|160:317,1,100,10|12,3:2|0:3,0:0:0:0:
193,224,134893,1,10,3:2:0:0:
288,195,135246,1,12,0:3:0:0:
370,251,135599,6,0,P|419:274|461:257,1,100,10|12,3:2|0:3,0:0:0:0:
485,161,136305,2,0,P|440:136|389:114,1,100,10|14,3:2|0:3,0:0:0:0:
348,28,137011,1,14,3:2:0:0:
260,77,137364,1,14,3:2:0:0:
170,31,137717,1,14,3:2:0:0:
97,99,138069,1,14,3:2:0:0:
140,188,138422,5,4,3:2:0:0:
