osu file format v14

[General]
AudioFilename: audio.ogg
AudioLeadIn: 0
PreviewTime: 47979
Countdown: 0
SampleSet: Normal
StackLeniency: 0.7
Mode: 1
LetterboxInBreaks: 0
WidescreenStoryboard: 1

[Editor]
DistanceSpacing: 0.6
BeatDivisor: 4
GridSize: 32
TimelineZoom: 2.4

[Metadata]
Title:Rolling Beat
TitleUnicode:Rolling Beat
Artist:Mitsukiyo
ArtistUnicode:ミツキヨ
Creator:[Zeth]
Version:ler's Futsuu
Source:ブルーアーカイブ -Blue Archive-
Tags:ブルアカ ba future bass instrumental electronic video game original soundtrack ost background music bgm yostar nat games mtntwarz ler1211 quorum
BeatmapID:3584157
BeatmapSetID:1751055

[Difficulty]
HPDrainRate:7
CircleSize:2
OverallDifficulty:4
ApproachRate:10
SliderMultiplier:1.4
SliderTickRate:1

[Events]
//Background and Video events
0,0,"koharu.png",0,0
//Break Periods
//Storyboard Layer 0 (Background)
//Storyboard Layer 1 (Fail)
//Storyboard Layer 2 (Pass)
//Storyboard Layer 3 (Foreground)
//Storyboard Layer 4 (Overlay)
//Storyboard Sound Samples

[TimingPoints]
0,352.941176470588,99,1,0,5,1,8
156,-100,99,1,0,5,0,0
1235,-100,99,1,0,10,0,0
1411,-100,99,1,0,15,0,0
1588,-100,99,1,0,20,0,0
1764,-100,99,1,0,25,0,0
1941,-100,99,1,0,30,0,0
2117,-100,99,1,0,35,0,0
2294,-100,99,1,0,40,0,0
2470,-100,99,1,0,45,0,0
2803,352.941176470588,4,1,0,75,1,0
4126,-100,4,1,0,50,0,0
14052,-100,4,1,0,75,0,0
23957,-100,4,1,0,85,0,0
25369,-100,4,1,0,100,0,0
47979,-100,4,1,0,100,0,1
70567,-100,4,1,0,100,0,0
70744,-100,4,1,0,75,0,0
81839,-100,4,1,0,85,0,0
93132,-100,4,1,0,100,0,0
117155,-100,4,1,0,100,0,1
138332,-100,4,1,0,100,0,0
138508,-100,4,1,0,75,0,0

[HitObjects]
256,192,1058,12,0,2647,0:0:0:0:
256,192,2803,5,4,0:0:0:0:
256,192,4214,1,2,0:0:0:0:
256,192,5626,1,0,0:0:0:0:
256,192,7744,1,8,0:0:0:0:
256,192,8450,1,0,0:0:0:0:
256,192,9861,1,2,0:0:0:0:
256,192,11273,1,0,0:0:0:0:
256,192,13038,1,2,0:0:0:0:
256,192,13391,1,0,0:0:0:0:
256,192,14097,1,0,0:0:0:0:
256,192,14450,1,2,0:0:0:0:
256,192,14626,1,0,0:0:0:0:
256,192,14979,1,0,0:0:0:0:
256,192,15155,1,2,0:0:0:0:
256,192,15332,1,2,0:0:0:0:
256,192,15685,1,0,0:0:0:0:
256,192,15861,1,2,0:0:0:0:
256,192,16214,1,2,0:0:0:0:
256,192,16567,1,0,0:0:0:0:
256,192,16744,1,2,0:0:0:0:
256,192,16920,1,0,0:0:0:0:
256,192,17273,1,2,0:0:0:0:
256,192,17450,1,0,0:0:0:0:
256,192,17802,1,0,0:0:0:0:
256,192,17979,1,2,0:0:0:0:
256,192,18155,1,2,0:0:0:0:
256,192,18332,1,0,0:0:0:0:
256,192,19038,1,8,0:0:0:0:
256,192,19744,1,0,0:0:0:0:
256,192,20097,1,2,0:0:0:0:
256,192,20273,1,8,0:0:0:0:
256,192,20626,1,0,0:0:0:0:
256,192,20802,1,2,0:0:0:0:
256,192,20979,1,2,0:0:0:0:
256,192,21332,1,0,0:0:0:0:
256,192,21508,1,2,0:0:0:0:
256,192,21861,1,8,0:0:0:0:
256,192,22214,1,0,0:0:0:0:
256,192,22391,1,2,0:0:0:0:
256,192,22567,1,0,0:0:0:0:
256,192,22920,1,2,0:0:0:0:
256,192,23097,1,8,0:0:0:0:
256,192,23450,1,0,0:0:0:0:
256,192,23626,1,8,0:0:0:0:
256,192,23802,1,0,0:0:0:0:
256,192,23979,1,2,0:0:0:0:
256,192,24685,1,8,0:0:0:0:
256,192,25391,1,4,0:0:0:0:
256,192,25744,1,2,0:0:0:0:
256,192,25920,1,0,0:0:0:0:
256,192,26097,1,2,0:0:0:0:
256,192,26450,1,0,0:0:0:0:
256,192,26802,1,2,0:0:0:0:
256,192,26979,1,0,0:0:0:0:
256,192,27155,1,2,0:0:0:0:
256,192,27508,1,0,0:0:0:0:
256,192,27861,1,2,0:0:0:0:
256,192,28038,1,2,0:0:0:0:
256,192,28214,1,0,0:0:0:0:
256,192,28567,1,2,0:0:0:0:
256,192,28744,1,0,0:0:0:0:
256,192,28920,1,2,0:0:0:0:
256,192,29273,1,0,0:0:0:0:
256,192,29626,1,2,0:0:0:0:
256,192,29802,1,0,0:0:0:0:
256,192,29979,1,2,0:0:0:0:
256,192,30332,1,2,0:0:0:0:
256,192,31038,1,4,0:0:0:0:
256,192,31391,1,2,0:0:0:0:
256,192,31567,1,0,0:0:0:0:
256,192,31744,1,2,0:0:0:0:
256,192,32097,1,0,0:0:0:0:
256,192,32450,1,2,0:0:0:0:
256,192,32626,1,0,0:0:0:0:
256,192,32802,1,2,0:0:0:0:
256,192,33155,1,0,0:0:0:0:
256,192,33508,1,2,0:0:0:0:
256,192,33685,1,8,0:0:0:0:
256,192,33861,1,0,0:0:0:0:
256,192,34214,1,2,0:0:0:0:
256,192,34391,1,0,0:0:0:0:
256,192,34567,1,2,0:0:0:0:
256,192,34920,1,0,0:0:0:0:
256,192,35273,1,2,0:0:0:0:
256,192,35450,1,0,0:0:0:0:
256,192,35626,1,0,0:0:0:0:
256,192,35979,1,2,0:0:0:0:
256,192,36685,1,4,0:0:0:0:
256,192,37038,1,2,0:0:0:0:
256,192,37391,1,0,0:0:0:0:
256,192,37655,1,0,0:0:0:0:
256,192,37920,1,0,0:0:0:0:
256,192,38097,1,2,0:0:0:0:
256,192,38450,1,0,0:0:0:0:
256,192,38802,1,2,0:0:0:0:
256,192,39067,1,2,0:0:0:0:
256,192,39332,1,2,0:0:0:0:
256,192,39508,1,0,0:0:0:0:
256,192,39861,1,2,0:0:0:0:
256,192,40214,1,0,0:0:0:0:
256,192,40479,1,0,0:0:0:0:
256,192,40744,1,0,0:0:0:0:
256,192,40920,1,2,0:0:0:0:
256,192,41273,1,0,0:0:0:0:
256,192,41626,1,2,0:0:0:0:
256,192,41891,1,2,0:0:0:0:
256,192,42155,1,2,0:0:0:0:
256,192,42332,1,4,0:0:0:0:
256,192,43038,1,0,0:0:0:0:
256,192,43302,1,2,0:0:0:0:
256,192,43479,1,2,0:0:0:0:
256,192,43744,1,0,0:0:0:0:
256,192,44185,1,2,0:0:0:0:
256,192,44450,1,0,0:0:0:0:
256,192,44714,1,2,0:0:0:0:
256,192,44891,1,2,0:0:0:0:
256,192,45155,1,0,0:0:0:0:
256,192,45508,1,2,0:0:0:0:
256,192,45861,1,0,0:0:0:0:
256,192,46038,1,0,0:0:0:0:
256,192,46214,1,2,0:0:0:0:
256,192,46391,1,2,0:0:0:0:
256,192,46567,1,0,0:0:0:0:
256,192,47273,1,2,0:0:0:0:
256,192,47450,1,2,0:0:0:0:
256,192,47979,1,4,0:0:0:0:
256,192,48685,1,0,0:0:0:0:
256,192,48950,1,0,0:0:0:0:
256,192,49214,1,0,0:0:0:0:
256,192,49391,1,2,0:0:0:0:
256,192,49655,1,2,0:0:0:0:
256,192,49920,1,2,0:0:0:0:
256,192,50097,1,0,0:0:0:0:
256,192,50450,1,2,0:0:0:0:
256,192,50802,1,0,0:0:0:0:
256,192,51155,1,8,0:0:0:0:
256,192,51508,1,0,0:0:0:0:
256,192,51773,1,2,0:0:0:0:
256,192,52038,1,2,0:0:0:0:
256,192,52214,1,0,0:0:0:0:
256,192,52479,1,2,0:0:0:0:
256,192,52744,1,2,0:0:0:0:
256,192,52920,1,0,0:0:0:0:
256,192,53273,1,2,0:0:0:0:
256,192,53450,1,2,0:0:0:0:
256,192,53626,1,0,0:0:0:0:
256,192,54332,1,2,0:0:0:0:
256,192,54597,1,0,0:0:0:0:
256,192,54861,1,0,0:0:0:0:
256,192,55038,1,2,0:0:0:0:
256,192,55302,1,0,0:0:0:0:
256,192,55567,1,0,0:0:0:0:
256,192,55744,1,2,0:0:0:0:
256,192,56097,1,2,0:0:0:0:
256,192,56450,1,0,0:0:0:0:
256,192,56802,1,2,0:0:0:0:
256,192,57155,1,0,0:0:0:0:
256,192,57420,1,2,0:0:0:0:
256,192,57685,1,2,0:0:0:0:
256,192,57861,1,0,0:0:0:0:
256,192,58214,1,2,0:0:0:0:
256,192,58391,1,0,0:0:0:0:
256,192,58567,1,2,0:0:0:0:
256,192,58920,1,2,0:0:0:0:
256,192,59097,1,2,0:0:0:0:
256,192,59273,1,4,0:0:0:0:
256,192,59979,1,0,0:0:0:0:
256,192,60244,1,0,0:0:0:0:
256,192,60508,1,0,0:0:0:0:
256,192,60685,1,2,0:0:0:0:
256,192,60950,1,2,0:0:0:0:
256,192,61214,1,2,0:0:0:0:
256,192,61391,1,0,0:0:0:0:
256,192,61744,1,2,0:0:0:0:
256,192,62097,1,0,0:0:0:0:
256,192,62450,1,8,0:0:0:0:
256,192,62802,1,0,0:0:0:0:
256,192,63067,1,2,0:0:0:0:
256,192,63332,1,2,0:0:0:0:
256,192,63508,1,0,0:0:0:0:
256,192,63773,1,2,0:0:0:0:
256,192,64038,1,2,0:0:0:0:
256,192,64214,1,0,0:0:0:0:
256,192,64567,1,2,0:0:0:0:
256,192,64744,1,2,0:0:0:0:
256,192,64920,1,0,0:0:0:0:
256,192,65626,1,2,0:0:0:0:
256,192,65891,1,0,0:0:0:0:
256,192,66155,1,0,0:0:0:0:
256,192,66332,1,2,0:0:0:0:
256,192,66597,1,0,0:0:0:0:
256,192,66861,1,0,0:0:0:0:
256,192,67038,1,2,0:0:0:0:
256,192,67391,1,2,0:0:0:0:
256,192,67744,1,0,0:0:0:0:
256,192,68097,1,2,0:0:0:0:
256,192,68450,1,0,0:0:0:0:
256,192,68714,1,2,0:0:0:0:
256,192,68979,1,2,0:0:0:0:
256,192,69155,1,0,0:0:0:0:
256,192,69508,1,2,0:0:0:0:
256,192,69685,1,0,0:0:0:0:
256,192,69861,1,2,0:0:0:0:
256,192,70214,1,2,0:0:0:0:
256,192,70391,1,2,0:0:0:0:
256,192,70567,1,4,0:0:0:0:
256,192,71273,1,2,0:0:0:0:
256,192,71538,1,0,0:0:0:0:
256,192,71802,1,0,0:0:0:0:
256,192,71979,1,2,0:0:0:0:
256,192,72685,1,2,0:0:0:0:
256,192,72950,1,2,0:0:0:0:
256,192,73214,1,2,0:0:0:0:
256,192,73391,1,0,0:0:0:0:
256,192,74097,1,0,0:0:0:0:
256,192,74361,1,2,0:0:0:0:
256,192,74626,1,2,0:0:0:0:
256,192,74802,1,0,0:0:0:0:
256,192,75508,1,0,0:0:0:0:
256,192,75773,1,0,0:0:0:0:
256,192,76038,1,0,0:0:0:0:
256,192,76214,1,2,0:0:0:0:
256,192,76920,1,2,0:0:0:0:
256,192,77185,1,0,0:0:0:0:
256,192,77450,1,0,0:0:0:0:
256,192,77626,1,2,0:0:0:0:
256,192,78332,1,2,0:0:0:0:
256,192,78597,1,2,0:0:0:0:
256,192,78861,1,2,0:0:0:0:
256,192,79038,1,0,0:0:0:0:
256,192,79744,1,0,0:0:0:0:
256,192,80008,1,2,0:0:0:0:
256,192,80273,1,2,0:0:0:0:
256,192,80450,1,0,0:0:0:0:
256,192,81155,1,0,0:0:0:0:
256,192,81420,1,0,0:0:0:0:
256,192,81685,1,0,0:0:0:0:
256,192,81861,1,2,0:0:0:0:
256,192,82214,1,2,0:0:0:0:
256,192,82391,1,0,0:0:0:0:
256,192,82744,1,0,0:0:0:0:
256,192,82920,1,2,0:0:0:0:
256,192,83097,1,2,0:0:0:0:
256,192,83450,1,0,0:0:0:0:
256,192,83626,1,2,0:0:0:0:
256,192,83979,1,2,0:0:0:0:
256,192,84332,1,0,0:0:0:0:
256,192,84508,1,2,0:0:0:0:
256,192,84685,1,0,0:0:0:0:
256,192,85038,1,2,0:0:0:0:
256,192,85214,1,0,0:0:0:0:
256,192,85567,1,0,0:0:0:0:
256,192,85744,1,2,0:0:0:0:
256,192,85920,1,2,0:0:0:0:
256,192,86097,1,0,0:0:0:0:
256,192,86802,1,0,0:0:0:0:
256,192,86979,1,8,0:0:0:0:
256,192,87332,1,8,0:0:0:0:
256,192,87508,1,0,0:0:0:0:
256,192,87861,1,2,0:0:0:0:
256,192,88038,1,8,0:0:0:0:
256,192,88391,1,0,0:0:0:0:
256,192,88567,1,2,0:0:0:0:
256,192,88744,1,2,0:0:0:0:
256,192,89097,1,0,0:0:0:0:
256,192,89273,1,2,0:0:0:0:
256,192,89626,1,8,0:0:0:0:
256,192,89979,1,0,0:0:0:0:
256,192,90155,1,2,0:0:0:0:
256,192,90332,1,0,0:0:0:0:
256,192,90685,1,2,0:0:0:0:
256,192,90861,1,8,0:0:0:0:
256,192,91214,1,0,0:0:0:0:
256,192,91391,1,8,0:0:0:0:
256,192,91567,1,0,0:0:0:0:
256,192,91744,1,2,0:0:0:0:
256,192,92450,1,8,0:0:0:0:
256,192,93155,1,4,0:0:0:0:
256,192,93508,1,2,0:0:0:0:
256,192,93685,1,0,0:0:0:0:
256,192,93861,1,2,0:0:0:0:
256,192,94214,1,0,0:0:0:0:
256,192,94567,1,2,0:0:0:0:
256,192,94744,1,0,0:0:0:0:
256,192,94920,1,2,0:0:0:0:
256,192,95273,1,0,0:0:0:0:
256,192,95626,1,2,0:0:0:0:
256,192,95802,1,2,0:0:0:0:
256,192,95979,1,0,0:0:0:0:
256,192,96332,1,2,0:0:0:0:
256,192,96508,1,0,0:0:0:0:
256,192,96685,1,2,0:0:0:0:
256,192,97038,1,0,0:0:0:0:
256,192,97391,1,2,0:0:0:0:
256,192,97567,1,0,0:0:0:0:
256,192,97744,1,2,0:0:0:0:
256,192,98097,1,2,0:0:0:0:
256,192,98802,1,4,0:0:0:0:
256,192,99155,1,2,0:0:0:0:
256,192,99332,1,0,0:0:0:0:
256,192,99508,1,2,0:0:0:0:
256,192,99861,1,0,0:0:0:0:
256,192,100214,1,2,0:0:0:0:
256,192,100391,1,0,0:0:0:0:
256,192,100567,1,2,0:0:0:0:
256,192,100920,1,0,0:0:0:0:
256,192,101273,1,2,0:0:0:0:
256,192,101450,1,8,0:0:0:0:
256,192,101626,1,0,0:0:0:0:
256,192,101979,1,2,0:0:0:0:
256,192,102155,1,0,0:0:0:0:
256,192,102332,1,2,0:0:0:0:
256,192,102685,1,0,0:0:0:0:
256,192,103038,1,2,0:0:0:0:
256,192,103214,1,0,0:0:0:0:
256,192,103391,1,0,0:0:0:0:
256,192,103744,1,2,0:0:0:0:
256,192,104450,1,4,0:0:0:0:
256,192,104802,1,2,0:0:0:0:
256,192,105155,1,0,0:0:0:0:
256,192,105420,1,0,0:0:0:0:
256,192,105685,1,0,0:0:0:0:
256,192,105861,1,2,0:0:0:0:
256,192,106214,1,0,0:0:0:0:
256,192,106567,1,2,0:0:0:0:
256,192,106832,1,2,0:0:0:0:
256,192,107097,1,2,0:0:0:0:
256,192,107273,1,0,0:0:0:0:
256,192,107626,1,2,0:0:0:0:
256,192,107979,1,0,0:0:0:0:
256,192,108244,1,0,0:0:0:0:
256,192,108508,1,0,0:0:0:0:
256,192,108685,1,2,0:0:0:0:
256,192,109038,1,0,0:0:0:0:
256,192,109391,1,2,0:0:0:0:
256,192,109655,1,2,0:0:0:0:
256,192,109920,1,2,0:0:0:0:
256,192,110097,1,4,0:0:0:0:
256,192,110802,1,0,0:0:0:0:
256,192,111067,1,2,0:0:0:0:
256,192,111244,1,2,0:0:0:0:
256,192,111508,1,0,0:0:0:0:
256,192,111950,1,2,0:0:0:0:
256,192,112214,1,0,0:0:0:0:
256,192,112479,1,2,0:0:0:0:
256,192,112655,1,2,0:0:0:0:
256,192,112920,1,0,0:0:0:0:
256,192,113273,1,2,0:0:0:0:
256,192,113626,1,0,0:0:0:0:
256,192,113802,1,0,0:0:0:0:
256,192,113979,1,2,0:0:0:0:
256,192,114155,1,2,0:0:0:0:
256,192,114332,1,0,0:0:0:0:
256,192,115038,1,2,0:0:0:0:
256,192,115214,1,2,0:0:0:0:
256,192,115744,12,0,116802,0:0:0:0:
256,192,117155,5,2,0:0:0:0:
256,192,117420,1,2,0:0:0:0:
256,192,117685,1,2,0:0:0:0:
256,192,117861,1,0,0:0:0:0:
256,192,118214,1,2,0:0:0:0:
256,192,118567,1,0,0:0:0:0:
256,192,118920,1,8,0:0:0:0:
256,192,119273,1,0,0:0:0:0:
256,192,119538,1,2,0:0:0:0:
256,192,119802,1,2,0:0:0:0:
256,192,119979,1,0,0:0:0:0:
256,192,120244,1,2,0:0:0:0:
256,192,120508,1,2,0:0:0:0:
256,192,120685,1,0,0:0:0:0:
256,192,121038,1,2,0:0:0:0:
256,192,121214,1,2,0:0:0:0:
256,192,121391,1,0,0:0:0:0:
256,192,122097,1,2,0:0:0:0:
256,192,122361,1,0,0:0:0:0:
256,192,122626,1,0,0:0:0:0:
256,192,122802,1,2,0:0:0:0:
256,192,123067,1,0,0:0:0:0:
256,192,123332,1,0,0:0:0:0:
256,192,123508,1,2,0:0:0:0:
256,192,123861,1,2,0:0:0:0:
256,192,124214,1,0,0:0:0:0:
256,192,124567,1,2,0:0:0:0:
256,192,124920,1,0,0:0:0:0:
256,192,125185,1,2,0:0:0:0:
256,192,125450,1,2,0:0:0:0:
256,192,125626,1,0,0:0:0:0:
256,192,125979,1,2,0:0:0:0:
256,192,126155,1,0,0:0:0:0:
256,192,126332,1,2,0:0:0:0:
256,192,126685,1,2,0:0:0:0:
256,192,126861,1,2,0:0:0:0:
256,192,127038,1,4,0:0:0:0:
256,192,127744,1,0,0:0:0:0:
256,192,128008,1,0,0:0:0:0:
256,192,128273,1,0,0:0:0:0:
256,192,128450,1,2,0:0:0:0:
256,192,128714,1,2,0:0:0:0:
256,192,128979,1,2,0:0:0:0:
256,192,129155,1,0,0:0:0:0:
256,192,129508,1,2,0:0:0:0:
256,192,129861,1,0,0:0:0:0:
256,192,130214,1,8,0:0:0:0:
256,192,130567,1,0,0:0:0:0:
256,192,130832,1,2,0:0:0:0:
256,192,131097,1,2,0:0:0:0:
256,192,131273,1,0,0:0:0:0:
256,192,131538,1,2,0:0:0:0:
256,192,131802,1,2,0:0:0:0:
256,192,131979,1,0,0:0:0:0:
256,192,132332,1,2,0:0:0:0:
256,192,132508,1,2,0:0:0:0:
256,192,132685,1,0,0:0:0:0:
256,192,133391,1,2,0:0:0:0:
256,192,133655,1,0,0:0:0:0:
256,192,133920,1,0,0:0:0:0:
256,192,134097,1,2,0:0:0:0:
256,192,134361,1,0,0:0:0:0:
256,192,134626,1,0,0:0:0:0:
256,192,134802,1,2,0:0:0:0:
256,192,135155,1,2,0:0:0:0:
256,192,135508,1,0,0:0:0:0:
256,192,135861,1,2,0:0:0:0:
256,192,136214,1,0,0:0:0:0:
256,192,136479,1,2,0:0:0:0:
256,192,136744,1,2,0:0:0:0:
256,192,136920,1,0,0:0:0:0:
256,192,137273,1,2,0:0:0:0:
256,192,137450,1,0,0:0:0:0:
256,192,137626,1,2,0:0:0:0:
256,192,137979,1,2,0:0:0:0:
256,192,138155,1,2,0:0:0:0:
256,192,138332,1,4,0:0:0:0:
256,192,139038,5,2,0:0:0:0:
256,192,139920,1,2,0:0:0:0:
256,192,140097,1,0,0:0:0:0:
256,192,140450,1,2,0:0:0:0:
256,192,141155,1,0,0:0:0:0:
256,192,141861,1,2,0:0:0:0:
256,192,142744,1,2,0:0:0:0:
256,192,142920,1,0,0:0:0:0:
256,192,143273,1,2,0:0:0:0:
256,192,143626,5,2,0:0:0:0:
256,192,143802,1,2,0:0:0:0:
256,192,143979,1,0,0:0:0:0:
256,192,144685,1,2,0:0:0:0:
256,192,145567,1,2,0:0:0:0:
256,192,145744,1,0,0:0:0:0:
256,192,146097,1,2,0:0:0:0:
256,192,146802,1,0,0:0:0:0:
256,192,147508,1,2,0:0:0:0:
256,192,148038,12,0,149538,0:0:0:0:
