osu file format v14

[General]
AudioFilename: audio.ogg
AudioLeadIn: 0
PreviewTime: 47979
Countdown: 0
SampleSet: Normal
StackLeniency: 0.7
Mode: 1
LetterboxInBreaks: 0
WidescreenStoryboard: 0

[Editor]
DistanceSpacing: 0.6
BeatDivisor: 8
GridSize: 32
TimelineZoom: 2.4

[Metadata]
Title:Rolling Beat
TitleUnicode:Rolling Beat
Artist:Mitsukiyo
ArtistUnicode:ミツキヨ
Creator:[Zeth]
Version:Recursion
Source:ブルーアーカイブ -Blue Archive-
Tags:ブルアカ ba future bass instrumental electronic video game original soundtrack ost background music bgm yostar nat games mtntwarz ler1211 quorum
BeatmapID:3582379
BeatmapSetID:1751055

[Difficulty]
HPDrainRate:6
CircleSize:2
OverallDifficulty:6.5
ApproachRate:10
SliderMultiplier:1.4
SliderTickRate:1

[Events]
//Background and Video events
0,0,"yuuka.png",0,0
//Break Periods
//Storyboard Layer 0 (Background)
//Storyboard Layer 1 (Fail)
//Storyboard Layer 2 (Pass)
//Storyboard Layer 3 (Foreground)
//Storyboard Layer 4 (Overlay)
//Storyboard Sound Samples

[TimingPoints]
0,352.941176470588,99,1,0,5,1,8
156,-10000,99,1,0,5,0,0
1235,-10000,99,1,0,10,0,0
1411,-10000,99,1,0,15,0,0
1588,-10000,99,1,0,20,0,0
1764,-10000,99,1,0,25,0,0
1941,-10000,99,1,0,30,0,0
2117,-10000,99,1,0,35,0,0
2294,-10000,99,1,0,40,0,0
2470,-10000,99,1,0,45,0,0
2803,352.941176470588,4,1,0,75,1,0
2803,-66.6666666666667,4,1,0,75,0,0
4126,-133.333333333333,4,1,0,50,0,0
13016,-117.647058823529,4,1,0,50,0,0
13104,-117.074788568902,4,1,0,50,0,0
13192,-116.508058749106,4,1,0,50,0,0
13280,-115.946789292166,4,1,0,50,0,0
13369,-115.384615384615,4,1,0,50,0,0
13545,-114.288797755234,4,1,0,50,0,0
13722,-113.207547169811,4,1,0,50,0,0
13898,-112.152501985703,4,1,0,50,0,0
14075,-111.111111111111,4,1,0,75,0,0
23957,-83.333333333333,4,1,0,85,0,0
24001,-83.768391077361,4,1,0,85,0,0
24045,-84.208015267176,4,1,0,85,0,0
24133,-85.101253616201,4,1,0,85,0,0
24222,-86.024125746314,4,1,0,85,0,0
24310,-86.95652173913,4,1,0,85,0,0
24398,-87.909351263853,4,1,0,85,0,0
24486,-88.883293465945,4,1,0,85,0,0
24575,-89.879057924889,4,1,0,85,0,0
24663,-90.897386378267,4,1,0,85,0,0
24751,-91.95102891378,4,1,0,85,0,0
24839,-93.017127799736,4,1,0,85,0,0
24927,-94.120783895481,4,1,0,85,0,0
25016,-90.9090909090909,4,1,0,85,0,0
25060,-89.2857142857143,4,1,0,85,0,0
25192,-84.7457627118644,4,1,0,85,0,0
25236,-83.3333333333333,4,1,0,85,0,0
25369,-71.4285714285714,4,1,0,100,0,0
25545,-100,4,1,0,100,0,0
25633,-100.161107246165,4,1,0,100,0,0
25722,-100.324574111089,4,1,0,100,0,0
25898,-100.649410379528,4,1,0,100,0,0
26075,-100.978220745663,4,1,0,100,0,0
26339,-101.472661176645,4,1,0,100,0,0
26427,-101.640440671039,4,1,0,100,0,0
26604,-101.973868147844,4,1,0,100,0,0
26692,-102.14140358083,4,1,0,100,0,0
26780,-102.309490416082,4,1,0,100,0,0
26957,-102.649255131525,4,1,0,100,0,0
27133,-102.989345280675,4,1,0,100,0,0
27222,-103.162182037599,4,1,0,100,0,0
27398,-103.5056851505,4,1,0,100,0,0
27486,-103.678295969224,4,1,0,100,0,0
27663,-104.027228475814,4,1,0,100,0,0
27751,-104.20158464117,4,1,0,100,0,0
27839,-104.376526251526,4,1,0,100,0,0
27898,-104.494145959471,4,1,0,100,0,0
27957,-104.612031052813,4,1,0,100,0,0
28016,-104.730182430751,4,1,0,100,0,0
28075,-104.84860099655,4,1,0,100,0,0
28133,-104.965273780745,4,1,0,100,0,0
28192,-105.084224881394,4,1,0,100,0,0
28369,-105.442701306711,4,1,0,100,0,0
28457,-105.62183868103,4,1,0,100,0,0
28567,-105.803631862925,4,1,0,100,0,0
28722,-106.164981662236,4,1,0,100,0,0
28920,-106.530882467482,4,1,0,100,0,0
29163,-107.081343458859,4,1,0,100,0,0
29273,-107.268199909809,4,1,0,100,0,0
29339,-107.45148872653,4,1,0,100,0,0
29427,-107.639640348634,4,1,0,100,0,0
29516,-107.826326888587,4,1,0,100,0,0
29604,-108.013662119208,4,1,0,100,0,0
29802,-108.39243967191,4,1,0,100,0,0
29869,-108.581748898504,4,1,0,100,0,0
29957,-108.771720545549,4,1,0,100,0,0
30067,-108.964528271824,4,1,0,100,0,0
30222,-109.347830431915,4,1,0,100,0,0
30310,-109.540494543998,4,1,0,100,0,0
30398,-109.733838778908,4,1,0,100,0,0
30508,-109.930075550555,4,1,0,100,0,0
30575,-110.124798711755,4,1,0,100,0,0
30663,-110.320212937571,4,1,0,100,0,0
30751,-110.516321913381,4,1,0,100,0,0
30839,-110.713129350818,4,1,0,100,0,0
30927,-110.912887465283,4,1,0,100,0,0
31016,-100,4,1,0,100,0,0
31214,-100.314426305224,4,1,0,100,0,0
31302,-100.471488301753,4,1,0,100,0,0
31391,-100.630836125169,4,1,0,100,0,0
31567,-100.947443689667,4,1,0,100,0,0
31722,-101.266049781221,4,1,0,100,0,0
32008,-101.749581073533,4,1,0,100,0,0
32097,-101.91301209168,4,1,0,100,0,0
32273,-102.237752109208,4,1,0,100,0,0
32361,-102.400899430602,4,1,0,100,0,0
32427,-102.564568273457,4,1,0,100,0,0
32626,-102.895355405332,4,1,0,100,0,0
32802,-103.226396124669,4,1,0,100,0,0
32891,-103.394609638201,4,1,0,100,0,0
33067,-103.728875826598,4,1,0,100,0,0
33155,-103.896820724168,4,1,0,100,0,0
33332,-104.23627134287,4,1,0,100,0,0
33420,-104.405864625511,4,1,0,100,0,0
33508,-104.576010666864,4,1,0,100,0,0
33552,-104.690396737115,4,1,0,100,0,0
33619,-104.805033314155,4,1,0,100,0,0
33685,-104.919921221805,4,1,0,100,0,0
33729,-105.035061287503,4,1,0,100,0,0
33795,-105.148496415604,4,1,0,100,0,0
33861,-105.264138985199,4,1,0,100,0,0
34038,-105.612597953955,4,1,0,100,0,0
34126,-105.786703134074,4,1,0,100,0,0
34214,-105.963371613,4,1,0,100,0,0
34391,-106.314481512162,4,1,0,100,0,0
34567,-106.669940875347,4,1,0,100,0,0
34832,-107.204556241101,4,1,0,100,0,0
34898,-107.381912223321,4,1,0,100,0,0
34986,-107.561904761905,4,1,0,100,0,0
35097,-107.746613241748,4,1,0,100,0,0
35163,-107.925768782371,4,1,0,100,0,0
35273,-108.109660374469,4,1,0,100,0,0
35450,-108.477246095626,4,1,0,100,0,0
35538,-108.660932478978,4,1,0,100,0,0
35626,-108.845241996106,4,1,0,100,0,0
35692,-109.028072749739,4,1,0,100,0,0
35780,-109.21363091324,4,1,0,100,0,0
35869,-109.401941220916,4,1,0,100,0,0
35957,-109.58877525277,4,1,0,100,0,0
36045,-109.776248517719,4,1,0,100,0,0
36133,-109.964364301988,4,1,0,100,0,0
36222,-110.155274656679,4,1,0,100,0,0
36310,-100,4,1,0,100,0,0
36369,-97.5609756097561,4,1,0,100,0,0
36427,-95.2380952380952,4,1,0,100,0,0
36486,-93.0232558139535,4,1,0,100,0,0
36663,-86.95652173913,4,1,0,100,0,0
36839,-87.311465524572,4,1,0,100,0,0
36927,-87.490026260952,4,1,0,100,0,0
37016,-87.671360481905,4,1,0,100,0,0
37192,-88.032176095531,4,1,0,100,0,0
37369,-88.398049513552,4,1,0,100,0,0
37457,-88.581086910486,4,1,0,100,0,0
37633,-88.949445148892,4,1,0,100,0,0
37722,-89.136885970451,4,1,0,100,0,0
37898,-89.50989094598,4,1,0,100,0,0
37986,-89.697566554419,4,1,0,100,0,0
38075,-89.886030816249,4,1,0,100,0,0
38163,-90.077443950838,4,1,0,100,0,0
38251,-90.267509611004,4,1,0,100,0,0
38427,-90.650057388694,4,1,0,100,0,0
38516,-90.844741879957,4,1,0,100,0,0
38604,-91.038062841574,4,1,0,100,0,0
38692,-91.232208346123,4,1,0,100,0,0
38780,-91.427183680078,4,1,0,100,0,0
38957,-91.82188473077,4,1,0,100,0,0
39045,-92.019391371654,4,1,0,100,0,0
39133,-92.217749508047,4,1,0,100,0,0
39222,-92.419233412982,4,1,0,100,0,0
39310,-92.61932097753,4,1,0,100,0,0
39398,-92.820276800684,4,1,0,100,0,0
39486,-93.022106546305,4,1,0,100,0,0
39663,-93.430729395025,4,1,0,100,0,0
39751,-93.635225548637,4,1,0,100,0,0
39861,-93.842958039053,4,1,0,100,0,0
40016,-94.256480445995,4,1,0,100,0,0
40214,-94.676044295043,4,1,0,100,0,0
40280,-94.883642779131,4,1,0,100,0,0
40457,-95.308821171487,4,1,0,100,0,0
40567,-95.524054401516,4,1,0,100,0,0
40633,-95.735392596486,4,1,0,100,0,0
40722,-95.952558961463,4,1,0,100,0,0
40810,-96.16825613079,4,1,0,100,0,0
40898,-96.384925240664,4,1,0,100,0,0
41075,-96.823695829225,4,1,0,100,0,0
41163,-97.043331815331,4,1,0,100,0,0
41251,-97.263966516531,4,1,0,100,0,0
41361,-97.488131204143,4,1,0,100,0,0
41516,-97.934479110664,4,1,0,100,0,0
41604,-98.159189278451,4,1,0,100,0,0
41692,-98.384933010436,4,1,0,100,0,0
41802,-98.614300557947,4,1,0,100,0,0
41869,-98.842144876294,4,1,0,100,0,0
41957,-99.071044482846,4,1,0,100,0,0
42045,-99.301006726162,4,1,0,100,0,0
42133,-99.532039023187,4,1,0,100,0,0
42222,-99.766792692838,4,1,0,100,0,0
42310,-86.9565217391304,4,1,0,100,0,0
42486,-98.768599281683,4,1,0,100,0,0
42575,-98.157376289257,4,1,0,100,0,0
42663,-97.560413739086,4,1,0,100,0,0
42751,-96.970668376342,4,1,0,100,0,0
42927,-95.805809429011,4,1,0,100,0,0
43016,-95.23702437708,4,1,0,100,0,0
43192,-94.11947728687,4,1,0,100,0,0
43302,-93.564279875395,4,1,0,100,0,0
43391,-93.015594113771,4,1,0,100,0,0
43457,-92.485422899696,4,1,0,100,0,0
43545,-91.955270871784,4,1,0,100,0,0
43655,-91.42524070636,4,1,0,100,0,0
43722,-90.907139483965,4,1,0,100,0,0
43920,-89.882632595454,4,1,0,100,0,0
43986,-89.387479420828,4,1,0,100,0,0
44075,-88.88655682653,4,1,0,100,0,0
44185,-88.391217231591,4,1,0,100,0,0
44361,-87.42774566474,4,1,0,100,0,0
44427,-86.953843626807,4,1,0,100,0,0
44626,-86.01604549609,4,1,0,100,0,0
44714,-85.557283985535,4,1,0,100,0,0
44802,-85.103390068927,4,1,0,100,0,0
44869,-84.65428668519,4,1,0,100,0,0
44957,-84.209898391362,4,1,0,100,0,0
45045,-83.770151320344,4,1,0,100,0,0
45155,-83.330053913659,4,1,0,100,0,0
45222,-82.899424499863,4,1,0,100,0,0
45332,-82.468404961735,4,1,0,100,0,0
45420,-82.046612550129,4,1,0,100,0,0
45508,-81.624392876417,4,1,0,100,0,0
45575,-81.215840444913,4,1,0,100,0,0
45685,-80.80210638785,4,1,0,100,0,0
45751,-80.401723843335,4,1,0,100,0,0
45839,-80.000755615165,4,1,0,100,0,0
45927,-79.599278249756,4,1,0,100,0,0
46016,-79.206254208124,4,1,0,100,0,0
46126,-78.812691914023,4,1,0,100,0,0
46192,-78.431735684125,4,1,0,100,0,0
46280,-78.050129008478,4,1,0,100,0,0
46391,-77.663671373556,4,1,0,100,0,0
46457,-77.293716121261,4,1,0,100,0,0
46567,-71.443027727181,4,1,0,100,0,0
46633,-72.723526988051,4,1,0,100,0,0
46722,-74.08184679958,4,1,0,100,0,0
46810,-75.475732307034,4,1,0,100,0,0
46898,-76.923076923077,4,1,0,100,0,0
46986,-78.427016218618,4,1,0,100,0,0
47075,-80.009066183137,4,1,0,100,0,0
47163,-81.63737280296,4,1,0,100,0,0
47251,-83.333333333333,4,1,0,100,0,0
47295,-84.208015267176,4,1,0,100,0,0
47427,-86.967233308697,4,1,0,100,0,0
47472,-87.920298879203,4,1,0,100,0,0
47626,-83.3333333333333,4,1,0,100,0,0
47714,-80,4,1,0,100,0,0
47802,-76.9230769230769,4,1,0,100,0,0
47891,-74.0740740740741,4,1,0,100,0,0
47979,-71.4285714285714,4,1,0,100,0,1
48242,-96.382252559727,4,1,0,100,0,1
48330,-95.238095238095,4,1,0,100,0,1
48506,-93.029384635657,4,1,0,100,0,1
48683,-90.909090909091,4,1,0,100,0,1
48771,-92.5925925925926,4,1,0,100,0,1
48859,-94.3396226415094,4,1,0,100,0,1
48948,-87.909351263853,4,1,0,100,0,1
49036,-89.2857142857143,4,1,0,100,0,1
49124,-90.9090909090909,4,1,0,100,0,1
49212,-85.111512959614,4,1,0,100,0,1
49300,-86.9565217391304,4,1,0,100,0,1
49389,-83.333333333333,4,1,0,100,0,1
49477,-84.7457627118644,4,1,0,100,0,1
49565,-86.2068965517241,4,1,0,100,0,1
49653,-80.815018315018,4,1,0,100,0,1
49742,-81.9672131147541,4,1,0,100,0,1
49830,-83.3333333333333,4,1,0,100,0,1
49918,-78.435729363404,4,1,0,100,0,1
50006,-77.6699029126214,4,1,0,100,0,1
50095,-76.923076923077,4,1,0,100,0,1
50271,-78.428102940359,4,1,0,100,0,1
50359,-79.202918888577,4,1,0,100,0,1
50448,-80.002267959404,4,1,0,100,0,1
50624,-81.631472374892,4,1,0,100,0,1
50800,-83.328411976614,4,1,0,100,0,1
50977,-85.107666324869,4,1,0,100,0,1
51065,-86.020849844541,4,1,0,100,0,1
51153,-86.953842361496,4,1,0,100,0,1
51330,-88.893088893089,4,1,0,100,0,1
51484,-90.909090909091,4,1,0,100,0,1
51572,-92.5925925925926,4,1,0,100,0,1
51660,-94.3396226415094,4,1,0,100,0,1
51749,-87.909351263853,4,1,0,100,0,1
51837,-89.2857142857143,4,1,0,100,0,1
51925,-90.9090909090909,4,1,0,100,0,1
52013,-85.111512959614,4,1,0,100,0,1
52101,-86.9565217391304,4,1,0,100,0,1
52190,-83.333333333333,4,1,0,100,0,1
52278,-84.7457627118644,4,1,0,100,0,1
52366,-86.2068965517241,4,1,0,100,0,1
52454,-80.815018315018,4,1,0,100,0,1
52543,-81.9672131147541,4,1,0,100,0,1
52631,-83.3333333333333,4,1,0,100,0,1
52719,-78.435729363404,4,1,0,100,0,1
52807,-77.6699029126214,4,1,0,100,0,1
52896,-76.923076923077,4,1,0,100,0,1
53095,-80,4,1,0,100,0,1
53183,-81.6326530612245,4,1,0,100,0,1
53271,-83.3333333333333,4,1,0,100,0,1
53315,-84.2105263157895,4,1,0,100,0,1
53448,-86.9565217391304,4,1,0,100,0,1
53492,-87.9120879120879,4,1,0,100,0,1
53604,-71.4285714285714,4,1,0,100,0,1
53867,-96.382252559727,4,1,0,100,0,1
53955,-95.238095238095,4,1,0,100,0,1
54131,-93.029384635657,4,1,0,100,0,1
54308,-90.909090909091,4,1,0,100,0,1
54396,-92.5925925925926,4,1,0,100,0,1
54484,-94.3396226415094,4,1,0,100,0,1
54573,-87.909351263853,4,1,0,100,0,1
54661,-89.2857142857143,4,1,0,100,0,1
54749,-90.9090909090909,4,1,0,100,0,1
54837,-85.111512959614,4,1,0,100,0,1
54925,-86.9565217391304,4,1,0,100,0,1
55014,-83.333333333333,4,1,0,100,0,1
55102,-84.7457627118644,4,1,0,100,0,1
55190,-86.2068965517241,4,1,0,100,0,1
55278,-80.815018315018,4,1,0,100,0,1
55367,-81.9672131147541,4,1,0,100,0,1
55455,-83.3333333333333,4,1,0,100,0,1
55543,-78.435729363404,4,1,0,100,0,1
55631,-77.6699029126214,4,1,0,100,0,1
55720,-76.923076923077,4,1,0,100,0,1
55896,-78.428102940359,4,1,0,100,0,1
55984,-79.202918888577,4,1,0,100,0,1
56073,-80.002267959404,4,1,0,100,0,1
56249,-81.631472374892,4,1,0,100,0,1
56425,-83.328411976614,4,1,0,100,0,1
56602,-85.107666324869,4,1,0,100,0,1
56690,-86.020849844541,4,1,0,100,0,1
56778,-86.953842361496,4,1,0,100,0,1
56955,-88.893088893089,4,1,0,100,0,1
57109,-90.909090909091,4,1,0,100,0,1
57197,-92.5925925925926,4,1,0,100,0,1
57285,-94.3396226415094,4,1,0,100,0,1
57374,-87.909351263853,4,1,0,100,0,1
57462,-89.2857142857143,4,1,0,100,0,1
57550,-90.9090909090909,4,1,0,100,0,1
57638,-85.111512959614,4,1,0,100,0,1
57726,-86.9565217391304,4,1,0,100,0,1
57839,-71.428571428571,4,1,0,100,0,1
57927,-72.723526988051,4,1,0,100,0,1
58016,-74.066302979438,4,1,0,100,0,1
58104,-75.459598118854,4,1,0,100,0,1
58192,-76.923076923077,4,1,0,100,0,1
58280,-78.427016218618,4,1,0,100,0,1
58369,-79.990935871289,4,1,0,100,0,1
58457,-81.618497109827,4,1,0,100,0,1
58545,-83.333333333333,4,1,0,100,0,1
58633,-85.101253616201,4,1,0,100,0,1
58722,-86.967233308697,4,1,0,100,0,1
58810,-88.894485016369,4,1,0,100,0,1
58898,-90.909090909091,4,1,0,100,0,1
58942,-91.95102891378,4,1,0,100,0,1
59075,-95.250944414463,4,1,0,100,0,1
59119,-96.395412342982,4,1,0,100,0,1
59251,-71.4285714285714,4,1,0,100,0,1
59427,-97.5609756097561,4,1,0,100,0,1
59516,-96.382252559727,4,1,0,100,0,1
59604,-95.238095238095,4,1,0,100,0,1
59780,-93.029384635657,4,1,0,100,0,1
59957,-90.909090909091,4,1,0,100,0,1
60045,-92.5925925925926,4,1,0,100,0,1
60133,-94.3396226415094,4,1,0,100,0,1
60222,-87.909351263853,4,1,0,100,0,1
60310,-89.2857142857143,4,1,0,100,0,1
60398,-90.9090909090909,4,1,0,100,0,1
60486,-85.111512959614,4,1,0,100,0,1
60574,-86.9565217391304,4,1,0,100,0,1
60663,-83.333333333333,4,1,0,100,0,1
60751,-84.7457627118644,4,1,0,100,0,1
60839,-86.2068965517241,4,1,0,100,0,1
60927,-80.815018315018,4,1,0,100,0,1
61016,-81.9672131147541,4,1,0,100,0,1
61104,-83.3333333333333,4,1,0,100,0,1
61192,-78.435729363404,4,1,0,100,0,1
61280,-77.6699029126214,4,1,0,100,0,1
61369,-76.923076923077,4,1,0,100,0,1
61545,-78.428102940359,4,1,0,100,0,1
61633,-79.202918888577,4,1,0,100,0,1
61722,-80.002267959404,4,1,0,100,0,1
61898,-81.631472374892,4,1,0,100,0,1
61957,-82.192578784878,4,1,0,100,0,1
62016,-82.761452284591,4,1,0,100,0,1
62075,-83.328411976614,4,1,0,100,0,1
62251,-85.107666324869,4,1,0,100,0,1
62339,-86.020849844541,4,1,0,100,0,1
62427,-86.953842361496,4,1,0,100,0,1
62486,-87.590787758396,4,1,0,100,0,1
62545,-88.23713338753,4,1,0,100,0,1
62604,-88.893088893089,4,1,0,100,0,1
62780,-90.909090909091,4,1,0,100,0,1
62868,-92.5925925925926,4,1,0,100,0,1
62956,-94.3396226415094,4,1,0,100,0,1
63045,-87.909351263853,4,1,0,100,0,1
63133,-89.2857142857143,4,1,0,100,0,1
63221,-90.9090909090909,4,1,0,100,0,1
63309,-85.111512959614,4,1,0,100,0,1
63397,-86.9565217391304,4,1,0,100,0,1
63486,-83.333333333333,4,1,0,100,0,1
63574,-84.7457627118644,4,1,0,100,0,1
63662,-86.2068965517241,4,1,0,100,0,1
63750,-80.815018315018,4,1,0,100,0,1
63839,-81.9672131147541,4,1,0,100,0,1
63927,-83.3333333333333,4,1,0,100,0,1
64015,-78.435729363404,4,1,0,100,0,1
64103,-77.6699029126214,4,1,0,100,0,1
64192,-76.923076923077,4,1,0,100,0,1
64391,-80,4,1,0,100,0,1
64479,-81.6326530612245,4,1,0,100,0,1
64567,-83.3333333333333,4,1,0,100,0,1
64611,-84.2105263157895,4,1,0,100,0,1
64744,-86.9565217391304,4,1,0,100,0,1
64788,-87.9120879120879,4,1,0,100,0,1
64900,-71.4285714285714,4,1,0,100,0,1
65075,-97.5609756097561,4,1,0,100,0,1
65163,-96.382252559727,4,1,0,100,0,1
65251,-95.238095238095,4,1,0,100,0,1
65427,-93.029384635657,4,1,0,100,0,1
65604,-90.909090909091,4,1,0,100,0,1
65692,-92.5925925925926,4,1,0,100,0,1
65780,-94.3396226415094,4,1,0,100,0,1
65869,-87.909351263853,4,1,0,100,0,1
65957,-89.2857142857143,4,1,0,100,0,1
66045,-90.9090909090909,4,1,0,100,0,1
66133,-85.111512959614,4,1,0,100,0,1
66221,-86.9565217391304,4,1,0,100,0,1
66310,-83.333333333333,4,1,0,100,0,1
66398,-84.7457627118644,4,1,0,100,0,1
66486,-86.2068965517241,4,1,0,100,0,1
66574,-80.815018315018,4,1,0,100,0,1
66663,-81.9672131147541,4,1,0,100,0,1
66751,-83.3333333333333,4,1,0,100,0,1
66839,-78.435729363404,4,1,0,100,0,1
66927,-77.6699029126214,4,1,0,100,0,1
67016,-76.923076923077,4,1,0,100,0,1
67192,-78.428102940359,4,1,0,100,0,1
67280,-79.202918888577,4,1,0,100,0,1
67369,-80.002267959404,4,1,0,100,0,1
67545,-81.631472374892,4,1,0,100,0,1
67721,-83.328411976614,4,1,0,100,0,1
67898,-85.107666324869,4,1,0,100,0,1
67986,-86.020849844541,4,1,0,100,0,1
68074,-86.953842361496,4,1,0,100,0,1
68251,-88.893088893089,4,1,0,100,0,1
68405,-90.909090909091,4,1,0,100,0,1
68493,-92.5925925925926,4,1,0,100,0,1
68581,-94.3396226415094,4,1,0,100,0,1
68670,-87.909351263853,4,1,0,100,0,1
68758,-89.2857142857143,4,1,0,100,0,1
68846,-90.9090909090909,4,1,0,100,0,1
68934,-85.111512959614,4,1,0,100,0,1
69022,-86.9565217391304,4,1,0,100,0,1
69135,-71.428571428571,4,1,0,100,0,1
69223,-72.723526988051,4,1,0,100,0,1
69312,-74.066302979438,4,1,0,100,0,1
69400,-75.459598118854,4,1,0,100,0,1
69488,-76.923076923077,4,1,0,100,0,1
69576,-78.427016218618,4,1,0,100,0,1
69665,-79.990935871289,4,1,0,100,0,1
69753,-81.618497109827,4,1,0,100,0,1
69841,-83.333333333333,4,1,0,100,0,1
69929,-85.101253616201,4,1,0,100,0,1
70018,-86.967233308697,4,1,0,100,0,1
70106,-88.894485016369,4,1,0,100,0,1
70194,-90.909090909091,4,1,0,100,0,1
70238,-91.95102891378,4,1,0,100,0,1
70371,-95.250944414463,4,1,0,100,0,1
70415,-96.395412342982,4,1,0,100,0,1
70567,-100,4,1,0,100,0,0
70744,-133.333333333333,4,1,0,75,0,0
81839,-117.647058823529,4,1,0,85,0,0
91720,-83.333333333333,4,1,0,85,0,0
91764,-83.768391077361,4,1,0,85,0,0
91808,-84.208015267176,4,1,0,85,0,0
91896,-85.101253616201,4,1,0,85,0,0
91985,-86.024125746314,4,1,0,85,0,0
92073,-86.95652173913,4,1,0,85,0,0
92161,-87.909351263853,4,1,0,85,0,0
92249,-88.883293465945,4,1,0,85,0,0
92338,-89.879057924889,4,1,0,85,0,0
92426,-90.897386378267,4,1,0,85,0,0
92514,-91.95102891378,4,1,0,85,0,0
92602,-93.017127799736,4,1,0,85,0,0
92690,-94.120783895481,4,1,0,85,0,0
92779,-90.9090909090909,4,1,0,85,0,0
92823,-89.2857142857143,4,1,0,85,0,0
92955,-84.7457627118644,4,1,0,85,0,0
92999,-83.3333333333333,4,1,0,85,0,0
93132,-71.4285714285714,4,1,0,100,0,0
93308,-100,4,1,0,100,0,0
93396,-100.161107246165,4,1,0,100,0,0
93485,-100.324574111089,4,1,0,100,0,0
93661,-100.649410379528,4,1,0,100,0,0
93838,-100.978220745663,4,1,0,100,0,0
94102,-101.472661176645,4,1,0,100,0,0
94190,-101.640440671039,4,1,0,100,0,0
94367,-101.973868147844,4,1,0,100,0,0
94455,-102.14140358083,4,1,0,100,0,0
94543,-102.309490416082,4,1,0,100,0,0
94720,-102.649255131525,4,1,0,100,0,0
94896,-102.989345280675,4,1,0,100,0,0
94985,-103.162182037599,4,1,0,100,0,0
95161,-103.5056851505,4,1,0,100,0,0
95249,-103.678295969224,4,1,0,100,0,0
95426,-104.027228475814,4,1,0,100,0,0
95514,-104.20158464117,4,1,0,100,0,0
95602,-104.376526251526,4,1,0,100,0,0
95661,-104.494145959471,4,1,0,100,0,0
95720,-104.612031052813,4,1,0,100,0,0
95779,-104.730182430751,4,1,0,100,0,0
95838,-104.84860099655,4,1,0,100,0,0
95896,-104.965273780745,4,1,0,100,0,0
95955,-105.084224881394,4,1,0,100,0,0
96132,-105.442701306711,4,1,0,100,0,0
96220,-105.62183868103,4,1,0,100,0,0
96330,-105.803631862925,4,1,0,100,0,0
96485,-106.164981662236,4,1,0,100,0,0
96683,-106.530882467482,4,1,0,100,0,0
96926,-107.081343458859,4,1,0,100,0,0
97036,-107.268199909809,4,1,0,100,0,0
97102,-107.45148872653,4,1,0,100,0,0
97190,-107.639640348634,4,1,0,100,0,0
97279,-107.826326888587,4,1,0,100,0,0
97367,-108.013662119208,4,1,0,100,0,0
97565,-108.39243967191,4,1,0,100,0,0
97632,-108.581748898504,4,1,0,100,0,0
97720,-108.771720545549,4,1,0,100,0,0
97830,-108.964528271824,4,1,0,100,0,0
97985,-109.347830431915,4,1,0,100,0,0
98073,-109.540494543998,4,1,0,100,0,0
98161,-109.733838778908,4,1,0,100,0,0
98271,-109.930075550555,4,1,0,100,0,0
98338,-110.124798711755,4,1,0,100,0,0
98426,-110.320212937571,4,1,0,100,0,0
98514,-110.516321913381,4,1,0,100,0,0
98602,-110.713129350818,4,1,0,100,0,0
98690,-110.912887465283,4,1,0,100,0,0
98779,-100,4,1,0,100,0,0
98977,-100.314426305224,4,1,0,100,0,0
99065,-100.471488301753,4,1,0,100,0,0
99154,-100.630836125169,4,1,0,100,0,0
99330,-100.947443689667,4,1,0,100,0,0
99485,-101.266049781221,4,1,0,100,0,0
99771,-101.749581073533,4,1,0,100,0,0
99860,-101.91301209168,4,1,0,100,0,0
100036,-102.237752109208,4,1,0,100,0,0
100124,-102.400899430602,4,1,0,100,0,0
100190,-102.564568273457,4,1,0,100,0,0
100389,-102.895355405332,4,1,0,100,0,0
100565,-103.226396124669,4,1,0,100,0,0
100654,-103.394609638201,4,1,0,100,0,0
100830,-103.728875826598,4,1,0,100,0,0
100918,-103.896820724168,4,1,0,100,0,0
101095,-104.23627134287,4,1,0,100,0,0
101183,-104.405864625511,4,1,0,100,0,0
101271,-104.576010666864,4,1,0,100,0,0
101315,-104.690396737115,4,1,0,100,0,0
101382,-104.805033314155,4,1,0,100,0,0
101448,-104.919921221805,4,1,0,100,0,0
101492,-105.035061287503,4,1,0,100,0,0
101558,-105.148496415604,4,1,0,100,0,0
101624,-105.264138985199,4,1,0,100,0,0
101801,-105.612597953955,4,1,0,100,0,0
101889,-105.786703134074,4,1,0,100,0,0
101977,-105.963371613,4,1,0,100,0,0
102154,-106.314481512162,4,1,0,100,0,0
102330,-106.669940875347,4,1,0,100,0,0
102595,-107.204556241101,4,1,0,100,0,0
102661,-107.381912223321,4,1,0,100,0,0
102749,-107.561904761905,4,1,0,100,0,0
102860,-107.746613241748,4,1,0,100,0,0
102926,-107.925768782371,4,1,0,100,0,0
103036,-108.109660374469,4,1,0,100,0,0
103213,-108.477246095626,4,1,0,100,0,0
103301,-108.660932478978,4,1,0,100,0,0
103389,-108.845241996106,4,1,0,100,0,0
103455,-109.028072749739,4,1,0,100,0,0
103543,-109.21363091324,4,1,0,100,0,0
103632,-109.401941220916,4,1,0,100,0,0
103720,-109.58877525277,4,1,0,100,0,0
103808,-109.776248517719,4,1,0,100,0,0
103896,-109.964364301988,4,1,0,100,0,0
103985,-110.155274656679,4,1,0,100,0,0
104073,-100,4,1,0,100,0,0
104132,-97.5609756097561,4,1,0,100,0,0
104190,-95.2380952380952,4,1,0,100,0,0
104249,-93.0232558139535,4,1,0,100,0,0
104426,-86.95652173913,4,1,0,100,0,0
104602,-87.311465524572,4,1,0,100,0,0
104690,-87.490026260952,4,1,0,100,0,0
104779,-87.671360481905,4,1,0,100,0,0
104955,-88.032176095531,4,1,0,100,0,0
105132,-88.398049513552,4,1,0,100,0,0
105220,-88.581086910486,4,1,0,100,0,0
105396,-88.949445148892,4,1,0,100,0,0
105485,-89.136885970451,4,1,0,100,0,0
105661,-89.50989094598,4,1,0,100,0,0
105749,-89.697566554419,4,1,0,100,0,0
105838,-89.886030816249,4,1,0,100,0,0
105926,-90.077443950838,4,1,0,100,0,0
106014,-90.267509611004,4,1,0,100,0,0
106190,-90.650057388694,4,1,0,100,0,0
106279,-90.844741879957,4,1,0,100,0,0
106367,-91.038062841574,4,1,0,100,0,0
106455,-91.232208346123,4,1,0,100,0,0
106543,-91.427183680078,4,1,0,100,0,0
106720,-91.82188473077,4,1,0,100,0,0
106808,-92.019391371654,4,1,0,100,0,0
106896,-92.217749508047,4,1,0,100,0,0
106985,-92.419233412982,4,1,0,100,0,0
107073,-92.61932097753,4,1,0,100,0,0
107161,-92.820276800684,4,1,0,100,0,0
107249,-93.022106546305,4,1,0,100,0,0
107426,-93.430729395025,4,1,0,100,0,0
107514,-93.635225548637,4,1,0,100,0,0
107624,-93.842958039053,4,1,0,100,0,0
107779,-94.256480445995,4,1,0,100,0,0
107977,-94.676044295043,4,1,0,100,0,0
108043,-94.883642779131,4,1,0,100,0,0
108220,-95.308821171487,4,1,0,100,0,0
108330,-95.524054401516,4,1,0,100,0,0
108396,-95.735392596486,4,1,0,100,0,0
108485,-95.952558961463,4,1,0,100,0,0
108573,-96.16825613079,4,1,0,100,0,0
108661,-96.384925240664,4,1,0,100,0,0
108838,-96.823695829225,4,1,0,100,0,0
108926,-97.043331815331,4,1,0,100,0,0
109014,-97.263966516531,4,1,0,100,0,0
109124,-97.488131204143,4,1,0,100,0,0
109279,-97.934479110664,4,1,0,100,0,0
109367,-98.159189278451,4,1,0,100,0,0
109455,-98.384933010436,4,1,0,100,0,0
109565,-98.614300557947,4,1,0,100,0,0
109632,-98.842144876294,4,1,0,100,0,0
109720,-99.071044482846,4,1,0,100,0,0
109808,-99.301006726162,4,1,0,100,0,0
109896,-99.532039023187,4,1,0,100,0,0
109985,-99.766792692838,4,1,0,100,0,0
110073,-86.9565217391304,4,1,0,100,0,0
110249,-98.768599281683,4,1,0,100,0,0
110338,-98.157376289257,4,1,0,100,0,0
110426,-97.560413739086,4,1,0,100,0,0
110514,-96.970668376342,4,1,0,100,0,0
110690,-95.805809429011,4,1,0,100,0,0
110779,-95.23702437708,4,1,0,100,0,0
110955,-94.11947728687,4,1,0,100,0,0
111065,-93.564279875395,4,1,0,100,0,0
111154,-93.015594113771,4,1,0,100,0,0
111220,-92.485422899696,4,1,0,100,0,0
111308,-91.955270871784,4,1,0,100,0,0
111418,-91.42524070636,4,1,0,100,0,0
111485,-90.907139483965,4,1,0,100,0,0
111683,-89.882632595454,4,1,0,100,0,0
111749,-89.387479420828,4,1,0,100,0,0
111838,-88.88655682653,4,1,0,100,0,0
111948,-88.391217231591,4,1,0,100,0,0
112124,-87.42774566474,4,1,0,100,0,0
112190,-86.953843626807,4,1,0,100,0,0
112389,-86.01604549609,4,1,0,100,0,0
112477,-85.557283985535,4,1,0,100,0,0
112565,-85.103390068927,4,1,0,100,0,0
112632,-84.65428668519,4,1,0,100,0,0
112720,-84.209898391362,4,1,0,100,0,0
112808,-83.770151320344,4,1,0,100,0,0
112918,-83.330053913659,4,1,0,100,0,0
112985,-82.899424499863,4,1,0,100,0,0
113095,-82.468404961735,4,1,0,100,0,0
113183,-82.046612550129,4,1,0,100,0,0
113271,-81.624392876417,4,1,0,100,0,0
113338,-81.215840444913,4,1,0,100,0,0
113448,-80.80210638785,4,1,0,100,0,0
113514,-80.401723843335,4,1,0,100,0,0
113602,-80.000755615165,4,1,0,100,0,0
113690,-79.599278249756,4,1,0,100,0,0
113779,-79.206254208124,4,1,0,100,0,0
113889,-78.812691914023,4,1,0,100,0,0
113955,-78.431735684125,4,1,0,100,0,0
114043,-78.050129008478,4,1,0,100,0,0
114154,-77.663671373556,4,1,0,100,0,0
114220,-77.293716121261,4,1,0,100,0,0
114330,-71.443027727181,4,1,0,100,0,0
114396,-72.723526988051,4,1,0,100,0,0
114485,-74.08184679958,4,1,0,100,0,0
114573,-75.475732307034,4,1,0,100,0,0
114661,-76.923076923077,4,1,0,100,0,0
114749,-78.427016218618,4,1,0,100,0,0
114838,-80.009066183137,4,1,0,100,0,0
114926,-81.63737280296,4,1,0,100,0,0
115014,-83.333333333333,4,1,0,100,0,0
115058,-84.208015267176,4,1,0,100,0,0
115190,-86.967233308697,4,1,0,100,0,0
115235,-87.920298879203,4,1,0,100,0,0
115389,-83.3333333333333,4,1,0,100,0,0
115477,-80,4,1,0,100,0,0
115565,-76.9230769230769,4,1,0,100,0,0
115654,-74.0740740740741,4,1,0,100,0,0
115744,-71.4285714285714,4,1,0,100,0,0
116427,-125,4,1,0,100,0,0
116516,-117.656875834446,4,1,0,100,0,0
116604,-111.128625472888,4,1,0,100,0,0
116692,-105.286738351254,4,1,0,100,0,0
116780,-100.028376844495,4,1,0,100,0,0
116869,-95.218800648298,4,1,0,100,0,0
116957,-90.897369778236,4,1,0,100,0,0
117045,-86.951159348791,4,1,0,100,0,0
117155,-71.4285714285714,4,1,0,100,0,1
117328,-86.2068965517241,4,1,0,100,0,1
117416,-80.815018315018,4,1,0,100,0,1
117505,-81.9672131147541,4,1,0,100,0,1
117593,-83.3333333333333,4,1,0,100,0,1
117681,-78.435729363404,4,1,0,100,0,1
117769,-77.6699029126214,4,1,0,100,0,1
117858,-76.923076923077,4,1,0,100,0,1
118034,-78.428102940359,4,1,0,100,0,1
118122,-79.202918888577,4,1,0,100,0,1
118211,-80.002267959404,4,1,0,100,0,1
118387,-81.631472374892,4,1,0,100,0,1
118563,-83.328411976614,4,1,0,100,0,1
118740,-85.107666324869,4,1,0,100,0,1
118828,-86.020849844541,4,1,0,100,0,1
118916,-86.953842361496,4,1,0,100,0,1
119093,-88.893088893089,4,1,0,100,0,1
119247,-90.909090909091,4,1,0,100,0,1
119335,-92.5925925925926,4,1,0,100,0,1
119423,-94.3396226415094,4,1,0,100,0,1
119512,-87.909351263853,4,1,0,100,0,1
119600,-89.2857142857143,4,1,0,100,0,1
119688,-90.9090909090909,4,1,0,100,0,1
119776,-85.111512959614,4,1,0,100,0,1
119864,-86.9565217391304,4,1,0,100,0,1
119953,-83.333333333333,4,1,0,100,0,1
120041,-84.7457627118644,4,1,0,100,0,1
120129,-86.2068965517241,4,1,0,100,0,1
120217,-80.815018315018,4,1,0,100,0,1
120306,-81.9672131147541,4,1,0,100,0,1
120394,-83.3333333333333,4,1,0,100,0,1
120482,-78.435729363404,4,1,0,100,0,1
120570,-77.6699029126214,4,1,0,100,0,1
120659,-76.923076923077,4,1,0,100,0,1
120858,-80,4,1,0,100,0,1
120946,-81.6326530612245,4,1,0,100,0,1
121034,-83.3333333333333,4,1,0,100,0,1
121078,-84.2105263157895,4,1,0,100,0,1
121211,-86.9565217391304,4,1,0,100,0,1
121255,-87.9120879120879,4,1,0,100,0,1
121367,-71.4285714285714,4,1,0,100,0,1
121630,-96.382252559727,4,1,0,100,0,1
121718,-95.238095238095,4,1,0,100,0,1
121894,-93.029384635657,4,1,0,100,0,1
122071,-90.909090909091,4,1,0,100,0,1
122159,-92.5925925925926,4,1,0,100,0,1
122247,-94.3396226415094,4,1,0,100,0,1
122336,-87.909351263853,4,1,0,100,0,1
122424,-89.2857142857143,4,1,0,100,0,1
122512,-90.9090909090909,4,1,0,100,0,1
122600,-85.111512959614,4,1,0,100,0,1
122688,-86.9565217391304,4,1,0,100,0,1
122777,-83.333333333333,4,1,0,100,0,1
122865,-84.7457627118644,4,1,0,100,0,1
122953,-86.2068965517241,4,1,0,100,0,1
123041,-80.815018315018,4,1,0,100,0,1
123130,-81.9672131147541,4,1,0,100,0,1
123218,-83.3333333333333,4,1,0,100,0,1
123306,-78.435729363404,4,1,0,100,0,1
123394,-77.6699029126214,4,1,0,100,0,1
123483,-76.923076923077,4,1,0,100,0,1
123659,-78.428102940359,4,1,0,100,0,1
123747,-79.202918888577,4,1,0,100,0,1
123836,-80.002267959404,4,1,0,100,0,1
124012,-81.631472374892,4,1,0,100,0,1
124188,-83.328411976614,4,1,0,100,0,1
124365,-85.107666324869,4,1,0,100,0,1
124453,-86.020849844541,4,1,0,100,0,1
124541,-86.953842361496,4,1,0,100,0,1
124718,-88.893088893089,4,1,0,100,0,1
124872,-90.909090909091,4,1,0,100,0,1
124960,-92.5925925925926,4,1,0,100,0,1
125048,-94.3396226415094,4,1,0,100,0,1
125137,-87.909351263853,4,1,0,100,0,1
125225,-89.2857142857143,4,1,0,100,0,1
125313,-90.9090909090909,4,1,0,100,0,1
125401,-85.111512959614,4,1,0,100,0,1
125489,-86.9565217391304,4,1,0,100,0,1
125602,-71.428571428571,4,1,0,100,0,1
125690,-72.723526988051,4,1,0,100,0,1
125779,-74.066302979438,4,1,0,100,0,1
125867,-75.459598118854,4,1,0,100,0,1
125955,-76.923076923077,4,1,0,100,0,1
126043,-78.427016218618,4,1,0,100,0,1
126132,-79.990935871289,4,1,0,100,0,1
126220,-81.618497109827,4,1,0,100,0,1
126308,-83.333333333333,4,1,0,100,0,1
126396,-85.101253616201,4,1,0,100,0,1
126485,-86.967233308697,4,1,0,100,0,1
126573,-88.894485016369,4,1,0,100,0,1
126661,-90.909090909091,4,1,0,100,0,1
126705,-91.95102891378,4,1,0,100,0,1
126838,-95.250944414463,4,1,0,100,0,1
126882,-96.395412342982,4,1,0,100,0,1
127014,-71.4285714285714,4,1,0,100,0,1
127190,-97.5609756097561,4,1,0,100,0,1
127279,-96.382252559727,4,1,0,100,0,1
127367,-95.238095238095,4,1,0,100,0,1
127543,-93.029384635657,4,1,0,100,0,1
127720,-90.909090909091,4,1,0,100,0,1
127808,-92.5925925925926,4,1,0,100,0,1
127896,-94.3396226415094,4,1,0,100,0,1
127985,-87.909351263853,4,1,0,100,0,1
128073,-89.2857142857143,4,1,0,100,0,1
128161,-90.9090909090909,4,1,0,100,0,1
128249,-85.111512959614,4,1,0,100,0,1
128337,-86.9565217391304,4,1,0,100,0,1
128426,-83.333333333333,4,1,0,100,0,1
128514,-84.7457627118644,4,1,0,100,0,1
128602,-86.2068965517241,4,1,0,100,0,1
128690,-80.815018315018,4,1,0,100,0,1
128779,-81.9672131147541,4,1,0,100,0,1
128867,-83.3333333333333,4,1,0,100,0,1
128955,-78.435729363404,4,1,0,100,0,1
129043,-77.6699029126214,4,1,0,100,0,1
129132,-76.923076923077,4,1,0,100,0,1
129308,-78.428102940359,4,1,0,100,0,1
129396,-79.202918888577,4,1,0,100,0,1
129485,-80.002267959404,4,1,0,100,0,1
129661,-81.631472374892,4,1,0,100,0,1
129720,-82.192578784878,4,1,0,100,0,1
129779,-82.761452284591,4,1,0,100,0,1
129838,-83.328411976614,4,1,0,100,0,1
130014,-85.107666324869,4,1,0,100,0,1
130102,-86.020849844541,4,1,0,100,0,1
130190,-86.953842361496,4,1,0,100,0,1
130249,-87.590787758396,4,1,0,100,0,1
130308,-88.23713338753,4,1,0,100,0,1
130367,-88.893088893089,4,1,0,100,0,1
130543,-90.909090909091,4,1,0,100,0,1
130631,-92.5925925925926,4,1,0,100,0,1
130719,-94.3396226415094,4,1,0,100,0,1
130808,-87.909351263853,4,1,0,100,0,1
130896,-89.2857142857143,4,1,0,100,0,1
130984,-90.9090909090909,4,1,0,100,0,1
131072,-85.111512959614,4,1,0,100,0,1
131160,-86.9565217391304,4,1,0,100,0,1
131249,-83.333333333333,4,1,0,100,0,1
131337,-84.7457627118644,4,1,0,100,0,1
131425,-86.2068965517241,4,1,0,100,0,1
131513,-80.815018315018,4,1,0,100,0,1
131602,-81.9672131147541,4,1,0,100,0,1
131690,-83.3333333333333,4,1,0,100,0,1
131778,-78.435729363404,4,1,0,100,0,1
131866,-77.6699029126214,4,1,0,100,0,1
131955,-76.923076923077,4,1,0,100,0,1
132154,-80,4,1,0,100,0,1
132242,-81.6326530612245,4,1,0,100,0,1
132330,-83.3333333333333,4,1,0,100,0,1
132374,-84.2105263157895,4,1,0,100,0,1
132507,-86.9565217391304,4,1,0,100,0,1
132551,-87.9120879120879,4,1,0,100,0,1
132663,-71.4285714285714,4,1,0,100,0,1
132838,-97.5609756097561,4,1,0,100,0,1
132926,-96.382252559727,4,1,0,100,0,1
133014,-95.238095238095,4,1,0,100,0,1
133190,-93.029384635657,4,1,0,100,0,1
133367,-90.909090909091,4,1,0,100,0,1
133455,-92.5925925925926,4,1,0,100,0,1
133543,-94.3396226415094,4,1,0,100,0,1
133632,-87.909351263853,4,1,0,100,0,1
133720,-89.2857142857143,4,1,0,100,0,1
133808,-90.9090909090909,4,1,0,100,0,1
133896,-85.111512959614,4,1,0,100,0,1
133984,-86.9565217391304,4,1,0,100,0,1
134073,-83.333333333333,4,1,0,100,0,1
134161,-84.7457627118644,4,1,0,100,0,1
134249,-86.2068965517241,4,1,0,100,0,1
134337,-80.815018315018,4,1,0,100,0,1
134426,-81.9672131147541,4,1,0,100,0,1
134514,-83.3333333333333,4,1,0,100,0,1
134602,-78.435729363404,4,1,0,100,0,1
134690,-77.6699029126214,4,1,0,100,0,1
134779,-76.923076923077,4,1,0,100,0,1
134955,-78.428102940359,4,1,0,100,0,1
135043,-79.202918888577,4,1,0,100,0,1
135132,-80.002267959404,4,1,0,100,0,1
135308,-81.631472374892,4,1,0,100,0,1
135484,-83.328411976614,4,1,0,100,0,1
135661,-85.107666324869,4,1,0,100,0,1
135749,-86.020849844541,4,1,0,100,0,1
135837,-86.953842361496,4,1,0,100,0,1
136014,-88.893088893089,4,1,0,100,0,1
136168,-90.909090909091,4,1,0,100,0,1
136256,-92.5925925925926,4,1,0,100,0,1
136344,-94.3396226415094,4,1,0,100,0,1
136433,-87.909351263853,4,1,0,100,0,1
136521,-89.2857142857143,4,1,0,100,0,1
136609,-90.9090909090909,4,1,0,100,0,1
136697,-85.111512959614,4,1,0,100,0,1
136785,-86.9565217391304,4,1,0,100,0,1
136898,-71.428571428571,4,1,0,100,0,1
136986,-72.723526988051,4,1,0,100,0,1
137075,-74.066302979438,4,1,0,100,0,1
137163,-75.459598118854,4,1,0,100,0,1
137251,-76.923076923077,4,1,0,100,0,1
137339,-78.427016218618,4,1,0,100,0,1
137428,-79.990935871289,4,1,0,100,0,1
137516,-81.618497109827,4,1,0,100,0,1
137604,-83.333333333333,4,1,0,100,0,1
137692,-85.101253616201,4,1,0,100,0,1
137781,-86.967233308697,4,1,0,100,0,1
137869,-88.894485016369,4,1,0,100,0,1
137957,-90.909090909091,4,1,0,100,0,1
138001,-91.95102891378,4,1,0,100,0,1
138134,-95.250944414463,4,1,0,100,0,1
138178,-96.395412342982,4,1,0,100,0,1
138332,-71.4285714285714,4,1,0,100,0,0
138508,-71.4285714285714,4,1,0,75,0,0
139016,-133.333333333333,4,1,0,75,0,0
139722,-136.84289016479,4,1,0,75,0,0
139898,-137.746753734144,4,1,0,75,0,0
140075,-138.667875628093,4,1,0,75,0,0
140427,-140.542196354725,4,1,0,75,0,0
141133,-144.441383652749,4,1,0,75,0,0
141839,-148.569115563651,4,1,0,75,0,0
142545,-152.939705821076,4,1,0,75,0,0
142722,-154.076064142389,4,1,0,75,0,0
142898,-155.222870675801,4,1,0,75,0,0
143251,-157.575237195724,4,1,0,75,0,0
143604,-160,4,1,0,75,0,0
143648,-160.307477288609,4,1,0,75,0,0
143780,-161.237040941838,4,1,0,75,0,0
143825,-161.556406531978,4,1,0,75,0,0
143957,-162.500553415682,4,1,0,75,0,0
144663,-167.743704583886,4,1,0,75,0,0
145369,-173.336481700118,4,1,0,75,0,0
145545,-174.789275679794,4,1,0,75,0,0
145722,-176.275093650946,4,1,0,75,0,0
146075,-179.315061800772,4,1,0,75,0,0
146780,-185.711394454564,4,1,0,75,0,0
147486,-192.591037884353,4,1,0,75,0,0
148016,-100,4,1,0,75,0,0
148192,-200,4,1,0,75,0,0

[HitObjects]
256,192,1058,12,0,2647,0:0:0:0:
256,192,2803,5,4,0:0:0:0:
256,192,4214,1,2,0:0:0:0:
256,192,5626,1,0,0:0:0:0:
256,192,7744,1,0,0:0:0:0:
256,192,8450,1,0,0:0:0:0:
256,192,9861,1,2,0:0:0:0:
256,192,11273,1,0,0:0:0:0:
256,192,13038,1,2,0:0:0:0:
256,192,13126,1,2,0:0:0:0:
256,192,13214,1,2,0:0:0:0:
256,192,13302,1,2,0:0:0:0:
256,192,13391,1,0,0:0:0:0:
256,192,13567,1,0,0:0:0:0:
256,192,13744,1,2,0:0:0:0:
256,192,13920,1,2,0:0:0:0:
256,192,14097,1,0,0:0:0:0:
256,192,14450,1,2,0:0:0:0:
256,192,14626,1,0,0:0:0:0:
256,192,14802,1,2,0:0:0:0:
256,192,14979,1,0,0:0:0:0:
256,192,15067,1,0,0:0:0:0:
256,192,15155,1,2,0:0:0:0:
256,192,15332,1,2,0:0:0:0:
256,192,15508,1,0,0:0:0:0:
256,192,15597,1,2,0:0:0:0:
256,192,15685,1,0,0:0:0:0:
256,192,15861,1,2,0:0:0:0:
256,192,15950,1,2,0:0:0:0:
256,192,16038,1,2,0:0:0:0:
256,192,16126,1,2,0:0:0:0:
256,192,16214,1,0,0:0:0:0:
256,192,16391,1,0,0:0:0:0:
256,192,16567,1,2,0:0:0:0:
256,192,16655,1,0,0:0:0:0:
256,192,16744,1,2,0:0:0:0:
256,192,16832,1,2,0:0:0:0:
256,192,16920,1,0,0:0:0:0:
256,192,17273,1,2,0:0:0:0:
256,192,17449,1,0,0:0:0:0:
256,192,17625,1,2,0:0:0:0:
256,192,17802,1,0,0:0:0:0:
256,192,17890,1,0,0:0:0:0:
256,192,17978,1,2,0:0:0:0:
256,192,18155,1,0,0:0:0:0:
256,192,18332,1,2,0:0:0:0:
256,192,18420,1,2,0:0:0:0:
256,192,18508,1,2,0:0:0:0:
256,192,18684,1,0,0:0:0:0:
256,192,18773,1,0,0:0:0:0:
256,192,18861,1,2,0:0:0:0:
256,192,18949,1,2,0:0:0:0:
256,192,19037,1,0,0:0:0:0:
256,192,19214,1,0,0:0:0:0:
256,192,19390,1,2,0:0:0:0:
256,192,19435,1,2,0:0:0:0:
256,192,19567,1,2,0:0:0:0:
256,192,19611,1,2,0:0:0:0:
256,192,19743,1,0,0:0:0:0:
256,192,20097,1,2,0:0:0:0:
256,192,20273,1,0,0:0:0:0:
256,192,20449,1,2,0:0:0:0:
256,192,20626,1,0,0:0:0:0:
256,192,20714,1,0,0:0:0:0:
256,192,20802,1,2,0:0:0:0:
256,192,20979,1,2,0:0:0:0:
256,192,21155,1,0,0:0:0:0:
256,192,21244,1,2,0:0:0:0:
256,192,21332,1,0,0:0:0:0:
256,192,21508,1,2,0:0:0:0:
256,192,21597,1,2,0:0:0:0:
256,192,21685,1,2,0:0:0:0:
256,192,21773,1,2,0:0:0:0:
256,192,21861,1,0,0:0:0:0:
256,192,22038,1,0,0:0:0:0:
256,192,22214,1,2,0:0:0:0:
256,192,22302,1,0,0:0:0:0:
256,192,22391,1,2,0:0:0:0:
256,192,22479,1,2,0:0:0:0:
256,192,22567,1,0,0:0:0:0:
256,192,22920,1,2,0:0:0:0:
256,192,23096,1,0,0:0:0:0:
256,192,23272,1,2,0:0:0:0:
256,192,23449,1,0,0:0:0:0:
256,192,23537,1,0,0:0:0:0:
256,192,23625,1,2,0:0:0:0:
256,192,23802,1,0,0:0:0:0:
256,192,23979,1,2,0:0:0:0:
256,192,24023,1,2,0:0:0:0:
256,192,24067,1,2,0:0:0:0:
256,192,24155,1,0,0:0:0:0:
256,192,24244,1,0,0:0:0:0:
256,192,24332,1,2,0:0:0:0:
256,192,24420,1,0,0:0:0:0:
256,192,24508,1,2,0:0:0:0:
256,192,24596,1,2,0:0:0:0:
256,192,24684,1,0,0:0:0:0:
256,192,24773,1,0,0:0:0:0:
256,192,24861,1,2,0:0:0:0:
256,192,24950,1,0,0:0:0:0:
256,192,25037,1,2,0:0:0:0:
256,192,25082,1,2,0:0:0:0:
256,192,25214,1,0,0:0:0:0:
256,192,25258,1,0,0:0:0:0:
256,192,25390,1,6,0:0:0:0:
256,192,25567,1,0,0:0:0:0:
256,192,25655,1,0,0:0:0:0:
256,192,25744,1,2,0:0:0:0:
256,192,25920,1,2,0:0:0:0:
256,192,26097,1,0,0:0:0:0:
256,192,26361,1,2,0:0:0:0:
256,192,26450,1,0,0:0:0:0:
256,192,26626,1,2,0:0:0:0:
256,192,26714,1,2,0:0:0:0:
256,192,26802,1,0,0:0:0:0:
256,192,26979,1,0,0:0:0:0:
256,192,27155,1,2,0:0:0:0:
256,192,27244,1,0,0:0:0:0:
256,192,27420,1,0,0:0:0:0:
256,192,27508,1,2,0:0:0:0:
256,192,27685,1,0,0:0:0:0:
256,192,27773,1,0,0:0:0:0:
256,192,27861,1,2,0:0:0:0:
256,192,27920,1,2,0:0:0:0:
256,192,27979,1,2,0:0:0:0:
256,192,28038,1,0,0:0:0:0:
256,192,28097,1,0,0:0:0:0:
256,192,28155,1,0,0:0:0:0:
256,192,28214,1,2,0:0:0:0:
256,192,28391,1,0,0:0:0:0:
256,192,28479,1,0,0:0:0:0:
256,192,28568,1,2,0:0:0:0:
256,192,28744,1,2,0:0:0:0:
256,192,28921,1,0,0:0:0:0:
256,192,29185,1,2,0:0:0:0:
256,192,29274,1,0,0:0:0:0:
256,192,29361,1,0,0:0:0:0:
256,192,29450,1,2,0:0:0:0:
256,192,29538,1,2,0:0:0:0:
256,192,29626,1,0,0:0:0:0:
256,192,29803,1,0,0:0:0:0:
256,192,29891,1,0,0:0:0:0:
256,192,29979,1,2,0:0:0:0:
256,192,30068,1,0,0:0:0:0:
256,192,30244,1,0,0:0:0:0:
256,192,30332,1,2,0:0:0:0:
256,192,30420,1,2,0:0:0:0:
256,192,30509,1,0,0:0:0:0:
256,192,30597,1,0,0:0:0:0:
256,192,30685,1,2,0:0:0:0:
256,192,30773,1,0,0:0:0:0:
256,192,30861,1,2,0:0:0:0:
256,192,30950,1,0,0:0:0:0:
256,192,31038,1,6,0:0:0:0:
256,192,31215,1,0,0:0:0:0:
256,192,31303,1,0,0:0:0:0:
256,192,31392,1,2,0:0:0:0:
256,192,31568,1,0,0:0:0:0:
256,192,31744,1,2,0:0:0:0:
256,192,32009,1,0,0:0:0:0:
256,192,32098,1,2,0:0:0:0:
256,192,32274,1,0,0:0:0:0:
256,192,32362,1,0,0:0:0:0:
256,192,32450,1,2,0:0:0:0:
256,192,32627,1,2,0:0:0:0:
256,192,32803,1,0,0:0:0:0:
256,192,32892,1,2,0:0:0:0:
256,192,33068,1,2,0:0:0:0:
256,192,33156,1,0,0:0:0:0:
256,192,33333,1,2,0:0:0:0:
256,192,33421,1,0,0:0:0:0:
256,192,33509,1,2,0:0:0:0:
256,192,33568,1,2,0:0:0:0:
256,192,33627,1,2,0:0:0:0:
256,192,33686,1,0,0:0:0:0:
256,192,33745,1,0,0:0:0:0:
256,192,33803,1,0,0:0:0:0:
256,192,33862,1,2,0:0:0:0:
256,192,34039,1,0,0:0:0:0:
256,192,34127,1,0,0:0:0:0:
256,192,34214,1,2,0:0:0:0:
256,192,34392,1,0,0:0:0:0:
256,192,34567,1,2,0:0:0:0:
256,192,34833,1,0,0:0:0:0:
256,192,34920,1,2,0:0:0:0:
256,192,35008,1,2,0:0:0:0:
256,192,35098,1,0,0:0:0:0:
256,192,35185,1,0,0:0:0:0:
256,192,35274,1,2,0:0:0:0:
256,192,35451,1,0,0:0:0:0:
256,192,35539,1,0,0:0:0:0:
256,192,35627,1,2,0:0:0:0:
256,192,35714,1,0,0:0:0:0:
256,192,35802,1,2,0:0:0:0:
256,192,35891,1,2,0:0:0:0:
256,192,35979,1,0,0:0:0:0:
256,192,36067,1,0,0:0:0:0:
256,192,36155,1,2,0:0:0:0:
256,192,36244,1,0,0:0:0:0:
256,192,36332,1,2,0:0:0:0:
256,192,36391,1,0,0:0:0:0:
256,192,36450,1,0,0:0:0:0:
256,192,36508,1,2,0:0:0:0:
256,192,36685,1,4,0:0:0:0:
256,192,36861,1,2,0:0:0:0:
256,192,36949,1,2,0:0:0:0:
256,192,37038,1,0,0:0:0:0:
256,192,37214,1,2,0:0:0:0:
256,192,37391,1,0,0:0:0:0:
256,192,37479,1,2,0:0:0:0:
256,192,37655,1,2,0:0:0:0:
256,192,37744,1,0,0:0:0:0:
256,192,37920,1,2,0:0:0:0:
256,192,38008,1,2,0:0:0:0:
256,192,38096,1,0,0:0:0:0:
256,192,38185,1,2,0:0:0:0:
256,192,38273,1,0,0:0:0:0:
256,192,38449,1,2,0:0:0:0:
256,192,38538,1,2,0:0:0:0:
256,192,38626,1,0,0:0:0:0:
256,192,38714,1,0,0:0:0:0:
256,192,38802,1,2,0:0:0:0:
256,192,38979,1,0,0:0:0:0:
256,192,39067,1,0,0:0:0:0:
256,192,39155,1,2,0:0:0:0:
256,192,39244,1,0,0:0:0:0:
256,192,39332,1,2,0:0:0:0:
256,192,39420,1,2,0:0:0:0:
256,192,39508,1,0,0:0:0:0:
256,192,39685,1,2,0:0:0:0:
256,192,39773,1,2,0:0:0:0:
256,192,39862,1,0,0:0:0:0:
256,192,40038,1,2,0:0:0:0:
256,192,40215,1,0,0:0:0:0:
256,192,40302,1,2,0:0:0:0:
256,192,40479,1,2,0:0:0:0:
256,192,40568,1,0,0:0:0:0:
256,192,40655,1,0,0:0:0:0:
256,192,40744,1,2,0:0:0:0:
256,192,40832,1,2,0:0:0:0:
256,192,40920,1,0,0:0:0:0:
256,192,41097,1,0,0:0:0:0:
256,192,41185,1,2,0:0:0:0:
256,192,41273,1,2,0:0:0:0:
256,192,41362,1,0,0:0:0:0:
256,192,41538,1,0,0:0:0:0:
256,192,41626,1,2,0:0:0:0:
256,192,41714,1,0,0:0:0:0:
256,192,41803,1,2,0:0:0:0:
256,192,41891,1,2,0:0:0:0:
256,192,41979,1,0,0:0:0:0:
256,192,42067,1,0,0:0:0:0:
256,192,42155,1,2,0:0:0:0:
256,192,42244,1,2,0:0:0:0:
256,192,42332,1,4,0:0:0:0:
256,192,42508,1,2,0:0:0:0:
256,192,42597,1,2,0:0:0:0:
256,192,42685,1,0,0:0:0:0:
256,192,42773,1,2,0:0:0:0:
256,192,42950,1,0,0:0:0:0:
256,192,43038,1,2,0:0:0:0:
256,192,43214,1,2,0:0:0:0:
256,192,43303,1,0,0:0:0:0:
256,192,43392,1,0,0:0:0:0:
256,192,43479,1,2,0:0:0:0:
256,192,43567,1,2,0:0:0:0:
256,192,43656,1,2,0:0:0:0:
256,192,43744,1,0,0:0:0:0:
256,192,43921,1,2,0:0:0:0:
256,192,44008,1,0,0:0:0:0:
256,192,44097,1,0,0:0:0:0:
256,192,44186,1,2,0:0:0:0:
256,192,44362,1,0,0:0:0:0:
256,192,44450,1,2,0:0:0:0:
256,192,44627,1,2,0:0:0:0:
256,192,44715,1,0,0:0:0:0:
256,192,44803,1,2,0:0:0:0:
256,192,44891,1,2,0:0:0:0:
256,192,44979,1,2,0:0:0:0:
256,192,45067,1,2,0:0:0:0:
256,192,45156,1,0,0:0:0:0:
256,192,45244,1,0,0:0:0:0:
256,192,45333,1,0,0:0:0:0:
256,192,45421,1,0,0:0:0:0:
256,192,45508,1,2,0:0:0:0:
256,192,45597,1,0,0:0:0:0:
256,192,45686,1,2,0:0:0:0:
256,192,45773,1,2,0:0:0:0:
256,192,45861,1,0,0:0:0:0:
256,192,45950,1,2,0:0:0:0:
256,192,46038,1,0,0:0:0:0:
256,192,46127,1,0,0:0:0:0:
256,192,46214,1,2,0:0:0:0:
256,192,46302,1,2,0:0:0:0:
256,192,46392,1,0,0:0:0:0:
256,192,46479,1,2,0:0:0:0:
256,192,46568,1,0,0:0:0:0:
256,192,46655,1,2,0:0:0:0:
256,192,46744,1,2,0:0:0:0:
256,192,46832,1,0,0:0:0:0:
256,192,46920,1,2,0:0:0:0:
256,192,47008,1,0,0:0:0:0:
256,192,47097,1,0,0:0:0:0:
256,192,47185,1,2,0:0:0:0:
256,192,47273,1,0,0:0:0:0:
256,192,47317,1,0,0:0:0:0:
256,192,47450,1,0,0:0:0:0:
256,192,47494,1,0,0:0:0:0:
256,192,47626,1,2,0:0:0:0:
256,192,47714,1,2,0:0:0:0:
256,192,47802,1,0,0:0:0:0:
256,192,47891,1,2,0:0:0:0:
256,192,47979,1,4,0:0:0:0:
256,192,48244,1,2,0:0:0:0:
256,192,48332,1,0,0:0:0:0:
256,192,48508,1,2,0:0:0:0:
256,192,48685,1,0,0:0:0:0:
256,192,48773,1,2,0:0:0:0:
256,192,48861,1,2,0:0:0:0:
256,192,48950,1,0,0:0:0:0:
256,192,49038,1,2,0:0:0:0:
256,192,49126,1,2,0:0:0:0:
256,192,49214,1,0,0:0:0:0:
256,192,49302,1,0,0:0:0:0:
256,192,49391,1,2,0:0:0:0:
256,192,49479,1,0,0:0:0:0:
256,192,49567,1,0,0:0:0:0:
256,192,49655,1,2,0:0:0:0:
256,192,49744,1,0,0:0:0:0:
256,192,49832,1,0,0:0:0:0:
256,192,49920,1,2,0:0:0:0:
256,192,50008,1,2,0:0:0:0:
256,192,50097,1,0,0:0:0:0:
256,192,50273,1,2,0:0:0:0:
256,192,50361,1,2,0:0:0:0:
256,192,50450,1,0,0:0:0:0:
256,192,50626,1,2,0:0:0:0:
256,192,50802,1,0,0:0:0:0:
256,192,50979,1,2,0:0:0:0:
256,192,51067,1,0,0:0:0:0:
256,192,51155,1,2,0:0:0:0:
256,192,51332,1,2,0:0:0:0:
256,192,51508,1,0,0:0:0:0:
256,192,51597,1,0,0:0:0:0:
256,192,51684,1,2,0:0:0:0:
256,192,51773,1,0,0:0:0:0:
256,192,51861,1,0,0:0:0:0:
256,192,51949,1,2,0:0:0:0:
256,192,52037,1,0,0:0:0:0:
256,192,52125,1,0,0:0:0:0:
256,192,52214,1,2,0:0:0:0:
256,192,52302,1,2,0:0:0:0:
256,192,52390,1,0,0:0:0:0:
256,192,52478,1,2,0:0:0:0:
256,192,52567,1,2,0:0:0:0:
256,192,52655,1,0,0:0:0:0:
256,192,52743,1,2,0:0:0:0:
256,192,52831,1,2,0:0:0:0:
256,192,52920,1,0,0:0:0:0:
256,192,53097,1,0,0:0:0:0:
256,192,53185,1,0,0:0:0:0:
256,192,53273,1,2,0:0:0:0:
256,192,53317,1,2,0:0:0:0:
256,192,53450,1,2,0:0:0:0:
256,192,53494,1,2,0:0:0:0:
256,192,53626,1,4,0:0:0:0:
256,192,53891,1,2,0:0:0:0:
256,192,53979,1,0,0:0:0:0:
256,192,54155,1,2,0:0:0:0:
256,192,54332,1,0,0:0:0:0:
256,192,54420,1,2,0:0:0:0:
256,192,54508,1,2,0:0:0:0:
256,192,54597,1,0,0:0:0:0:
256,192,54685,1,2,0:0:0:0:
256,192,54773,1,2,0:0:0:0:
256,192,54861,1,0,0:0:0:0:
256,192,54949,1,0,0:0:0:0:
256,192,55038,1,2,0:0:0:0:
256,192,55126,1,0,0:0:0:0:
256,192,55214,1,0,0:0:0:0:
256,192,55302,1,2,0:0:0:0:
256,192,55391,1,0,0:0:0:0:
256,192,55479,1,0,0:0:0:0:
256,192,55567,1,2,0:0:0:0:
256,192,55655,1,2,0:0:0:0:
256,192,55744,1,0,0:0:0:0:
256,192,55920,1,2,0:0:0:0:
256,192,56008,1,2,0:0:0:0:
256,192,56097,1,0,0:0:0:0:
256,192,56273,1,2,0:0:0:0:
256,192,56449,1,0,0:0:0:0:
256,192,56626,1,2,0:0:0:0:
256,192,56714,1,0,0:0:0:0:
256,192,56802,1,2,0:0:0:0:
256,192,56979,1,2,0:0:0:0:
256,192,57155,1,0,0:0:0:0:
256,192,57244,1,0,0:0:0:0:
256,192,57331,1,2,0:0:0:0:
256,192,57420,1,0,0:0:0:0:
256,192,57508,1,0,0:0:0:0:
256,192,57596,1,2,0:0:0:0:
256,192,57684,1,0,0:0:0:0:
256,192,57772,1,0,0:0:0:0:
256,192,57861,1,2,0:0:0:0:
256,192,57949,1,2,0:0:0:0:
256,192,58037,1,0,0:0:0:0:
256,192,58125,1,2,0:0:0:0:
256,192,58214,1,0,0:0:0:0:
256,192,58302,1,0,0:0:0:0:
256,192,58390,1,2,0:0:0:0:
256,192,58478,1,2,0:0:0:0:
256,192,58567,1,0,0:0:0:0:
256,192,58655,1,2,0:0:0:0:
256,192,58744,1,0,0:0:0:0:
256,192,58832,1,0,0:0:0:0:
256,192,58920,1,2,0:0:0:0:
256,192,58964,1,2,0:0:0:0:
256,192,59097,1,2,0:0:0:0:
256,192,59141,1,2,0:0:0:0:
256,192,59273,1,4,0:0:0:0:
256,192,59450,1,2,0:0:0:0:
256,192,59538,1,2,0:0:0:0:
256,192,59626,1,0,0:0:0:0:
256,192,59802,1,2,0:0:0:0:
256,192,59979,1,0,0:0:0:0:
256,192,60067,1,2,0:0:0:0:
256,192,60155,1,2,0:0:0:0:
256,192,60244,1,0,0:0:0:0:
256,192,60332,1,2,0:0:0:0:
256,192,60420,1,2,0:0:0:0:
256,192,60508,1,0,0:0:0:0:
256,192,60596,1,0,0:0:0:0:
256,192,60685,1,2,0:0:0:0:
256,192,60773,1,0,0:0:0:0:
256,192,60861,1,0,0:0:0:0:
256,192,60949,1,2,0:0:0:0:
256,192,61038,1,0,0:0:0:0:
256,192,61126,1,0,0:0:0:0:
256,192,61214,1,2,0:0:0:0:
256,192,61302,1,2,0:0:0:0:
256,192,61391,1,0,0:0:0:0:
256,192,61567,1,2,0:0:0:0:
256,192,61655,1,2,0:0:0:0:
256,192,61744,1,0,0:0:0:0:
256,192,61920,1,0,0:0:0:0:
256,192,61979,1,2,0:0:0:0:
256,192,62038,1,2,0:0:0:0:
256,192,62096,1,0,0:0:0:0:
256,192,62273,1,2,0:0:0:0:
256,192,62361,1,0,0:0:0:0:
256,192,62449,1,2,0:0:0:0:
256,192,62508,1,0,0:0:0:0:
256,192,62567,1,0,0:0:0:0:
256,192,62626,1,2,0:0:0:0:
256,192,62802,1,0,0:0:0:0:
256,192,62891,1,0,0:0:0:0:
256,192,62978,1,2,0:0:0:0:
256,192,63067,1,0,0:0:0:0:
256,192,63155,1,0,0:0:0:0:
256,192,63243,1,2,0:0:0:0:
256,192,63331,1,0,0:0:0:0:
256,192,63419,1,0,0:0:0:0:
256,192,63508,1,2,0:0:0:0:
256,192,63596,1,2,0:0:0:0:
256,192,63684,1,0,0:0:0:0:
256,192,63772,1,2,0:0:0:0:
256,192,63861,1,2,0:0:0:0:
256,192,63949,1,0,0:0:0:0:
256,192,64037,1,2,0:0:0:0:
256,192,64125,1,2,0:0:0:0:
256,192,64214,1,0,0:0:0:0:
256,192,64391,1,0,0:0:0:0:
256,192,64479,1,0,0:0:0:0:
256,192,64567,1,2,0:0:0:0:
256,192,64611,1,2,0:0:0:0:
256,192,64744,1,2,0:0:0:0:
256,192,64788,1,2,0:0:0:0:
256,192,64920,1,4,0:0:0:0:
256,192,65097,1,2,0:0:0:0:
256,192,65185,1,2,0:0:0:0:
256,192,65273,1,0,0:0:0:0:
256,192,65449,1,2,0:0:0:0:
256,192,65626,1,0,0:0:0:0:
256,192,65714,1,2,0:0:0:0:
256,192,65802,1,2,0:0:0:0:
256,192,65891,1,0,0:0:0:0:
256,192,65979,1,2,0:0:0:0:
256,192,66067,1,2,0:0:0:0:
256,192,66155,1,0,0:0:0:0:
256,192,66243,1,0,0:0:0:0:
256,192,66332,1,2,0:0:0:0:
256,192,66420,1,0,0:0:0:0:
256,192,66508,1,0,0:0:0:0:
256,192,66596,1,2,0:0:0:0:
256,192,66685,1,0,0:0:0:0:
256,192,66773,1,0,0:0:0:0:
256,192,66861,1,2,0:0:0:0:
256,192,66949,1,2,0:0:0:0:
256,192,67038,1,0,0:0:0:0:
256,192,67214,1,2,0:0:0:0:
256,192,67302,1,2,0:0:0:0:
256,192,67391,1,0,0:0:0:0:
256,192,67567,1,2,0:0:0:0:
256,192,67743,1,0,0:0:0:0:
256,192,67920,1,2,0:0:0:0:
256,192,68008,1,0,0:0:0:0:
256,192,68096,1,2,0:0:0:0:
256,192,68273,1,2,0:0:0:0:
256,192,68449,1,0,0:0:0:0:
256,192,68538,1,0,0:0:0:0:
256,192,68625,1,2,0:0:0:0:
256,192,68714,1,0,0:0:0:0:
256,192,68802,1,0,0:0:0:0:
256,192,68890,1,2,0:0:0:0:
256,192,68978,1,0,0:0:0:0:
256,192,69066,1,0,0:0:0:0:
256,192,69155,1,2,0:0:0:0:
256,192,69243,1,2,0:0:0:0:
256,192,69331,1,0,0:0:0:0:
256,192,69419,1,0,0:0:0:0:
256,192,69508,1,2,0:0:0:0:
256,192,69596,1,0,0:0:0:0:
256,192,69684,1,2,0:0:0:0:
256,192,69772,1,2,0:0:0:0:
256,192,69861,1,0,0:0:0:0:
256,192,69950,1,0,0:0:0:0:
256,192,70038,1,2,0:0:0:0:
256,192,70126,1,0,0:0:0:0:
256,192,70214,1,2,0:0:0:0:
256,192,70258,1,2,0:0:0:0:
256,192,70391,1,2,0:0:0:0:
256,192,70435,1,2,0:0:0:0:
256,192,70567,1,0,0:0:0:0:
256,192,70920,1,2,0:0:0:0:
256,192,71273,1,2,0:0:0:0:
256,192,71626,1,2,0:0:0:0:
256,192,71979,1,2,0:0:0:0:
256,192,72332,1,2,0:0:0:0:
256,192,72685,1,2,0:0:0:0:
256,192,73038,1,2,0:0:0:0:
256,192,73391,1,2,0:0:0:0:
256,192,73744,1,2,0:0:0:0:
256,192,74097,1,2,0:0:0:0:
256,192,74450,1,2,0:0:0:0:
256,192,74802,1,2,0:0:0:0:
256,192,75155,1,2,0:0:0:0:
256,192,75508,1,2,0:0:0:0:
256,192,75861,1,2,0:0:0:0:
256,192,76214,1,2,0:0:0:0:
256,192,76567,1,2,0:0:0:0:
256,192,76920,1,2,0:0:0:0:
256,192,77273,1,2,0:0:0:0:
256,192,77626,1,2,0:0:0:0:
256,192,77979,1,2,0:0:0:0:
256,192,78332,1,2,0:0:0:0:
256,192,78685,1,2,0:0:0:0:
256,192,79038,1,2,0:0:0:0:
256,192,79391,1,2,0:0:0:0:
256,192,79744,1,2,0:0:0:0:
256,192,80097,1,2,0:0:0:0:
256,192,80450,1,2,0:0:0:0:
256,192,80803,1,2,0:0:0:0:
256,192,81156,1,2,0:0:0:0:
256,192,81509,1,2,0:0:0:0:
256,192,81861,1,0,0:0:0:0:
256,192,82038,1,2,0:0:0:0:
256,192,82214,1,0,0:0:0:0:
256,192,82391,1,0,0:0:0:0:
256,192,82744,1,2,0:0:0:0:
256,192,82920,1,0,0:0:0:0:
256,192,83097,1,2,0:0:0:0:
256,192,83450,1,0,0:0:0:0:
256,192,83626,1,0,0:0:0:0:
256,192,83714,1,0,0:0:0:0:
256,192,83802,1,0,0:0:0:0:
256,192,83979,1,2,0:0:0:0:
256,192,84155,1,0,0:0:0:0:
256,192,84332,1,2,0:0:0:0:
256,192,84508,1,2,0:0:0:0:
256,192,84685,1,0,0:0:0:0:
256,192,84861,1,2,0:0:0:0:
256,192,85038,1,0,0:0:0:0:
256,192,85214,1,0,0:0:0:0:
256,192,85567,1,2,0:0:0:0:
256,192,85744,1,0,0:0:0:0:
256,192,85920,1,2,0:0:0:0:
256,192,86273,1,0,0:0:0:0:
256,192,86450,1,2,0:0:0:0:
256,192,86538,1,2,0:0:0:0:
256,192,86626,1,2,0:0:0:0:
256,192,86802,1,0,0:0:0:0:
256,192,86979,1,0,0:0:0:0:
256,192,87332,1,2,0:0:0:0:
256,192,87508,1,0,0:0:0:0:
256,192,87685,1,2,0:0:0:0:
256,192,87861,1,0,0:0:0:0:
256,192,88038,1,0,0:0:0:0:
256,192,88391,1,2,0:0:0:0:
256,192,88567,1,0,0:0:0:0:
256,192,88744,1,2,0:0:0:0:
256,192,89097,1,0,0:0:0:0:
256,192,89273,1,0,0:0:0:0:
256,192,89361,1,0,0:0:0:0:
256,192,89449,1,0,0:0:0:0:
256,192,89626,1,2,0:0:0:0:
256,192,89802,1,0,0:0:0:0:
256,192,89979,1,2,0:0:0:0:
256,192,90155,1,2,0:0:0:0:
256,192,90332,1,0,0:0:0:0:
256,192,90508,1,2,0:0:0:0:
256,192,90685,1,0,0:0:0:0:
256,192,90861,1,0,0:0:0:0:
256,192,91214,1,2,0:0:0:0:
256,192,91391,1,2,0:0:0:0:
256,192,91567,1,0,0:0:0:0:
256,192,91744,1,2,0:0:0:0:
256,192,91788,1,2,0:0:0:0:
256,192,91832,1,2,0:0:0:0:
256,192,91920,1,0,0:0:0:0:
256,192,92009,1,0,0:0:0:0:
256,192,92097,1,2,0:0:0:0:
256,192,92185,1,2,0:0:0:0:
256,192,92273,1,0,0:0:0:0:
256,192,92361,1,2,0:0:0:0:
256,192,92449,1,0,0:0:0:0:
256,192,92538,1,0,0:0:0:0:
256,192,92626,1,2,0:0:0:0:
256,192,92715,1,0,0:0:0:0:
256,192,92802,1,2,0:0:0:0:
256,192,92847,1,2,0:0:0:0:
256,192,92979,1,0,0:0:0:0:
256,192,93023,1,0,0:0:0:0:
256,192,93155,1,6,0:0:0:0:
256,192,93332,1,0,0:0:0:0:
256,192,93420,1,0,0:0:0:0:
256,192,93509,1,2,0:0:0:0:
256,192,93685,1,2,0:0:0:0:
256,192,93862,1,0,0:0:0:0:
256,192,94126,1,2,0:0:0:0:
256,192,94215,1,2,0:0:0:0:
256,192,94391,1,0,0:0:0:0:
256,192,94479,1,2,0:0:0:0:
256,192,94567,1,0,0:0:0:0:
256,192,94744,1,0,0:0:0:0:
256,192,94920,1,2,0:0:0:0:
256,192,95009,1,2,0:0:0:0:
256,192,95185,1,0,0:0:0:0:
256,192,95273,1,0,0:0:0:0:
256,192,95450,1,2,0:0:0:0:
256,192,95538,1,0,0:0:0:0:
256,192,95626,1,2,0:0:0:0:
256,192,95685,1,0,0:0:0:0:
256,192,95744,1,0,0:0:0:0:
256,192,95803,1,2,0:0:0:0:
256,192,95862,1,0,0:0:0:0:
256,192,95920,1,0,0:0:0:0:
256,192,95979,1,2,0:0:0:0:
256,192,96156,1,0,0:0:0:0:
256,192,96244,1,0,0:0:0:0:
256,192,96333,1,2,0:0:0:0:
256,192,96509,1,2,0:0:0:0:
256,192,96686,1,0,0:0:0:0:
256,192,96950,1,2,0:0:0:0:
256,192,97039,1,0,0:0:0:0:
256,192,97126,1,0,0:0:0:0:
256,192,97215,1,2,0:0:0:0:
256,192,97303,1,2,0:0:0:0:
256,192,97391,1,0,0:0:0:0:
256,192,97568,1,2,0:0:0:0:
256,192,97656,1,2,0:0:0:0:
256,192,97744,1,0,0:0:0:0:
256,192,97833,1,2,0:0:0:0:
256,192,98009,1,2,0:0:0:0:
256,192,98097,1,0,0:0:0:0:
256,192,98185,1,0,0:0:0:0:
256,192,98274,1,2,0:0:0:0:
256,192,98362,1,0,0:0:0:0:
256,192,98450,1,2,0:0:0:0:
256,192,98538,1,2,0:0:0:0:
256,192,98626,1,0,0:0:0:0:
256,192,98715,1,0,0:0:0:0:
256,192,98803,1,6,0:0:0:0:
256,192,98980,1,0,0:0:0:0:
256,192,99068,1,0,0:0:0:0:
256,192,99155,1,2,0:0:0:0:
256,192,99332,1,0,0:0:0:0:
256,192,99508,1,2,0:0:0:0:
256,192,99774,1,0,0:0:0:0:
256,192,99861,1,2,0:0:0:0:
256,192,100039,1,0,0:0:0:0:
256,192,100127,1,0,0:0:0:0:
256,192,100215,1,2,0:0:0:0:
256,192,100392,1,2,0:0:0:0:
256,192,100567,1,0,0:0:0:0:
256,192,100655,1,0,0:0:0:0:
256,192,100832,1,2,0:0:0:0:
256,192,100920,1,2,0:0:0:0:
256,192,101098,1,0,0:0:0:0:
256,192,101186,1,0,0:0:0:0:
256,192,101273,1,2,0:0:0:0:
256,192,101333,1,0,0:0:0:0:
256,192,101392,1,0,0:0:0:0:
256,192,101451,1,2,0:0:0:0:
256,192,101508,1,0,0:0:0:0:
256,192,101568,1,0,0:0:0:0:
256,192,101627,1,2,0:0:0:0:
256,192,101802,1,0,0:0:0:0:
256,192,101892,1,0,0:0:0:0:
256,192,101979,1,2,0:0:0:0:
256,192,102155,1,0,0:0:0:0:
256,192,102332,1,2,0:0:0:0:
256,192,102598,1,0,0:0:0:0:
256,192,102685,1,2,0:0:0:0:
256,192,102773,1,2,0:0:0:0:
256,192,102861,1,0,0:0:0:0:
256,192,102950,1,0,0:0:0:0:
256,192,103039,1,2,0:0:0:0:
256,192,103214,1,0,0:0:0:0:
256,192,103302,1,2,0:0:0:0:
256,192,103392,1,0,0:0:0:0:
256,192,103479,1,0,0:0:0:0:
256,192,103567,1,2,0:0:0:0:
256,192,103656,1,2,0:0:0:0:
256,192,103744,1,0,0:0:0:0:
256,192,103832,1,0,0:0:0:0:
256,192,103920,1,2,0:0:0:0:
256,192,104009,1,0,0:0:0:0:
256,192,104097,1,2,0:0:0:0:
256,192,104156,1,0,0:0:0:0:
256,192,104215,1,0,0:0:0:0:
256,192,104273,1,2,0:0:0:0:
256,192,104450,1,4,0:0:0:0:
256,192,104626,1,2,0:0:0:0:
256,192,104714,1,2,0:0:0:0:
256,192,104803,1,0,0:0:0:0:
256,192,104979,1,2,0:0:0:0:
256,192,105156,1,0,0:0:0:0:
256,192,105244,1,2,0:0:0:0:
256,192,105420,1,2,0:0:0:0:
256,192,105509,1,0,0:0:0:0:
256,192,105685,1,2,0:0:0:0:
256,192,105773,1,2,0:0:0:0:
256,192,105861,1,0,0:0:0:0:
256,192,105950,1,2,0:0:0:0:
256,192,106038,1,0,0:0:0:0:
256,192,106214,1,2,0:0:0:0:
256,192,106303,1,2,0:0:0:0:
256,192,106391,1,0,0:0:0:0:
256,192,106479,1,0,0:0:0:0:
256,192,106567,1,2,0:0:0:0:
256,192,106744,1,0,0:0:0:0:
256,192,106832,1,0,0:0:0:0:
256,192,106920,1,2,0:0:0:0:
256,192,107009,1,0,0:0:0:0:
256,192,107097,1,2,0:0:0:0:
256,192,107185,1,2,0:0:0:0:
256,192,107273,1,0,0:0:0:0:
256,192,107450,1,2,0:0:0:0:
256,192,107538,1,2,0:0:0:0:
256,192,107627,1,0,0:0:0:0:
256,192,107803,1,2,0:0:0:0:
256,192,107980,1,0,0:0:0:0:
256,192,108067,1,2,0:0:0:0:
256,192,108244,1,2,0:0:0:0:
256,192,108333,1,0,0:0:0:0:
256,192,108420,1,0,0:0:0:0:
256,192,108509,1,2,0:0:0:0:
256,192,108597,1,2,0:0:0:0:
256,192,108685,1,0,0:0:0:0:
256,192,108862,1,0,0:0:0:0:
256,192,108950,1,2,0:0:0:0:
256,192,109038,1,2,0:0:0:0:
256,192,109127,1,0,0:0:0:0:
256,192,109303,1,0,0:0:0:0:
256,192,109391,1,2,0:0:0:0:
256,192,109479,1,0,0:0:0:0:
256,192,109568,1,2,0:0:0:0:
256,192,109656,1,2,0:0:0:0:
256,192,109744,1,0,0:0:0:0:
256,192,109832,1,0,0:0:0:0:
256,192,109920,1,2,0:0:0:0:
256,192,110009,1,2,0:0:0:0:
256,192,110097,1,4,0:0:0:0:
256,192,110273,1,2,0:0:0:0:
256,192,110362,1,0,0:0:0:0:
256,192,110450,1,0,0:0:0:0:
256,192,110538,1,2,0:0:0:0:
256,192,110715,1,0,0:0:0:0:
256,192,110803,1,2,0:0:0:0:
256,192,110979,1,2,0:0:0:0:
256,192,111068,1,0,0:0:0:0:
256,192,111155,1,0,0:0:0:0:
256,192,111244,1,2,0:0:0:0:
256,192,111332,1,2,0:0:0:0:
256,192,111421,1,2,0:0:0:0:
256,192,111509,1,0,0:0:0:0:
256,192,111686,1,2,0:0:0:0:
256,192,111773,1,2,0:0:0:0:
256,192,111862,1,0,0:0:0:0:
256,192,111951,1,2,0:0:0:0:
256,192,112127,1,0,0:0:0:0:
256,192,112215,1,2,0:0:0:0:
256,192,112392,1,2,0:0:0:0:
256,192,112480,1,0,0:0:0:0:
256,192,112568,1,2,0:0:0:0:
256,192,112656,1,2,0:0:0:0:
256,192,112744,1,2,0:0:0:0:
256,192,112832,1,2,0:0:0:0:
256,192,112921,1,0,0:0:0:0:
256,192,113009,1,0,0:0:0:0:
256,192,113098,1,0,0:0:0:0:
256,192,113186,1,0,0:0:0:0:
256,192,113273,1,2,0:0:0:0:
256,192,113362,1,2,0:0:0:0:
256,192,113451,1,0,0:0:0:0:
256,192,113538,1,2,0:0:0:0:
256,192,113626,1,0,0:0:0:0:
256,192,113715,1,0,0:0:0:0:
256,192,113803,1,2,0:0:0:0:
256,192,113892,1,0,0:0:0:0:
256,192,113979,1,2,0:0:0:0:
256,192,114067,1,0,0:0:0:0:
256,192,114155,1,2,0:0:0:0:
256,192,114244,1,2,0:0:0:0:
256,192,114333,1,0,0:0:0:0:
256,192,114420,1,2,0:0:0:0:
256,192,114509,1,2,0:0:0:0:
256,192,114597,1,0,0:0:0:0:
256,192,114685,1,2,0:0:0:0:
256,192,114773,1,0,0:0:0:0:
256,192,114862,1,0,0:0:0:0:
256,192,114950,1,2,0:0:0:0:
256,192,115038,1,0,0:0:0:0:
256,192,115082,1,0,0:0:0:0:
256,192,115215,1,0,0:0:0:0:
256,192,115259,1,0,0:0:0:0:
256,192,115391,1,2,0:0:0:0:
256,192,115479,1,2,0:0:0:0:
256,192,115567,1,0,0:0:0:0:
256,192,115656,1,2,0:0:0:0:
256,192,115744,1,0,0:0:0:0:
256,192,116450,1,2,0:0:0:0:
256,192,116538,1,2,0:0:0:0:
256,192,116626,1,2,0:0:0:0:
256,192,116714,1,2,0:0:0:0:
256,192,116802,1,2,0:0:0:0:
256,192,116891,1,2,0:0:0:0:
256,192,116979,1,2,0:0:0:0:
256,192,117067,1,2,0:0:0:0:
256,192,117156,1,4,0:0:0:0:
256,192,117332,1,0,0:0:0:0:
256,192,117420,1,2,0:0:0:0:
256,192,117509,1,0,0:0:0:0:
256,192,117597,1,0,0:0:0:0:
256,192,117685,1,2,0:0:0:0:
256,192,117773,1,2,0:0:0:0:
256,192,117862,1,0,0:0:0:0:
256,192,118038,1,2,0:0:0:0:
256,192,118126,1,2,0:0:0:0:
256,192,118215,1,0,0:0:0:0:
256,192,118391,1,2,0:0:0:0:
256,192,118567,1,0,0:0:0:0:
256,192,118744,1,2,0:0:0:0:
256,192,118832,1,0,0:0:0:0:
256,192,118920,1,2,0:0:0:0:
256,192,119097,1,2,0:0:0:0:
256,192,119273,1,0,0:0:0:0:
256,192,119362,1,2,0:0:0:0:
256,192,119449,1,2,0:0:0:0:
256,192,119538,1,0,0:0:0:0:
256,192,119626,1,2,0:0:0:0:
256,192,119714,1,2,0:0:0:0:
256,192,119802,1,0,0:0:0:0:
256,192,119890,1,0,0:0:0:0:
256,192,119979,1,2,0:0:0:0:
256,192,120067,1,0,0:0:0:0:
256,192,120155,1,0,0:0:0:0:
256,192,120243,1,2,0:0:0:0:
256,192,120332,1,0,0:0:0:0:
256,192,120420,1,0,0:0:0:0:
256,192,120508,1,2,0:0:0:0:
256,192,120596,1,2,0:0:0:0:
256,192,120685,1,0,0:0:0:0:
256,192,120862,1,0,0:0:0:0:
256,192,120950,1,0,0:0:0:0:
256,192,121038,1,2,0:0:0:0:
256,192,121082,1,2,0:0:0:0:
256,192,121215,1,2,0:0:0:0:
256,192,121258,1,2,0:0:0:0:
256,192,121391,1,4,0:0:0:0:
256,192,121656,1,2,0:0:0:0:
256,192,121744,1,0,0:0:0:0:
256,192,121920,1,2,0:0:0:0:
256,192,122097,1,0,0:0:0:0:
256,192,122185,1,0,0:0:0:0:
256,192,122273,1,2,0:0:0:0:
256,192,122362,1,0,0:0:0:0:
256,192,122450,1,0,0:0:0:0:
256,192,122538,1,2,0:0:0:0:
256,192,122626,1,0,0:0:0:0:
256,192,122714,1,0,0:0:0:0:
256,192,122803,1,2,0:0:0:0:
256,192,122891,1,2,0:0:0:0:
256,192,122979,1,0,0:0:0:0:
256,192,123067,1,2,0:0:0:0:
256,192,123156,1,2,0:0:0:0:
256,192,123244,1,0,0:0:0:0:
256,192,123332,1,2,0:0:0:0:
256,192,123420,1,2,0:0:0:0:
256,192,123509,1,0,0:0:0:0:
256,192,123685,1,2,0:0:0:0:
256,192,123773,1,2,0:0:0:0:
256,192,123862,1,0,0:0:0:0:
256,192,124038,1,2,0:0:0:0:
256,192,124214,1,0,0:0:0:0:
256,192,124391,1,2,0:0:0:0:
256,192,124479,1,0,0:0:0:0:
256,192,124567,1,2,0:0:0:0:
256,192,124744,1,2,0:0:0:0:
256,192,124920,1,0,0:0:0:0:
256,192,125009,1,2,0:0:0:0:
256,192,125096,1,2,0:0:0:0:
256,192,125185,1,0,0:0:0:0:
256,192,125273,1,2,0:0:0:0:
256,192,125361,1,2,0:0:0:0:
256,192,125449,1,0,0:0:0:0:
256,192,125537,1,0,0:0:0:0:
256,192,125626,1,2,0:0:0:0:
256,192,125714,1,2,0:0:0:0:
256,192,125802,1,0,0:0:0:0:
256,192,125890,1,2,0:0:0:0:
256,192,125979,1,0,0:0:0:0:
256,192,126067,1,0,0:0:0:0:
256,192,126155,1,2,0:0:0:0:
256,192,126243,1,2,0:0:0:0:
256,192,126332,1,0,0:0:0:0:
256,192,126420,1,2,0:0:0:0:
256,192,126509,1,0,0:0:0:0:
256,192,126597,1,0,0:0:0:0:
256,192,126685,1,2,0:0:0:0:
256,192,126729,1,2,0:0:0:0:
256,192,126862,1,2,0:0:0:0:
256,192,126906,1,2,0:0:0:0:
256,192,127038,1,4,0:0:0:0:
256,192,127215,1,2,0:0:0:0:
256,192,127303,1,2,0:0:0:0:
256,192,127391,1,0,0:0:0:0:
256,192,127567,1,2,0:0:0:0:
256,192,127744,1,0,0:0:0:0:
256,192,127832,1,0,0:0:0:0:
256,192,127920,1,2,0:0:0:0:
256,192,128009,1,0,0:0:0:0:
256,192,128097,1,0,0:0:0:0:
256,192,128185,1,2,0:0:0:0:
256,192,128273,1,0,0:0:0:0:
256,192,128361,1,0,0:0:0:0:
256,192,128450,1,2,0:0:0:0:
256,192,128538,1,2,0:0:0:0:
256,192,128626,1,0,0:0:0:0:
256,192,128714,1,2,0:0:0:0:
256,192,128803,1,2,0:0:0:0:
256,192,128891,1,0,0:0:0:0:
256,192,128979,1,2,0:0:0:0:
256,192,129067,1,2,0:0:0:0:
256,192,129156,1,0,0:0:0:0:
256,192,129332,1,2,0:0:0:0:
256,192,129420,1,2,0:0:0:0:
256,192,129509,1,0,0:0:0:0:
256,192,129685,1,0,0:0:0:0:
256,192,129744,1,2,0:0:0:0:
256,192,129802,1,2,0:0:0:0:
256,192,129861,1,0,0:0:0:0:
256,192,130038,1,2,0:0:0:0:
256,192,130126,1,0,0:0:0:0:
256,192,130214,1,2,0:0:0:0:
256,192,130273,1,0,0:0:0:0:
256,192,130332,1,0,0:0:0:0:
256,192,130391,1,2,0:0:0:0:
256,192,130567,1,0,0:0:0:0:
256,192,130656,1,2,0:0:0:0:
256,192,130743,1,2,0:0:0:0:
256,192,130832,1,0,0:0:0:0:
256,192,130920,1,2,0:0:0:0:
256,192,131008,1,2,0:0:0:0:
256,192,131096,1,0,0:0:0:0:
256,192,131184,1,0,0:0:0:0:
256,192,131273,1,2,0:0:0:0:
256,192,131361,1,0,0:0:0:0:
256,192,131449,1,0,0:0:0:0:
256,192,131537,1,2,0:0:0:0:
256,192,131626,1,0,0:0:0:0:
256,192,131714,1,0,0:0:0:0:
256,192,131802,1,2,0:0:0:0:
256,192,131890,1,2,0:0:0:0:
256,192,131979,1,0,0:0:0:0:
256,192,132156,1,0,0:0:0:0:
256,192,132244,1,0,0:0:0:0:
256,192,132332,1,2,0:0:0:0:
256,192,132376,1,2,0:0:0:0:
256,192,132509,1,2,0:0:0:0:
256,192,132552,1,2,0:0:0:0:
256,192,132685,1,4,0:0:0:0:
256,192,132862,1,2,0:0:0:0:
256,192,132950,1,2,0:0:0:0:
256,192,133038,1,0,0:0:0:0:
256,192,133214,1,2,0:0:0:0:
256,192,133391,1,0,0:0:0:0:
256,192,133479,1,0,0:0:0:0:
256,192,133567,1,2,0:0:0:0:
256,192,133656,1,0,0:0:0:0:
256,192,133744,1,0,0:0:0:0:
256,192,133832,1,2,0:0:0:0:
256,192,133920,1,0,0:0:0:0:
256,192,134008,1,0,0:0:0:0:
256,192,134097,1,2,0:0:0:0:
256,192,134185,1,2,0:0:0:0:
256,192,134273,1,0,0:0:0:0:
256,192,134361,1,2,0:0:0:0:
256,192,134450,1,2,0:0:0:0:
256,192,134538,1,0,0:0:0:0:
256,192,134626,1,2,0:0:0:0:
256,192,134714,1,2,0:0:0:0:
256,192,134803,1,0,0:0:0:0:
256,192,134979,1,2,0:0:0:0:
256,192,135067,1,2,0:0:0:0:
256,192,135156,1,0,0:0:0:0:
256,192,135332,1,2,0:0:0:0:
256,192,135508,1,0,0:0:0:0:
256,192,135685,1,2,0:0:0:0:
256,192,135773,1,0,0:0:0:0:
256,192,135861,1,2,0:0:0:0:
256,192,136038,1,2,0:0:0:0:
256,192,136214,1,0,0:0:0:0:
256,192,136302,1,2,0:0:0:0:
256,192,136390,1,2,0:0:0:0:
256,192,136479,1,0,0:0:0:0:
256,192,136567,1,2,0:0:0:0:
256,192,136655,1,2,0:0:0:0:
256,192,136743,1,0,0:0:0:0:
256,192,136831,1,0,0:0:0:0:
256,192,136920,1,2,0:0:0:0:
256,192,137008,1,2,0:0:0:0:
256,192,137096,1,0,0:0:0:0:
256,192,137184,1,0,0:0:0:0:
256,192,137273,1,2,0:0:0:0:
256,192,137361,1,0,0:0:0:0:
256,192,137449,1,2,0:0:0:0:
256,192,137537,1,2,0:0:0:0:
256,192,137626,1,0,0:0:0:0:
256,192,137715,1,0,0:0:0:0:
256,192,137803,1,2,0:0:0:0:
256,192,137891,1,0,0:0:0:0:
256,192,137979,1,2,0:0:0:0:
256,192,138023,1,2,0:0:0:0:
256,192,138156,1,2,0:0:0:0:
256,192,138200,1,2,0:0:0:0:
256,192,138332,1,4,0:0:0:0:
256,192,139038,1,2,0:0:0:0:
256,192,139920,1,2,0:0:0:0:
256,192,140097,1,0,0:0:0:0:
256,192,140450,1,2,0:0:0:0:
256,192,141155,1,0,0:0:0:0:
256,192,141861,1,2,0:0:0:0:
256,192,142744,1,2,0:0:0:0:
256,192,142920,1,0,0:0:0:0:
256,192,143273,1,2,0:0:0:0:
256,192,143626,5,2,0:0:0:0:
256,192,143670,1,2,0:0:0:0:
256,192,143802,1,2,0:0:0:0:
256,192,143847,1,2,0:0:0:0:
256,192,143979,1,0,0:0:0:0:
256,192,144685,1,2,0:0:0:0:
256,192,145567,1,2,0:0:0:0:
256,192,145744,1,0,0:0:0:0:
256,192,146097,1,2,0:0:0:0:
256,192,146802,1,0,0:0:0:0:
256,192,147508,1,2,0:0:0:0:
256,192,148038,12,0,149538,0:0:0:0:
