osu file format v14

[General]
AudioFilename: audio.ogg
AudioLeadIn: 0
PreviewTime: 47979
Countdown: 0
SampleSet: Normal
StackLeniency: 0.7
Mode: 1
LetterboxInBreaks: 0
WidescreenStoryboard: 1

[Editor]
DistanceSpacing: 0.6
BeatDivisor: 4
GridSize: 32
TimelineZoom: 2.4

[Metadata]
Title:Rolling Beat
TitleUnicode:Rolling Beat
Artist:Mitsukiyo
ArtistUnicode:ミツキヨ
Creator:[Zeth]
Version:Quorum's Muzukashii
Source:ブルーアーカイブ -Blue Archive-
Tags:ブルアカ ba future bass instrumental electronic video game original soundtrack ost background music bgm yostar nat games mtntwarz ler1211 quorum
BeatmapID:3584236
BeatmapSetID:1751055

[Difficulty]
HPDrainRate:6
CircleSize:2
OverallDifficulty:5
ApproachRate:10
SliderMultiplier:1.4
SliderTickRate:1

[Events]
//Background and Video events
0,0,"hina.png",0,25
//Break Periods
//Storyboard Layer 0 (Background)
//Storyboard Layer 1 (Fail)
//Storyboard Layer 2 (Pass)
//Storyboard Layer 3 (Foreground)
//Storyboard Layer 4 (Overlay)
//Storyboard Sound Samples

[TimingPoints]
0,352.941176470588,99,1,0,5,1,8
156,-100,99,1,0,5,0,0
1235,-100,99,1,0,10,0,0
1411,-100,99,1,0,15,0,0
1588,-100,99,1,0,20,0,0
1764,-100,99,1,0,25,0,0
1941,-100,99,1,0,30,0,0
2117,-100,99,1,0,35,0,0
2294,-100,99,1,0,40,0,0
2470,-100,99,1,0,45,0,0
2803,352.941176470588,4,1,0,75,1,0
2803,-100,4,1,0,75,0,0
4126,-100,4,1,0,50,0,0
14052,-100,4,1,0,75,0,0
23957,-100,4,1,0,85,0,0
25369,-100,4,1,0,100,0,0
47979,-100,4,1,0,100,0,1
70567,-100,4,1,0,100,0,0
70744,-100,4,1,0,75,0,0
71287,-100,4,1,0,75,0,0
81839,-100,4,1,0,85,0,0
93132,-100,4,1,0,100,0,0
117155,-100,4,1,0,100,0,1
138332,-100,4,1,0,100,0,0
138508,-100,4,1,0,75,0,0

[HitObjects]
238,198,2803,5,0,0:0:0:0:
238,198,4214,1,8,0:0:0:0:
238,198,5626,1,0,0:0:0:0:
193,92,7744,1,0,0:0:0:0:
193,92,8450,1,0,0:0:0:0:
193,92,9861,1,8,0:0:0:0:
193,92,11273,1,0,0:0:0:0:
225,134,13038,1,8,0:0:0:0:
225,134,13126,1,8,0:0:0:0:
225,134,13214,1,8,0:0:0:0:
225,134,13302,1,8,0:0:0:0:
225,134,13391,1,8,0:0:0:0:
225,134,13567,1,0,0:0:0:0:
225,134,13744,1,8,0:0:0:0:
225,134,13920,1,0,0:0:0:0:
225,134,14097,1,0,0:0:0:0:
222,116,14450,1,0,0:0:0:0:
222,116,14626,1,0,0:0:0:0:
219,102,14802,1,8,0:0:0:0:
222,116,14979,1,0,0:0:0:0:
222,116,15155,1,8,0:0:0:0:
219,102,15332,1,0,0:0:0:0:
219,102,15685,1,0,0:0:0:0:
219,102,15861,1,8,0:0:0:0:
219,102,15950,1,8,0:0:0:0:
219,102,16038,1,8,0:0:0:0:
210,97,16126,1,8,0:0:0:0:
219,102,16214,1,8,0:0:0:0:
219,102,16391,1,0,0:0:0:0:
219,102,16567,1,8,0:0:0:0:
219,102,16744,1,0,0:0:0:0:
219,102,16920,1,8,0:0:0:0:
219,102,17273,1,0,0:0:0:0:
219,102,17450,1,0,0:0:0:0:
219,102,17626,1,8,0:0:0:0:
219,102,17802,1,0,0:0:0:0:
219,102,17979,1,8,0:0:0:0:
219,102,18155,1,8,0:0:0:0:
163,109,18508,1,0,0:0:0:0:
163,109,18685,1,8,0:0:0:0:
170,103,18773,1,8,0:0:0:0:
163,109,18861,1,8,0:0:0:0:
163,109,18950,1,8,0:0:0:0:
170,103,19038,1,8,0:0:0:0:
170,103,19214,1,0,0:0:0:0:
170,103,19391,1,8,0:0:0:0:
175,96,19567,1,8,0:0:0:0:
175,96,19744,1,0,0:0:0:0:
175,96,20097,1,0,0:0:0:0:
175,96,20273,1,0,0:0:0:0:
175,96,20450,1,8,0:0:0:0:
179,83,20626,1,0,0:0:0:0:
179,83,20802,1,8,0:0:0:0:
179,83,20979,1,8,0:0:0:0:
207,103,21332,1,0,0:0:0:0:
207,103,21508,1,8,0:0:0:0:
207,103,21597,1,8,0:0:0:0:
207,103,21685,1,8,0:0:0:0:
207,103,21773,1,8,0:0:0:0:
207,103,21861,1,8,0:0:0:0:
207,103,22038,1,0,0:0:0:0:
207,103,22214,1,8,0:0:0:0:
207,103,22391,1,0,0:0:0:0:
207,103,22567,1,8,0:0:0:0:
206,63,22920,1,0,0:0:0:0:
206,63,23097,1,8,0:0:0:0:
206,63,23273,1,8,0:0:0:0:
206,63,23450,1,0,0:0:0:0:
206,63,23626,1,8,0:0:0:0:
206,63,23802,1,0,0:0:0:0:
206,63,23979,1,8,0:0:0:0:
206,63,24155,1,8,0:0:0:0:
182,56,24244,1,8,0:0:0:0:
206,63,24332,1,8,0:0:0:0:
182,56,24508,1,8,0:0:0:0:
182,56,24685,1,0,0:0:0:0:
182,56,25391,1,8,0:0:0:0:
206,95,25567,1,0,0:0:0:0:
206,95,25744,1,8,0:0:0:0:
206,95,25920,1,0,0:0:0:0:
206,95,26008,1,0,0:0:0:0:
206,95,26097,1,0,0:0:0:0:
202,106,26450,1,8,0:0:0:0:
202,106,26626,1,0,0:0:0:0:
202,106,26802,1,8,0:0:0:0:
202,106,26979,1,0,0:0:0:0:
202,106,27067,1,0,0:0:0:0:
202,106,27155,1,0,0:0:0:0:
168,68,27508,1,0,0:0:0:0:
168,68,27685,1,8,0:0:0:0:
168,68,27773,1,8,0:0:0:0:
168,68,27861,1,8,0:0:0:0:
168,68,28038,1,0,0:0:0:0:
168,68,28214,1,8,0:0:0:0:
172,51,28391,1,0,0:0:0:0:
168,68,28567,1,8,0:0:0:0:
168,68,28744,1,0,0:0:0:0:
172,51,28832,1,0,0:0:0:0:
168,68,28920,1,0,0:0:0:0:
172,51,29273,1,8,0:0:0:0:
172,51,29450,1,0,0:0:0:0:
172,51,29626,1,8,0:0:0:0:
172,51,29802,1,0,0:0:0:0:
172,51,29891,1,0,0:0:0:0:
172,51,29979,1,0,0:0:0:0:
168,39,30332,1,8,0:0:0:0:
168,39,30420,1,8,0:0:0:0:
168,39,30508,1,8,0:0:0:0:
168,39,30597,1,8,0:0:0:0:
168,39,30685,1,8,0:0:0:0:
169,33,30861,1,0,0:0:0:0:
169,33,31038,1,8,0:0:0:0:
168,39,31214,1,0,0:0:0:0:
168,39,31391,1,8,0:0:0:0:
168,39,31567,1,0,0:0:0:0:
187,92,31655,1,0,0:0:0:0:
169,33,31744,1,0,0:0:0:0:
202,106,32097,1,8,0:0:0:0:
202,106,32273,1,0,0:0:0:0:
202,106,32449,1,8,0:0:0:0:
202,106,32626,1,0,0:0:0:0:
202,106,32714,1,0,0:0:0:0:
202,106,32802,1,0,0:0:0:0:
168,68,33155,1,0,0:0:0:0:
168,68,33332,1,8,0:0:0:0:
168,68,33420,1,8,0:0:0:0:
168,68,33508,1,8,0:0:0:0:
168,68,33685,1,0,0:0:0:0:
168,68,33861,1,8,0:0:0:0:
172,51,34038,1,0,0:0:0:0:
168,68,34214,1,8,0:0:0:0:
168,68,34391,1,0,0:0:0:0:
172,51,34479,1,0,0:0:0:0:
168,68,34567,1,0,0:0:0:0:
172,51,34920,1,8,0:0:0:0:
172,51,35097,1,0,0:0:0:0:
172,51,35273,1,8,0:0:0:0:
172,51,35449,1,0,0:0:0:0:
170,65,35979,1,8,0:0:0:0:
136,52,36067,1,8,0:0:0:0:
136,52,36155,1,8,0:0:0:0:
136,52,36244,1,8,0:0:0:0:
136,52,36332,1,8,0:0:0:0:
138,39,36685,1,8,0:0:0:0:
144,81,36861,1,0,0:0:0:0:
144,81,37038,1,8,0:0:0:0:
144,81,37214,1,0,0:0:0:0:
144,81,37391,1,0,0:0:0:0:
144,81,37655,1,0,0:0:0:0:
144,81,37920,1,0,0:0:0:0:
144,81,38097,1,8,0:0:0:0:
144,81,38273,1,0,0:0:0:0:
144,81,38361,1,0,0:0:0:0:
144,81,38450,1,0,0:0:0:0:
168,86,38802,1,0,0:0:0:0:
168,86,38979,1,8,0:0:0:0:
168,86,39067,1,8,0:0:0:0:
168,86,39155,1,8,0:0:0:0:
168,86,39332,1,0,0:0:0:0:
168,86,39508,1,8,0:0:0:0:
168,86,39685,1,0,0:0:0:0:
168,86,39861,1,8,0:0:0:0:
168,86,40038,1,0,0:0:0:0:
168,86,40214,1,0,0:0:0:0:
186,65,40479,1,0,0:0:0:0:
186,65,40744,1,0,0:0:0:0:
186,65,40920,1,8,0:0:0:0:
190,62,41097,1,0,0:0:0:0:
186,65,41185,1,0,0:0:0:0:
186,65,41273,1,0,0:0:0:0:
154,94,41626,1,8,0:0:0:0:
154,94,41714,1,8,0:0:0:0:
154,94,41802,1,8,0:0:0:0:
154,94,41891,1,8,0:0:0:0:
185,90,42067,1,0,0:0:0:0:
185,90,42155,1,0,0:0:0:0:
185,90,42244,1,0,0:0:0:0:
185,90,42332,1,0,0:0:0:0:
183,80,42597,1,0,0:0:0:0:
183,84,42773,1,8,0:0:0:0:
182,95,42950,1,8,0:0:0:0:
185,90,43038,1,8,0:0:0:0:
185,90,43214,1,0,0:0:0:0:
185,90,43302,1,0,0:0:0:0:
182,95,43479,1,8,0:0:0:0:
182,95,43655,1,0,0:0:0:0:
182,95,43744,1,0,0:0:0:0:
182,95,43832,1,0,0:0:0:0:
185,90,44008,1,8,0:0:0:0:
185,90,44185,1,0,0:0:0:0:
182,95,44361,1,8,0:0:0:0:
182,95,44450,1,8,0:0:0:0:
182,95,44626,1,0,0:0:0:0:
182,95,44714,1,0,0:0:0:0:
182,95,44891,1,8,0:0:0:0:
185,90,45067,1,0,0:0:0:0:
185,90,45155,1,0,0:0:0:0:
182,95,45332,1,0,0:0:0:0:
182,95,45508,1,8,0:0:0:0:
182,95,45685,1,0,0:0:0:0:
182,95,45861,1,8,0:0:0:0:
185,90,45950,1,8,0:0:0:0:
185,90,46038,1,8,0:0:0:0:
185,90,46214,1,8,0:0:0:0:
182,95,46391,1,8,0:0:0:0:
153,98,46567,1,0,0:0:0:0:
176,108,47626,1,0,0:0:0:0:
176,108,47979,1,0,0:0:0:0:
175,116,48155,1,8,0:0:0:0:
155,81,48244,1,8,0:0:0:0:
175,116,48332,1,8,0:0:0:0:
175,116,48508,1,0,0:0:0:0:
175,116,48685,1,0,0:0:0:0:
174,92,48950,1,0,0:0:0:0:
185,115,49126,1,0,0:0:0:0:
174,92,49214,1,0,0:0:0:0:
182,83,49391,1,8,0:0:0:0:
155,80,49655,1,8,0:0:0:0:
155,80,49832,1,8,0:0:0:0:
155,80,49920,1,8,0:0:0:0:
155,80,50097,1,8,0:0:0:0:
155,80,50273,1,0,0:0:0:0:
160,70,50450,1,8,0:0:0:0:
160,70,50626,1,8,0:0:0:0:
160,70,50714,1,8,0:0:0:0:
160,70,50802,1,8,0:0:0:0:
169,91,50979,1,0,0:0:0:0:
151,49,51155,1,8,0:0:0:0:
169,84,51332,1,0,0:0:0:0:
175,116,51508,1,0,0:0:0:0:
174,92,51773,1,0,0:0:0:0:
185,115,51949,1,0,0:0:0:0:
174,92,52037,1,0,0:0:0:0:
182,83,52214,1,8,0:0:0:0:
155,80,52478,1,8,0:0:0:0:
155,80,52655,1,8,0:0:0:0:
155,80,52743,1,8,0:0:0:0:
155,80,52920,1,8,0:0:0:0:
160,70,53273,1,0,0:0:0:0:
160,70,53626,1,0,0:0:0:0:
185,76,53802,1,8,0:0:0:0:
170,116,53891,1,8,0:0:0:0:
160,70,53979,1,8,0:0:0:0:
195,80,54155,1,0,0:0:0:0:
175,116,54332,1,0,0:0:0:0:
174,92,54597,1,0,0:0:0:0:
185,115,54773,1,0,0:0:0:0:
174,92,54861,1,0,0:0:0:0:
182,83,55038,1,8,0:0:0:0:
155,80,55302,1,8,0:0:0:0:
155,80,55479,1,8,0:0:0:0:
155,80,55567,1,8,0:0:0:0:
155,80,55744,1,8,0:0:0:0:
116,124,55920,1,0,0:0:0:0:
160,70,56097,1,0,0:0:0:0:
160,79,56273,1,8,0:0:0:0:
160,79,56361,1,8,0:0:0:0:
160,79,56450,1,8,0:0:0:0:
136,84,56626,1,0,0:0:0:0:
160,79,56802,1,8,0:0:0:0:
187,71,56979,1,0,0:0:0:0:
175,116,57155,1,0,0:0:0:0:
174,92,57420,1,0,0:0:0:0:
185,115,57596,1,0,0:0:0:0:
174,92,57684,1,0,0:0:0:0:
182,83,57861,1,8,0:0:0:0:
183,115,57950,1,8,0:0:0:0:
183,115,58038,1,8,0:0:0:0:
155,80,58125,1,8,0:0:0:0:
190,61,58214,1,8,0:0:0:0:
155,80,58390,1,8,0:0:0:0:
155,80,58567,1,0,0:0:0:0:
176,108,59273,1,0,0:0:0:0:
175,116,59449,1,8,0:0:0:0:
155,81,59538,1,8,0:0:0:0:
175,116,59626,1,8,0:0:0:0:
175,116,59802,1,0,0:0:0:0:
175,116,59979,1,0,0:0:0:0:
174,92,60244,1,0,0:0:0:0:
185,115,60420,1,0,0:0:0:0:
174,92,60508,1,0,0:0:0:0:
182,83,60685,1,8,0:0:0:0:
155,80,60949,1,8,0:0:0:0:
155,80,61126,1,8,0:0:0:0:
155,80,61214,1,8,0:0:0:0:
155,80,61391,1,8,0:0:0:0:
155,80,61567,1,0,0:0:0:0:
160,70,61744,1,8,0:0:0:0:
160,70,61920,1,8,0:0:0:0:
160,70,62008,1,8,0:0:0:0:
160,70,62096,1,8,0:0:0:0:
159,79,62273,1,0,0:0:0:0:
151,49,62449,1,8,0:0:0:0:
175,116,62626,1,0,0:0:0:0:
175,116,62803,1,0,0:0:0:0:
174,92,63068,1,0,0:0:0:0:
185,115,63244,1,0,0:0:0:0:
174,92,63332,1,0,0:0:0:0:
182,83,63509,1,8,0:0:0:0:
155,80,63773,1,8,0:0:0:0:
155,80,63950,1,8,0:0:0:0:
155,80,64038,1,8,0:0:0:0:
155,80,64215,1,8,0:0:0:0:
213,112,64391,1,0,0:0:0:0:
160,70,64567,1,0,0:0:0:0:
160,70,64920,1,0,0:0:0:0:
185,76,65096,1,8,0:0:0:0:
170,116,65185,1,8,0:0:0:0:
160,70,65273,1,8,0:0:0:0:
175,116,65450,1,0,0:0:0:0:
175,116,65627,1,0,0:0:0:0:
174,92,65892,1,0,0:0:0:0:
185,115,66068,1,0,0:0:0:0:
174,92,66156,1,0,0:0:0:0:
182,83,66333,1,8,0:0:0:0:
155,80,66597,1,8,0:0:0:0:
155,80,66774,1,8,0:0:0:0:
155,80,66862,1,8,0:0:0:0:
155,80,67039,1,8,0:0:0:0:
213,112,67214,1,0,0:0:0:0:
160,70,67391,1,0,0:0:0:0:
160,79,67567,1,8,0:0:0:0:
160,79,67655,1,8,0:0:0:0:
160,79,67744,1,8,0:0:0:0:
136,84,67920,1,0,0:0:0:0:
160,79,68096,1,8,0:0:0:0:
187,71,68273,1,0,0:0:0:0:
175,116,68449,1,0,0:0:0:0:
174,92,68714,1,0,0:0:0:0:
185,115,68890,1,0,0:0:0:0:
174,92,68978,1,0,0:0:0:0:
182,83,69155,1,8,0:0:0:0:
183,115,69244,1,8,0:0:0:0:
183,115,69332,1,8,0:0:0:0:
155,80,69419,1,8,0:0:0:0:
190,61,69508,1,8,0:0:0:0:
155,80,69684,1,8,0:0:0:0:
155,80,69861,1,0,0:0:0:0:
160,79,70567,1,0,0:0:0:0:
181,78,70920,1,0,0:0:0:0:
209,102,71273,1,0,0:0:0:0:
181,78,71538,1,0,0:0:0:0:
181,78,71802,1,0,0:0:0:0:
209,102,71979,1,8,0:0:0:0:
171,103,72332,1,8,0:0:0:0:
210,109,72685,1,8,0:0:0:0:
171,103,72950,1,8,0:0:0:0:
171,103,73214,1,8,0:0:0:0:
174,106,73391,1,0,0:0:0:0:
171,103,73744,1,0,0:0:0:0:
171,103,74097,1,0,0:0:0:0:
174,106,74361,1,0,0:0:0:0:
171,103,74626,1,0,0:0:0:0:
171,103,74802,1,8,0:0:0:0:
174,106,75155,1,8,0:0:0:0:
171,103,75508,1,8,0:0:0:0:
171,103,75773,1,8,0:0:0:0:
174,106,76038,1,8,0:0:0:0:
171,103,76214,1,0,0:0:0:0:
171,103,76567,1,0,0:0:0:0:
174,106,76920,1,0,0:0:0:0:
171,103,77185,1,0,0:0:0:0:
171,103,77450,1,0,0:0:0:0:
171,103,77626,1,8,0:0:0:0:
171,103,77979,1,8,0:0:0:0:
171,103,78332,1,8,0:0:0:0:
171,103,78597,1,8,0:0:0:0:
171,103,78861,1,8,0:0:0:0:
171,103,79038,1,0,0:0:0:0:
171,103,79391,1,0,0:0:0:0:
171,103,79744,1,0,0:0:0:0:
171,103,80008,1,0,0:0:0:0:
171,103,80273,1,0,0:0:0:0:
171,103,80450,1,8,0:0:0:0:
179,54,80802,1,8,0:0:0:0:
171,103,81155,1,8,0:0:0:0:
171,103,81861,1,8,0:0:0:0:
171,103,82214,1,0,0:0:0:0:
166,83,82391,1,0,0:0:0:0:
234,42,82567,1,0,0:0:0:0:
234,42,82832,1,0,0:0:0:0:
234,42,83097,1,0,0:0:0:0:
234,42,83273,1,8,0:0:0:0:
234,42,83626,1,8,0:0:0:0:
234,42,83802,1,8,0:0:0:0:
234,42,83891,1,8,0:0:0:0:
234,42,83979,1,8,0:0:0:0:
234,42,84244,1,8,0:0:0:0:
234,42,84508,1,8,0:0:0:0:
234,42,84685,1,0,0:0:0:0:
234,42,85038,1,0,0:0:0:0:
234,42,85214,1,0,0:0:0:0:
234,42,85391,1,0,0:0:0:0:
234,42,85655,1,0,0:0:0:0:
234,42,85920,1,0,0:0:0:0:
234,42,86097,1,8,0:0:0:0:
234,42,86450,1,8,0:0:0:0:
234,42,86626,1,8,0:0:0:0:
234,42,86714,1,8,0:0:0:0:
234,42,86802,1,8,0:0:0:0:
234,42,87067,1,8,0:0:0:0:
234,42,87332,1,8,0:0:0:0:
234,42,87508,1,0,0:0:0:0:
234,42,87861,1,0,0:0:0:0:
234,42,88038,1,0,0:0:0:0:
234,42,88214,1,0,0:0:0:0:
234,42,88479,1,0,0:0:0:0:
234,42,88744,1,0,0:0:0:0:
234,42,88920,1,8,0:0:0:0:
234,42,89273,1,8,0:0:0:0:
234,42,89450,1,8,0:0:0:0:
234,42,89538,1,8,0:0:0:0:
234,42,89626,1,8,0:0:0:0:
234,42,89891,1,8,0:0:0:0:
234,42,90155,1,8,0:0:0:0:
234,42,90332,1,0,0:0:0:0:
234,42,90685,1,0,0:0:0:0:
234,42,90861,1,0,0:0:0:0:
234,42,91038,1,0,0:0:0:0:
234,42,91302,1,0,0:0:0:0:
234,42,91567,1,0,0:0:0:0:
234,42,91744,1,8,0:0:0:0:
234,42,92097,1,8,0:0:0:0:
234,42,92185,1,8,0:0:0:0:
234,42,92273,1,8,0:0:0:0:
234,42,92361,1,8,0:0:0:0:
234,42,92450,1,8,0:0:0:0:
182,56,93155,1,8,0:0:0:0:
206,95,93331,1,0,0:0:0:0:
206,95,93508,1,8,0:0:0:0:
206,95,93684,1,0,0:0:0:0:
206,95,93772,1,0,0:0:0:0:
206,95,93861,1,0,0:0:0:0:
202,106,94214,1,8,0:0:0:0:
202,106,94390,1,0,0:0:0:0:
202,106,94566,1,8,0:0:0:0:
202,106,94743,1,0,0:0:0:0:
202,106,94831,1,0,0:0:0:0:
202,106,94919,1,0,0:0:0:0:
168,68,95272,1,0,0:0:0:0:
168,68,95449,1,8,0:0:0:0:
168,68,95537,1,8,0:0:0:0:
168,68,95625,1,8,0:0:0:0:
168,68,95802,1,0,0:0:0:0:
168,68,95978,1,8,0:0:0:0:
172,51,96155,1,0,0:0:0:0:
168,68,96331,1,8,0:0:0:0:
168,68,96508,1,0,0:0:0:0:
172,51,96596,1,0,0:0:0:0:
168,68,96684,1,0,0:0:0:0:
172,51,97037,1,8,0:0:0:0:
172,51,97214,1,0,0:0:0:0:
172,51,97390,1,8,0:0:0:0:
172,51,97566,1,0,0:0:0:0:
172,51,97655,1,0,0:0:0:0:
172,51,97743,1,0,0:0:0:0:
168,39,98096,1,8,0:0:0:0:
168,39,98184,1,8,0:0:0:0:
168,39,98272,1,8,0:0:0:0:
168,39,98361,1,8,0:0:0:0:
168,39,98449,1,8,0:0:0:0:
169,33,98625,1,0,0:0:0:0:
169,33,98802,1,8,0:0:0:0:
168,39,98978,1,0,0:0:0:0:
168,39,99155,1,8,0:0:0:0:
168,39,99331,1,0,0:0:0:0:
187,92,99419,1,0,0:0:0:0:
169,33,99508,1,0,0:0:0:0:
202,106,99861,1,8,0:0:0:0:
202,106,100037,1,0,0:0:0:0:
202,106,100213,1,8,0:0:0:0:
202,106,100390,1,0,0:0:0:0:
202,106,100478,1,0,0:0:0:0:
202,106,100566,1,0,0:0:0:0:
168,68,100919,1,0,0:0:0:0:
168,68,101096,1,8,0:0:0:0:
168,68,101184,1,8,0:0:0:0:
168,68,101272,1,8,0:0:0:0:
168,68,101449,1,0,0:0:0:0:
168,68,101625,1,8,0:0:0:0:
172,51,101802,1,0,0:0:0:0:
168,68,101978,1,8,0:0:0:0:
168,68,102155,1,0,0:0:0:0:
172,51,102243,1,0,0:0:0:0:
168,68,102331,1,0,0:0:0:0:
172,51,102684,1,8,0:0:0:0:
172,51,102861,1,0,0:0:0:0:
172,51,103037,1,8,0:0:0:0:
172,51,103213,1,0,0:0:0:0:
170,65,103743,1,8,0:0:0:0:
136,52,103831,1,8,0:0:0:0:
136,52,103919,1,8,0:0:0:0:
136,52,104008,1,8,0:0:0:0:
136,52,104096,1,8,0:0:0:0:
138,39,104450,1,8,0:0:0:0:
144,81,104626,1,0,0:0:0:0:
144,81,104803,1,8,0:0:0:0:
144,81,104979,1,0,0:0:0:0:
144,81,105156,1,0,0:0:0:0:
144,81,105420,1,0,0:0:0:0:
144,81,105685,1,0,0:0:0:0:
144,81,105862,1,8,0:0:0:0:
144,81,106038,1,0,0:0:0:0:
144,81,106126,1,0,0:0:0:0:
144,81,106215,1,0,0:0:0:0:
168,86,106567,1,0,0:0:0:0:
168,86,106744,1,8,0:0:0:0:
168,86,106832,1,8,0:0:0:0:
168,86,106920,1,8,0:0:0:0:
168,86,107097,1,0,0:0:0:0:
168,86,107273,1,8,0:0:0:0:
168,86,107450,1,0,0:0:0:0:
168,86,107626,1,8,0:0:0:0:
168,86,107803,1,0,0:0:0:0:
168,86,107979,1,0,0:0:0:0:
186,65,108244,1,0,0:0:0:0:
186,65,108509,1,0,0:0:0:0:
186,65,108685,1,8,0:0:0:0:
190,62,108862,1,0,0:0:0:0:
186,65,108950,1,0,0:0:0:0:
186,65,109038,1,0,0:0:0:0:
154,94,109391,1,8,0:0:0:0:
154,94,109479,1,8,0:0:0:0:
154,94,109567,1,8,0:0:0:0:
154,94,109656,1,8,0:0:0:0:
185,90,109832,1,0,0:0:0:0:
185,90,109920,1,0,0:0:0:0:
185,90,110009,1,0,0:0:0:0:
185,90,110097,1,0,0:0:0:0:
183,80,110362,1,0,0:0:0:0:
183,84,110538,1,8,0:0:0:0:
182,95,110715,1,8,0:0:0:0:
185,90,110803,1,8,0:0:0:0:
185,90,110979,1,0,0:0:0:0:
185,90,111067,1,0,0:0:0:0:
182,95,111244,1,8,0:0:0:0:
182,95,111420,1,0,0:0:0:0:
182,95,111509,1,0,0:0:0:0:
182,95,111597,1,0,0:0:0:0:
185,90,111773,1,8,0:0:0:0:
185,90,111950,1,0,0:0:0:0:
182,95,112126,1,8,0:0:0:0:
182,95,112215,1,8,0:0:0:0:
182,95,112391,1,0,0:0:0:0:
182,95,112479,1,0,0:0:0:0:
182,95,112656,1,8,0:0:0:0:
185,90,112832,1,0,0:0:0:0:
185,90,112920,1,0,0:0:0:0:
182,95,113097,1,0,0:0:0:0:
182,95,113273,1,8,0:0:0:0:
182,95,113450,1,0,0:0:0:0:
182,95,113626,1,8,0:0:0:0:
185,90,113715,1,8,0:0:0:0:
185,90,113803,1,8,0:0:0:0:
185,90,113979,1,8,0:0:0:0:
182,95,114156,1,8,0:0:0:0:
153,98,114332,1,0,0:0:0:0:
176,108,115391,1,0,0:0:0:0:
176,108,115744,1,0,0:0:0:0:
175,116,115920,1,8,0:0:0:0:
175,116,116097,1,0,0:0:0:0:
175,116,116273,1,8,0:0:0:0:
171,76,116626,1,8,0:0:0:0:
146,128,116714,1,8,0:0:0:0:
174,92,116802,1,8,0:0:0:0:
189,108,116979,1,0,0:0:0:0:
182,83,117155,1,8,0:0:0:0:
155,80,117419,1,8,0:0:0:0:
155,80,117596,1,8,0:0:0:0:
155,80,117684,1,8,0:0:0:0:
182,83,117861,1,0,0:0:0:0:
152,54,118038,1,0,0:0:0:0:
126,83,118126,1,0,0:0:0:0:
155,80,118214,1,0,0:0:0:0:
155,80,118390,1,8,0:0:0:0:
135,45,118479,1,8,0:0:0:0:
188,108,118567,1,8,0:0:0:0:
188,108,118744,1,0,0:0:0:0:
151,49,118920,1,8,0:0:0:0:
175,116,119097,1,0,0:0:0:0:
175,116,119274,1,0,0:0:0:0:
174,92,119539,1,0,0:0:0:0:
185,115,119715,1,0,0:0:0:0:
174,92,119803,1,0,0:0:0:0:
182,83,119980,1,8,0:0:0:0:
155,80,120244,1,8,0:0:0:0:
155,80,120421,1,8,0:0:0:0:
155,80,120509,1,8,0:0:0:0:
172,119,120685,1,0,0:0:0:0:
172,119,120861,1,8,0:0:0:0:
160,70,121038,1,0,0:0:0:0:
160,70,121391,1,0,0:0:0:0:
185,76,121567,1,8,0:0:0:0:
170,116,121656,1,8,0:0:0:0:
160,70,121744,1,8,0:0:0:0:
175,116,121920,1,0,0:0:0:0:
175,116,122097,1,0,0:0:0:0:
174,92,122362,1,0,0:0:0:0:
185,115,122538,1,0,0:0:0:0:
174,92,122626,1,0,0:0:0:0:
182,83,122803,1,8,0:0:0:0:
155,80,123067,1,8,0:0:0:0:
155,80,123244,1,8,0:0:0:0:
155,80,123332,1,8,0:0:0:0:
199,122,123508,1,0,0:0:0:0:
199,122,123685,1,0,0:0:0:0:
182,83,123773,1,0,0:0:0:0:
160,70,123862,1,0,0:0:0:0:
160,79,124038,1,8,0:0:0:0:
160,79,124126,1,8,0:0:0:0:
160,79,124215,1,8,0:0:0:0:
136,84,124391,1,0,0:0:0:0:
160,79,124567,1,8,0:0:0:0:
187,71,124744,1,0,0:0:0:0:
175,116,124920,1,0,0:0:0:0:
174,92,125185,1,0,0:0:0:0:
185,115,125361,1,0,0:0:0:0:
174,92,125449,1,0,0:0:0:0:
182,83,125626,1,8,0:0:0:0:
183,115,125715,1,8,0:0:0:0:
183,115,125803,1,8,0:0:0:0:
155,80,125890,1,8,0:0:0:0:
190,61,125979,1,8,0:0:0:0:
155,80,126155,1,8,0:0:0:0:
155,80,126332,1,0,0:0:0:0:
176,108,127038,1,0,0:0:0:0:
175,116,127214,1,8,0:0:0:0:
155,81,127303,1,8,0:0:0:0:
175,116,127391,1,8,0:0:0:0:
175,116,127567,1,0,0:0:0:0:
175,116,127744,1,0,0:0:0:0:
174,92,128009,1,0,0:0:0:0:
185,115,128185,1,0,0:0:0:0:
174,92,128273,1,0,0:0:0:0:
182,83,128450,1,8,0:0:0:0:
155,80,128714,1,8,0:0:0:0:
155,80,128891,1,8,0:0:0:0:
155,80,128979,1,8,0:0:0:0:
177,122,129155,1,0,0:0:0:0:
155,80,129332,1,0,0:0:0:0:
177,122,129420,1,0,0:0:0:0:
160,70,129509,1,0,0:0:0:0:
160,70,129685,1,8,0:0:0:0:
160,70,129773,1,8,0:0:0:0:
160,70,129861,1,8,0:0:0:0:
159,79,130038,1,0,0:0:0:0:
151,49,130214,1,8,0:0:0:0:
175,116,130391,1,0,0:0:0:0:
175,116,130568,1,0,0:0:0:0:
174,92,130833,1,0,0:0:0:0:
185,115,131009,1,0,0:0:0:0:
174,92,131097,1,0,0:0:0:0:
182,83,131274,1,8,0:0:0:0:
155,80,131538,1,8,0:0:0:0:
155,80,131715,1,8,0:0:0:0:
155,80,131803,1,8,0:0:0:0:
181,99,131979,1,0,0:0:0:0:
213,112,132156,1,0,0:0:0:0:
180,101,132244,1,0,0:0:0:0:
160,70,132332,1,0,0:0:0:0:
160,70,132685,1,0,0:0:0:0:
185,76,132861,1,8,0:0:0:0:
170,116,132950,1,8,0:0:0:0:
160,70,133038,1,8,0:0:0:0:
175,116,133214,1,0,0:0:0:0:
175,116,133391,1,0,0:0:0:0:
174,92,133656,1,0,0:0:0:0:
185,115,133832,1,0,0:0:0:0:
174,92,133920,1,0,0:0:0:0:
182,83,134097,1,8,0:0:0:0:
155,80,134361,1,8,0:0:0:0:
155,80,134538,1,8,0:0:0:0:
155,80,134626,1,8,0:0:0:0:
215,106,134802,1,0,0:0:0:0:
213,112,134979,1,0,0:0:0:0:
161,95,135067,1,0,0:0:0:0:
160,70,135156,1,0,0:0:0:0:
160,79,135332,1,8,0:0:0:0:
160,79,135420,1,8,0:0:0:0:
160,79,135509,1,8,0:0:0:0:
136,84,135685,1,0,0:0:0:0:
160,79,135861,1,8,0:0:0:0:
187,71,136038,1,0,0:0:0:0:
175,116,136214,1,0,0:0:0:0:
174,92,136479,1,0,0:0:0:0:
185,115,136655,1,0,0:0:0:0:
174,92,136743,1,0,0:0:0:0:
182,83,136920,1,8,0:0:0:0:
183,115,137009,1,8,0:0:0:0:
183,115,137097,1,8,0:0:0:0:
155,80,137184,1,8,0:0:0:0:
190,61,137273,1,8,0:0:0:0:
155,80,137449,1,8,0:0:0:0:
155,80,137626,1,0,0:0:0:0:
160,88,137979,1,0,0:0:0:0:
160,88,138332,1,12,0:0:0:0:
160,88,139038,1,8,0:0:0:0:
160,88,139744,1,0,0:0:0:0:
157,94,139920,1,8,0:0:0:0:
156,94,140097,1,0,0:0:0:0:
156,94,140450,1,8,0:0:0:0:
156,94,141155,1,0,0:0:0:0:
156,94,141861,1,8,0:0:0:0:
156,94,142567,1,0,0:0:0:0:
156,94,142744,1,8,0:0:0:0:
156,94,142920,1,0,0:0:0:0:
156,94,143273,1,8,0:0:0:0:
156,94,143626,1,8,0:0:0:0:
156,94,143802,1,8,0:0:0:0:
156,94,143979,1,0,0:0:0:0:
156,94,144685,1,8,0:0:0:0:
156,94,145391,1,0,0:0:0:0:
156,94,145567,1,8,0:0:0:0:
156,94,145744,1,0,0:0:0:0:
156,94,146097,1,8,0:0:0:0:
156,94,146802,1,0,0:0:0:0:
156,94,147508,1,8,0:0:0:0:
200,49,147861,1,0,0:0:0:0:
200,49,148038,1,0,0:0:0:0:
