osu file format v14

[General]
AudioFilename: audio.ogg
AudioLeadIn: 0
PreviewTime: 47979
Countdown: 0
SampleSet: Normal
StackLeniency: 0.7
Mode: 1
LetterboxInBreaks: 0
WidescreenStoryboard: 1

[Editor]
DistanceSpacing: 0.6
BeatDivisor: 16
GridSize: 32
TimelineZoom: 2.4

[Metadata]
Title:Rolling Beat
TitleUnicode:Rolling Beat
Artist:Mitsukiyo
ArtistUnicode:ミツキヨ
Creator:[Zeth]
Version:Oni
Source:ブルーアーカイブ -Blue Archive-
Tags:ブルアカ ba future bass instrumental electronic video game original soundtrack ost background music bgm yostar nat games mtntwarz ler1211 quorum
BeatmapID:3584158
BeatmapSetID:1751055

[Difficulty]
HPDrainRate:5.5
CircleSize:2
OverallDifficulty:6
ApproachRate:10
SliderMultiplier:1.4
SliderTickRate:1

[Events]
//Background and Video events
0,0,"yuuka.png",0,0
//Break Periods
//Storyboard Layer 0 (Background)
//Storyboard Layer 1 (Fail)
//Storyboard Layer 2 (Pass)
//Storyboard Layer 3 (Foreground)
//Storyboard Layer 4 (Overlay)
//Storyboard Sound Samples

[TimingPoints]
0,352.941176470588,99,1,0,5,1,8
156,-10000,99,1,0,5,0,0
1235,-10000,99,1,0,10,0,0
1411,-10000,99,1,0,15,0,0
1588,-10000,99,1,0,20,0,0
1764,-10000,99,1,0,25,0,0
1941,-10000,99,1,0,30,0,0
2117,-10000,99,1,0,35,0,0
2294,-10000,99,1,0,40,0,0
2470,-10000,99,1,0,45,0,0
2803,352.941176470588,4,1,0,75,1,0
2803,-66.6666666666667,4,1,0,75,0,0
4126,-133.333333333333,4,1,0,50,0,0
13016,-117.647058823529,4,1,0,50,0,0
13104,-117.074788568902,4,1,0,50,0,0
13192,-116.508058749106,4,1,0,50,0,0
13280,-115.946789292166,4,1,0,50,0,0
13369,-115.384615384615,4,1,0,50,0,0
13545,-114.288797755234,4,1,0,50,0,0
13722,-113.207547169811,4,1,0,50,0,0
13898,-112.152501985703,4,1,0,50,0,0
14075,-111.111111111111,4,1,0,75,0,0
23957,-83.333333333333,4,1,0,85,0,0
24133,-85.101253616201,4,1,0,85,0,0
24222,-86.024125746314,4,1,0,85,0,0
24310,-86.95652173913,4,1,0,85,0,0
24398,-87.909351263853,4,1,0,85,0,0
24486,-88.883293465945,4,1,0,85,0,0
24663,-90.909090909091,4,1,0,85,0,0
24751,-91.95102891378,4,1,0,85,0,0
24839,-93.017127799736,4,1,0,85,0,0
24927,-94.120783895481,4,1,0,85,0,0
25016,-95.238095238095,4,1,0,85,0,0
25192,-97.554235180323,4,1,0,85,0,0
25369,-83.3333333333333,4,1,0,100,0,0
25479,-100,4,1,0,100,0,0
30950,-83.3333333333333,4,1,0,100,0,0
31214,-100,4,1,0,100,0,0
34898,-100,4,1,0,100,0,0
34986,-99.503889953772,4,1,0,100,0,0
35075,-99.007124025355,4,1,0,100,0,0
35163,-98.520792631873,4,1,0,100,0,0
35251,-98.039215686275,4,1,0,100,0,0
35427,-97.084708470847,4,1,0,100,0,0
35516,-96.617035252901,4,1,0,100,0,0
35604,-96.153846153846,4,1,0,100,0,0
35692,-95.695076989807,4,1,0,100,0,0
35780,-95.240664796028,4,1,0,100,0,0
35957,-94.339622641509,4,1,0,100,0,0
36045,-93.897962440815,4,1,0,100,0,0
36133,-93.460418321419,4,1,0,100,0,0
36222,-93.022030146516,4,1,0,100,0,0
36310,-92.592592592593,4,1,0,100,0,0
36486,-91.745503690612,4,1,0,100,0,0
36597,-76.9230769230769,4,1,0,100,0,0
36773,-90.9090909090909,4,1,0,100,0,0
42332,-76.9230769230769,4,1,0,100,0,0
42486,-90.227325990157,4,1,0,100,0,0
42575,-89.886448052637,4,1,0,100,0,0
42663,-89.551923198917,4,1,0,100,0,0
42751,-89.219879073883,4,1,0,100,0,0
42927,-88.559419501892,4,1,0,100,0,0
43016,-88.23468133425,4,1,0,100,0,0
43192,-87.592297669031,4,1,0,100,0,0
43280,-87.274600721278,4,1,0,100,0,0
43369,-86.955629016693,4,1,0,100,0,0
43457,-86.642525419914,4,1,0,100,0,0
43633,-86.023034267027,4,1,0,100,0,0
43722,-85.71312918699,4,1,0,100,0,0
43898,-85.10681055445,4,1,0,100,0,0
43986,-84.806856639366,4,1,0,100,0,0
44075,-84.50563703482,4,1,0,100,0,0
44163,-84.209898391362,4,1,0,100,0,0
44339,-83.624587800881,4,1,0,100,0,0
44427,-83.331693591232,4,1,0,100,0,0
44604,-82.75848592031,4,1,0,100,0,0
44692,-82.474829110596,4,1,0,100,0,0
44780,-82.193110140708,4,1,0,100,0,0
44869,-81.910140610796,4,1,0,100,0,0
44957,-81.632259681181,4,1,0,100,0,0
45045,-81.356257804246,4,1,0,100,0,0
45133,-81.08211598476,4,1,0,100,0,0
45310,-80.536274603024,4,1,0,100,0,0
45398,-80.267621917704,4,1,0,100,0,0
45486,-80.000755615165,4,1,0,100,0,0
45575,-79.732655558693,4,1,0,100,0,0
45663,-79.469328779719,4,1,0,100,0,0
45839,-78.947858993718,4,1,0,100,0,0
45927,-78.686757956931,4,1,0,100,0,0
46016,-78.430283163879,4,1,0,100,0,0
46104,-78.175474867554,4,1,0,100,0,0
46192,-77.922316877955,4,1,0,100,0,0
46280,-77.670793214122,4,1,0,100,0,0
46369,-77.418057510557,4,1,0,100,0,0
46564,-71.443027727181,4,1,0,100,0,0
46630,-72.723526988051,4,1,0,100,0,0
46719,-74.08184679958,4,1,0,100,0,0
46807,-75.475732307034,4,1,0,100,0,0
46895,-76.923076923077,4,1,0,100,0,0
46983,-78.427016218618,4,1,0,100,0,0
47072,-80.009066183137,4,1,0,100,0,0
47160,-81.63737280296,4,1,0,100,0,0
47248,-83.333333333333,4,1,0,100,0,0
47424,-86.967233308697,4,1,0,100,0,0
47623,-83.3333333333333,4,1,0,100,0,0
47711,-80,4,1,0,100,0,0
47799,-76.9230769230769,4,1,0,100,0,0
47888,-74.0740740740741,4,1,0,100,0,0
47979,-71.4285714285714,4,1,0,100,0,1
48220,-96.382252559727,4,1,0,100,0,1
48308,-95.238095238095,4,1,0,100,0,1
48484,-93.029384635657,4,1,0,100,0,1
48661,-90.909090909091,4,1,0,100,0,1
48749,-89.890501655208,4,1,0,100,0,1
48837,-88.894485016369,4,1,0,100,0,1
48925,-87.9198171267804,4,1,0,100,0,1
49014,-86.95652173913,4,1,0,100,0,1
49190,-85.111512959614,4,1,0,100,0,1
49367,-83.333333333333,4,1,0,100,0,1
49455,-82.476635514019,4,1,0,100,0,1
49543,-81.63737280296,4,1,0,100,0,1
49631,-80.815018315018,4,1,0,100,0,1
49720,-80,4,1,0,100,0,1
49896,-78.435729363404,4,1,0,100,0,1
50095,-76.9230769230769,4,1,0,100,0,1
50249,-78.428102940359,4,1,0,100,0,1
50337,-79.202918888577,4,1,0,100,0,1
50425,-80.002267959404,4,1,0,100,0,1
50602,-81.631472374892,4,1,0,100,0,1
50778,-83.328411976614,4,1,0,100,0,1
50955,-85.107666324869,4,1,0,100,0,1
51043,-86.020849844541,4,1,0,100,0,1
51131,-86.953842361496,4,1,0,100,0,1
51308,-88.893088893089,4,1,0,100,0,1
51506,-90.9090909090909,4,1,0,100,0,1
51573,-89.879057924889,4,1,0,100,0,1
51661,-88.883293465945,4,1,0,100,0,1
51749,-87.909351263853,4,1,0,100,0,1
51837,-86.95652173913,4,1,0,100,0,1
52014,-85.101253616201,4,1,0,100,0,1
52190,-83.333333333333,4,1,0,100,0,1
52278,-82.476635514019,4,1,0,100,0,1
52367,-81.627933865187,4,1,0,100,0,1
52455,-80.805768570448,4,1,0,100,0,1
52543,-80,4,1,0,100,0,1
52720,-78.427016218618,4,1,0,100,0,1
52896,-76.923076923077,4,1,0,100,0,1
53073,-75.467664350615,4,1,0,100,0,1
53161,-74.764375728053,4,1,0,100,0,1
53249,-74.074074074074,4,1,0,100,0,1
53425,-72.723526988051,4,1,0,100,0,1
53602,-71.428571428571,4,1,0,100,0,1
53867,-96.382252559727,4,1,0,100,0,1
53955,-95.238095238095,4,1,0,100,0,1
54131,-93.029384635657,4,1,0,100,0,1
54308,-90.909090909091,4,1,0,100,0,1
54396,-89.890501655208,4,1,0,100,0,1
54484,-88.894485016369,4,1,0,100,0,1
54573,-87.909351263853,4,1,0,100,0,1
54661,-86.95652173913,4,1,0,100,0,1
54837,-85.111512959614,4,1,0,100,0,1
55014,-83.333333333333,4,1,0,100,0,1
55102,-82.476635514019,4,1,0,100,0,1
55190,-81.63737280296,4,1,0,100,0,1
55278,-80.815018315018,4,1,0,100,0,1
55367,-80,4,1,0,100,0,1
55543,-78.435729363404,4,1,0,100,0,1
55720,-76.923076923077,4,1,0,100,0,1
55896,-78.428102940359,4,1,0,100,0,1
55984,-79.202918888577,4,1,0,100,0,1
56073,-80.002267959404,4,1,0,100,0,1
56249,-81.631472374892,4,1,0,100,0,1
56425,-83.338255271396,4,1,0,100,0,1
56602,-85.107666324869,4,1,0,100,0,1
56690,-86.020849844541,4,1,0,100,0,1
56778,-86.953842361496,4,1,0,100,0,1
56955,-88.893088893089,4,1,0,100,0,1
57131,-90.909090909091,4,1,0,100,0,1
57220,-89.879057924889,4,1,0,100,0,1
57308,-88.883293465945,4,1,0,100,0,1
57396,-87.909351263853,4,1,0,100,0,1
57484,-86.95652173913,4,1,0,100,0,1
57661,-85.101253616201,4,1,0,100,0,1
57815,-71.428571428571,4,1,0,100,0,1
57903,-72.723526988051,4,1,0,100,0,1
57992,-74.066302979438,4,1,0,100,0,1
58080,-75.459598118854,4,1,0,100,0,1
58168,-76.923076923077,4,1,0,100,0,1
58256,-78.427016218618,4,1,0,100,0,1
58345,-79.990935871289,4,1,0,100,0,1
58433,-81.618497109827,4,1,0,100,0,1
58521,-83.333333333333,4,1,0,100,0,1
58609,-85.101253616201,4,1,0,100,0,1
58698,-86.967233308697,4,1,0,100,0,1
58786,-88.894485016369,4,1,0,100,0,1
58874,-90.909090909091,4,1,0,100,0,1
59051,-95.250944414463,4,1,0,100,0,1
59227,-71.4285714285714,4,1,0,100,0,1
59516,-96.382252559727,4,1,0,100,0,1
59604,-95.238095238095,4,1,0,100,0,1
59780,-93.029384635657,4,1,0,100,0,1
59957,-90.909090909091,4,1,0,100,0,1
60045,-89.890501655208,4,1,0,100,0,1
60133,-88.894485016369,4,1,0,100,0,1
60221,-87.909351263853,4,1,0,100,0,1
60310,-86.95652173913,4,1,0,100,0,1
60398,-86.0215053763441,4,1,0,100,0,1
60486,-85.1063829787234,4,1,0,100,0,1
60663,-83.333333333333,4,1,0,100,0,1
60751,-82.476635514019,4,1,0,100,0,1
60839,-81.63737280296,4,1,0,100,0,1
60927,-80.815018315018,4,1,0,100,0,1
61016,-80,4,1,0,100,0,1
61104,-79.2079207920792,4,1,0,100,0,1
61192,-78.4313725490196,4,1,0,100,0,1
61391,-76.9230769230769,4,1,0,100,0,1
61545,-78.428102940359,4,1,0,100,0,1
61633,-79.202918888577,4,1,0,100,0,1
61721,-80.002267959404,4,1,0,100,0,1
61898,-81.631472374892,4,1,0,100,0,1
61986,-82.4742268041237,4,1,0,100,0,1
62074,-83.328411976614,4,1,0,100,0,1
62251,-85.107666324869,4,1,0,100,0,1
62339,-86.020849844541,4,1,0,100,0,1
62427,-86.953842361496,4,1,0,100,0,1
62516,-87.9120879120879,4,1,0,100,0,1
62604,-88.893088893089,4,1,0,100,0,1
62802,-90.9090909090909,4,1,0,100,0,1
62869,-89.879057924889,4,1,0,100,0,1
62957,-88.883293465945,4,1,0,100,0,1
63045,-87.909351263853,4,1,0,100,0,1
63133,-86.95652173913,4,1,0,100,0,1
63222,-85.6531049250535,4,1,0,100,0,1
63310,-85.101253616201,4,1,0,100,0,1
63486,-83.333333333333,4,1,0,100,0,1
63574,-82.476635514019,4,1,0,100,0,1
63663,-81.627933865187,4,1,0,100,0,1
63751,-80.805768570448,4,1,0,100,0,1
63839,-80,4,1,0,100,0,1
63927,-78.8954635108481,4,1,0,100,0,1
64016,-78.427016218618,4,1,0,100,0,1
64192,-76.923076923077,4,1,0,100,0,1
64369,-75.467664350615,4,1,0,100,0,1
64457,-74.764375728053,4,1,0,100,0,1
64545,-74.074074074074,4,1,0,100,0,1
64721,-72.723526988051,4,1,0,100,0,1
64898,-71.428571428571,4,1,0,100,0,1
65163,-96.382252559727,4,1,0,100,0,1
65251,-95.238095238095,4,1,0,100,0,1
65427,-93.029384635657,4,1,0,100,0,1
65604,-90.909090909091,4,1,0,100,0,1
65692,-89.890501655208,4,1,0,100,0,1
65780,-88.894485016369,4,1,0,100,0,1
65869,-87.909351263853,4,1,0,100,0,1
65957,-86.95652173913,4,1,0,100,0,1
66045,-85.6531049250535,4,1,0,100,0,1
66133,-85.111512959614,4,1,0,100,0,1
66310,-83.333333333333,4,1,0,100,0,1
66398,-82.476635514019,4,1,0,100,0,1
66486,-81.63737280296,4,1,0,100,0,1
66574,-80.815018315018,4,1,0,100,0,1
66663,-80,4,1,0,100,0,1
66751,-78.8954635108481,4,1,0,100,0,1
66839,-78.435729363404,4,1,0,100,0,1
67016,-76.923076923077,4,1,0,100,0,1
67192,-78.428102940359,4,1,0,100,0,1
67280,-79.202918888577,4,1,0,100,0,1
67369,-80.002267959404,4,1,0,100,0,1
67545,-81.631472374892,4,1,0,100,0,1
67721,-83.338255271396,4,1,0,100,0,1
67898,-85.107666324869,4,1,0,100,0,1
67986,-86.020849844541,4,1,0,100,0,1
68074,-86.953842361496,4,1,0,100,0,1
68251,-88.893088893089,4,1,0,100,0,1
68427,-90.909090909091,4,1,0,100,0,1
68516,-89.879057924889,4,1,0,100,0,1
68604,-88.883293465945,4,1,0,100,0,1
68692,-87.909351263853,4,1,0,100,0,1
68780,-86.95652173913,4,1,0,100,0,1
68869,-85.6531049250535,4,1,0,100,0,1
68957,-85.101253616201,4,1,0,100,0,1
69111,-71.428571428571,4,1,0,100,0,1
69199,-72.723526988051,4,1,0,100,0,1
69288,-74.066302979438,4,1,0,100,0,1
69376,-75.459598118854,4,1,0,100,0,1
69464,-76.923076923077,4,1,0,100,0,1
69552,-78.427016218618,4,1,0,100,0,1
69641,-79.990935871289,4,1,0,100,0,1
69729,-81.618497109827,4,1,0,100,0,1
69817,-83.333333333333,4,1,0,100,0,1
69905,-85.101253616201,4,1,0,100,0,1
69994,-86.967233308697,4,1,0,100,0,1
70082,-88.894485016369,4,1,0,100,0,1
70170,-90.909090909091,4,1,0,100,0,1
70347,-95.250944414463,4,1,0,100,0,1
70567,-100,4,1,0,100,0,0
70744,-133.333333333333,4,1,0,75,0,0
81795,-117.647058823529,4,1,0,75,0,0
91722,-83.333333333333,4,1,0,85,0,0
91898,-85.101253616201,4,1,0,85,0,0
91987,-86.024125746314,4,1,0,85,0,0
92075,-86.95652173913,4,1,0,85,0,0
92163,-87.909351263853,4,1,0,85,0,0
92251,-88.883293465945,4,1,0,85,0,0
92428,-90.909090909091,4,1,0,85,0,0
92516,-91.95102891378,4,1,0,85,0,0
92604,-93.017127799736,4,1,0,85,0,0
92692,-94.120783895481,4,1,0,85,0,0
92781,-95.238095238095,4,1,0,85,0,0
92957,-97.554235180323,4,1,0,85,0,0
93134,-83.3333333333333,4,1,0,100,0,0
93244,-100,4,1,0,100,0,0
98715,-83.3333333333333,4,1,0,100,0,0
98979,-100,4,1,0,100,0,0
102663,-100,4,1,0,100,0,0
102751,-99.503889953772,4,1,0,100,0,0
102840,-99.007124025355,4,1,0,100,0,0
102928,-98.520792631873,4,1,0,100,0,0
103016,-98.039215686275,4,1,0,100,0,0
103192,-97.084708470847,4,1,0,100,0,0
103281,-96.617035252901,4,1,0,100,0,0
103369,-96.153846153846,4,1,0,100,0,0
103457,-95.695076989807,4,1,0,100,0,0
103545,-95.240664796028,4,1,0,100,0,0
103722,-94.339622641509,4,1,0,100,0,0
103810,-93.897962440815,4,1,0,100,0,0
103898,-93.460418321419,4,1,0,100,0,0
103987,-93.022030146516,4,1,0,100,0,0
104075,-92.592592592593,4,1,0,100,0,0
104251,-91.745503690612,4,1,0,100,0,0
104362,-76.9230769230769,4,1,0,100,0,0
104538,-90.9090909090909,4,1,0,100,0,0
110097,-76.9230769230769,4,1,0,100,0,0
110251,-90.227325990157,4,1,0,100,0,0
110340,-89.886448052637,4,1,0,100,0,0
110428,-89.551923198917,4,1,0,100,0,0
110516,-89.219879073883,4,1,0,100,0,0
110692,-88.559419501892,4,1,0,100,0,0
110781,-88.23468133425,4,1,0,100,0,0
110957,-87.592297669031,4,1,0,100,0,0
111045,-87.274600721278,4,1,0,100,0,0
111134,-86.955629016693,4,1,0,100,0,0
111222,-86.642525419914,4,1,0,100,0,0
111398,-86.023034267027,4,1,0,100,0,0
111487,-85.71312918699,4,1,0,100,0,0
111663,-85.10681055445,4,1,0,100,0,0
111751,-84.806856639366,4,1,0,100,0,0
111840,-84.50563703482,4,1,0,100,0,0
111928,-84.209898391362,4,1,0,100,0,0
112104,-83.624587800881,4,1,0,100,0,0
112192,-83.331693591232,4,1,0,100,0,0
112369,-82.75848592031,4,1,0,100,0,0
112457,-82.474829110596,4,1,0,100,0,0
112545,-82.193110140708,4,1,0,100,0,0
112634,-81.910140610796,4,1,0,100,0,0
112722,-81.632259681181,4,1,0,100,0,0
112810,-81.356257804246,4,1,0,100,0,0
112898,-81.08211598476,4,1,0,100,0,0
113075,-80.536274603024,4,1,0,100,0,0
113163,-80.267621917704,4,1,0,100,0,0
113251,-80.000755615165,4,1,0,100,0,0
113340,-79.732655558693,4,1,0,100,0,0
113428,-79.469328779719,4,1,0,100,0,0
113604,-78.947858993718,4,1,0,100,0,0
113692,-78.686757956931,4,1,0,100,0,0
113781,-78.430283163879,4,1,0,100,0,0
113869,-78.175474867554,4,1,0,100,0,0
113957,-77.922316877955,4,1,0,100,0,0
114045,-77.670793214122,4,1,0,100,0,0
114134,-77.418057510557,4,1,0,100,0,0
114329,-71.443027727181,4,1,0,100,0,0
114395,-72.723526988051,4,1,0,100,0,0
114484,-74.08184679958,4,1,0,100,0,0
114572,-75.475732307034,4,1,0,100,0,0
114660,-76.923076923077,4,1,0,100,0,0
114748,-78.427016218618,4,1,0,100,0,0
114837,-80.009066183137,4,1,0,100,0,0
114925,-81.63737280296,4,1,0,100,0,0
115013,-83.333333333333,4,1,0,100,0,0
115189,-86.967233308697,4,1,0,100,0,0
115388,-83.3333333333333,4,1,0,100,0,0
115476,-80,4,1,0,100,0,0
115564,-76.9230769230769,4,1,0,100,0,0
115653,-74.0740740740741,4,1,0,100,0,0
115744,-71.4285714285714,4,1,0,100,0,0
116427,-125,4,1,0,100,0,0
116516,-117.656875834446,4,1,0,100,0,0
116604,-111.128625472888,4,1,0,100,0,0
116692,-105.286738351254,4,1,0,100,0,0
116780,-100.028376844495,4,1,0,100,0,0
116869,-95.218800648298,4,1,0,100,0,0
116957,-90.897369778236,4,1,0,100,0,0
117045,-86.951159348791,4,1,0,100,0,0
117155,-71.4285714285714,4,1,0,100,0,1
117217,-82.476635514019,4,1,0,100,0,1
117305,-81.63737280296,4,1,0,100,0,1
117393,-80.815018315018,4,1,0,100,0,1
117482,-80,4,1,0,100,0,1
117658,-78.435729363404,4,1,0,100,0,1
117857,-76.9230769230769,4,1,0,100,0,1
118011,-78.428102940359,4,1,0,100,0,1
118099,-79.202918888577,4,1,0,100,0,1
118187,-80.002267959404,4,1,0,100,0,1
118364,-81.631472374892,4,1,0,100,0,1
118540,-83.328411976614,4,1,0,100,0,1
118717,-85.107666324869,4,1,0,100,0,1
118805,-86.020849844541,4,1,0,100,0,1
118893,-86.953842361496,4,1,0,100,0,1
119070,-88.893088893089,4,1,0,100,0,1
119268,-90.9090909090909,4,1,0,100,0,1
119335,-89.879057924889,4,1,0,100,0,1
119423,-88.883293465945,4,1,0,100,0,1
119511,-87.909351263853,4,1,0,100,0,1
119599,-86.95652173913,4,1,0,100,0,1
119776,-85.101253616201,4,1,0,100,0,1
119952,-83.333333333333,4,1,0,100,0,1
120040,-82.476635514019,4,1,0,100,0,1
120129,-81.627933865187,4,1,0,100,0,1
120217,-80.805768570448,4,1,0,100,0,1
120305,-80,4,1,0,100,0,1
120482,-78.427016218618,4,1,0,100,0,1
120658,-76.923076923077,4,1,0,100,0,1
120835,-75.467664350615,4,1,0,100,0,1
120923,-74.764375728053,4,1,0,100,0,1
121011,-74.074074074074,4,1,0,100,0,1
121187,-72.723526988051,4,1,0,100,0,1
121364,-71.428571428571,4,1,0,100,0,1
121629,-96.382252559727,4,1,0,100,0,1
121717,-95.238095238095,4,1,0,100,0,1
121893,-93.029384635657,4,1,0,100,0,1
122070,-90.909090909091,4,1,0,100,0,1
122158,-89.890501655208,4,1,0,100,0,1
122246,-88.894485016369,4,1,0,100,0,1
122335,-87.909351263853,4,1,0,100,0,1
122423,-86.95652173913,4,1,0,100,0,1
122599,-85.111512959614,4,1,0,100,0,1
122776,-83.333333333333,4,1,0,100,0,1
122864,-82.476635514019,4,1,0,100,0,1
122952,-81.63737280296,4,1,0,100,0,1
123040,-80.815018315018,4,1,0,100,0,1
123129,-80,4,1,0,100,0,1
123305,-78.435729363404,4,1,0,100,0,1
123482,-76.923076923077,4,1,0,100,0,1
123658,-78.428102940359,4,1,0,100,0,1
123746,-79.202918888577,4,1,0,100,0,1
123835,-80.002267959404,4,1,0,100,0,1
124011,-81.631472374892,4,1,0,100,0,1
124187,-83.338255271396,4,1,0,100,0,1
124364,-85.107666324869,4,1,0,100,0,1
124452,-86.020849844541,4,1,0,100,0,1
124540,-86.953842361496,4,1,0,100,0,1
124717,-88.893088893089,4,1,0,100,0,1
124893,-90.909090909091,4,1,0,100,0,1
124982,-89.879057924889,4,1,0,100,0,1
125070,-88.883293465945,4,1,0,100,0,1
125158,-87.909351263853,4,1,0,100,0,1
125246,-86.95652173913,4,1,0,100,0,1
125423,-85.101253616201,4,1,0,100,0,1
125577,-71.428571428571,4,1,0,100,0,1
125665,-72.723526988051,4,1,0,100,0,1
125754,-74.066302979438,4,1,0,100,0,1
125842,-75.459598118854,4,1,0,100,0,1
125930,-76.923076923077,4,1,0,100,0,1
126018,-78.427016218618,4,1,0,100,0,1
126107,-79.990935871289,4,1,0,100,0,1
126195,-81.618497109827,4,1,0,100,0,1
126283,-83.333333333333,4,1,0,100,0,1
126371,-85.101253616201,4,1,0,100,0,1
126460,-86.967233308697,4,1,0,100,0,1
126548,-88.894485016369,4,1,0,100,0,1
126636,-90.909090909091,4,1,0,100,0,1
126813,-95.250944414463,4,1,0,100,0,1
126989,-71.4285714285714,4,1,0,100,0,1
127278,-96.382252559727,4,1,0,100,0,1
127366,-95.238095238095,4,1,0,100,0,1
127542,-93.029384635657,4,1,0,100,0,1
127719,-90.909090909091,4,1,0,100,0,1
127807,-89.890501655208,4,1,0,100,0,1
127895,-88.894485016369,4,1,0,100,0,1
127983,-87.909351263853,4,1,0,100,0,1
128072,-86.95652173913,4,1,0,100,0,1
128160,-86.0215053763441,4,1,0,100,0,1
128248,-85.1063829787234,4,1,0,100,0,1
128425,-83.333333333333,4,1,0,100,0,1
128513,-82.476635514019,4,1,0,100,0,1
128601,-81.63737280296,4,1,0,100,0,1
128689,-80.815018315018,4,1,0,100,0,1
128778,-80,4,1,0,100,0,1
128866,-79.2079207920792,4,1,0,100,0,1
128954,-78.4313725490196,4,1,0,100,0,1
129152,-76.9230769230769,4,1,0,100,0,1
129307,-78.428102940359,4,1,0,100,0,1
129395,-79.202918888577,4,1,0,100,0,1
129483,-80.002267959404,4,1,0,100,0,1
129660,-81.631472374892,4,1,0,100,0,1
129748,-82.4742268041237,4,1,0,100,0,1
129836,-83.328411976614,4,1,0,100,0,1
130013,-85.107666324869,4,1,0,100,0,1
130101,-86.020849844541,4,1,0,100,0,1
130189,-86.953842361496,4,1,0,100,0,1
130278,-87.9120879120879,4,1,0,100,0,1
130366,-88.893088893089,4,1,0,100,0,1
130564,-90.9090909090909,4,1,0,100,0,1
130631,-89.879057924889,4,1,0,100,0,1
130719,-88.883293465945,4,1,0,100,0,1
130807,-87.909351263853,4,1,0,100,0,1
130895,-86.95652173913,4,1,0,100,0,1
130984,-85.6531049250535,4,1,0,100,0,1
131072,-85.101253616201,4,1,0,100,0,1
131248,-83.333333333333,4,1,0,100,0,1
131336,-82.476635514019,4,1,0,100,0,1
131425,-81.627933865187,4,1,0,100,0,1
131513,-80.805768570448,4,1,0,100,0,1
131601,-80,4,1,0,100,0,1
131689,-78.8954635108481,4,1,0,100,0,1
131778,-78.427016218618,4,1,0,100,0,1
131954,-76.923076923077,4,1,0,100,0,1
132131,-75.467664350615,4,1,0,100,0,1
132219,-74.764375728053,4,1,0,100,0,1
132307,-74.074074074074,4,1,0,100,0,1
132483,-72.723526988051,4,1,0,100,0,1
132660,-71.428571428571,4,1,0,100,0,1
132925,-96.382252559727,4,1,0,100,0,1
133013,-95.238095238095,4,1,0,100,0,1
133189,-93.029384635657,4,1,0,100,0,1
133366,-90.909090909091,4,1,0,100,0,1
133454,-89.890501655208,4,1,0,100,0,1
133542,-88.894485016369,4,1,0,100,0,1
133631,-87.909351263853,4,1,0,100,0,1
133719,-86.95652173913,4,1,0,100,0,1
133807,-85.6531049250535,4,1,0,100,0,1
133895,-85.111512959614,4,1,0,100,0,1
134072,-83.333333333333,4,1,0,100,0,1
134160,-82.476635514019,4,1,0,100,0,1
134248,-81.63737280296,4,1,0,100,0,1
134336,-80.815018315018,4,1,0,100,0,1
134425,-80,4,1,0,100,0,1
134513,-78.8954635108481,4,1,0,100,0,1
134601,-78.435729363404,4,1,0,100,0,1
134778,-76.923076923077,4,1,0,100,0,1
134954,-78.428102940359,4,1,0,100,0,1
135042,-79.202918888577,4,1,0,100,0,1
135131,-80.002267959404,4,1,0,100,0,1
135307,-81.631472374892,4,1,0,100,0,1
135483,-83.338255271396,4,1,0,100,0,1
135660,-85.107666324869,4,1,0,100,0,1
135748,-86.020849844541,4,1,0,100,0,1
135836,-86.953842361496,4,1,0,100,0,1
136013,-88.893088893089,4,1,0,100,0,1
136189,-90.909090909091,4,1,0,100,0,1
136278,-89.879057924889,4,1,0,100,0,1
136366,-88.883293465945,4,1,0,100,0,1
136454,-87.909351263853,4,1,0,100,0,1
136542,-86.95652173913,4,1,0,100,0,1
136631,-85.6531049250535,4,1,0,100,0,1
136719,-85.101253616201,4,1,0,100,0,1
136873,-71.428571428571,4,1,0,100,0,1
136961,-72.723526988051,4,1,0,100,0,1
137050,-74.066302979438,4,1,0,100,0,1
137138,-75.459598118854,4,1,0,100,0,1
137226,-76.923076923077,4,1,0,100,0,1
137314,-78.427016218618,4,1,0,100,0,1
137403,-79.990935871289,4,1,0,100,0,1
137491,-81.618497109827,4,1,0,100,0,1
137579,-83.333333333333,4,1,0,100,0,1
137667,-85.101253616201,4,1,0,100,0,1
137756,-86.967233308697,4,1,0,100,0,1
137844,-88.894485016369,4,1,0,100,0,1
137932,-90.909090909091,4,1,0,100,0,1
138109,-95.250944414463,4,1,0,100,0,1
138332,-71.4285714285714,4,1,0,100,0,0
138508,-71.4285714285714,4,1,0,75,0,0
139016,-133.333333333333,4,1,0,75,0,0
139722,-136.84289016479,4,1,0,75,0,0
139898,-137.746753734144,4,1,0,75,0,0
140075,-138.667875628093,4,1,0,75,0,0
140427,-140.542196354725,4,1,0,75,0,0
141133,-144.441383652749,4,1,0,75,0,0
141839,-148.569115563651,4,1,0,75,0,0
142545,-152.939705821076,4,1,0,75,0,0
142722,-154.076064142389,4,1,0,75,0,0
142898,-155.222870675801,4,1,0,75,0,0
143251,-157.575237195724,4,1,0,75,0,0
143604,-160,4,1,0,75,0,0
143648,-160.307477288609,4,1,0,75,0,0
143780,-161.237040941838,4,1,0,75,0,0
143825,-161.556406531978,4,1,0,75,0,0
143957,-162.500553415682,4,1,0,75,0,0
144663,-167.743704583886,4,1,0,75,0,0
145369,-173.336481700118,4,1,0,75,0,0
145545,-174.789275679794,4,1,0,75,0,0
145722,-176.275093650946,4,1,0,75,0,0
146075,-179.315061800772,4,1,0,75,0,0
146780,-185.711394454564,4,1,0,75,0,0
147486,-192.591037884353,4,1,0,75,0,0
148016,-100,4,1,0,75,0,0
148192,-200,4,1,0,75,0,0

[HitObjects]
256,192,1058,12,0,2647,0:0:0:0:
256,192,2803,5,4,0:0:0:0:
256,192,4214,1,2,0:0:0:0:
256,192,5626,1,0,0:0:0:0:
256,192,7744,1,0,0:0:0:0:
256,192,8450,1,0,0:0:0:0:
256,192,9861,1,2,0:0:0:0:
256,192,11273,1,0,0:0:0:0:
256,192,13038,1,2,0:0:0:0:
256,192,13126,1,2,0:0:0:0:
256,192,13214,1,2,0:0:0:0:
256,192,13302,1,2,0:0:0:0:
256,192,13391,1,0,0:0:0:0:
256,192,13567,1,0,0:0:0:0:
256,192,13744,1,2,0:0:0:0:
256,192,13920,1,2,0:0:0:0:
256,192,14097,1,0,0:0:0:0:
256,192,14450,1,2,0:0:0:0:
256,192,14626,1,0,0:0:0:0:
256,192,14802,1,2,0:0:0:0:
256,192,14979,1,0,0:0:0:0:
256,192,15067,1,0,0:0:0:0:
256,192,15155,1,2,0:0:0:0:
256,192,15332,1,2,0:0:0:0:
256,192,15685,1,0,0:0:0:0:
256,192,15861,1,2,0:0:0:0:
256,192,15950,1,2,0:0:0:0:
256,192,16038,1,2,0:0:0:0:
256,192,16126,1,2,0:0:0:0:
256,192,16214,1,0,0:0:0:0:
256,192,16391,1,0,0:0:0:0:
256,192,16567,1,2,0:0:0:0:
256,192,16655,1,0,0:0:0:0:
256,192,16744,1,2,0:0:0:0:
256,192,16920,1,0,0:0:0:0:
256,192,17273,1,2,0:0:0:0:
256,192,17450,1,0,0:0:0:0:
256,192,17626,1,2,0:0:0:0:
256,192,17802,1,0,0:0:0:0:
256,192,17891,1,0,0:0:0:0:
256,192,17979,1,2,0:0:0:0:
256,192,18155,1,0,0:0:0:0:
256,192,18508,1,2,0:0:0:0:
256,192,18685,1,0,0:0:0:0:
256,192,18773,1,0,0:0:0:0:
256,192,18861,1,2,0:0:0:0:
256,192,18950,1,2,0:0:0:0:
256,192,19038,1,0,0:0:0:0:
256,192,19214,1,0,0:0:0:0:
256,192,19391,1,2,0:0:0:0:
256,192,19567,1,2,0:0:0:0:
256,192,19744,1,0,0:0:0:0:
256,192,20097,1,2,0:0:0:0:
256,192,20273,1,0,0:0:0:0:
256,192,20450,1,2,0:0:0:0:
256,192,20626,1,0,0:0:0:0:
256,192,20714,1,0,0:0:0:0:
256,192,20802,1,2,0:0:0:0:
256,192,20979,1,2,0:0:0:0:
256,192,21332,1,0,0:0:0:0:
256,192,21508,1,2,0:0:0:0:
256,192,21597,1,2,0:0:0:0:
256,192,21685,1,2,0:0:0:0:
256,192,21773,1,2,0:0:0:0:
256,192,21861,1,0,0:0:0:0:
256,192,22038,1,0,0:0:0:0:
256,192,22214,1,2,0:0:0:0:
256,192,22302,1,0,0:0:0:0:
256,192,22391,1,2,0:0:0:0:
256,192,22567,1,0,0:0:0:0:
256,192,22920,1,2,0:0:0:0:
256,192,23097,1,0,0:0:0:0:
256,192,23273,1,2,0:0:0:0:
256,192,23450,1,0,0:0:0:0:
256,192,23538,1,0,0:0:0:0:
256,192,23626,1,2,0:0:0:0:
256,192,23802,1,0,0:0:0:0:
256,192,23979,1,2,0:0:0:0:
256,192,24155,1,0,0:0:0:0:
256,192,24244,1,2,0:0:0:0:
256,192,24332,1,0,0:0:0:0:
256,192,24420,1,0,0:0:0:0:
256,192,24508,1,2,0:0:0:0:
256,192,24685,1,0,0:0:0:0:
256,192,24773,1,0,0:0:0:0:
256,192,24861,1,2,0:0:0:0:
256,192,24950,1,0,0:0:0:0:
256,192,25038,1,2,0:0:0:0:
256,192,25214,1,0,0:0:0:0:
256,192,25391,1,6,0:0:0:0:
256,192,25567,1,0,0:0:0:0:
256,192,25655,1,0,0:0:0:0:
256,192,25744,1,2,0:0:0:0:
256,192,25920,1,2,0:0:0:0:
256,192,26097,1,0,0:0:0:0:
256,192,26450,1,2,0:0:0:0:
256,192,26626,1,0,0:0:0:0:
256,192,26714,1,0,0:0:0:0:
256,192,26802,1,2,0:0:0:0:
256,192,26979,1,2,0:0:0:0:
256,192,27155,1,0,0:0:0:0:
256,192,27508,1,2,0:0:0:0:
256,192,27685,1,0,0:0:0:0:
256,192,27773,1,2,0:0:0:0:
256,192,27861,1,0,0:0:0:0:
256,192,27950,1,0,0:0:0:0:
256,192,28038,1,2,0:0:0:0:
256,192,28126,1,0,0:0:0:0:
256,192,28214,1,2,0:0:0:0:
256,192,28391,1,0,0:0:0:0:
256,192,28479,1,0,0:0:0:0:
256,192,28567,1,2,0:0:0:0:
256,192,28744,1,2,0:0:0:0:
256,192,28920,1,0,0:0:0:0:
256,192,29273,1,2,0:0:0:0:
256,192,29361,1,2,0:0:0:0:
256,192,29450,1,0,0:0:0:0:
256,192,29538,1,0,0:0:0:0:
256,192,29626,1,2,0:0:0:0:
256,192,29802,1,2,0:0:0:0:
256,192,29979,1,0,0:0:0:0:
256,192,30332,1,2,0:0:0:0:
256,192,30420,1,0,0:0:0:0:
256,192,30508,1,2,0:0:0:0:
256,192,30597,1,2,0:0:0:0:
256,192,30685,1,0,0:0:0:0:
256,192,30861,1,0,0:0:0:0:
256,192,31038,1,6,0:0:0:0:
256,192,31214,1,0,0:0:0:0:
256,192,31302,1,0,0:0:0:0:
256,192,31391,1,2,0:0:0:0:
256,192,31567,1,0,0:0:0:0:
256,192,31744,1,2,0:0:0:0:
256,192,32097,1,2,0:0:0:0:
256,192,32273,1,0,0:0:0:0:
256,192,32361,1,0,0:0:0:0:
256,192,32450,1,2,0:0:0:0:
256,192,32626,1,0,0:0:0:0:
256,192,32802,1,2,0:0:0:0:
256,192,33155,1,0,0:0:0:0:
256,192,33332,1,2,0:0:0:0:
256,192,33420,1,0,0:0:0:0:
256,192,33508,1,2,0:0:0:0:
256,192,33597,1,2,0:0:0:0:
256,192,33685,1,0,0:0:0:0:
256,192,33773,1,0,0:0:0:0:
256,192,33861,1,2,0:0:0:0:
256,192,34038,1,0,0:0:0:0:
256,192,34126,1,0,0:0:0:0:
256,192,34214,1,2,0:0:0:0:
256,192,34391,1,0,0:0:0:0:
256,192,34567,1,2,0:0:0:0:
256,192,34920,1,2,0:0:0:0:
256,192,35008,1,2,0:0:0:0:
256,192,35097,1,0,0:0:0:0:
256,192,35185,1,0,0:0:0:0:
256,192,35273,1,2,0:0:0:0:
256,192,35450,1,0,0:0:0:0:
256,192,35538,1,2,0:0:0:0:
256,192,35626,1,0,0:0:0:0:
256,192,35714,1,0,0:0:0:0:
256,192,35802,1,2,0:0:0:0:
256,192,35979,1,0,0:0:0:0:
256,192,36067,1,0,0:0:0:0:
256,192,36155,1,2,0:0:0:0:
256,192,36244,1,0,0:0:0:0:
256,192,36332,1,2,0:0:0:0:
256,192,36508,1,2,0:0:0:0:
256,192,36685,1,4,0:0:0:0:
256,192,36950,1,2,0:0:0:0:
256,192,37038,1,0,0:0:0:0:
256,192,37214,1,2,0:0:0:0:
256,192,37391,1,0,0:0:0:0:
256,192,37479,1,2,0:0:0:0:
256,192,37655,1,2,0:0:0:0:
256,192,37744,1,0,0:0:0:0:
256,192,37920,1,2,0:0:0:0:
256,192,38008,1,2,0:0:0:0:
256,192,38097,1,0,0:0:0:0:
256,192,38273,1,0,0:0:0:0:
256,192,38450,1,2,0:0:0:0:
256,192,38538,1,2,0:0:0:0:
256,192,38626,1,0,0:0:0:0:
256,192,38802,1,2,0:0:0:0:
256,192,38979,1,0,0:0:0:0:
256,192,39067,1,0,0:0:0:0:
256,192,39155,1,2,0:0:0:0:
256,192,39244,1,0,0:0:0:0:
256,192,39332,1,2,0:0:0:0:
256,192,39420,1,2,0:0:0:0:
256,192,39508,1,0,0:0:0:0:
256,192,39773,1,2,0:0:0:0:
256,192,39861,1,0,0:0:0:0:
256,192,40038,1,2,0:0:0:0:
256,192,40214,1,0,0:0:0:0:
256,192,40302,1,2,0:0:0:0:
256,192,40479,1,2,0:0:0:0:
256,192,40567,1,0,0:0:0:0:
256,192,40744,1,2,0:0:0:0:
256,192,40832,1,2,0:0:0:0:
256,192,40920,1,0,0:0:0:0:
256,192,41097,1,0,0:0:0:0:
256,192,41185,1,0,0:0:0:0:
256,192,41273,1,2,0:0:0:0:
256,192,41450,1,0,0:0:0:0:
256,192,41626,1,2,0:0:0:0:
256,192,41714,1,0,0:0:0:0:
256,192,41802,1,2,0:0:0:0:
256,192,41891,1,2,0:0:0:0:
256,192,41979,1,0,0:0:0:0:
256,192,42067,1,0,0:0:0:0:
256,192,42155,1,2,0:0:0:0:
256,192,42332,1,4,0:0:0:0:
256,192,42508,1,2,0:0:0:0:
256,192,42597,1,2,0:0:0:0:
256,192,42685,1,0,0:0:0:0:
256,192,42773,1,2,0:0:0:0:
256,192,42950,1,0,0:0:0:0:
256,192,43038,1,2,0:0:0:0:
256,192,43214,1,0,0:0:0:0:
256,192,43302,1,0,0:0:0:0:
256,192,43391,1,2,0:0:0:0:
256,192,43479,1,2,0:0:0:0:
256,192,43655,1,2,0:0:0:0:
256,192,43744,1,0,0:0:0:0:
256,192,43920,1,2,0:0:0:0:
256,192,44008,1,0,0:0:0:0:
256,192,44097,1,0,0:0:0:0:
256,192,44185,1,2,0:0:0:0:
256,192,44361,1,0,0:0:0:0:
256,192,44450,1,2,0:0:0:0:
256,192,44626,1,2,0:0:0:0:
256,192,44714,1,0,0:0:0:0:
256,192,44802,1,2,0:0:0:0:
256,192,44891,1,2,0:0:0:0:
256,192,44979,1,2,0:0:0:0:
256,192,45067,1,2,0:0:0:0:
256,192,45155,1,0,0:0:0:0:
256,192,45332,1,0,0:0:0:0:
256,192,45420,1,0,0:0:0:0:
256,192,45508,1,2,0:0:0:0:
256,192,45597,1,0,0:0:0:0:
256,192,45685,1,2,0:0:0:0:
256,192,45861,1,0,0:0:0:0:
256,192,45950,1,2,0:0:0:0:
256,192,46038,1,0,0:0:0:0:
256,192,46126,1,0,0:0:0:0:
256,192,46214,1,2,0:0:0:0:
256,192,46302,1,2,0:0:0:0:
256,192,46391,1,0,0:0:0:0:
256,192,46567,1,0,0:0:0:0:
256,192,46744,1,2,0:0:0:0:
256,192,46832,1,0,0:0:0:0:
256,192,46920,1,2,0:0:0:0:
256,192,47008,1,0,0:0:0:0:
256,192,47097,1,0,0:0:0:0:
256,192,47185,1,2,0:0:0:0:
256,192,47273,1,0,0:0:0:0:
256,192,47450,1,0,0:0:0:0:
256,192,47626,1,2,0:0:0:0:
256,192,47714,1,2,0:0:0:0:
256,192,47802,1,0,0:0:0:0:
256,192,47891,1,2,0:0:0:0:
256,192,47979,1,4,0:0:0:0:
256,192,48332,1,0,0:0:0:0:
256,192,48508,1,2,0:0:0:0:
256,192,48685,1,0,0:0:0:0:
256,192,48773,1,2,0:0:0:0:
256,192,48861,1,2,0:0:0:0:
256,192,48950,1,0,0:0:0:0:
256,192,49038,1,2,0:0:0:0:
256,192,49214,1,0,0:0:0:0:
256,192,49391,1,2,0:0:0:0:
256,192,49479,1,0,0:0:0:0:
256,192,49567,1,0,0:0:0:0:
256,192,49655,1,2,0:0:0:0:
256,192,49744,1,0,0:0:0:0:
256,192,49920,1,2,0:0:0:0:
256,192,50097,1,0,0:0:0:0:
256,192,50273,1,2,0:0:0:0:
256,192,50361,1,2,0:0:0:0:
256,192,50450,1,0,0:0:0:0:
256,192,50626,1,2,0:0:0:0:
256,192,50802,1,0,0:0:0:0:
256,192,50979,1,2,0:0:0:0:
256,192,51067,1,0,0:0:0:0:
256,192,51155,1,2,0:0:0:0:
256,192,51332,1,2,0:0:0:0:
256,192,51508,1,0,0:0:0:0:
256,192,51597,1,0,0:0:0:0:
256,192,51685,1,2,0:0:0:0:
256,192,51773,1,0,0:0:0:0:
256,192,51861,1,2,0:0:0:0:
256,192,52038,1,0,0:0:0:0:
256,192,52214,1,2,0:0:0:0:
256,192,52302,1,2,0:0:0:0:
256,192,52391,1,0,0:0:0:0:
256,192,52479,1,2,0:0:0:0:
256,192,52567,1,0,0:0:0:0:
256,192,52744,1,2,0:0:0:0:
256,192,52920,1,0,0:0:0:0:
256,192,53097,1,0,0:0:0:0:
256,192,53185,1,0,0:0:0:0:
256,192,53273,1,2,0:0:0:0:
256,192,53450,1,2,0:0:0:0:
256,192,53626,1,4,0:0:0:0:
256,192,53979,1,0,0:0:0:0:
256,192,54155,1,2,0:0:0:0:
256,192,54332,1,0,0:0:0:0:
256,192,54420,1,2,0:0:0:0:
256,192,54508,1,2,0:0:0:0:
256,192,54597,1,0,0:0:0:0:
256,192,54685,1,2,0:0:0:0:
256,192,54861,1,0,0:0:0:0:
256,192,55038,1,2,0:0:0:0:
256,192,55126,1,0,0:0:0:0:
256,192,55214,1,0,0:0:0:0:
256,192,55302,1,2,0:0:0:0:
256,192,55391,1,0,0:0:0:0:
256,192,55567,1,2,0:0:0:0:
256,192,55744,1,0,0:0:0:0:
256,192,55920,1,2,0:0:0:0:
256,192,56008,1,2,0:0:0:0:
256,192,56097,1,0,0:0:0:0:
256,192,56273,1,2,0:0:0:0:
256,192,56450,1,0,0:0:0:0:
256,192,56626,1,2,0:0:0:0:
256,192,56714,1,0,0:0:0:0:
256,192,56802,1,2,0:0:0:0:
256,192,56979,1,2,0:0:0:0:
256,192,57155,1,0,0:0:0:0:
256,192,57244,1,0,0:0:0:0:
256,192,57332,1,2,0:0:0:0:
256,192,57420,1,0,0:0:0:0:
256,192,57508,1,2,0:0:0:0:
256,192,57685,1,0,0:0:0:0:
256,192,57861,1,2,0:0:0:0:
256,192,57950,1,0,0:0:0:0:
256,192,58038,1,0,0:0:0:0:
256,192,58126,1,2,0:0:0:0:
256,192,58214,1,0,0:0:0:0:
256,192,58391,1,2,0:0:0:0:
256,192,58479,1,2,0:0:0:0:
256,192,58567,1,0,0:0:0:0:
256,192,58655,1,2,0:0:0:0:
256,192,58744,1,0,0:0:0:0:
256,192,58832,1,0,0:0:0:0:
256,192,58920,1,2,0:0:0:0:
256,192,59097,1,2,0:0:0:0:
256,192,59273,1,4,0:0:0:0:
256,192,59626,1,0,0:0:0:0:
256,192,59802,1,2,0:0:0:0:
256,192,59979,1,0,0:0:0:0:
256,192,60067,1,2,0:0:0:0:
256,192,60155,1,2,0:0:0:0:
256,192,60244,1,0,0:0:0:0:
256,192,60332,1,2,0:0:0:0:
256,192,60420,1,2,0:0:0:0:
256,192,60508,1,0,0:0:0:0:
256,192,60685,1,2,0:0:0:0:
256,192,60773,1,0,0:0:0:0:
256,192,60861,1,0,0:0:0:0:
256,192,60950,1,2,0:0:0:0:
256,192,61038,1,0,0:0:0:0:
256,192,61126,1,0,0:0:0:0:
256,192,61214,1,2,0:0:0:0:
256,192,61391,1,0,0:0:0:0:
256,192,61567,1,2,0:0:0:0:
256,192,61655,1,2,0:0:0:0:
256,192,61744,1,0,0:0:0:0:
256,192,61920,1,0,0:0:0:0:
256,192,62008,1,2,0:0:0:0:
256,192,62097,1,0,0:0:0:0:
256,192,62273,1,2,0:0:0:0:
256,192,62450,1,0,0:0:0:0:
256,192,62538,1,0,0:0:0:0:
256,192,62626,1,2,0:0:0:0:
256,192,62802,1,0,0:0:0:0:
256,192,62891,1,0,0:0:0:0:
256,192,62979,1,2,0:0:0:0:
256,192,63067,1,0,0:0:0:0:
256,192,63155,1,2,0:0:0:0:
256,192,63244,1,2,0:0:0:0:
256,192,63332,1,0,0:0:0:0:
256,192,63508,1,2,0:0:0:0:
256,192,63597,1,2,0:0:0:0:
256,192,63685,1,0,0:0:0:0:
256,192,63773,1,2,0:0:0:0:
256,192,63861,1,0,0:0:0:0:
256,192,63950,1,0,0:0:0:0:
256,192,64038,1,2,0:0:0:0:
256,192,64214,1,0,0:0:0:0:
256,192,64391,1,0,0:0:0:0:
256,192,64479,1,0,0:0:0:0:
256,192,64567,1,2,0:0:0:0:
256,192,64744,1,2,0:0:0:0:
256,192,64920,1,4,0:0:0:0:
256,192,65273,1,0,0:0:0:0:
256,192,65450,1,2,0:0:0:0:
256,192,65626,1,0,0:0:0:0:
256,192,65714,1,2,0:0:0:0:
256,192,65802,1,2,0:0:0:0:
256,192,65891,1,0,0:0:0:0:
256,192,65979,1,2,0:0:0:0:
256,192,66067,1,2,0:0:0:0:
256,192,66155,1,0,0:0:0:0:
256,192,66332,1,2,0:0:0:0:
256,192,66420,1,0,0:0:0:0:
256,192,66508,1,0,0:0:0:0:
256,192,66597,1,2,0:0:0:0:
256,192,66685,1,0,0:0:0:0:
256,192,66773,1,0,0:0:0:0:
256,192,66861,1,2,0:0:0:0:
256,192,67038,1,0,0:0:0:0:
256,192,67214,1,2,0:0:0:0:
256,192,67302,1,2,0:0:0:0:
256,192,67391,1,0,0:0:0:0:
256,192,67567,1,2,0:0:0:0:
256,192,67744,1,0,0:0:0:0:
256,192,67920,1,2,0:0:0:0:
256,192,68008,1,0,0:0:0:0:
256,192,68097,1,2,0:0:0:0:
256,192,68273,1,2,0:0:0:0:
256,192,68450,1,0,0:0:0:0:
256,192,68538,1,0,0:0:0:0:
256,192,68626,1,2,0:0:0:0:
256,192,68714,1,0,0:0:0:0:
256,192,68802,1,2,0:0:0:0:
256,192,68891,1,2,0:0:0:0:
256,192,68979,1,0,0:0:0:0:
256,192,69155,1,2,0:0:0:0:
256,192,69244,1,0,0:0:0:0:
256,192,69332,1,0,0:0:0:0:
256,192,69420,1,2,0:0:0:0:
256,192,69508,1,0,0:0:0:0:
256,192,69685,1,2,0:0:0:0:
256,192,69773,1,2,0:0:0:0:
256,192,69861,1,0,0:0:0:0:
256,192,69950,1,0,0:0:0:0:
256,192,70038,1,2,0:0:0:0:
256,192,70126,1,0,0:0:0:0:
256,192,70214,1,2,0:0:0:0:
256,192,70391,1,2,0:0:0:0:
256,192,70567,1,0,0:0:0:0:
256,192,70920,1,2,0:0:0:0:
256,192,71273,1,2,0:0:0:0:
256,192,71626,1,2,0:0:0:0:
256,192,71979,1,2,0:0:0:0:
256,192,72332,1,2,0:0:0:0:
256,192,72685,1,2,0:0:0:0:
256,192,73038,1,2,0:0:0:0:
256,192,73391,1,2,0:0:0:0:
256,192,73744,1,2,0:0:0:0:
256,192,74097,1,2,0:0:0:0:
256,192,74450,1,2,0:0:0:0:
256,192,74802,1,2,0:0:0:0:
256,192,75155,1,2,0:0:0:0:
256,192,75508,1,2,0:0:0:0:
256,192,75861,1,2,0:0:0:0:
256,192,76214,1,2,0:0:0:0:
256,192,76567,1,2,0:0:0:0:
256,192,76920,1,2,0:0:0:0:
256,192,77273,1,2,0:0:0:0:
256,192,77626,1,2,0:0:0:0:
256,192,77979,1,2,0:0:0:0:
256,192,78332,1,2,0:0:0:0:
256,192,78685,1,2,0:0:0:0:
256,192,79038,1,2,0:0:0:0:
256,192,79391,1,2,0:0:0:0:
256,192,79744,1,2,0:0:0:0:
256,192,80097,1,2,0:0:0:0:
256,192,80450,1,2,0:0:0:0:
256,192,80802,1,2,0:0:0:0:
256,192,81155,1,2,0:0:0:0:
256,192,81508,1,2,0:0:0:0:
256,192,81861,1,0,0:0:0:0:
256,192,82038,1,2,0:0:0:0:
256,192,82214,1,0,0:0:0:0:
256,192,82391,1,0,0:0:0:0:
256,192,82744,1,2,0:0:0:0:
256,192,82920,1,0,0:0:0:0:
256,192,83097,1,2,0:0:0:0:
256,192,83450,1,0,0:0:0:0:
256,192,83626,1,0,0:0:0:0:
256,192,83714,1,0,0:0:0:0:
256,192,83802,1,0,0:0:0:0:
256,192,83979,1,2,0:0:0:0:
256,192,84155,1,0,0:0:0:0:
256,192,84332,1,2,0:0:0:0:
256,192,84508,1,2,0:0:0:0:
256,192,84685,1,0,0:0:0:0:
256,192,84861,1,2,0:0:0:0:
256,192,85038,1,0,0:0:0:0:
256,192,85214,1,0,0:0:0:0:
256,192,85567,1,2,0:0:0:0:
256,192,85744,1,0,0:0:0:0:
256,192,85920,1,2,0:0:0:0:
256,192,86273,1,0,0:0:0:0:
256,192,86450,1,2,0:0:0:0:
256,192,86538,1,2,0:0:0:0:
256,192,86626,1,2,0:0:0:0:
256,192,86802,1,0,0:0:0:0:
256,192,86979,1,0,0:0:0:0:
256,192,87332,1,2,0:0:0:0:
256,192,87508,1,0,0:0:0:0:
256,192,87685,1,2,0:0:0:0:
256,192,87861,1,0,0:0:0:0:
256,192,88038,1,0,0:0:0:0:
256,192,88391,1,2,0:0:0:0:
256,192,88567,1,0,0:0:0:0:
256,192,88744,1,2,0:0:0:0:
256,192,89097,1,0,0:0:0:0:
256,192,89273,1,0,0:0:0:0:
256,192,89361,1,0,0:0:0:0:
256,192,89450,1,0,0:0:0:0:
256,192,89626,1,2,0:0:0:0:
256,192,89802,1,0,0:0:0:0:
256,192,89979,1,2,0:0:0:0:
256,192,90155,1,2,0:0:0:0:
256,192,90332,1,0,0:0:0:0:
256,192,90508,1,2,0:0:0:0:
256,192,90685,1,0,0:0:0:0:
256,192,90861,1,0,0:0:0:0:
256,192,91214,1,2,0:0:0:0:
256,192,91391,1,2,0:0:0:0:
256,192,91567,1,0,0:0:0:0:
256,192,91744,1,2,0:0:0:0:
256,192,91920,1,0,0:0:0:0:
256,192,92008,1,2,0:0:0:0:
256,192,92097,1,0,0:0:0:0:
256,192,92185,1,0,0:0:0:0:
256,192,92273,1,2,0:0:0:0:
256,192,92450,1,0,0:0:0:0:
256,192,92538,1,0,0:0:0:0:
256,192,92626,1,2,0:0:0:0:
256,192,92714,1,0,0:0:0:0:
256,192,92802,1,2,0:0:0:0:
256,192,92979,1,0,0:0:0:0:
256,192,93155,1,6,0:0:0:0:
256,192,93332,1,0,0:0:0:0:
256,192,93420,1,0,0:0:0:0:
256,192,93508,1,2,0:0:0:0:
256,192,93685,1,2,0:0:0:0:
256,192,93861,1,0,0:0:0:0:
256,192,94214,1,2,0:0:0:0:
256,192,94391,1,0,0:0:0:0:
256,192,94479,1,0,0:0:0:0:
256,192,94567,1,2,0:0:0:0:
256,192,94744,1,2,0:0:0:0:
256,192,94920,1,0,0:0:0:0:
256,192,95273,1,2,0:0:0:0:
256,192,95450,1,0,0:0:0:0:
256,192,95538,1,2,0:0:0:0:
256,192,95626,1,0,0:0:0:0:
256,192,95714,1,0,0:0:0:0:
256,192,95802,1,2,0:0:0:0:
256,192,95891,1,0,0:0:0:0:
256,192,95979,1,2,0:0:0:0:
256,192,96155,1,0,0:0:0:0:
256,192,96244,1,0,0:0:0:0:
256,192,96332,1,2,0:0:0:0:
256,192,96508,1,2,0:0:0:0:
256,192,96685,1,0,0:0:0:0:
256,192,97038,1,2,0:0:0:0:
256,192,97126,1,2,0:0:0:0:
256,192,97214,1,0,0:0:0:0:
256,192,97302,1,0,0:0:0:0:
256,192,97391,1,2,0:0:0:0:
256,192,97567,1,2,0:0:0:0:
256,192,97744,1,0,0:0:0:0:
256,192,98097,1,2,0:0:0:0:
256,192,98185,1,0,0:0:0:0:
256,192,98273,1,2,0:0:0:0:
256,192,98361,1,2,0:0:0:0:
256,192,98450,1,0,0:0:0:0:
256,192,98626,1,0,0:0:0:0:
256,192,98802,1,6,0:0:0:0:
256,192,98979,1,0,0:0:0:0:
256,192,99067,1,0,0:0:0:0:
256,192,99155,1,2,0:0:0:0:
256,192,99332,1,0,0:0:0:0:
256,192,99508,1,2,0:0:0:0:
256,192,99861,1,2,0:0:0:0:
256,192,100038,1,0,0:0:0:0:
256,192,100126,1,0,0:0:0:0:
256,192,100214,1,2,0:0:0:0:
256,192,100391,1,0,0:0:0:0:
256,192,100567,1,2,0:0:0:0:
256,192,100920,1,0,0:0:0:0:
256,192,101097,1,2,0:0:0:0:
256,192,101185,1,0,0:0:0:0:
256,192,101273,1,2,0:0:0:0:
256,192,101361,1,2,0:0:0:0:
256,192,101450,1,0,0:0:0:0:
256,192,101538,1,0,0:0:0:0:
256,192,101626,1,2,0:0:0:0:
256,192,101802,1,0,0:0:0:0:
256,192,101891,1,0,0:0:0:0:
256,192,101979,1,2,0:0:0:0:
256,192,102155,1,0,0:0:0:0:
256,192,102332,1,2,0:0:0:0:
256,192,102685,1,2,0:0:0:0:
256,192,102773,1,2,0:0:0:0:
256,192,102861,1,0,0:0:0:0:
256,192,102950,1,0,0:0:0:0:
256,192,103038,1,2,0:0:0:0:
256,192,103214,1,0,0:0:0:0:
256,192,103302,1,2,0:0:0:0:
256,192,103391,1,0,0:0:0:0:
256,192,103479,1,0,0:0:0:0:
256,192,103567,1,2,0:0:0:0:
256,192,103744,1,0,0:0:0:0:
256,192,103832,1,0,0:0:0:0:
256,192,103920,1,2,0:0:0:0:
256,192,104008,1,0,0:0:0:0:
256,192,104097,1,2,0:0:0:0:
256,192,104273,1,2,0:0:0:0:
256,192,104450,1,4,0:0:0:0:
256,192,104714,1,2,0:0:0:0:
256,192,104802,1,0,0:0:0:0:
256,192,104979,1,2,0:0:0:0:
256,192,105155,1,0,0:0:0:0:
256,192,105244,1,2,0:0:0:0:
256,192,105420,1,2,0:0:0:0:
256,192,105508,1,0,0:0:0:0:
256,192,105685,1,2,0:0:0:0:
256,192,105773,1,2,0:0:0:0:
256,192,105861,1,0,0:0:0:0:
256,192,106038,1,0,0:0:0:0:
256,192,106214,1,2,0:0:0:0:
256,192,106302,1,2,0:0:0:0:
256,192,106391,1,0,0:0:0:0:
256,192,106567,1,2,0:0:0:0:
256,192,106744,1,0,0:0:0:0:
256,192,106832,1,0,0:0:0:0:
256,192,106920,1,2,0:0:0:0:
256,192,107008,1,0,0:0:0:0:
256,192,107097,1,2,0:0:0:0:
256,192,107185,1,2,0:0:0:0:
256,192,107273,1,0,0:0:0:0:
256,192,107538,1,2,0:0:0:0:
256,192,107626,1,0,0:0:0:0:
256,192,107802,1,2,0:0:0:0:
256,192,107979,1,0,0:0:0:0:
256,192,108067,1,2,0:0:0:0:
256,192,108244,1,2,0:0:0:0:
256,192,108332,1,0,0:0:0:0:
256,192,108508,1,2,0:0:0:0:
256,192,108597,1,2,0:0:0:0:
256,192,108685,1,0,0:0:0:0:
256,192,108861,1,0,0:0:0:0:
256,192,108950,1,0,0:0:0:0:
256,192,109038,1,2,0:0:0:0:
256,192,109214,1,0,0:0:0:0:
256,192,109391,1,2,0:0:0:0:
256,192,109479,1,0,0:0:0:0:
256,192,109567,1,2,0:0:0:0:
256,192,109655,1,2,0:0:0:0:
256,192,109744,1,0,0:0:0:0:
256,192,109832,1,0,0:0:0:0:
256,192,109920,1,2,0:0:0:0:
256,192,110097,1,4,0:0:0:0:
256,192,110273,1,2,0:0:0:0:
256,192,110361,1,2,0:0:0:0:
256,192,110450,1,0,0:0:0:0:
256,192,110538,1,2,0:0:0:0:
256,192,110714,1,0,0:0:0:0:
256,192,110802,1,2,0:0:0:0:
256,192,110979,1,0,0:0:0:0:
256,192,111067,1,0,0:0:0:0:
256,192,111155,1,2,0:0:0:0:
256,192,111244,1,2,0:0:0:0:
256,192,111420,1,2,0:0:0:0:
256,192,111508,1,0,0:0:0:0:
256,192,111685,1,2,0:0:0:0:
256,192,111773,1,0,0:0:0:0:
256,192,111861,1,0,0:0:0:0:
256,192,111950,1,2,0:0:0:0:
256,192,112126,1,0,0:0:0:0:
256,192,112214,1,2,0:0:0:0:
256,192,112391,1,2,0:0:0:0:
256,192,112479,1,0,0:0:0:0:
256,192,112567,1,2,0:0:0:0:
256,192,112655,1,2,0:0:0:0:
256,192,112744,1,2,0:0:0:0:
256,192,112832,1,2,0:0:0:0:
256,192,112920,1,0,0:0:0:0:
256,192,113097,1,0,0:0:0:0:
256,192,113185,1,0,0:0:0:0:
256,192,113273,1,2,0:0:0:0:
256,192,113361,1,0,0:0:0:0:
256,192,113450,1,2,0:0:0:0:
256,192,113626,1,0,0:0:0:0:
256,192,113714,1,2,0:0:0:0:
256,192,113802,1,0,0:0:0:0:
256,192,113891,1,0,0:0:0:0:
256,192,113979,1,2,0:0:0:0:
256,192,114067,1,2,0:0:0:0:
256,192,114155,1,0,0:0:0:0:
256,192,114332,1,0,0:0:0:0:
256,192,114508,1,2,0:0:0:0:
256,192,114597,1,0,0:0:0:0:
256,192,114685,1,2,0:0:0:0:
256,192,114773,1,0,0:0:0:0:
256,192,114861,1,0,0:0:0:0:
256,192,114950,1,2,0:0:0:0:
256,192,115038,1,0,0:0:0:0:
256,192,115214,1,0,0:0:0:0:
256,192,115391,1,2,0:0:0:0:
256,192,115479,1,2,0:0:0:0:
256,192,115567,1,0,0:0:0:0:
256,192,115655,1,2,0:0:0:0:
256,192,115744,1,0,0:0:0:0:
256,192,116450,1,2,0:0:0:0:
256,192,116538,1,2,0:0:0:0:
256,192,116626,1,2,0:0:0:0:
256,192,116714,1,2,0:0:0:0:
256,192,116802,1,2,0:0:0:0:
256,192,116891,1,2,0:0:0:0:
256,192,116979,1,2,0:0:0:0:
256,192,117155,1,4,0:0:0:0:
256,192,117332,1,0,0:0:0:0:
256,192,117420,1,2,0:0:0:0:
256,192,117508,1,0,0:0:0:0:
256,192,117685,1,2,0:0:0:0:
256,192,117861,1,0,0:0:0:0:
256,192,118038,1,2,0:0:0:0:
256,192,118126,1,2,0:0:0:0:
256,192,118214,1,0,0:0:0:0:
256,192,118391,1,2,0:0:0:0:
256,192,118567,1,0,0:0:0:0:
256,192,118744,1,2,0:0:0:0:
256,192,118832,1,0,0:0:0:0:
256,192,118920,1,2,0:0:0:0:
256,192,119097,1,2,0:0:0:0:
256,192,119273,1,0,0:0:0:0:
256,192,119361,1,0,0:0:0:0:
256,192,119450,1,2,0:0:0:0:
256,192,119538,1,0,0:0:0:0:
256,192,119626,1,2,0:0:0:0:
256,192,119802,1,0,0:0:0:0:
256,192,119979,1,2,0:0:0:0:
256,192,120067,1,2,0:0:0:0:
256,192,120155,1,0,0:0:0:0:
256,192,120244,1,2,0:0:0:0:
256,192,120332,1,0,0:0:0:0:
256,192,120508,1,2,0:0:0:0:
256,192,120685,1,0,0:0:0:0:
256,192,120861,1,0,0:0:0:0:
256,192,120950,1,0,0:0:0:0:
256,192,121038,1,2,0:0:0:0:
256,192,121214,1,2,0:0:0:0:
256,192,121391,1,4,0:0:0:0:
256,192,121744,1,0,0:0:0:0:
256,192,121920,1,2,0:0:0:0:
256,192,122097,1,0,0:0:0:0:
256,192,122185,1,2,0:0:0:0:
256,192,122273,1,2,0:0:0:0:
256,192,122361,1,0,0:0:0:0:
256,192,122450,1,2,0:0:0:0:
256,192,122626,1,0,0:0:0:0:
256,192,122802,1,2,0:0:0:0:
256,192,122891,1,0,0:0:0:0:
256,192,122979,1,0,0:0:0:0:
256,192,123067,1,2,0:0:0:0:
256,192,123155,1,0,0:0:0:0:
256,192,123332,1,2,0:0:0:0:
256,192,123508,1,0,0:0:0:0:
256,192,123685,1,2,0:0:0:0:
256,192,123773,1,2,0:0:0:0:
256,192,123861,1,0,0:0:0:0:
256,192,124038,1,2,0:0:0:0:
256,192,124214,1,0,0:0:0:0:
256,192,124391,1,2,0:0:0:0:
256,192,124479,1,0,0:0:0:0:
256,192,124567,1,2,0:0:0:0:
256,192,124744,1,2,0:0:0:0:
256,192,124920,1,0,0:0:0:0:
256,192,125008,1,0,0:0:0:0:
256,192,125097,1,2,0:0:0:0:
256,192,125185,1,0,0:0:0:0:
256,192,125273,1,2,0:0:0:0:
256,192,125450,1,0,0:0:0:0:
256,192,125626,1,2,0:0:0:0:
256,192,125714,1,0,0:0:0:0:
256,192,125802,1,0,0:0:0:0:
256,192,125891,1,2,0:0:0:0:
256,192,125979,1,0,0:0:0:0:
256,192,126155,1,2,0:0:0:0:
256,192,126244,1,2,0:0:0:0:
256,192,126332,1,0,0:0:0:0:
256,192,126420,1,2,0:0:0:0:
256,192,126508,1,0,0:0:0:0:
256,192,126597,1,0,0:0:0:0:
256,192,126685,1,2,0:0:0:0:
256,192,126861,1,2,0:0:0:0:
256,192,127038,1,4,0:0:0:0:
256,192,127391,1,0,0:0:0:0:
256,192,127567,1,2,0:0:0:0:
256,192,127744,1,0,0:0:0:0:
256,192,127832,1,2,0:0:0:0:
256,192,127920,1,2,0:0:0:0:
256,192,128008,1,0,0:0:0:0:
256,192,128097,1,2,0:0:0:0:
256,192,128185,1,2,0:0:0:0:
256,192,128273,1,0,0:0:0:0:
256,192,128450,1,2,0:0:0:0:
256,192,128538,1,0,0:0:0:0:
256,192,128626,1,0,0:0:0:0:
256,192,128714,1,2,0:0:0:0:
256,192,128802,1,0,0:0:0:0:
256,192,128891,1,0,0:0:0:0:
256,192,128979,1,2,0:0:0:0:
256,192,129155,1,0,0:0:0:0:
256,192,129332,1,2,0:0:0:0:
256,192,129420,1,2,0:0:0:0:
256,192,129508,1,0,0:0:0:0:
256,192,129685,1,0,0:0:0:0:
256,192,129773,1,2,0:0:0:0:
256,192,129861,1,0,0:0:0:0:
256,192,130038,1,2,0:0:0:0:
256,192,130214,1,0,0:0:0:0:
256,192,130302,1,0,0:0:0:0:
256,192,130391,1,2,0:0:0:0:
256,192,130567,1,0,0:0:0:0:
256,192,130655,1,0,0:0:0:0:
256,192,130744,1,2,0:0:0:0:
256,192,130832,1,0,0:0:0:0:
256,192,130920,1,2,0:0:0:0:
256,192,131008,1,2,0:0:0:0:
256,192,131097,1,0,0:0:0:0:
256,192,131273,1,2,0:0:0:0:
256,192,131361,1,2,0:0:0:0:
256,192,131450,1,0,0:0:0:0:
256,192,131538,1,2,0:0:0:0:
256,192,131626,1,0,0:0:0:0:
256,192,131714,1,0,0:0:0:0:
256,192,131802,1,2,0:0:0:0:
256,192,131979,1,0,0:0:0:0:
256,192,132155,1,0,0:0:0:0:
256,192,132244,1,0,0:0:0:0:
256,192,132332,1,2,0:0:0:0:
256,192,132508,1,2,0:0:0:0:
256,192,132685,1,4,0:0:0:0:
256,192,133038,1,0,0:0:0:0:
256,192,133214,1,2,0:0:0:0:
256,192,133391,1,0,0:0:0:0:
256,192,133479,1,2,0:0:0:0:
256,192,133567,1,2,0:0:0:0:
256,192,133655,1,0,0:0:0:0:
256,192,133744,1,2,0:0:0:0:
256,192,133832,1,2,0:0:0:0:
256,192,133920,1,0,0:0:0:0:
256,192,134097,1,2,0:0:0:0:
256,192,134185,1,0,0:0:0:0:
256,192,134273,1,0,0:0:0:0:
256,192,134361,1,2,0:0:0:0:
256,192,134450,1,0,0:0:0:0:
256,192,134538,1,0,0:0:0:0:
256,192,134626,1,2,0:0:0:0:
256,192,134802,1,0,0:0:0:0:
256,192,134979,1,2,0:0:0:0:
256,192,135067,1,2,0:0:0:0:
256,192,135155,1,0,0:0:0:0:
256,192,135332,1,2,0:0:0:0:
256,192,135508,1,0,0:0:0:0:
256,192,135685,1,2,0:0:0:0:
256,192,135773,1,0,0:0:0:0:
256,192,135861,1,2,0:0:0:0:
256,192,136038,1,2,0:0:0:0:
256,192,136214,1,0,0:0:0:0:
256,192,136302,1,0,0:0:0:0:
256,192,136391,1,2,0:0:0:0:
256,192,136479,1,0,0:0:0:0:
256,192,136567,1,2,0:0:0:0:
256,192,136655,1,2,0:0:0:0:
256,192,136744,1,0,0:0:0:0:
256,192,136920,1,2,0:0:0:0:
256,192,137008,1,0,0:0:0:0:
256,192,137097,1,0,0:0:0:0:
256,192,137185,1,2,0:0:0:0:
256,192,137273,1,0,0:0:0:0:
256,192,137450,1,2,0:0:0:0:
256,192,137538,1,2,0:0:0:0:
256,192,137626,1,0,0:0:0:0:
256,192,137714,1,0,0:0:0:0:
256,192,137802,1,2,0:0:0:0:
256,192,137891,1,0,0:0:0:0:
256,192,137979,1,2,0:0:0:0:
256,192,138155,1,2,0:0:0:0:
256,192,138332,1,4,0:0:0:0:
256,192,139038,1,2,0:0:0:0:
256,192,139920,1,2,0:0:0:0:
256,192,140097,1,0,0:0:0:0:
256,192,140450,1,2,0:0:0:0:
256,192,141155,1,0,0:0:0:0:
256,192,141861,1,2,0:0:0:0:
256,192,142744,1,2,0:0:0:0:
256,192,142920,1,0,0:0:0:0:
256,192,143273,1,2,0:0:0:0:
256,192,143626,1,2,0:0:0:0:
256,192,143802,1,2,0:0:0:0:
256,192,143979,1,0,0:0:0:0:
256,192,144685,1,2,0:0:0:0:
256,192,145567,1,2,0:0:0:0:
256,192,145744,1,0,0:0:0:0:
256,192,146097,1,2,0:0:0:0:
256,192,146802,1,0,0:0:0:0:
256,192,147508,1,2,0:0:0:0:
256,192,148038,12,0,149538,0:0:0:0:
