osu file format v14

[General]
AudioFilename: audio.ogg
AudioLeadIn: 0
PreviewTime: 47979
Countdown: 0
SampleSet: Normal
StackLeniency: 0.7
Mode: 1
LetterboxInBreaks: 0
WidescreenStoryboard: 1

[Editor]
DistanceSpacing: 0.6
BeatDivisor: 4
GridSize: 32
TimelineZoom: 2.4

[Metadata]
Title:Rolling Beat
TitleUnicode:Rolling Beat
Artist:Mitsukiyo
ArtistUnicode:ミツキヨ
Creator:[Zeth]
Version:MTNT's Kantan
Source:ブルーアーカイブ -Blue Archive-
Tags:ブルアカ ba future bass instrumental electronic video game original soundtrack ost background music bgm yostar nat games mtntwarz ler1211 quorum
BeatmapID:3585003
BeatmapSetID:1751055

[Difficulty]
HPDrainRate:8
CircleSize:5
OverallDifficulty:3
ApproachRate:10
SliderMultiplier:1.4
SliderTickRate:1

[Events]
//Background and Video events
0,0,"hoshino.png",0,0
//Break Periods
2,3003,13038
//Storyboard Layer 0 (Background)
//Storyboard Layer 1 (Fail)
//Storyboard Layer 2 (Pass)
//Storyboard Layer 3 (Foreground)
//Storyboard Layer 4 (Overlay)
//Storyboard Sound Samples

[TimingPoints]
0,352.941176470588,99,1,0,5,1,8
156,-100,99,1,0,5,0,0
1235,-100,99,1,0,10,0,0
1411,-100,99,1,0,15,0,0
1588,-100,99,1,0,20,0,0
1764,-100,99,1,0,25,0,0
1941,-100,99,1,0,30,0,0
2117,-100,99,1,0,35,0,0
2294,-100,99,1,0,40,0,0
2470,-100,99,1,0,45,0,0
2803,352.941176470588,4,1,0,75,1,0
4126,-100,4,1,0,50,0,0
14052,-100,4,1,0,75,0,0
23957,-100,4,1,0,85,0,0
25369,-100,4,1,0,100,0,0
47979,-100,4,1,0,100,0,1
70567,-100,4,1,0,100,0,0
70744,-100,4,1,0,75,0,0
81839,-100,4,1,0,85,0,0
93132,-100,4,1,0,100,0,0
117155,-100,4,1,0,100,0,1
138332,-100,4,1,0,100,0,0
138508,-100,4,1,0,75,0,0

[HitObjects]
256,192,1058,12,0,2647,0:0:0:0:
256,192,2803,5,4,0:0:0:0:
256,192,14097,5,0,0:0:0:0:
256,192,14802,1,8,0:0:0:0:
256,192,16214,1,8,0:0:0:0:
256,192,16920,1,0,0:0:0:0:
256,192,17626,1,8,0:0:0:0:
256,192,18685,1,0,0:0:0:0:
256,192,19038,1,8,0:0:0:0:
256,192,19744,1,0,0:0:0:0:
256,192,20450,1,8,0:0:0:0:
256,192,21861,1,8,0:0:0:0:
256,192,22567,1,0,0:0:0:0:
256,192,23273,1,8,0:0:0:0:
256,192,24685,1,0,0:0:0:0:
256,192,25391,1,8,0:0:0:0:
256,192,26450,1,8,0:0:0:0:
256,192,27508,1,0,0:0:0:0:
256,192,27861,1,0,0:0:0:0:
256,192,28214,1,8,0:0:0:0:
256,192,29273,1,8,0:0:0:0:
256,192,30332,1,0,0:0:0:0:
256,192,30685,1,0,0:0:0:0:
256,192,31038,1,8,0:0:0:0:
256,192,32097,1,8,0:0:0:0:
256,192,33155,1,0,0:0:0:0:
256,192,33508,1,0,0:0:0:0:
256,192,33861,1,8,0:0:0:0:
256,192,34920,1,8,0:0:0:0:
256,192,35273,1,8,0:0:0:0:
256,192,35626,1,0,0:0:0:0:
256,192,35979,1,0,0:0:0:0:
256,192,36685,1,8,0:0:0:0:
256,192,37391,1,0,0:0:0:0:
256,192,37744,1,8,0:0:0:0:
256,192,38450,1,8,0:0:0:0:
256,192,38802,1,0,0:0:0:0:
256,192,39155,1,0,0:0:0:0:
256,192,39508,1,8,0:0:0:0:
256,192,40214,1,0,0:0:0:0:
256,192,40567,1,8,0:0:0:0:
256,192,41273,1,8,0:0:0:0:
256,192,41626,1,0,0:0:0:0:
256,192,41979,1,0,0:0:0:0:
256,192,42332,1,8,0:0:0:0:
256,192,43038,1,8,0:0:0:0:
256,192,43744,1,0,0:0:0:0:
256,192,44450,1,8,0:0:0:0:
256,192,45155,1,0,0:0:0:0:
256,192,45508,1,0,0:0:0:0:
256,192,45861,1,8,0:0:0:0:
256,192,46214,1,8,0:0:0:0:
256,192,46567,1,0,0:0:0:0:
256,192,47626,1,8,0:0:0:0:
256,192,47979,1,4,0:0:0:0:
256,192,48685,1,8,0:0:0:0:
256,192,49391,1,8,0:0:0:0:
256,192,50097,1,8,0:0:0:0:
256,192,50450,1,8,0:0:0:0:
256,192,50802,1,0,0:0:0:0:
256,192,51508,1,8,0:0:0:0:
256,192,52214,1,8,0:0:0:0:
256,192,52920,1,0,0:0:0:0:
256,192,53273,1,8,0:0:0:0:
256,192,53626,1,0,0:0:0:0:
256,192,54332,1,8,0:0:0:0:
256,192,55038,1,8,0:0:0:0:
256,192,55744,1,8,0:0:0:0:
256,192,56097,1,8,0:0:0:0:
256,192,56450,1,0,0:0:0:0:
256,192,57155,1,8,0:0:0:0:
256,192,57861,1,0,0:0:0:0:
256,192,59273,1,4,0:0:0:0:
256,192,59979,1,8,0:0:0:0:
256,192,60685,1,8,0:0:0:0:
256,192,61391,1,8,0:0:0:0:
256,192,61744,1,8,0:0:0:0:
256,192,62097,1,0,0:0:0:0:
256,192,62802,1,8,0:0:0:0:
256,192,63508,1,8,0:0:0:0:
256,192,64214,1,0,0:0:0:0:
256,192,64567,1,8,0:0:0:0:
256,192,64920,1,0,0:0:0:0:
256,192,65626,1,8,0:0:0:0:
256,192,66332,1,8,0:0:0:0:
256,192,67038,1,8,0:0:0:0:
256,192,67391,1,8,0:0:0:0:
256,192,67744,1,0,0:0:0:0:
256,192,68450,1,8,0:0:0:0:
256,192,69155,1,0,0:0:0:0:
256,192,69508,1,0,0:0:0:0:
256,192,69861,1,8,0:0:0:0:
256,192,70214,1,8,0:0:0:0:
256,192,70567,1,0,0:0:0:0:
256,192,71273,1,0,0:0:0:0:
256,192,71979,1,8,0:0:0:0:
256,192,72685,1,8,0:0:0:0:
256,192,73391,1,0,0:0:0:0:
256,192,74097,1,8,0:0:0:0:
256,192,74802,1,0,0:0:0:0:
256,192,76214,1,0,0:0:0:0:
256,192,76920,1,0,0:0:0:0:
256,192,77626,1,8,0:0:0:0:
256,192,78332,1,8,0:0:0:0:
256,192,79038,1,0,0:0:0:0:
256,192,79744,1,8,0:0:0:0:
256,192,80450,1,0,0:0:0:0:
256,192,81861,1,0,0:0:0:0:
256,192,82567,1,0,0:0:0:0:
256,192,82920,1,0,0:0:0:0:
256,192,83273,1,8,0:0:0:0:
256,192,83979,1,8,0:0:0:0:
256,192,84685,1,0,0:0:0:0:
256,192,85391,1,8,0:0:0:0:
256,192,85744,1,8,0:0:0:0:
256,192,86097,1,0,0:0:0:0:
256,192,87508,1,0,0:0:0:0:
256,192,88214,1,0,0:0:0:0:
256,192,88567,1,0,0:0:0:0:
256,192,88920,1,8,0:0:0:0:
256,192,89626,1,8,0:0:0:0:
256,192,90332,1,0,0:0:0:0:
256,192,91038,1,8,0:0:0:0:
256,192,91391,1,8,0:0:0:0:
256,192,91744,1,0,0:0:0:0:
256,192,93155,1,8,0:0:0:0:
256,192,94214,1,8,0:0:0:0:
256,192,95273,1,0,0:0:0:0:
256,192,95626,1,0,0:0:0:0:
256,192,95979,1,8,0:0:0:0:
256,192,97038,1,8,0:0:0:0:
256,192,98097,1,0,0:0:0:0:
256,192,98450,1,0,0:0:0:0:
256,192,98802,1,8,0:0:0:0:
256,192,99861,1,8,0:0:0:0:
256,192,100920,1,0,0:0:0:0:
256,192,101273,1,0,0:0:0:0:
256,192,101626,1,8,0:0:0:0:
256,192,102685,1,0,0:0:0:0:
256,192,103038,1,8,0:0:0:0:
256,192,103391,1,8,0:0:0:0:
256,192,103744,1,0,0:0:0:0:
256,192,104450,1,8,0:0:0:0:
256,192,105155,1,0,0:0:0:0:
256,192,105508,1,8,0:0:0:0:
256,192,106214,1,8,0:0:0:0:
256,192,106567,1,0,0:0:0:0:
256,192,106920,1,0,0:0:0:0:
256,192,107273,1,8,0:0:0:0:
256,192,107979,1,0,0:0:0:0:
256,192,108332,1,8,0:0:0:0:
256,192,109038,1,8,0:0:0:0:
256,192,109391,1,0,0:0:0:0:
256,192,109744,1,0,0:0:0:0:
256,192,110097,1,8,0:0:0:0:
256,192,110802,1,8,0:0:0:0:
256,192,111508,1,0,0:0:0:0:
256,192,112214,1,8,0:0:0:0:
256,192,112920,1,0,0:0:0:0:
256,192,113273,1,0,0:0:0:0:
256,192,113626,1,8,0:0:0:0:
256,192,113979,1,8,0:0:0:0:
256,192,114332,1,0,0:0:0:0:
256,192,115038,1,8,0:0:0:0:
256,192,115391,1,8,0:0:0:0:
256,192,115744,1,0,0:0:0:0:
256,192,117155,1,12,0:0:0:0:
256,192,117861,1,8,0:0:0:0:
256,192,118214,1,8,0:0:0:0:
256,192,118567,1,0,0:0:0:0:
256,192,119273,1,8,0:0:0:0:
256,192,119979,1,8,0:0:0:0:
256,192,120685,1,0,0:0:0:0:
256,192,121038,1,8,0:0:0:0:
256,192,121391,1,0,0:0:0:0:
256,192,122097,1,8,0:0:0:0:
256,192,122802,1,8,0:0:0:0:
256,192,123508,1,8,0:0:0:0:
256,192,123861,1,8,0:0:0:0:
256,192,124214,1,0,0:0:0:0:
256,192,124920,1,8,0:0:0:0:
256,192,125626,1,0,0:0:0:0:
256,192,127038,1,4,0:0:0:0:
256,192,127744,1,8,0:0:0:0:
256,192,128450,1,8,0:0:0:0:
256,192,129155,1,8,0:0:0:0:
256,192,129508,1,8,0:0:0:0:
256,192,129861,1,0,0:0:0:0:
256,192,130567,1,8,0:0:0:0:
256,192,131273,1,8,0:0:0:0:
256,192,131979,1,0,0:0:0:0:
256,192,132332,1,8,0:0:0:0:
256,192,132685,1,0,0:0:0:0:
256,192,133391,1,8,0:0:0:0:
256,192,134097,1,8,0:0:0:0:
256,192,134802,1,8,0:0:0:0:
256,192,135155,1,8,0:0:0:0:
256,192,135508,1,0,0:0:0:0:
256,192,136214,1,8,0:0:0:0:
256,192,136920,1,0,0:0:0:0:
256,192,137273,1,0,0:0:0:0:
256,192,137626,1,8,0:0:0:0:
256,192,137979,1,8,0:0:0:0:
256,192,138332,1,0,0:0:0:0:
256,192,139038,1,8,0:0:0:0:
256,192,140097,1,0,0:0:0:0:
256,192,140450,1,8,0:0:0:0:
256,192,141155,1,0,0:0:0:0:
256,192,141861,1,8,0:0:0:0:
256,192,142920,1,0,0:0:0:0:
256,192,143273,1,8,0:0:0:0:
256,192,143979,1,0,0:0:0:0:
256,192,144685,1,8,0:0:0:0:
256,192,145744,1,0,0:0:0:0:
256,192,146097,1,8,0:0:0:0:
256,192,146802,1,0,0:0:0:0:
256,192,147508,1,8,0:0:0:0:
256,192,148038,12,8,149450,0:0:0:0:
