osu file format v14

[General]
AudioFilename: audio.ogg
AudioLeadIn: 0
PreviewTime: 55377
Countdown: 0
SampleSet: Soft
StackLeniency: 0.7
Mode: 3
LetterboxInBreaks: 0
SpecialStyle: 0
WidescreenStoryboard: 0

[Editor]
DistanceSpacing: 0.5
BeatDivisor: 4
GridSize: 8
TimelineZoom: 2.3

[Metadata]
Title:Mutual panorama (feat. Aitsuki Nakuru)
TitleUnicode:Mutual panorama (feat. 藍月なくる)
Artist:Mitsukiyo
ArtistUnicode:ミツキヨ
Creator:DenYi
Version:Hirogaru panaroma // Insane
Source:
Tags:Slowpoke104 keksikosu fa featured artist pop jpop j-pop japanese balloon party mtky-0001 Moon Kwang Ho 문광호
BeatmapID:4109773
BeatmapSetID:1979500

[Difficulty]
HPDrainRate:8
CircleSize:4
OverallDifficulty:8
ApproachRate:5
SliderMultiplier:1.4
SliderTickRate:1

[Events]
//Background and Video events
0,0,"bg.jpg",0,0
//Break Periods
//Storyboard Layer 0 (Background)
//Storyboard Layer 1 (Fail)
//Storyboard Layer 2 (Pass)
//Storyboard Layer 3 (Foreground)
//Storyboard Layer 4 (Overlay)
//Storyboard Sound Samples
Sample,65877,0,"Tom 3.wav",60
Sample,76543,0,"Tom 2.wav",60
Sample,124543,0,"Tom 3.wav",60
Sample,135210,0,"Tom 3.wav",60
Sample,145877,0,"Tom 2.wav",60
Sample,169877,0,"Tom 3.wav",60
Sample,180543,0,"Tom 3.wav",60

[TimingPoints]
2044,333.333333333333,4,2,1,50,1,0
55377,-100,4,2,1,50,0,1
79210,-100,4,2,1,50,0,0
114043,-100,4,2,1,50,0,1
135377,-100,4,2,1,50,0,0
159377,-100,4,2,1,50,0,1
180710,-100,4,2,1,50,0,0

[HitObjects]
64,192,1710,128,0,1877:0:0:0:0:
448,192,1710,128,0,1877:0:0:0:0:
192,192,1932,1,0,0:0:0:0:
320,192,1988,1,0,0:0:0:0:
64,192,2043,128,2,2460:0:0:0:0:
192,192,2043,128,0,2210:0:0:0:45:cymbal_loud.wav
448,192,2043,128,0,2210:0:0:0:0:
192,192,2377,128,8,2543:0:0:0:0:
320,192,2377,128,0,2627:0:0:0:0:
448,192,2377,128,0,2710:0:0:0:0:
64,192,2710,1,0,0:0:0:0:
192,192,2710,1,0,0:0:0:0:
192,192,2877,128,2,2960:0:0:0:0:
320,192,2877,1,0,0:0:0:0:
64,192,3043,1,8,0:0:0:0:
320,192,3043,1,0,0:0:0:0:
448,192,3043,1,0,0:0:0:0:
64,192,3210,128,2,3543:0:0:0:0:
448,192,3210,128,0,3543:0:0:0:0:
320,192,3377,1,0,0:0:0:0:
192,192,3543,1,2,0:0:0:0:
320,192,3543,128,0,3793:0:0:0:0:
64,192,3710,1,8,0:0:0:0:
192,192,3710,1,0,0:0:0:0:
448,192,3710,128,0,3960:0:0:0:0:
192,192,3877,128,0,4127:0:0:0:0:
320,192,4043,128,0,4293:0:0:0:0:
64,192,4210,128,2,4710:0:0:0:0:
448,192,4210,1,0,0:0:0:0:
192,192,4377,128,8,4710:0:0:0:0:
320,192,4377,1,0,0:0:0:0:
448,192,4377,1,0,0:0:0:0:
320,192,4710,128,2,4877:0:0:0:0:
448,192,4710,128,0,5127:0:0:0:0:
64,192,5043,128,8,5377:0:0:0:0:
192,192,5043,128,0,5293:0:0:0:0:
320,192,5043,128,0,5210:0:0:0:0:
448,192,5293,128,0,5543:0:0:0:0:
320,192,5377,128,0,5627:0:0:0:0:
64,192,5543,128,2,5710:0:0:0:0:
192,192,5543,128,0,5710:0:0:0:0:
320,192,5710,1,8,0:0:0:0:
448,192,5710,1,0,0:0:0:0:
64,192,5877,128,2,6377:0:0:0:0:
448,192,5877,128,0,6210:0:0:0:0:
192,192,6043,1,0,0:0:0:0:
320,192,6210,1,2,0:0:0:0:
192,192,6377,1,8,0:0:0:0:
320,192,6377,128,0,6543:0:0:0:0:
448,192,6377,128,0,6710:0:0:0:0:
64,192,6543,1,0,0:0:0:0:
192,192,6710,128,0,6877:0:0:0:0:
320,192,6710,128,0,7043:0:0:0:0:
64,192,6877,1,8,0:0:0:0:
448,192,6877,1,0,0:0:0:0:
64,192,7043,128,8,7210:0:0:0:0:
192,192,7043,128,0,7377:0:0:0:0:
448,192,7043,1,0,0:0:0:0:
320,192,7210,1,0,0:0:0:0:
64,192,7377,128,2,7543:0:0:0:0:
320,192,7377,128,0,7543:0:0:0:45:cymbal_loud.wav
448,192,7377,128,0,7793:0:0:0:0:
64,192,7710,128,8,8043:0:0:0:0:
192,192,7710,128,0,7960:0:0:0:0:
320,192,7710,128,0,7877:0:0:0:0:
320,192,8043,1,0,0:0:0:0:
448,192,8043,1,0,0:0:0:0:
192,192,8210,128,2,8293:0:0:0:0:
320,192,8210,128,0,8252:0:0:0:0:
64,192,8377,1,8,0:0:0:0:
192,192,8377,1,0,0:0:0:0:
448,192,8377,1,0,0:0:0:0:
320,192,8543,128,2,8627:0:0:0:0:
448,192,8543,128,0,8585:0:0:0:0:
320,192,8710,1,0,0:0:0:0:
64,192,8877,128,2,8960:0:0:0:0:
192,192,8877,128,0,8918:0:0:0:0:
64,192,9043,1,8,0:0:0:0:
320,192,9043,1,0,0:0:0:0:
448,192,9043,1,0,0:0:0:0:
448,192,9210,1,0,0:0:0:0:
64,192,9377,128,0,9627:0:0:0:0:
192,192,9377,128,0,9627:0:0:0:0:
320,192,9543,128,2,9627:0:0:0:0:
448,192,9543,128,0,9627:0:0:0:0:
64,192,9710,1,8,0:0:0:0:
320,192,9710,128,0,9877:0:0:0:0:
448,192,9710,128,0,10043:0:0:0:0:
192,192,9877,1,0,0:0:0:0:
64,192,10043,128,2,10293:0:0:0:0:
320,192,10043,128,0,10127:0:0:0:0:
192,192,10210,1,0,0:0:0:0:
64,192,10377,1,8,0:0:0:0:
320,192,10377,1,0,0:0:0:0:
448,192,10377,1,0,0:0:0:0:
192,192,10543,128,2,10793:0:0:0:0:
320,192,10543,128,0,10627:0:0:0:0:
448,192,10710,1,0,0:0:0:0:
192,192,10877,1,0,0:0:0:0:
64,192,11043,128,8,11127:0:0:0:0:
320,192,11043,128,0,11293:0:0:0:0:
448,192,11043,1,0,0:0:0:0:
192,192,11210,1,0,0:0:0:0:
64,192,11377,1,2,0:0:0:0:
320,192,11377,1,0,0:0:0:45:cymbal_loud.wav
448,192,11377,1,0,0:0:0:0:
64,192,11543,128,8,11793:0:0:0:0:
192,192,11543,1,0,0:0:0:0:
448,192,11543,1,0,0:0:0:0:
192,192,11710,128,0,11960:0:0:0:60:Tom 2.wav
320,192,11710,1,0,0:0:0:0:
64,192,11877,1,0,0:0:0:60:Tom 3.wav
448,192,11877,128,0,12127:0:0:0:0:
192,192,12043,1,2,0:0:0:0:
320,192,12043,128,0,12293:0:0:0:0:
64,192,12210,128,8,12377:0:0:0:0:
192,192,12210,1,0,0:0:0:0:
448,192,12210,1,0,0:0:0:0:
320,192,12377,1,8,0:0:0:0:
448,192,12377,128,0,12543:0:0:0:0:
64,192,12460,128,8,12627:0:0:0:0:
192,192,12460,1,0,0:0:0:0:
320,192,12543,1,0,0:0:0:60:Tom 2.wav
192,192,12627,1,0,0:0:0:0:
64,192,12710,1,2,0:0:0:0:
320,192,12710,128,0,12877:0:0:0:45:cymbal_loud.wav
448,192,12710,128,0,13043:0:0:0:0:
64,192,13043,128,8,13210:0:0:0:0:
192,192,13043,128,0,13127:0:0:0:0:
320,192,13043,1,0,0:0:0:0:
320,192,13210,1,0,0:0:0:0:
64,192,13377,128,0,13543:0:0:0:0:
192,192,13377,128,0,13460:0:0:0:0:
320,192,13543,128,2,13793:0:0:0:0:
448,192,13543,1,0,0:0:0:0:
64,192,13710,1,8,0:0:0:0:
192,192,13710,128,0,13960:0:0:0:0:
448,192,13710,1,0,0:0:0:0:
64,192,13877,128,2,14127:0:0:0:0:
320,192,13877,1,0,0:0:0:0:
192,192,14043,1,0,0:0:0:0:
64,192,14210,1,2,0:0:0:0:
448,192,14210,1,0,0:0:0:0:
192,192,14377,1,8,0:0:0:0:
320,192,14377,1,0,0:0:0:0:
448,192,14377,1,0,0:0:0:0:
192,192,14543,128,0,14627:0:0:0:0:
64,192,14710,128,0,14877:0:0:0:0:
448,192,14710,128,0,15377:0:0:0:0:
192,192,14877,1,2,0:0:0:0:
320,192,14877,1,0,0:0:0:0:
64,192,15043,1,8,0:0:0:0:
320,192,15043,1,0,0:0:0:0:
192,192,15210,1,0,0:0:0:0:
64,192,15377,128,2,16043:0:0:0:0:
192,192,15377,128,0,15543:0:0:0:0:
320,192,15543,1,0,0:0:0:0:
192,192,15710,1,8,0:0:0:0:
448,192,15710,1,0,0:0:0:0:
320,192,15877,1,0,0:0:0:0:
320,192,16043,1,0,0:0:0:0:
448,192,16043,1,0,0:0:0:0:
64,192,16210,1,2,0:0:0:0:
192,192,16210,1,0,0:0:0:0:
64,192,16377,1,8,0:0:0:0:
320,192,16377,1,0,0:0:0:0:
448,192,16377,1,0,0:0:0:0:
192,192,16543,128,2,16710:0:0:0:0:
320,192,16543,128,0,16627:0:0:0:0:
448,192,16710,1,0,0:0:0:0:
64,192,16877,128,2,17043:0:0:0:0:
192,192,16877,128,0,16960:0:0:0:0:
320,192,17043,1,8,0:0:0:0:
448,192,17043,1,0,0:0:0:0:
192,192,17210,128,0,17293:0:0:0:0:
320,192,17210,128,0,17377:0:0:0:0:
64,192,17377,1,0,0:0:0:0:
448,192,17377,1,0,0:0:0:0:
192,192,17543,1,2,0:0:0:0:
320,192,17543,128,8,17627:0:0:0:0:
448,192,17543,128,0,17793:0:0:0:0:
64,192,17710,128,8,18043:0:0:0:0:
192,192,17710,128,0,17960:0:0:0:0:
320,192,17710,128,0,17877:0:0:0:0:
192,192,18043,1,8,0:0:0:0:
320,192,18043,128,0,18210:0:0:0:0:
448,192,18043,128,0,18210:0:0:0:0:
64,192,18210,1,2,0:0:0:0:
192,192,18210,1,0,0:0:0:0:
64,192,18377,128,8,18543:0:0:0:0:
320,192,18377,1,0,0:0:0:0:
448,192,18377,128,0,18543:0:0:0:0:
192,192,18543,1,2,0:0:0:0:
320,192,18543,1,0,0:0:0:0:
64,192,18710,128,8,18793:0:0:0:0:
192,192,18710,128,0,18793:0:0:0:0:
448,192,18710,128,0,18960:0:0:0:0:
64,192,18877,128,2,18960:0:0:0:0:
192,192,18877,128,0,18960:0:0:0:0:
64,192,19043,1,8,0:0:0:0:
320,192,19043,1,0,0:0:0:0:
448,192,19043,1,0,0:0:0:0:
192,192,19210,128,2,19377:0:0:0:0:
320,192,19210,128,0,19377:0:0:0:0:
64,192,19377,1,8,0:0:0:0:
448,192,19377,1,0,0:0:0:0:
64,192,19543,128,2,19710:0:0:0:0:
192,192,19543,128,0,19710:0:0:0:0:
320,192,19710,1,8,0:0:0:0:
448,192,19710,1,0,0:0:0:0:
64,192,19877,1,2,0:0:0:0:
192,192,19877,1,0,0:0:0:0:
64,192,20043,128,8,20127:0:0:0:0:
320,192,20043,128,0,20293:0:0:0:0:
448,192,20043,128,0,20460:0:0:0:0:
192,192,20210,128,2,20293:0:0:0:0:
64,192,20377,1,8,0:0:0:0:
192,192,20377,1,0,0:0:0:45:cymbal_loud.wav
320,192,20377,128,0,20460:0:0:0:0:
192,192,20543,1,2,0:0:0:0:
448,192,20543,1,0,0:0:0:0:
64,192,20710,1,8,0:0:0:0:
320,192,20710,128,0,20877:0:0:0:45:cymbal_loud.wav
448,192,20710,128,0,21043:0:0:0:0:
64,192,20877,1,0,0:0:0:60:Tom 1.wav
192,192,20877,1,0,0:0:0:0:
192,192,21043,1,0,0:0:0:60:Tom 2.wav
320,192,21043,1,0,0:0:0:0:
64,192,21210,128,2,21543:0:0:0:0:
448,192,21210,128,0,21377:0:0:0:0:
192,192,21377,1,8,0:0:0:0:
320,192,21377,1,0,0:0:0:0:
320,192,21543,1,0,0:0:0:60:Tom 2.wav
448,192,21543,1,0,0:0:0:0:
64,192,21710,128,2,21877:0:0:0:0:
192,192,21710,128,0,21877:0:0:0:60:Tom 3.wav
320,192,21877,1,2,0:0:0:0:
448,192,21877,1,0,0:0:0:0:
64,192,22043,128,8,22210:0:0:0:0:
192,192,22043,128,0,22210:0:0:0:45:cymbal_loud.wav
448,192,22043,128,0,22210:0:0:0:0:
320,192,22377,128,2,22877:0:0:0:0:
448,192,22377,128,0,23293:0:0:0:0:
64,192,22877,128,2,23293:0:0:0:0:
192,192,23043,128,8,23293:0:0:0:0:
320,192,23043,1,0,0:0:0:0:
64,192,23377,128,2,23543:0:0:0:0:
448,192,23377,128,0,23543:0:0:0:0:
320,192,23543,1,0,0:0:0:0:
64,192,23710,1,8,0:0:0:0:
192,192,23710,1,0,0:0:0:0:
448,192,23710,1,0,0:0:0:0:
192,192,23877,1,0,0:0:0:0:
320,192,24043,1,0,0:0:0:0:
64,192,24210,1,2,0:0:0:0:
192,192,24210,1,0,0:0:0:0:
64,192,24377,1,8,0:0:0:0:
320,192,24377,1,0,0:0:0:0:
448,192,24377,1,0,0:0:0:0:
192,192,24543,128,0,24710:0:0:0:0:
320,192,24543,128,0,24710:0:0:0:0:
64,192,24710,1,2,0:0:0:0:
448,192,24710,1,0,0:0:0:0:
192,192,24877,1,0,0:0:0:0:
64,192,25043,1,8,0:0:0:0:
320,192,25043,1,0,0:0:0:0:
448,192,25043,1,0,0:0:0:0:
320,192,25210,1,0,0:0:0:0:
192,192,25377,1,0,0:0:0:0:
320,192,25543,128,2,25793:0:0:0:0:
448,192,25543,128,0,25877:0:0:0:0:
64,192,25710,1,8,0:0:0:0:
192,192,25710,1,0,0:0:0:0:
192,192,25877,1,2,0:0:0:0:
320,192,25877,1,0,0:0:0:0:
64,192,26043,128,2,26210:0:0:0:0:
448,192,26043,128,0,26210:0:0:0:0:
192,192,26210,1,0,0:0:0:0:
64,192,26377,1,8,0:0:0:0:
320,192,26377,128,0,26460:0:0:0:0:
448,192,26377,1,0,0:0:0:0:
320,192,26543,128,0,26627:0:0:0:0:
192,192,26710,1,0,0:0:0:0:
64,192,26877,128,2,27127:0:0:0:0:
448,192,26877,1,0,0:0:0:0:
192,192,27043,128,8,27293:0:0:0:0:
320,192,27043,1,0,0:0:0:0:
448,192,27043,1,0,0:0:0:0:
320,192,27210,128,0,27377:0:0:0:0:
448,192,27210,128,0,27377:0:0:0:0:
64,192,27377,1,2,0:0:0:0:
192,192,27377,1,0,0:0:0:0:
192,192,27543,128,2,27710:0:0:0:0:
320,192,27543,128,0,27710:0:0:0:0:
64,192,27710,1,8,0:0:0:0:
448,192,27710,1,0,0:0:0:0:
64,192,27877,128,0,28210:0:0:0:0:
192,192,27960,128,0,28210:0:0:0:0:
320,192,28043,1,0,0:0:0:0:
320,192,28210,1,2,0:0:0:0:
448,192,28210,1,0,0:0:0:0:
64,192,28377,1,8,0:0:0:0:
192,192,28377,128,0,28627:0:0:0:0:
448,192,28377,1,0,0:0:0:0:
320,192,28543,128,0,28627:0:0:0:0:
64,192,28710,128,2,28877:0:0:0:0:
448,192,28710,128,0,28877:0:0:0:0:
192,192,28877,1,0,0:0:0:0:
64,192,29043,128,8,29127:0:0:0:0:
320,192,29043,128,0,29210:0:0:0:0:
448,192,29043,1,0,0:0:0:0:
192,192,29210,1,0,0:0:0:0:
64,192,29377,128,0,29460:0:0:0:0:
448,192,29377,128,0,29543:0:0:0:0:
64,192,29543,128,2,29877:0:0:0:0:
192,192,29543,128,0,29710:0:0:0:0:
320,192,29710,1,8,0:0:0:0:
448,192,29710,1,0,0:0:0:0:
192,192,29877,1,0,0:0:0:0:
320,192,30043,128,2,30210:0:0:0:0:
448,192,30043,128,0,30210:0:0:0:0:
192,192,30210,1,0,0:0:0:0:
64,192,30377,128,8,30710:0:0:0:0:
320,192,30377,1,0,0:0:0:0:
448,192,30377,128,0,30543:0:0:0:0:
192,192,30543,128,0,30710:0:0:0:0:
320,192,30710,1,0,0:0:0:0:
64,192,30877,128,2,31043:0:0:0:0:
448,192,30877,128,0,31210:0:0:0:0:
192,192,31043,1,8,0:0:0:0:
320,192,31043,1,0,0:0:0:0:
192,192,31210,1,0,0:0:0:0:
64,192,31377,128,2,31543:0:0:0:0:
448,192,31377,128,0,31543:0:0:0:0:
192,192,31543,1,2,0:0:0:0:
320,192,31543,1,0,0:0:0:0:
64,192,31710,1,8,0:0:0:0:
320,192,31710,128,0,31793:0:0:0:0:
448,192,31710,1,0,0:0:0:0:
192,192,31877,1,0,0:0:0:0:
64,192,32043,1,8,0:0:0:0:
320,192,32043,1,0,0:0:0:0:
448,192,32043,1,0,0:0:0:0:
64,192,32210,1,0,0:0:0:60:Tom 1.wav
192,192,32210,1,0,0:0:0:0:
192,192,32377,1,2,0:0:0:0:
320,192,32377,1,0,0:0:0:60:Tom 2.wav
64,192,32543,128,2,32960:0:0:0:0:
320,192,32543,128,0,32793:0:0:0:35:cymbal_loud.wav
448,192,32543,128,0,32960:0:0:0:0:
320,192,32877,128,0,32960:0:0:0:0:
64,192,33043,1,8,0:0:0:0:
192,192,33043,1,0,0:0:0:0:
448,192,33043,1,0,0:0:0:0:
192,192,33210,1,0,0:0:0:0:
64,192,33377,1,8,0:0:0:0:
320,192,33377,1,0,0:0:0:0:
448,192,33377,128,0,33460:0:0:0:0:
192,192,33543,1,0,0:0:0:60:Tom 3.wav
320,192,33543,1,0,0:0:0:0:
64,192,33710,128,2,33793:0:0:0:0:
192,192,33710,1,0,0:0:0:0:
448,192,33710,1,0,0:0:0:0:
192,192,33877,1,0,0:0:0:60:Tom 3.wav
320,192,33877,1,0,0:0:0:0:
64,192,34043,128,2,34293:0:0:0:0:
320,192,34043,128,0,34293:0:0:0:45:cymbal_loud.wav
448,192,34043,128,0,34293:0:0:0:0:
192,192,34210,128,0,34460:0:0:0:0:
64,192,34377,1,8,0:0:0:0:
320,192,34377,128,0,34627:0:0:0:0:
448,192,34377,1,0,0:0:0:0:
192,192,34543,128,0,34793:0:0:0:0:
64,192,34710,128,0,34960:0:0:0:0:
320,192,34877,1,2,0:0:0:0:
448,192,34877,128,0,35293:0:0:0:0:
64,192,35043,1,8,0:0:0:0:
192,192,35043,1,0,0:0:0:0:
320,192,35043,128,0,35293:0:0:0:0:
192,192,35210,128,0,35460:0:0:0:0:
64,192,35377,128,2,35627:0:0:0:0:
448,192,35377,1,0,0:0:0:0:
320,192,35543,128,0,35793:0:0:0:0:
64,192,35710,1,8,0:0:0:0:
192,192,35710,128,0,35960:0:0:0:0:
448,192,35710,1,0,0:0:0:0:
448,192,35877,128,0,36127:0:0:0:0:
320,192,36043,128,0,36293:0:0:0:0:
64,192,36210,1,2,0:0:0:0:
192,192,36210,128,0,36460:0:0:0:0:
64,192,36377,128,8,36627:0:0:0:0:
320,192,36377,1,0,0:0:0:0:
448,192,36377,1,0,0:0:0:0:
192,192,36543,128,0,36627:0:0:0:0:
64,192,36710,128,2,36960:0:0:0:0:
448,192,36710,128,0,36960:0:0:0:0:
320,192,36877,128,0,37127:0:0:0:0:
64,192,37043,1,8,0:0:0:0:
192,192,37043,128,0,37293:0:0:0:0:
448,192,37043,1,0,0:0:0:0:
320,192,37210,128,0,37460:0:0:0:0:
448,192,37377,128,0,37627:0:0:0:0:
64,192,37543,128,2,37960:0:0:0:0:
192,192,37543,1,0,0:0:0:0:
192,192,37710,128,8,37960:0:0:0:0:
320,192,37710,1,0,0:0:0:0:
448,192,37710,1,0,0:0:0:0:
320,192,37877,128,0,38127:0:0:0:0:
64,192,38043,1,2,0:0:0:0:
448,192,38043,128,0,38293:0:0:0:0:
192,192,38210,128,0,38460:0:0:0:0:
64,192,38377,1,8,0:0:0:0:
320,192,38377,128,0,38627:0:0:0:0:
448,192,38377,1,0,0:0:0:0:
64,192,38543,128,0,38793:0:0:0:0:
192,192,38710,128,0,38960:0:0:0:0:
320,192,38877,128,2,39127:0:0:0:0:
448,192,38877,1,0,0:0:0:0:
64,192,39043,1,8,0:0:0:0:
192,192,39043,1,0,0:0:0:0:
448,192,39043,128,0,39293:0:0:0:0:
320,192,39210,128,0,39293:0:0:0:0:
64,192,39377,128,2,39627:0:0:0:0:
192,192,39377,128,0,39627:0:0:0:45:cymbal_loud.wav
448,192,39377,128,0,39627:0:0:0:0:
320,192,39543,128,0,39793:0:0:0:0:
64,192,39710,1,8,0:0:0:0:
192,192,39710,128,0,39960:0:0:0:0:
448,192,39710,1,0,0:0:0:0:
320,192,39877,128,0,40127:0:0:0:0:
448,192,40043,128,0,40293:0:0:0:0:
64,192,40210,128,2,40627:0:0:0:0:
192,192,40210,1,0,0:0:0:0:
192,192,40377,128,8,40627:0:0:0:0:
320,192,40377,1,0,0:0:0:0:
448,192,40377,1,0,0:0:0:0:
448,192,40543,128,0,40793:0:0:0:0:
64,192,40710,1,2,0:0:0:0:
320,192,40710,128,0,40960:0:0:0:0:
192,192,40877,128,2,41127:0:0:0:0:
448,192,40877,1,0,0:0:0:0:
64,192,41043,128,8,41293:0:0:0:0:
320,192,41043,1,0,0:0:0:0:
448,192,41043,1,0,0:0:0:0:
192,192,41210,128,0,41293:0:0:0:0:
64,192,41377,1,8,0:0:0:0:
320,192,41377,1,0,0:0:0:0:
448,192,41377,128,0,41460:0:0:0:0:
64,192,41543,128,8,41627:0:0:0:0:
192,192,41543,1,0,0:0:0:0:
448,192,41543,1,0,0:0:0:0:
192,192,41710,128,0,41793:0:0:0:60:Tom 2.wav
320,192,41710,1,0,0:0:0:0:
320,192,41877,128,0,41960:0:0:0:60:Tom 3.wav
448,192,41877,1,0,0:0:0:0:
64,192,42043,128,8,42293:0:0:0:0:
192,192,42043,128,0,42127:0:0:0:0:
448,192,42043,128,0,42127:0:0:0:0:
192,192,42210,1,2,0:0:0:0:
64,192,42377,128,8,42460:0:0:0:0:
320,192,42377,128,0,42460:0:0:0:0:
448,192,42377,128,0,42627:0:0:0:0:
320,192,42543,1,2,0:0:0:0:
64,192,42710,128,8,42793:0:0:0:0:
192,192,42710,128,0,42793:0:0:0:45:cymbal_loud.wav
448,192,42710,128,0,42793:0:0:0:0:
192,192,42877,1,0,0:0:0:60:Tom 1.wav
64,192,42960,128,2,43127:0:0:0:0:
320,192,42960,128,0,43127:0:0:0:60:Tom 2.wav
448,192,42960,128,0,43127:0:0:0:0:
64,192,43210,128,8,43793:0:0:0:0:
192,192,43210,128,0,43627:0:0:0:45:cymbal_loud.wav
448,192,43210,128,0,43460:0:0:0:0:
320,192,43543,128,0,43627:0:0:0:70:Snare Drum.wav
448,192,43543,1,0,0:0:0:0:
192,192,43710,128,0,43793:0:0:0:70:Snare Drum.wav
448,192,43710,128,0,43960:0:0:0:0:
64,192,43877,128,0,43960:0:0:0:0:
320,192,43877,128,0,44127:0:0:0:0:
64,192,44043,128,0,44460:0:0:0:70:Snare Drum.wav
192,192,44043,128,0,44293:0:0:0:0:
448,192,44043,1,0,0:0:0:0:
320,192,44210,1,2,0:0:0:0:
448,192,44210,1,0,0:0:0:60:Tom 1.wav
192,192,44377,1,0,0:0:0:60:Tom 2.wav
320,192,44377,1,0,0:0:0:0:
64,192,44543,1,0,0:0:0:60:Tom 3.wav
192,192,44543,1,0,0:0:0:0:
64,192,44710,1,2,0:0:0:0:
320,192,44710,128,0,44960:0:0:0:45:cymbal_loud.wav
448,192,44710,128,0,45043:0:0:0:0:
192,192,44877,1,0,0:0:0:0:
64,192,45043,128,0,45293:0:0:0:0:
320,192,45210,1,2,0:0:0:0:
448,192,45210,1,0,0:0:0:0:
192,192,45377,128,8,45627:0:0:0:0:
448,192,45377,1,0,0:0:0:0:
64,192,45543,1,0,0:0:0:0:
320,192,45710,128,0,45960:0:0:0:0:
192,192,45877,128,0,46043:0:0:0:0:
64,192,46043,128,2,46210:0:0:0:0:
448,192,46043,128,0,46627:0:0:0:0:
320,192,46210,1,0,0:0:0:0:
64,192,46293,128,2,46460:0:0:0:0:
320,192,46377,128,0,46627:0:0:0:0:
64,192,46543,128,2,46877:0:0:0:0:
192,192,46543,128,0,47043:0:0:0:0:
320,192,46710,1,8,0:0:0:0:
448,192,46710,1,0,0:0:0:0:
448,192,46877,128,0,47377:0:0:0:0:
64,192,47043,1,0,0:0:0:0:
320,192,47210,1,2,0:0:0:0:
64,192,47377,128,2,47710:0:0:0:0:
192,192,47377,128,0,47627:0:0:0:0:
320,192,47543,1,0,0:0:0:0:
448,192,47710,128,0,47960:0:0:0:0:
64,192,47877,1,2,0:0:0:0:
192,192,47877,1,0,0:0:0:0:
64,192,48043,128,8,48293:0:0:0:0:
448,192,48043,1,0,0:0:0:0:
320,192,48210,1,0,0:0:0:60:Tom 2.wav
448,192,48210,1,0,0:0:0:0:
64,192,48377,1,2,0:0:0:0:
192,192,48377,1,0,0:0:0:60:Tom 3.wav
64,192,48543,1,2,0:0:0:0:
320,192,48543,128,0,48710:0:0:0:45:cymbal_loud.wav
448,192,48543,128,0,48793:0:0:0:0:
192,192,48710,1,0,0:0:0:0:
320,192,48877,1,0,0:0:0:70:Snare Drum.wav
64,192,49043,1,8,0:0:0:0:
192,192,49043,1,0,0:0:0:0:
448,192,49043,1,0,0:0:0:0:
192,192,49210,128,2,49460:0:0:0:0:
320,192,49210,128,0,49377:0:0:0:45:cymbal_loud.wav
448,192,49210,1,0,0:0:0:0:
64,192,49543,128,8,49627:0:0:0:0:
320,192,49543,128,2,49627:0:0:0:0:
448,192,49543,128,0,49627:0:0:0:0:
64,192,49710,128,8,49793:0:0:0:0:
320,192,49710,128,2,49793:0:0:0:0:
448,192,49710,128,0,49793:0:0:0:0:
192,192,49877,1,0,0:0:0:0:
320,192,49960,1,0,0:0:0:0:
64,192,50043,1,2,0:0:0:0:
448,192,50043,128,0,50627:0:0:0:0:
192,192,50210,1,0,0:0:0:0:
64,192,50377,128,2,50960:0:0:0:0:
320,192,50377,128,0,50460:0:0:0:0:
320,192,50543,1,0,0:0:0:0:
192,192,50710,128,2,50793:0:0:0:0:
448,192,50710,128,0,51293:0:0:0:0:
192,192,50877,1,0,0:0:0:0:
64,192,51043,128,2,51627:0:0:0:0:
320,192,51043,128,0,51127:0:0:0:0:
320,192,51210,1,0,0:0:0:0:
192,192,51377,128,2,51460:0:0:0:0:
448,192,51377,128,0,51960:0:0:0:0:
192,192,51543,1,0,0:0:0:0:
64,192,51710,128,2,51960:0:0:0:0:
320,192,51710,128,0,51793:0:0:0:0:
320,192,51877,1,0,0:0:0:0:
64,192,52043,128,8,52127:0:0:0:0:
192,192,52043,128,2,52127:0:0:0:0:
448,192,52043,1,0,0:0:0:0:
64,192,52210,1,8,0:0:0:0:
320,192,52210,128,0,52293:0:0:0:0:
448,192,52210,128,0,52293:0:0:0:0:
192,192,52377,1,0,0:0:0:60:Tom 2.wav
320,192,52377,1,0,0:0:0:0:
64,192,52543,128,2,52960:0:0:0:0:
192,192,52543,128,0,52960:0:0:0:45:cymbal_loud.wav
448,192,52543,128,0,52960:0:0:0:0:
64,192,53043,128,8,53127:0:0:0:0:
192,192,53043,128,0,53127:0:0:0:0:
448,192,53043,128,0,53127:0:0:0:0:
320,192,53210,1,0,0:0:0:0:
192,192,53377,128,8,53460:0:0:0:0:
320,192,53377,128,0,53460:0:0:0:0:
448,192,53377,128,0,53460:0:0:0:0:
64,192,53543,1,0,0:0:0:70:Snare Drum.wav
448,192,53543,1,0,0:0:0:0:
64,192,53710,128,8,53793:0:0:0:0:
192,192,53710,128,0,53793:0:0:0:0:
320,192,53710,128,0,53793:0:0:0:0:
64,192,53877,128,0,54127:0:0:0:45:cymbal_loud.wav
320,192,53877,128,0,53960:0:0:0:0:
448,192,53877,128,0,54127:0:0:0:0:
192,192,54043,1,2,0:0:0:0:
320,192,54043,1,0,0:0:0:0:
64,192,54210,1,8,0:0:0:0:
192,192,54210,1,0,0:0:0:0:
448,192,54210,1,0,0:0:0:0:
192,192,54377,1,8,0:0:0:0:
320,192,54377,1,0,0:0:0:0:
64,192,54543,1,2,0:0:0:0:
320,192,54543,128,0,54710:0:0:0:0:
448,192,54543,128,0,54793:0:0:0:0:
64,192,54710,1,8,0:0:0:0:
192,192,54710,1,0,0:0:0:0:
64,192,54877,128,8,55127:0:0:0:0:
192,192,54877,128,0,55043:0:0:0:0:
320,192,54877,1,0,0:0:0:0:
320,192,55043,1,8,0:0:0:0:
448,192,55043,1,2,0:0:0:0:
192,192,55127,1,8,0:0:0:0:
64,192,55210,1,8,0:0:0:0:
448,192,55210,1,0,0:0:0:60:Tom 2.wav
64,192,55377,128,2,55543:0:0:0:0:
192,192,55377,128,0,55543:0:0:0:45:cymbal_loud.wav
448,192,55377,128,0,55877:0:0:0:0:
64,192,55710,128,8,56043:0:0:0:0:
192,192,55710,128,0,56043:0:0:0:0:
320,192,55710,1,0,0:0:0:0:
448,192,56043,128,0,56377:0:0:0:0:
192,192,56210,1,2,0:0:0:0:
320,192,56210,128,0,56377:0:0:0:0:
64,192,56377,1,8,0:0:0:0:
192,192,56377,1,0,0:0:0:0:
320,192,56543,128,2,56710:0:0:0:0:
448,192,56543,128,0,56710:0:0:0:0:
64,192,56710,1,0,0:0:0:0:
192,192,56877,128,0,57043:0:0:0:0:
320,192,56877,128,0,57043:0:0:0:0:
64,192,57043,1,8,0:0:0:0:
448,192,57043,1,0,0:0:0:0:
64,192,57210,128,2,57710:0:0:0:0:
192,192,57210,128,0,57543:0:0:0:0:
320,192,57377,1,0,0:0:0:0:
320,192,57543,1,2,0:0:0:0:
448,192,57543,1,0,0:0:0:0:
192,192,57710,1,8,0:0:0:0:
448,192,57710,1,0,0:0:0:0:
192,192,57877,1,0,0:0:0:0:
64,192,58043,128,2,58543:0:0:0:0:
320,192,58043,128,0,58210:0:0:0:0:
448,192,58043,128,0,58210:0:0:0:0:
192,192,58377,1,8,0:0:0:0:
320,192,58377,128,0,58710:0:0:0:0:
448,192,58377,128,0,58710:0:0:0:0:
64,192,58710,128,0,59043:0:0:0:0:
192,192,58877,128,2,59043:0:0:0:0:
320,192,58877,1,0,0:0:0:0:
320,192,59043,1,8,0:0:0:0:
448,192,59043,1,0,0:0:0:0:
64,192,59210,128,2,59543:0:0:0:0:
192,192,59210,128,0,59877:0:0:0:0:
448,192,59377,1,0,0:0:0:0:
320,192,59543,1,0,0:0:0:0:
64,192,59710,1,8,0:0:0:0:
320,192,59710,128,0,60210:0:0:0:0:
448,192,59710,1,0,0:0:0:0:
64,192,59877,1,2,0:0:0:0:
192,192,60043,1,0,0:0:0:0:
448,192,60043,128,0,60543:0:0:0:0:
64,192,60210,1,8,0:0:0:0:
192,192,60210,1,2,0:0:0:0:
64,192,60377,128,8,60877:0:0:0:0:
320,192,60377,1,0,0:0:0:0:
192,192,60543,128,0,60877:0:0:0:0:
320,192,60710,128,2,60877:0:0:0:0:
448,192,60710,128,0,61043:0:0:0:45:cymbal_loud.wav
64,192,61043,1,8,0:0:0:0:
192,192,61043,1,0,0:0:0:0:
320,192,61043,128,0,61377:0:0:0:0:
192,192,61210,128,0,61543:0:0:0:0:
64,192,61377,128,0,61710:0:0:0:0:
320,192,61543,1,2,0:0:0:0:
448,192,61543,1,0,0:0:0:0:
320,192,61710,128,8,61793:0:0:0:0:
448,192,61710,128,0,61793:0:0:0:0:
64,192,61877,128,2,62210:0:0:0:0:
448,192,61877,128,0,62043:0:0:0:0:
192,192,62043,1,0,0:0:0:0:
320,192,62210,128,0,62793:0:0:0:0:
64,192,62377,1,8,0:0:0:0:
192,192,62377,128,0,62627:0:0:0:0:
448,192,62377,1,0,0:0:0:0:
448,192,62543,128,2,62960:0:0:0:0:
64,192,62710,128,0,62960:0:0:0:0:
192,192,62877,128,2,63127:0:0:0:0:
320,192,62877,1,0,0:0:0:0:
64,192,63043,1,8,0:0:0:0:
320,192,63043,128,0,63293:0:0:0:0:
448,192,63043,1,0,0:0:0:0:
192,192,63210,1,0,0:0:0:0:
64,192,63377,128,2,63627:0:0:0:0:
320,192,63377,1,0,0:0:0:0:
448,192,63377,128,0,63627:0:0:0:0:
192,192,63543,128,0,63793:0:0:0:0:
64,192,63710,1,8,0:0:0:0:
320,192,63710,128,0,63960:0:0:0:0:
448,192,63710,1,0,0:0:0:0:
64,192,63877,128,0,64293:0:0:0:0:
448,192,63877,128,0,64293:0:0:0:0:
192,192,64043,1,0,0:0:0:0:
320,192,64210,128,2,64460:0:0:0:0:
64,192,64377,1,8,0:0:0:0:
192,192,64377,128,0,64627:0:0:0:0:
448,192,64377,1,0,0:0:0:0:
64,192,64543,128,2,64793:0:0:0:0:
320,192,64543,128,0,64793:0:0:0:45:cymbal_loud.wav
448,192,64543,128,0,64793:0:0:0:0:
64,192,64877,128,8,64960:0:0:0:0:
320,192,64877,128,0,64960:0:0:0:0:
448,192,64877,128,0,64960:0:0:0:0:
64,192,65043,128,8,65127:0:0:0:0:
192,192,65043,128,0,65127:0:0:0:0:
448,192,65043,128,0,65127:0:0:0:0:
192,192,65210,1,0,0:0:0:60:Tom 2.wav
320,192,65210,1,0,0:0:0:0:
64,192,65377,128,2,65460:0:0:0:0:
320,192,65377,128,0,65460:0:0:0:0:
448,192,65377,128,0,65460:0:0:0:0:
64,192,65543,1,8,0:0:0:0:
320,192,65543,1,0,0:0:0:0:
448,192,65543,1,0,0:0:0:0:
64,192,65710,1,8,0:0:0:0:
192,192,65710,1,0,0:0:0:0:
320,192,65793,1,8,0:0:0:0:
448,192,65793,1,0,0:0:0:0:
192,192,65877,1,8,0:0:0:0:
64,192,66043,128,2,66543:0:0:0:0:
320,192,66043,128,0,66210:0:0:0:45:cymbal_loud.wav
448,192,66043,128,0,66210:0:0:0:0:
192,192,66377,1,8,0:0:0:0:
320,192,66377,128,0,66710:0:0:0:0:
448,192,66377,128,0,66710:0:0:0:0:
64,192,66710,128,0,67043:0:0:0:0:
192,192,66877,128,2,67043:0:0:0:0:
448,192,66877,1,0,0:0:0:0:
320,192,67043,1,8,0:0:0:0:
448,192,67043,1,0,0:0:0:0:
64,192,67210,128,2,67377:0:0:0:0:
192,192,67210,128,0,67377:0:0:0:0:
448,192,67377,1,0,0:0:0:0:
192,192,67543,128,0,67710:0:0:0:0:
320,192,67543,128,0,67710:0:0:0:0:
64,192,67710,1,8,0:0:0:0:
448,192,67710,1,0,0:0:0:0:
320,192,67877,128,2,68210:0:0:0:0:
448,192,67877,128,0,68377:0:0:0:0:
192,192,68043,1,0,0:0:0:0:
64,192,68210,1,2,0:0:0:0:
192,192,68210,1,0,0:0:0:0:
64,192,68377,1,8,0:0:0:0:
320,192,68377,1,0,0:0:0:0:
320,192,68543,1,0,0:0:0:0:
64,192,68710,128,2,68877:0:0:0:0:
192,192,68710,128,0,68877:0:0:0:0:
448,192,68710,128,0,69210:0:0:0:0:
64,192,69043,128,8,69377:0:0:0:0:
192,192,69043,128,0,69377:0:0:0:0:
320,192,69043,1,0,0:0:0:0:
448,192,69377,128,0,69710:0:0:0:0:
192,192,69543,1,2,0:0:0:0:
320,192,69543,128,0,69710:0:0:0:0:
64,192,69710,1,8,0:0:0:0:
192,192,69710,1,0,0:0:0:0:
64,192,69877,1,2,0:0:0:0:
320,192,69877,128,0,70127:0:0:0:0:
448,192,69877,128,0,70293:0:0:0:0:
192,192,70043,1,0,0:0:0:0:
320,192,70210,1,0,0:0:0:0:
64,192,70377,1,8,0:0:0:0:
192,192,70377,1,0,0:0:0:0:
448,192,70377,1,0,0:0:0:0:
64,192,70543,128,2,70960:0:0:0:0:
192,192,70543,128,0,70793:0:0:0:0:
448,192,70543,1,0,0:0:0:0:
320,192,70710,1,0,0:0:0:0:
192,192,70877,1,8,0:0:0:0:
448,192,70877,1,2,0:0:0:0:
64,192,71043,128,8,71210:0:0:0:0:
320,192,71043,128,0,71210:0:0:0:0:
448,192,71043,128,0,71210:0:0:0:0:
64,192,71377,128,8,71460:0:0:0:0:
192,192,71377,128,0,71460:0:0:0:45:cymbal_loud.wav
320,192,71377,128,0,71460:0:0:0:0:
448,192,71377,128,0,71460:0:0:0:0:
64,192,71543,1,2,0:0:0:0:
192,192,71543,1,0,0:0:0:0:
64,192,71710,1,8,0:0:0:0:
320,192,71710,1,0,0:0:0:0:
448,192,71710,128,0,72043:0:0:0:0:
192,192,71877,1,2,0:0:0:0:
320,192,71877,1,0,0:0:0:0:
64,192,72043,128,8,72210:0:0:0:0:
192,192,72043,1,0,0:0:0:0:
320,192,72210,128,2,72377:0:0:0:0:
448,192,72210,1,0,0:0:0:0:
64,192,72377,1,8,0:0:0:0:
192,192,72377,1,0,0:0:0:0:
448,192,72377,1,0,0:0:0:0:
192,192,72543,128,2,72877:0:0:0:0:
320,192,72543,1,0,0:0:0:0:
64,192,72710,1,8,0:0:0:0:
448,192,72710,1,0,0:0:0:0:
320,192,72877,1,2,0:0:0:0:
448,192,72877,1,0,0:0:0:0:
64,192,73043,1,8,0:0:0:0:
192,192,73043,1,0,0:0:0:0:
320,192,73043,128,0,73210:0:0:0:0:
64,192,73210,128,2,73377:0:0:0:0:
448,192,73210,1,0,0:0:0:0:
192,192,73377,1,8,0:0:0:0:
320,192,73377,1,0,0:0:0:0:
448,192,73377,1,0,0:0:0:0:
192,192,73543,128,2,73710:0:0:0:0:
320,192,73543,1,0,0:0:0:0:
64,192,73710,1,8,0:0:0:0:
448,192,73710,1,0,0:0:0:0:
64,192,73877,128,8,74043:0:0:0:0:
192,192,73877,128,0,74043:0:0:0:45:cymbal_loud.wav
320,192,73877,128,0,74127:0:0:0:0:
448,192,73877,128,0,74210:0:0:0:0:
64,192,74210,1,2,0:0:0:0:
192,192,74210,1,0,0:0:0:0:
64,192,74377,128,8,74460:0:0:0:0:
320,192,74377,128,0,74460:0:0:0:0:
448,192,74377,128,0,74460:0:0:0:0:
320,192,74543,1,0,0:0:0:0:
64,192,74710,128,8,74793:0:0:0:0:
192,192,74710,128,0,74793:0:0:0:0:
448,192,74710,128,0,74793:0:0:0:0:
192,192,74877,1,0,0:0:0:60:Tom 2.wav
320,192,74877,1,0,0:0:0:0:
64,192,75043,1,0,0:0:0:60:Tom 3.wav
448,192,75043,1,0,0:0:0:0:
64,192,75210,128,8,75627:0:0:0:0:
192,192,75210,128,0,75627:0:0:0:0:
448,192,75210,128,0,75627:0:0:0:0:
64,192,75710,1,8,0:0:0:0:
192,192,75710,1,0,0:0:0:0:
448,192,75710,1,0,0:0:0:0:
320,192,75793,1,0,0:0:0:60:Tom 1.wav
64,192,75877,1,0,0:0:0:60:Tom 2.wav
448,192,75877,1,0,0:0:0:0:
192,192,75960,1,2,0:0:0:0:
64,192,76043,128,2,76127:0:0:0:0:
320,192,76043,128,8,76127:0:0:0:0:
448,192,76043,128,0,76127:0:0:0:0:
64,192,76210,128,8,76293:0:0:0:0:
320,192,76210,128,2,76293:0:0:0:0:
448,192,76210,128,0,76293:0:0:0:0:
192,192,76377,1,8,0:0:0:0:
320,192,76377,1,0,0:0:0:0:
192,192,76543,1,2,0:0:0:0:
64,192,76710,1,2,0:0:0:0:
320,192,76710,128,0,76960:0:0:0:45:cymbal_loud.wav
448,192,76710,128,0,77043:0:0:0:0:
64,192,77043,1,8,0:0:0:0:
192,192,77043,1,0,0:0:0:0:
64,192,77210,128,2,77543:0:0:0:0:
192,192,77210,128,0,77460:0:0:0:45:cymbal_loud.wav
448,192,77210,1,0,0:0:0:0:
320,192,77543,1,8,0:0:0:0:
448,192,77543,1,0,0:0:0:0:
192,192,77710,1,0,0:0:0:60:Tom 1.wav
320,192,77710,1,0,0:0:0:0:
64,192,77877,128,2,78127:0:0:0:0:
192,192,77877,1,0,0:0:0:45:cymbal_loud.wav
448,192,77877,128,0,78210:0:0:0:0:
192,192,78210,1,2,0:0:0:0:
320,192,78210,1,0,0:0:0:0:
64,192,78377,1,8,0:0:0:0:
320,192,78377,1,0,0:0:0:0:
448,192,78377,1,0,0:0:0:0:
64,192,78543,128,2,78877:0:0:0:0:
192,192,78543,1,0,0:0:0:45:cymbal_loud.wav
448,192,78543,128,0,78793:0:0:0:0:
192,192,78710,1,8,0:0:0:0:
320,192,78710,1,0,0:0:0:0:
320,192,78877,1,8,0:0:0:0:
448,192,78877,1,0,0:0:0:0:
64,192,79043,1,0,0:0:0:60:Tom 1.wav
448,192,79043,1,0,0:0:0:0:
64,192,79210,128,2,79960:0:0:0:0:
192,192,79210,128,0,79793:0:0:0:45:cymbal_loud.wav
320,192,79210,128,0,79627:0:0:0:0:
448,192,79710,128,0,79793:0:0:0:0:
320,192,79877,128,0,79960:0:0:0:0:
192,192,80043,128,0,80127:0:0:0:0:
64,192,80210,128,0,80293:0:0:0:0:
320,192,80377,128,0,80460:0:0:0:0:
448,192,80543,128,0,80627:0:0:0:0:
64,192,80710,128,0,80793:0:0:0:0:
192,192,80877,128,0,80960:0:0:0:70:Snare Drum.wav
320,192,80877,1,0,0:0:0:0:
64,192,81043,1,8,0:0:0:0:
320,192,81043,1,0,0:0:0:45:cymbal_loud.wav
448,192,81043,1,0,0:0:0:0:
192,192,81210,1,0,0:0:0:60:Tom 1.wav
320,192,81293,1,0,0:0:0:60:Tom 2.wav
64,192,81377,128,8,81460:0:0:0:0:
192,192,81377,128,2,81460:0:0:0:0:
448,192,81377,128,0,81460:0:0:0:0:
64,192,81543,128,8,81627:0:0:0:0:
320,192,81543,128,2,81627:0:0:0:0:
448,192,81543,128,0,81627:0:0:0:0:
64,192,81710,1,8,0:0:0:0:
448,192,81710,1,0,0:0:0:0:
192,192,81877,1,0,0:0:0:60:Tom 2.wav
320,192,81877,1,0,0:0:0:0:
64,192,82043,128,2,82210:0:0:0:0:
320,192,82043,1,0,0:0:0:45:cymbal_loud.wav
448,192,82043,128,0,82210:0:0:0:0:
192,192,82210,1,0,0:0:0:0:
64,192,82377,1,8,0:0:0:0:
320,192,82377,1,0,0:0:0:0:
448,192,82377,1,0,0:0:0:0:
320,192,82543,1,0,0:0:0:0:
192,192,82710,1,0,0:0:0:0:
320,192,82877,1,2,0:0:0:0:
448,192,82877,1,0,0:0:0:0:
64,192,83043,1,8,0:0:0:0:
192,192,83043,1,0,0:0:0:0:
448,192,83043,1,0,0:0:0:0:
192,192,83210,128,0,83377:0:0:0:0:
320,192,83210,128,0,83377:0:0:0:0:
64,192,83377,1,2,0:0:0:0:
448,192,83377,1,0,0:0:0:0:
320,192,83543,1,0,0:0:0:0:
64,192,83710,1,8,0:0:0:0:
192,192,83710,1,0,0:0:0:0:
448,192,83710,1,0,0:0:0:0:
192,192,83877,1,0,0:0:0:0:
320,192,84043,1,0,0:0:0:0:
64,192,84210,128,2,84543:0:0:0:0:
192,192,84210,128,0,84460:0:0:0:0:
320,192,84377,1,8,0:0:0:0:
448,192,84377,1,0,0:0:0:0:
192,192,84543,1,2,0:0:0:0:
320,192,84543,1,0,0:0:0:0:
64,192,84710,128,2,84877:0:0:0:0:
448,192,84710,128,0,84877:0:0:0:0:
320,192,84877,1,0,0:0:0:0:
64,192,85043,1,8,0:0:0:0:
192,192,85043,128,0,85127:0:0:0:0:
448,192,85043,1,0,0:0:0:0:
192,192,85210,128,0,85293:0:0:0:0:
320,192,85377,1,0,0:0:0:0:
64,192,85543,1,2,0:0:0:0:
448,192,85543,128,0,85793:0:0:0:0:
64,192,85710,1,8,0:0:0:0:
192,192,85710,1,0,0:0:0:0:
320,192,85710,128,0,85960:0:0:0:0:
64,192,85877,128,0,86043:0:0:0:0:
192,192,85877,128,0,86043:0:0:0:0:
320,192,86043,1,2,0:0:0:0:
448,192,86043,1,0,0:0:0:0:
192,192,86210,128,2,86377:0:0:0:0:
320,192,86210,128,0,86377:0:0:0:0:
64,192,86377,1,8,0:0:0:0:
448,192,86377,1,0,0:0:0:0:
448,192,86543,128,0,86877:0:0:0:0:
320,192,86627,128,0,86877:0:0:0:0:
192,192,86710,1,0,0:0:0:0:
64,192,86877,1,2,0:0:0:0:
192,192,86877,1,0,0:0:0:0:
64,192,87043,1,8,0:0:0:0:
320,192,87043,128,0,87293:0:0:0:0:
448,192,87043,1,0,0:0:0:0:
192,192,87210,128,0,87293:0:0:0:0:
64,192,87377,128,2,87543:0:0:0:0:
192,192,87377,1,0,0:0:0:45:cymbal_loud.wav
448,192,87377,128,0,87543:0:0:0:0:
320,192,87543,1,0,0:0:0:0:
64,192,87710,128,8,87793:0:0:0:0:
192,192,87710,128,0,87877:0:0:0:0:
448,192,87710,1,0,0:0:0:0:
320,192,87877,1,0,0:0:0:0:
64,192,88043,128,0,88210:0:0:0:0:
448,192,88043,128,0,88127:0:0:0:0:
320,192,88210,128,2,88377:0:0:0:0:
448,192,88210,128,0,88543:0:0:0:0:
64,192,88377,1,8,0:0:0:0:
192,192,88377,1,0,0:0:0:0:
320,192,88543,1,0,0:0:0:0:
64,192,88710,128,2,88877:0:0:0:0:
192,192,88710,128,0,88877:0:0:0:0:
320,192,88877,1,0,0:0:0:0:
64,192,89043,128,8,89210:0:0:0:0:
192,192,89043,1,0,0:0:0:0:
448,192,89043,128,0,89377:0:0:0:0:
320,192,89210,128,0,89377:0:0:0:0:
192,192,89377,1,0,0:0:0:0:
64,192,89543,128,2,89877:0:0:0:0:
448,192,89543,128,0,89710:0:0:0:0:
192,192,89710,1,8,0:0:0:0:
320,192,89710,1,0,0:0:0:0:
320,192,89877,1,0,0:0:0:0:
64,192,90043,128,2,90210:0:0:0:0:
448,192,90043,128,0,90210:0:0:0:0:
192,192,90210,1,2,0:0:0:0:
320,192,90210,1,0,0:0:0:0:
64,192,90377,1,8,0:0:0:0:
192,192,90377,128,0,90460:0:0:0:0:
448,192,90377,1,0,0:0:0:0:
320,192,90543,1,0,0:0:0:0:
64,192,90710,1,8,0:0:0:0:
192,192,90710,1,0,0:0:0:0:
448,192,90710,1,0,0:0:0:0:
320,192,90877,1,0,0:0:0:60:Tom 2.wav
448,192,90877,1,0,0:0:0:0:
192,192,91043,1,2,0:0:0:0:
320,192,91043,1,0,0:0:0:60:Tom 3.wav
64,192,91210,128,2,91627:0:0:0:0:
192,192,91210,128,0,91460:0:0:0:45:cymbal_loud.wav
448,192,91210,128,0,91627:0:0:0:0:
192,192,91543,128,0,91627:0:0:0:0:
64,192,91710,1,8,0:0:0:0:
320,192,91710,1,0,0:0:0:0:
448,192,91710,1,0,0:0:0:0:
320,192,91877,1,0,0:0:0:0:
64,192,92043,128,8,92127:0:0:0:0:
192,192,92043,1,0,0:0:0:0:
448,192,92043,1,0,0:0:0:0:
192,192,92210,1,8,0:0:0:0:
320,192,92210,1,0,0:0:0:0:
64,192,92377,1,2,0:0:0:0:
320,192,92377,1,0,0:0:0:50:Tom 3.wav
448,192,92377,128,0,92460:0:0:0:0:
192,192,92543,1,0,0:0:0:60:Tom 3.wav
320,192,92543,1,0,0:0:0:0:
64,192,92710,128,2,92960:0:0:0:0:
192,192,92710,128,0,92960:0:0:0:45:cymbal_loud.wav
448,192,92710,128,0,92960:0:0:0:0:
320,192,92877,128,0,93127:0:0:0:0:
64,192,93043,1,8,0:0:0:0:
192,192,93043,128,0,93293:0:0:0:0:
448,192,93043,1,0,0:0:0:0:
320,192,93210,128,0,93460:0:0:0:0:
448,192,93377,128,0,93627:0:0:0:0:
64,192,93543,128,2,93960:0:0:0:0:
192,192,93543,1,0,0:0:0:0:
192,192,93710,128,8,93960:0:0:0:0:
320,192,93710,1,0,0:0:0:0:
448,192,93710,1,0,0:0:0:0:
320,192,93877,128,0,94127:0:0:0:0:
64,192,94043,1,2,0:0:0:0:
448,192,94043,128,0,94293:0:0:0:0:
192,192,94210,128,0,94460:0:0:0:0:
64,192,94377,1,8,0:0:0:0:
320,192,94377,128,0,94627:0:0:0:0:
448,192,94377,1,0,0:0:0:0:
64,192,94543,128,0,94793:0:0:0:0:
192,192,94710,128,0,94960:0:0:0:0:
320,192,94877,128,2,95127:0:0:0:0:
448,192,94877,1,0,0:0:0:0:
64,192,95043,1,8,0:0:0:0:
192,192,95043,1,0,0:0:0:0:
448,192,95043,128,0,95293:0:0:0:0:
320,192,95210,128,0,95293:0:0:0:0:
64,192,95377,128,2,95627:0:0:0:0:
448,192,95377,128,0,95627:0:0:0:0:
192,192,95543,128,0,95793:0:0:0:0:
64,192,95710,1,8,0:0:0:0:
320,192,95710,128,0,95960:0:0:0:0:
448,192,95710,1,0,0:0:0:0:
192,192,95877,128,0,96127:0:0:0:0:
64,192,96043,128,0,96293:0:0:0:0:
320,192,96210,1,2,0:0:0:0:
448,192,96210,128,0,96627:0:0:0:0:
64,192,96377,1,8,0:0:0:0:
192,192,96377,1,0,0:0:0:0:
320,192,96377,128,0,96627:0:0:0:0:
192,192,96543,128,0,96793:0:0:0:0:
64,192,96710,128,2,96960:0:0:0:0:
448,192,96710,1,0,0:0:0:0:
320,192,96877,128,0,97127:0:0:0:0:
64,192,97043,1,8,0:0:0:0:
192,192,97043,128,0,97293:0:0:0:0:
448,192,97043,1,0,0:0:0:0:
448,192,97210,128,0,97460:0:0:0:0:
320,192,97377,128,0,97627:0:0:0:0:
64,192,97543,1,2,0:0:0:0:
192,192,97543,128,0,97793:0:0:0:0:
64,192,97710,128,8,97960:0:0:0:0:
320,192,97710,1,0,0:0:0:0:
448,192,97710,1,0,0:0:0:0:
192,192,97877,128,0,97960:0:0:0:0:
64,192,98043,128,2,98293:0:0:0:0:
320,192,98043,128,0,98293:0:0:0:45:cymbal_loud.wav
448,192,98043,128,0,98293:0:0:0:0:
192,192,98210,128,0,98460:0:0:0:0:
64,192,98377,1,8,0:0:0:0:
320,192,98377,128,0,98627:0:0:0:0:
448,192,98377,1,0,0:0:0:0:
192,192,98543,128,0,98793:0:0:0:0:
64,192,98710,128,0,98960:0:0:0:0:
320,192,98877,1,2,0:0:0:0:
448,192,98877,128,0,99293:0:0:0:0:
64,192,99043,1,8,0:0:0:0:
192,192,99043,1,0,0:0:0:0:
320,192,99043,128,0,99293:0:0:0:0:
64,192,99210,128,0,99460:0:0:0:0:
192,192,99377,128,2,99627:0:0:0:0:
448,192,99377,1,0,0:0:0:0:
64,192,99543,1,2,0:0:0:0:
320,192,99543,128,0,99793:0:0:0:0:
64,192,99710,1,8,0:0:0:0:
192,192,99710,1,0,0:0:0:45:cymbal_loud.wav
448,192,99710,128,0,99960:0:0:0:0:
320,192,99877,128,0,99960:0:0:0:0:
64,192,100043,128,8,100127:0:0:0:0:
192,192,100043,1,0,0:0:0:0:
448,192,100043,1,0,0:0:0:0:
64,192,100210,1,8,0:0:0:0:
320,192,100210,1,0,0:0:0:0:
448,192,100210,128,0,100293:0:0:0:0:
192,192,100377,1,0,0:0:0:60:Tom 2.wav
320,192,100377,128,0,100460:0:0:0:0:
64,192,100543,1,0,0:0:0:60:Tom 3.wav
192,192,100543,128,0,100627:0:0:0:0:
64,192,100710,128,8,100793:0:0:0:0:
320,192,100710,128,0,100793:0:0:0:0:
448,192,100710,128,0,100960:0:0:0:0:
320,192,100877,1,2,0:0:0:0:
64,192,101043,128,8,101293:0:0:0:0:
192,192,101043,128,0,101127:0:0:0:0:
448,192,101043,128,0,101127:0:0:0:0:
192,192,101210,1,2,0:0:0:0:
64,192,101377,128,8,101460:0:0:0:0:
320,192,101377,128,0,101460:0:0:0:45:cymbal_loud.wav
448,192,101377,128,0,101460:0:0:0:0:
320,192,101543,1,0,0:0:0:60:Tom 1.wav
64,192,101627,128,2,101710:0:0:0:0:
192,192,101627,128,0,101710:0:0:0:60:Tom 2.wav
448,192,101627,128,0,101710:0:0:0:0:
64,192,101877,128,8,102127:0:0:0:0:
320,192,101877,128,0,102293:0:0:0:45:cymbal_loud.wav
448,192,101877,128,0,102460:0:0:0:0:
64,192,102210,1,8,0:0:0:0:
192,192,102210,128,0,102293:0:0:0:0:
64,192,102377,128,8,102627:0:0:0:0:
320,192,102377,128,0,102460:0:0:0:0:
192,192,102543,128,0,102793:0:0:0:0:
448,192,102543,128,0,102627:0:0:0:0:
64,192,102710,1,8,0:0:0:0:
320,192,102710,128,0,102960:0:0:0:25:cymbal_loud.wav
448,192,102710,128,0,103127:0:0:0:0:
64,192,102877,1,2,0:0:0:0:
192,192,102877,1,0,0:0:0:60:Tom 1.wav
192,192,103043,1,0,0:0:0:60:Tom 2.wav
320,192,103043,1,0,0:0:0:0:
320,192,103210,1,0,0:0:0:60:Tom 3.wav
448,192,103210,1,0,0:0:0:0:
64,192,103377,128,2,103710:0:0:0:0:
192,192,103377,128,0,103627:0:0:0:45:cymbal_loud.wav
448,192,103377,1,0,0:0:0:0:
320,192,103543,1,0,0:0:0:0:
448,192,103710,128,0,103960:0:0:0:0:
64,192,103877,1,2,0:0:0:0:
192,192,103877,1,0,0:0:0:0:
64,192,104043,1,8,0:0:0:0:
320,192,104043,128,0,104293:0:0:0:0:
448,192,104210,1,0,0:0:0:0:
192,192,104377,128,0,104627:0:0:0:0:
320,192,104543,128,0,104710:0:0:0:0:
64,192,104710,128,2,105293:0:0:0:0:
448,192,104710,128,0,104877:0:0:0:0:
192,192,104877,1,0,0:0:0:0:
448,192,104960,128,2,105127:0:0:0:0:
192,192,105043,128,0,105293:0:0:0:0:
320,192,105210,128,2,105710:0:0:0:0:
448,192,105210,128,0,105543:0:0:0:0:
64,192,105377,1,8,0:0:0:0:
192,192,105377,1,0,0:0:0:0:
64,192,105543,128,0,106043:0:0:0:0:
448,192,105710,1,0,0:0:0:0:
192,192,105877,1,2,0:0:0:0:
320,192,106043,128,2,106293:0:0:0:0:
448,192,106043,128,0,106377:0:0:0:0:
192,192,106210,1,0,0:0:0:0:
64,192,106377,128,0,106627:0:0:0:0:
320,192,106543,1,2,0:0:0:0:
448,192,106543,1,0,0:0:0:0:
64,192,106710,1,8,0:0:0:0:
448,192,106710,128,0,106960:0:0:0:0:
64,192,106877,1,0,0:0:0:0:
192,192,106877,1,0,0:0:0:0:
320,192,107043,1,2,0:0:0:0:
448,192,107043,1,0,0:0:0:0:
64,192,107210,128,2,107543:0:0:0:0:
192,192,107210,1,0,0:0:0:45:cymbal_loud.wav
448,192,107210,128,0,107377:0:0:0:0:
320,192,107377,1,0,0:0:0:0:
192,192,107543,1,0,0:0:0:0:
64,192,107710,1,8,0:0:0:0:
448,192,107710,1,0,0:0:0:0:
192,192,107877,128,2,108127:0:0:0:0:
320,192,107877,128,0,108043:0:0:0:0:
64,192,108210,128,8,108293:0:0:0:0:
320,192,108210,128,2,108293:0:0:0:0:
448,192,108210,128,0,108293:0:0:0:0:
64,192,108377,128,8,108460:0:0:0:0:
320,192,108377,128,2,108460:0:0:0:0:
448,192,108377,128,0,108460:0:0:0:0:
192,192,108543,1,0,0:0:0:0:
320,192,108627,1,0,0:0:0:0:
64,192,108710,128,2,109293:0:0:0:0:
448,192,108710,128,0,108960:0:0:0:0:
192,192,108877,1,0,0:0:0:0:
320,192,109043,128,2,109127:0:0:0:0:
448,192,109043,128,0,109627:0:0:0:0:
192,192,109210,1,0,0:0:0:0:
64,192,109377,128,2,109960:0:0:0:0:
192,192,109377,128,0,109460:0:0:0:0:
320,192,109543,1,0,0:0:0:0:
320,192,109710,128,2,109793:0:0:0:0:
448,192,109710,128,0,110293:0:0:0:0:
192,192,109877,1,0,0:0:0:0:
64,192,110043,128,2,110627:0:0:0:0:
192,192,110043,128,0,110127:0:0:0:0:
320,192,110210,1,0,0:0:0:0:
320,192,110377,128,2,110460:0:0:0:0:
448,192,110377,128,0,110627:0:0:0:0:
192,192,110543,1,0,0:0:0:0:
64,192,110710,1,8,0:0:0:0:
320,192,110710,128,0,110793:0:0:0:0:
448,192,110710,128,0,110793:0:0:0:0:
64,192,110877,128,8,110960:0:0:0:0:
192,192,110877,128,0,110960:0:0:0:0:
448,192,110877,1,0,0:0:0:0:
192,192,111043,1,0,0:0:0:60:Tom 2.wav
320,192,111043,1,0,0:0:0:0:
64,192,111210,128,2,111627:0:0:0:0:
320,192,111210,128,0,111627:0:0:0:45:cymbal_loud.wav
448,192,111210,128,0,111627:0:0:0:0:
64,192,111710,128,8,111793:0:0:0:0:
320,192,111710,128,0,111793:0:0:0:0:
448,192,111710,128,0,111793:0:0:0:0:
192,192,111877,1,0,0:0:0:0:
64,192,112043,128,8,112127:0:0:0:0:
192,192,112043,128,0,112127:0:0:0:0:
320,192,112043,128,0,112127:0:0:0:0:
64,192,112210,1,0,0:0:0:70:Snare Drum.wav
448,192,112210,1,0,0:0:0:0:
192,192,112377,128,8,112460:0:0:0:0:
320,192,112377,128,0,112460:0:0:0:60:Tom 2.wav
448,192,112377,128,0,112460:0:0:0:0:
64,192,112543,128,0,112793:0:0:0:45:cymbal_loud.wav
192,192,112543,128,0,112627:0:0:0:0:
448,192,112543,128,0,112793:0:0:0:0:
192,192,112710,1,2,0:0:0:0:
320,192,112710,1,0,0:0:0:0:
64,192,112877,1,8,0:0:0:0:
320,192,112877,1,0,0:0:0:0:
448,192,112877,1,0,0:0:0:0:
192,192,113043,1,8,0:0:0:0:
320,192,113043,1,0,0:0:0:0:
64,192,113210,128,2,113460:0:0:0:0:
192,192,113210,128,0,113377:0:0:0:60:Tom 2.wav
448,192,113210,1,0,0:0:0:0:
320,192,113377,1,8,0:0:0:0:
448,192,113377,1,0,0:0:0:0:
192,192,113543,1,8,0:0:0:0:
320,192,113543,128,0,113710:0:0:0:0:
448,192,113543,128,0,113793:0:0:0:0:
64,192,113710,1,8,0:0:0:0:
192,192,113710,1,2,0:0:0:0:
320,192,113793,1,8,0:0:0:0:
64,192,113877,1,8,0:0:0:0:
448,192,113877,1,0,0:0:0:60:Tom 2.wav
64,192,114043,128,2,114543:0:0:0:0:
320,192,114043,128,0,114210:0:0:0:45:cymbal_loud.wav
448,192,114043,128,0,114210:0:0:0:0:
192,192,114377,1,8,0:0:0:0:
320,192,114377,128,0,114710:0:0:0:0:
448,192,114377,128,0,114710:0:0:0:0:
64,192,114710,128,0,115043:0:0:0:0:
192,192,114877,128,2,115043:0:0:0:0:
448,192,114877,1,0,0:0:0:0:
320,192,115043,1,8,0:0:0:0:
448,192,115043,1,0,0:0:0:0:
64,192,115210,128,2,115377:0:0:0:0:
192,192,115210,128,0,115377:0:0:0:0:
448,192,115377,1,0,0:0:0:0:
192,192,115543,128,2,115710:0:0:0:0:
320,192,115543,128,0,115710:0:0:0:0:
64,192,115710,1,8,0:0:0:0:
448,192,115710,1,0,0:0:0:0:
320,192,115877,128,2,116210:0:0:0:0:
448,192,115877,128,0,116377:0:0:0:0:
192,192,116043,1,0,0:0:0:0:
64,192,116210,1,2,0:0:0:0:
192,192,116210,1,0,0:0:0:0:
64,192,116377,1,8,0:0:0:0:
320,192,116377,1,0,0:0:0:0:
320,192,116543,1,0,0:0:0:0:
64,192,116710,128,2,116877:0:0:0:0:
192,192,116710,128,0,116877:0:0:0:0:
448,192,116710,128,0,117210:0:0:0:0:
64,192,117043,128,8,117377:0:0:0:0:
192,192,117043,128,0,117377:0:0:0:0:
320,192,117043,1,0,0:0:0:0:
448,192,117377,128,0,117710:0:0:0:0:
192,192,117543,1,2,0:0:0:0:
320,192,117543,128,0,117710:0:0:0:0:
64,192,117710,1,8,0:0:0:0:
192,192,117710,1,0,0:0:0:0:
320,192,117877,128,2,118543:0:0:0:0:
448,192,117877,128,0,118210:0:0:0:0:
64,192,118043,1,0,0:0:0:0:
192,192,118210,1,0,0:0:0:0:
64,192,118377,1,8,0:0:0:0:
192,192,118377,128,0,118877:0:0:0:0:
448,192,118377,1,0,0:0:0:0:
448,192,118543,1,2,0:0:0:0:
64,192,118710,128,0,119210:0:0:0:0:
320,192,118710,1,0,0:0:0:0:
320,192,118877,1,8,0:0:0:0:
448,192,118877,1,2,0:0:0:0:
192,192,119043,1,8,0:0:0:0:
448,192,119043,128,0,119543:0:0:0:0:
320,192,119210,128,0,119543:0:0:0:0:
64,192,119377,128,2,119543:0:0:0:0:
192,192,119377,128,0,119877:0:0:0:45:cymbal_loud.wav
64,192,119710,128,8,120043:0:0:0:0:
320,192,119710,1,0,0:0:0:0:
448,192,119710,1,0,0:0:0:0:
448,192,119877,128,0,120210:0:0:0:0:
320,192,120043,128,0,120377:0:0:0:0:
64,192,120210,1,2,0:0:0:0:
192,192,120210,1,0,0:0:0:0:
64,192,120377,128,8,120460:0:0:0:0:
192,192,120377,128,0,120460:0:0:0:0:
64,192,120543,128,2,120710:0:0:0:0:
448,192,120543,128,0,120877:0:0:0:0:
320,192,120710,1,0,0:0:0:0:
192,192,120877,128,0,121043:0:0:0:0:
320,192,120877,128,0,121293:0:0:0:0:
64,192,121043,1,8,0:0:0:0:
448,192,121043,1,0,0:0:0:0:
64,192,121210,128,2,121627:0:0:0:0:
192,192,121210,128,0,121460:0:0:0:0:
448,192,121377,128,0,121627:0:0:0:0:
192,192,121543,1,2,0:0:0:0:
320,192,121543,128,0,121793:0:0:0:0:
64,192,121710,1,8,0:0:0:0:
192,192,121710,128,0,121960:0:0:0:0:
448,192,121710,1,0,0:0:0:0:
320,192,121877,1,0,0:0:0:0:
64,192,122043,128,2,122293:0:0:0:0:
192,192,122043,1,0,0:0:0:0:
448,192,122043,128,0,122293:0:0:0:0:
320,192,122210,128,0,122460:0:0:0:0:
64,192,122377,1,8,0:0:0:0:
192,192,122377,128,0,122627:0:0:0:0:
448,192,122377,1,0,0:0:0:0:
64,192,122543,128,0,122960:0:0:0:0:
448,192,122543,128,0,122960:0:0:0:0:
320,192,122710,1,0,0:0:0:0:
192,192,122877,128,2,123127:0:0:0:0:
64,192,123043,1,8,0:0:0:0:
320,192,123043,128,0,123293:0:0:0:0:
448,192,123043,1,0,0:0:0:0:
64,192,123210,128,2,123460:0:0:0:0:
192,192,123210,128,0,123460:0:0:0:45:cymbal_loud.wav
448,192,123210,128,0,123460:0:0:0:0:
64,192,123543,128,8,123627:0:0:0:0:
192,192,123543,128,0,123627:0:0:0:0:
448,192,123543,128,0,123627:0:0:0:0:
64,192,123710,128,8,123793:0:0:0:0:
320,192,123710,128,0,123793:0:0:0:0:
448,192,123710,128,0,123793:0:0:0:0:
192,192,123877,1,0,0:0:0:60:Tom 2.wav
320,192,123877,1,0,0:0:0:0:
64,192,124043,128,2,124127:0:0:0:0:
192,192,124043,128,0,124127:0:0:0:0:
448,192,124043,128,0,124127:0:0:0:0:
64,192,124210,1,8,0:0:0:0:
192,192,124210,1,0,0:0:0:0:
448,192,124210,1,0,0:0:0:0:
320,192,124377,1,8,0:0:0:0:
448,192,124377,1,0,0:0:0:0:
64,192,124460,1,8,0:0:0:0:
192,192,124460,1,0,0:0:0:0:
320,192,124543,1,8,0:0:0:0:
64,192,124710,128,2,124877:0:0:0:0:
192,192,124710,128,0,124877:0:0:0:45:cymbal_loud.wav
448,192,124710,128,0,125210:0:0:0:0:
64,192,125043,128,8,125377:0:0:0:0:
192,192,125043,128,0,125377:0:0:0:0:
320,192,125043,1,0,0:0:0:0:
448,192,125377,128,0,125710:0:0:0:0:
64,192,125543,1,2,0:0:0:0:
320,192,125543,128,0,125710:0:0:0:0:
64,192,125710,1,8,0:0:0:0:
192,192,125710,1,0,0:0:0:0:
320,192,125877,128,2,126043:0:0:0:0:
448,192,125877,128,0,126043:0:0:0:0:
64,192,126043,1,0,0:0:0:0:
192,192,126210,128,0,126377:0:0:0:0:
320,192,126210,128,0,126377:0:0:0:0:
64,192,126377,1,8,0:0:0:0:
448,192,126377,1,0,0:0:0:0:
64,192,126543,128,2,127043:0:0:0:0:
192,192,126543,128,0,126877:0:0:0:0:
320,192,126710,1,0,0:0:0:0:
320,192,126877,1,2,0:0:0:0:
448,192,126877,1,0,0:0:0:0:
192,192,127043,1,8,0:0:0:0:
448,192,127043,1,0,0:0:0:0:
192,192,127210,1,0,0:0:0:0:
64,192,127377,128,2,127877:0:0:0:0:
320,192,127377,128,0,127543:0:0:0:0:
448,192,127377,128,0,127543:0:0:0:0:
192,192,127710,1,8,0:0:0:0:
320,192,127710,128,0,128043:0:0:0:0:
448,192,127710,128,0,128043:0:0:0:0:
64,192,128043,128,0,128377:0:0:0:0:
192,192,128210,128,2,128377:0:0:0:0:
320,192,128210,1,0,0:0:0:0:
320,192,128377,1,8,0:0:0:0:
448,192,128377,1,0,0:0:0:0:
64,192,128543,128,2,128960:0:0:0:0:
192,192,128543,128,0,128793:0:0:0:0:
448,192,128543,1,0,0:0:0:0:
320,192,128710,1,0,0:0:0:0:
192,192,128877,1,0,0:0:0:0:
64,192,129043,1,8,0:0:0:0:
320,192,129043,1,0,0:0:0:0:
448,192,129043,1,0,0:0:0:0:
64,192,129210,1,2,0:0:0:0:
320,192,129210,128,0,129460:0:0:0:0:
448,192,129210,128,0,129627:0:0:0:0:
192,192,129377,1,0,0:0:0:0:
64,192,129543,1,8,0:0:0:0:
320,192,129543,1,2,0:0:0:0:
64,192,129710,128,8,129877:0:0:0:0:
192,192,129710,128,0,129877:0:0:0:0:
448,192,129710,128,0,129877:0:0:0:0:
64,192,130043,128,8,130127:0:0:0:0:
192,192,130043,128,0,130127:0:0:0:45:cymbal_loud.wav
320,192,130043,128,0,130127:0:0:0:0:
448,192,130043,128,0,130127:0:0:0:0:
320,192,130210,1,2,0:0:0:0:
448,192,130210,1,0,0:0:0:0:
64,192,130377,128,8,130710:0:0:0:0:
192,192,130377,1,0,0:0:0:0:
448,192,130377,1,0,0:0:0:0:
192,192,130543,1,2,0:0:0:0:
320,192,130543,1,0,0:0:0:0:
320,192,130710,1,8,0:0:0:0:
448,192,130710,128,0,130877:0:0:0:0:
64,192,130877,1,2,0:0:0:0:
192,192,130877,128,0,131043:0:0:0:0:
64,192,131043,1,8,0:0:0:0:
320,192,131043,1,0,0:0:0:0:
448,192,131043,1,0,0:0:0:0:
192,192,131210,1,2,0:0:0:0:
320,192,131210,128,0,131543:0:0:0:0:
64,192,131377,1,8,0:0:0:0:
448,192,131377,1,0,0:0:0:0:
64,192,131543,1,2,0:0:0:0:
192,192,131543,1,0,0:0:0:0:
192,192,131710,128,8,131877:0:0:0:0:
320,192,131710,1,0,0:0:0:0:
448,192,131710,1,0,0:0:0:0:
64,192,131877,1,2,0:0:0:0:
448,192,131877,128,0,132043:0:0:0:0:
64,192,132043,1,8,0:0:0:0:
192,192,132043,1,0,0:0:0:0:
320,192,132043,1,0,0:0:0:0:
192,192,132210,1,2,0:0:0:0:
320,192,132210,128,0,132377:0:0:0:0:
64,192,132377,1,8,0:0:0:0:
448,192,132377,1,0,0:0:0:0:
64,192,132543,128,8,132877:0:0:0:0:
192,192,132543,128,0,132793:0:0:0:45:cymbal_loud.wav
320,192,132543,128,0,132710:0:0:0:0:
448,192,132543,128,0,132710:0:0:0:0:
320,192,132877,1,2,0:0:0:0:
448,192,132877,1,0,0:0:0:0:
64,192,133043,128,8,133127:0:0:0:0:
192,192,133043,128,0,133127:0:0:0:0:
448,192,133043,128,0,133127:0:0:0:0:
192,192,133210,1,0,0:0:0:0:
64,192,133377,128,8,133460:0:0:0:0:
320,192,133377,128,0,133460:0:0:0:0:
448,192,133377,128,0,133460:0:0:0:0:
192,192,133543,1,0,0:0:0:60:Tom 2.wav
320,192,133543,1,0,0:0:0:0:
64,192,133710,1,0,0:0:0:60:Tom 3.wav
448,192,133710,1,0,0:0:0:0:
64,192,133877,128,8,134293:0:0:0:0:
320,192,133877,128,0,134293:0:0:0:0:
448,192,133877,128,0,134293:0:0:0:0:
64,192,134377,1,8,0:0:0:0:
320,192,134377,1,0,0:0:0:0:
448,192,134377,1,0,0:0:0:0:
192,192,134460,1,0,0:0:0:60:Tom 1.wav
64,192,134543,1,0,0:0:0:60:Tom 2.wav
448,192,134543,1,0,0:0:0:0:
320,192,134627,1,2,0:0:0:0:
64,192,134710,128,2,134793:0:0:0:0:
192,192,134710,128,8,134793:0:0:0:0:
448,192,134710,128,0,134793:0:0:0:0:
64,192,134877,128,8,134960:0:0:0:0:
192,192,134877,128,2,134960:0:0:0:0:
448,192,134877,128,0,134960:0:0:0:0:
192,192,135043,1,8,0:0:0:0:
320,192,135043,1,0,0:0:0:0:
320,192,135210,1,2,0:0:0:0:
64,192,135377,128,2,136043:0:0:0:0:
192,192,135377,128,0,135710:0:0:0:45:cymbal_loud.wav
448,192,135377,1,0,0:0:0:0:
320,192,135710,1,8,0:0:0:0:
448,192,135710,1,0,0:0:0:0:
320,192,135877,1,0,0:0:0:0:
192,192,136043,1,2,0:0:0:0:
448,192,136043,1,0,0:0:0:0:
192,192,136210,1,2,0:0:0:0:
320,192,136210,1,0,0:0:0:0:
64,192,136377,1,8,0:0:0:0:
320,192,136377,1,0,0:0:0:0:
448,192,136377,1,0,0:0:0:0:
192,192,136543,128,0,136877:0:0:0:0:
320,192,136710,128,2,137210:0:0:0:0:
448,192,136710,1,0,0:0:0:0:
64,192,136877,1,0,0:0:0:0:
64,192,137043,1,8,0:0:0:0:
192,192,137043,128,0,137543:0:0:0:0:
448,192,137043,1,0,0:0:0:0:
448,192,137210,1,2,0:0:0:0:
64,192,137377,128,0,138043:0:0:0:0:
320,192,137543,1,2,0:0:0:0:
448,192,137543,1,0,0:0:0:0:
192,192,137710,128,8,138043:0:0:0:0:
448,192,137710,1,0,0:0:0:0:
320,192,137877,1,0,0:0:0:0:
320,192,138043,128,2,138293:0:0:0:0:
448,192,138043,128,0,138293:0:0:0:45:cymbal_loud.wav
192,192,138210,1,0,0:0:0:0:
64,192,138377,1,8,0:0:0:0:
320,192,138377,128,0,138460:0:0:0:0:
448,192,138377,128,0,138543:0:0:0:0:
64,192,138543,128,0,139043:0:0:0:0:
192,192,138710,1,2,0:0:0:0:
320,192,138710,1,0,0:0:0:0:
320,192,138877,1,2,0:0:0:0:
448,192,138877,1,0,0:0:0:0:
192,192,139043,1,8,0:0:0:0:
448,192,139043,128,0,139627:0:0:0:0:
64,192,139210,128,0,139627:0:0:0:0:
320,192,139377,1,2,0:0:0:0:
192,192,139543,1,0,0:0:0:0:
64,192,139710,1,8,0:0:0:0:
320,192,139710,1,0,0:0:0:0:
448,192,139710,1,0,0:0:0:0:
192,192,139877,1,2,0:0:0:0:
320,192,139877,1,0,0:0:0:0:
64,192,140043,1,0,0:0:0:0:
320,192,140210,1,2,0:0:0:0:
448,192,140210,1,0,0:0:0:0:
64,192,140377,1,8,0:0:0:0:
192,192,140377,128,0,140877:0:0:0:0:
448,192,140377,1,0,0:0:0:0:
320,192,140543,128,0,140710:0:0:0:0:
64,192,140710,128,2,141043:0:0:0:0:
448,192,140710,1,0,0:0:0:45:cymbal_loud.wav
320,192,140877,1,0,0:0:0:0:
192,192,141043,1,8,0:0:0:0:
320,192,141043,128,0,141377:0:0:0:0:
448,192,141043,1,0,0:0:0:0:
64,192,141210,128,0,141543:0:0:0:0:
192,192,141377,1,2,0:0:0:0:
448,192,141377,1,0,0:0:0:0:
192,192,141543,1,2,0:0:0:0:
320,192,141543,1,0,0:0:0:0:
64,192,141710,1,8,0:0:0:0:
320,192,141710,1,0,0:0:0:0:
448,192,141710,1,0,0:0:0:0:
192,192,141877,1,0,0:0:0:0:
64,192,142043,1,2,0:0:0:0:
320,192,142043,1,0,0:0:0:45:cymbal_loud.wav
448,192,142043,128,0,142543:0:0:0:0:
192,192,142210,1,0,0:0:0:0:
64,192,142377,1,8,0:0:0:0:
320,192,142377,128,0,142877:0:0:0:0:
64,192,142543,1,2,0:0:0:0:
192,192,142543,1,0,0:0:0:0:
192,192,142710,128,0,143377:0:0:0:0:
64,192,142877,1,2,0:0:0:0:
448,192,142877,1,0,0:0:0:0:
320,192,143043,128,8,143377:0:0:0:0:
448,192,143043,1,0,0:0:0:0:
64,192,143210,1,0,0:0:0:0:
64,192,143377,128,2,143710:0:0:0:0:
448,192,143377,128,0,143960:0:0:0:45:cymbal_loud.wav
320,192,143543,1,0,0:0:0:0:
192,192,143710,1,8,0:0:0:0:
320,192,143710,1,0,0:0:0:0:
64,192,143877,128,0,143960:0:0:0:0:
192,192,143877,128,0,143960:0:0:0:0:
64,192,144043,128,2,144293:0:0:0:0:
448,192,144043,128,0,144210:0:0:0:0:
192,192,144210,1,2,0:0:0:0:
320,192,144210,1,0,0:0:0:0:
64,192,144377,1,8,0:0:0:0:
320,192,144377,1,0,0:0:0:0:
448,192,144377,1,0,0:0:0:0:
320,192,144543,1,0,0:0:0:0:
64,192,144710,128,2,144793:0:0:0:0:
192,192,144710,128,0,144793:0:0:0:45:cymbal_loud.wav
448,192,144710,128,0,144793:0:0:0:0:
192,192,144877,1,8,0:0:0:0:
320,192,144877,1,0,0:0:0:0:
448,192,144877,1,0,0:0:0:0:
64,192,145043,1,8,0:0:0:0:
192,192,145043,1,0,0:0:0:0:
320,192,145043,1,0,0:0:0:0:
64,192,145210,1,2,0:0:0:0:
448,192,145210,1,8,0:0:0:0:
192,192,145293,1,8,0:0:0:0:
320,192,145293,1,0,0:0:0:0:
64,192,145377,1,8,0:0:0:0:
448,192,145377,1,0,0:0:0:0:
192,192,145543,1,8,0:0:0:0:
320,192,145543,1,2,0:0:0:0:
448,192,145543,1,0,0:0:0:0:
64,192,145710,1,8,0:0:0:0:
192,192,145710,1,0,0:0:0:0:
320,192,145793,1,8,0:0:0:0:
448,192,145793,1,0,0:0:0:0:
192,192,145877,1,8,0:0:0:0:
64,192,146043,1,2,0:0:0:0:
320,192,146043,128,0,146127:0:0:0:45:cymbal_loud.wav
448,192,146043,128,0,146293:0:0:0:0:
192,192,146210,1,0,0:0:0:0:
192,192,146377,128,2,146460:0:0:0:0:
320,192,146377,1,8,0:0:0:0:
448,192,146377,128,0,146627:0:0:0:0:
64,192,146543,1,0,0:0:0:0:
64,192,146710,128,2,146793:0:0:0:0:
192,192,146710,1,0,0:0:0:0:
448,192,146710,128,0,146960:0:0:0:0:
320,192,146877,1,0,0:0:0:0:
64,192,147043,1,2,0:0:0:0:
320,192,147043,128,8,147127:0:0:0:0:
448,192,147043,128,0,147293:0:0:0:0:
192,192,147210,1,0,0:0:0:0:
64,192,147377,128,2,147627:0:0:0:0:
192,192,147377,128,0,147460:0:0:0:0:
448,192,147377,1,0,0:0:0:0:
320,192,147543,1,0,0:0:0:0:
64,192,147710,128,2,147960:0:0:0:0:
192,192,147710,1,8,0:0:0:0:
320,192,147710,128,0,147793:0:0:0:0:
448,192,147877,1,0,0:0:0:0:
64,192,148043,128,2,148293:0:0:0:0:
320,192,148043,1,0,0:0:0:0:
448,192,148043,128,0,148127:0:0:0:0:
192,192,148210,1,0,0:0:0:0:
64,192,148377,128,8,148627:0:0:0:0:
192,192,148377,128,2,148460:0:0:0:0:
448,192,148377,1,0,0:0:0:0:
320,192,148543,1,0,0:0:0:0:
64,192,148710,128,2,148793:0:0:0:0:
192,192,148710,128,0,148960:0:0:0:0:
448,192,148710,1,0,0:0:0:0:
320,192,148877,1,0,0:0:0:0:
64,192,149043,1,8,0:0:0:0:
192,192,149043,128,2,149127:0:0:0:0:
320,192,149043,128,0,149293:0:0:0:0:
448,192,149210,1,0,0:0:0:0:
192,192,149377,1,2,0:0:0:0:
320,192,149377,128,0,149460:0:0:0:0:
448,192,149377,128,0,149627:0:0:0:0:
64,192,149543,1,0,0:0:0:0:
64,192,149710,128,8,150043:0:0:0:0:
192,192,149710,1,2,0:0:0:0:
448,192,149710,128,0,149877:0:0:0:45:cymbal_loud.wav
320,192,149877,1,0,0:0:0:0:
192,192,150043,1,2,0:0:0:0:
448,192,150043,1,0,0:0:0:0:
64,192,150210,1,8,0:0:0:0:
320,192,150210,128,0,150377:0:0:0:45:cymbal_loud.wav
448,192,150210,128,0,150543:0:0:0:0:
64,192,150377,1,2,0:0:0:0:
192,192,150377,1,0,0:0:0:0:
320,192,150543,1,0,0:0:0:0:
64,192,150710,128,8,151043:0:0:0:0:
192,192,150710,128,0,150877:0:0:0:45:cymbal_loud.wav
448,192,150710,1,0,0:0:0:0:
320,192,150877,1,0,0:0:0:60:Tom 1.wav
448,192,150877,1,0,0:0:0:0:
192,192,151043,1,2,0:0:0:0:
320,192,151043,1,0,0:0:0:60:Tom 2.wav
64,192,151210,1,0,0:0:0:60:Tom 3.wav
192,192,151210,1,0,0:0:0:0:
64,192,151377,1,2,0:0:0:0:
320,192,151377,128,0,151627:0:0:0:45:cymbal_loud.wav
448,192,151377,128,0,151627:0:0:0:0:
320,192,151710,1,8,0:0:0:0:
448,192,151710,1,0,0:0:0:0:
64,192,151877,128,2,152127:0:0:0:0:
192,192,151877,128,0,152127:0:0:0:0:
448,192,151877,1,0,0:0:0:0:
320,192,152043,1,0,0:0:0:0:
192,192,152210,1,0,0:0:0:0:
64,192,152377,1,8,0:0:0:0:
320,192,152377,128,0,152627:0:0:0:0:
448,192,152377,128,0,152710:0:0:0:0:
192,192,152543,1,0,0:0:0:0:
320,192,152710,1,0,0:0:0:0:
64,192,152877,128,8,153210:0:0:0:0:
192,192,152877,1,0,0:0:0:0:
448,192,152877,128,0,153127:0:0:0:0:
192,192,153043,1,8,0:0:0:0:
320,192,153043,1,0,0:0:0:0:
320,192,153210,1,2,0:0:0:0:
448,192,153210,1,0,0:0:0:0:
64,192,153377,128,8,153543:0:0:0:0:
192,192,153377,128,0,153543:0:0:0:45:cymbal_loud.wav
448,192,153377,1,0,0:0:0:0:
320,192,153543,1,8,0:0:0:0:
448,192,153543,1,0,0:0:0:0:
64,192,153710,1,8,0:0:0:0:
192,192,153710,128,2,153877:0:0:0:0:
320,192,153710,128,0,153877:0:0:0:0:
64,192,153877,1,0,0:0:0:60:Tom 2.wav
448,192,153877,1,0,0:0:0:0:
192,192,154043,1,2,0:0:0:0:
320,192,154043,128,0,154210:0:0:0:45:cymbal_loud.wav
448,192,154043,128,0,154210:0:0:0:0:
64,192,154210,1,0,0:0:0:0:
192,192,154377,128,0,154460:0:0:0:0:
192,192,154543,1,0,0:0:0:0:
320,192,154710,128,0,154793:0:0:0:0:
64,192,154877,1,8,0:0:0:0:
320,192,154877,1,2,0:0:0:0:
448,192,154877,1,0,0:0:0:0:
192,192,155043,1,0,0:0:0:0:
64,192,155210,128,8,155460:0:0:0:0:
320,192,155210,128,2,155460:0:0:0:0:
448,192,155210,128,0,155460:0:0:0:45:cymbal_loud.wav
192,192,155377,1,0,0:0:0:0:
64,192,155543,128,8,155793:0:0:0:0:
320,192,155543,128,2,155793:0:0:0:0:
448,192,155543,128,0,155793:0:0:0:0:
192,192,155710,1,0,0:0:0:0:
64,192,155877,128,2,156127:0:0:0:0:
320,192,155877,128,0,155960:0:0:0:0:
448,192,155877,128,0,155960:0:0:0:0:
192,192,156043,128,8,156127:0:0:0:0:
320,192,156043,128,0,156127:0:0:0:0:
448,192,156043,128,0,156293:0:0:0:0:
64,192,156210,128,8,156293:0:0:0:0:
192,192,156210,128,0,156293:0:0:0:0:
320,192,156210,1,0,0:0:0:0:
64,192,156377,1,0,0:0:0:60:Tom 3.wav
448,192,156377,1,0,0:0:0:0:
64,192,156710,128,2,156960:0:0:0:0:
448,192,156710,128,0,157127:0:0:0:0:
192,192,156877,128,0,157127:0:0:0:0:
320,192,157043,128,0,157293:0:0:0:0:
64,192,157210,128,2,157627:0:0:0:0:
448,192,157210,128,0,157460:0:0:0:0:
320,192,157377,128,0,157627:0:0:0:0:
192,192,157543,128,0,157793:0:0:0:0:
64,192,157710,128,2,158043:0:0:0:0:
448,192,157710,128,0,158043:0:0:0:0:
64,192,158210,128,8,158293:0:0:0:0:
320,192,158210,128,0,158293:0:0:0:0:
448,192,158210,128,0,158293:0:0:0:0:
64,192,158377,128,8,158543:0:0:0:0:
320,192,158377,128,2,158543:0:0:0:0:
448,192,158377,128,0,158543:0:0:0:0:
64,192,158710,128,8,158793:0:0:0:0:
192,192,158710,128,2,158793:0:0:0:0:
448,192,158710,128,0,158793:0:0:0:0:
192,192,158877,1,8,0:0:0:0:
320,192,158877,1,2,0:0:0:0:
64,192,159043,128,2,159210:0:0:0:0:
448,192,159043,128,0,159293:0:0:0:0:
192,192,159127,128,0,159293:0:0:0:0:
320,192,159210,128,0,159377:0:0:0:0:
64,192,159377,128,2,159627:0:0:0:0:
192,192,159377,128,0,159627:0:0:0:45:cymbal_loud.wav
448,192,159377,128,0,159960:0:0:0:0:
64,192,159710,128,8,160210:0:0:0:0:
192,192,159710,128,0,160043:0:0:0:0:
320,192,159710,1,0,0:0:0:0:
448,192,160043,128,0,160377:0:0:0:0:
192,192,160210,1,2,0:0:0:0:
320,192,160210,128,0,160377:0:0:0:0:
64,192,160377,1,8,0:0:0:0:
192,192,160377,1,0,0:0:0:0:
320,192,160543,128,2,160710:0:0:0:0:
448,192,160543,128,0,160877:0:0:0:0:
64,192,160710,1,0,0:0:0:0:
192,192,160877,128,0,161043:0:0:0:0:
320,192,160877,128,0,161210:0:0:0:0:
64,192,161043,1,8,0:0:0:0:
448,192,161043,1,0,0:0:0:0:
64,192,161210,128,2,161710:0:0:0:0:
192,192,161210,128,0,161543:0:0:0:0:
320,192,161377,1,0,0:0:0:0:
320,192,161543,1,2,0:0:0:0:
448,192,161543,1,0,0:0:0:0:
192,192,161710,1,8,0:0:0:0:
448,192,161710,1,0,0:0:0:0:
192,192,161877,1,0,0:0:0:0:
64,192,162043,128,2,162627:0:0:0:0:
320,192,162043,128,0,162293:0:0:0:0:
448,192,162043,128,0,162293:0:0:0:0:
192,192,162377,1,8,0:0:0:0:
320,192,162377,128,0,162710:0:0:0:0:
448,192,162377,128,0,162877:0:0:0:0:
64,192,162710,128,0,163043:0:0:0:0:
192,192,162877,128,2,163043:0:0:0:0:
320,192,162877,1,0,0:0:0:0:
320,192,163043,1,8,0:0:0:0:
448,192,163043,1,0,0:0:0:0:
64,192,163210,128,2,163543:0:0:0:0:
192,192,163210,128,0,163877:0:0:0:0:
448,192,163377,1,0,0:0:0:0:
320,192,163543,1,0,0:0:0:0:
64,192,163710,1,8,0:0:0:0:
320,192,163710,128,0,164210:0:0:0:0:
448,192,163710,128,0,163877:0:0:0:0:
64,192,163877,1,2,0:0:0:0:
192,192,164043,1,0,0:0:0:0:
448,192,164043,128,0,164627:0:0:0:0:
64,192,164210,1,8,0:0:0:0:
192,192,164210,1,2,0:0:0:0:
64,192,164377,128,8,164877:0:0:0:0:
320,192,164377,128,0,164627:0:0:0:0:
192,192,164543,128,0,164877:0:0:0:0:
320,192,164710,128,2,164877:0:0:0:0:
448,192,164710,128,0,165210:0:0:0:45:cymbal_loud.wav
64,192,165043,1,8,0:0:0:0:
192,192,165043,1,0,0:0:0:0:
320,192,165043,128,0,165377:0:0:0:0:
192,192,165210,128,0,165543:0:0:0:0:
64,192,165377,128,0,165710:0:0:0:0:
320,192,165543,1,2,0:0:0:0:
448,192,165543,1,0,0:0:0:0:
320,192,165710,128,8,165793:0:0:0:0:
448,192,165710,128,0,165793:0:0:0:0:
64,192,165877,128,2,166210:0:0:0:0:
448,192,165877,128,0,166043:0:0:0:0:
192,192,166043,1,0,0:0:0:0:
320,192,166210,128,0,166793:0:0:0:0:
64,192,166377,1,8,0:0:0:0:
192,192,166377,128,0,166627:0:0:0:0:
448,192,166377,1,0,0:0:0:0:
448,192,166543,128,2,166960:0:0:0:0:
64,192,166710,128,0,166960:0:0:0:0:
192,192,166877,128,2,167127:0:0:0:0:
320,192,166877,1,0,0:0:0:0:
64,192,167043,1,8,0:0:0:0:
320,192,167043,128,0,167293:0:0:0:0:
448,192,167043,1,0,0:0:0:0:
192,192,167210,1,0,0:0:0:0:
64,192,167377,128,2,167627:0:0:0:0:
320,192,167377,1,0,0:0:0:0:
448,192,167377,128,0,167543:0:0:0:0:
192,192,167543,128,0,167877:0:0:0:0:
64,192,167710,1,8,0:0:0:0:
320,192,167710,128,0,168043:0:0:0:0:
448,192,167710,1,0,0:0:0:0:
64,192,167877,128,0,168210:0:0:0:0:
448,192,167877,128,0,168293:0:0:0:0:
192,192,168043,1,0,0:0:0:0:
320,192,168210,128,2,168460:0:0:0:0:
64,192,168377,1,8,0:0:0:0:
192,192,168377,128,0,168627:0:0:0:0:
448,192,168377,1,0,0:0:0:0:
64,192,168543,128,2,168793:0:0:0:0:
320,192,168543,128,0,168710:0:0:0:45:cymbal_loud.wav
448,192,168543,128,0,168793:0:0:0:0:
64,192,168877,128,8,168960:0:0:0:0:
320,192,168877,128,0,168960:0:0:0:0:
448,192,168877,128,0,168960:0:0:0:0:
64,192,169043,128,8,169127:0:0:0:0:
192,192,169043,128,0,169127:0:0:0:0:
448,192,169043,128,0,169127:0:0:0:0:
192,192,169210,1,0,0:0:0:60:Tom 2.wav
320,192,169210,1,0,0:0:0:0:
64,192,169377,128,2,169460:0:0:0:0:
320,192,169377,128,0,169460:0:0:0:0:
448,192,169377,128,0,169460:0:0:0:0:
64,192,169543,1,8,0:0:0:0:
320,192,169543,1,0,0:0:0:0:
448,192,169543,1,0,0:0:0:0:
64,192,169710,1,8,0:0:0:0:
192,192,169710,1,0,0:0:0:0:
320,192,169793,1,8,0:0:0:0:
448,192,169793,1,0,0:0:0:0:
192,192,169877,1,8,0:0:0:0:
64,192,170043,128,2,170627:0:0:0:0:
320,192,170043,128,0,170293:0:0:0:45:cymbal_loud.wav
448,192,170043,128,0,170293:0:0:0:0:
192,192,170377,1,8,0:0:0:0:
320,192,170377,128,0,170710:0:0:0:0:
448,192,170377,128,0,170877:0:0:0:0:
64,192,170710,128,0,171043:0:0:0:0:
192,192,170877,128,2,171043:0:0:0:0:
320,192,170877,1,0,0:0:0:0:
320,192,171043,1,8,0:0:0:0:
448,192,171043,1,0,0:0:0:0:
64,192,171210,128,2,171543:0:0:0:0:
192,192,171210,128,0,171377:0:0:0:0:
448,192,171377,1,0,0:0:0:0:
192,192,171543,128,0,171877:0:0:0:0:
320,192,171543,128,0,171710:0:0:0:0:
64,192,171710,1,8,0:0:0:0:
448,192,171710,1,0,0:0:0:0:
320,192,171877,128,2,172210:0:0:0:0:
448,192,171877,128,0,172377:0:0:0:0:
192,192,172043,1,0,0:0:0:0:
64,192,172210,1,2,0:0:0:0:
192,192,172210,1,0,0:0:0:0:
64,192,172377,1,8,0:0:0:0:
320,192,172377,1,0,0:0:0:0:
320,192,172543,1,0,0:0:0:0:
64,192,172710,128,2,172960:0:0:0:0:
192,192,172710,128,0,172960:0:0:0:0:
448,192,172710,128,0,173293:0:0:0:0:
64,192,173043,128,8,173543:0:0:0:0:
192,192,173043,128,0,173377:0:0:0:0:
320,192,173043,1,0,0:0:0:0:
448,192,173377,128,0,173710:0:0:0:0:
192,192,173543,1,2,0:0:0:0:
320,192,173543,128,0,173710:0:0:0:0:
64,192,173710,1,8,0:0:0:0:
192,192,173710,1,0,0:0:0:0:
64,192,173877,128,2,174127:0:0:0:0:
320,192,173877,128,0,174127:0:0:0:0:
448,192,173877,128,0,174293:0:0:0:0:
192,192,174043,1,0,0:0:0:0:
320,192,174210,1,0,0:0:0:0:
64,192,174377,1,8,0:0:0:0:
192,192,174377,1,0,0:0:0:0:
448,192,174377,1,0,0:0:0:0:
64,192,174543,128,2,174960:0:0:0:0:
192,192,174543,128,0,174793:0:0:0:0:
448,192,174543,128,0,174793:0:0:0:0:
320,192,174710,1,0,0:0:0:0:
192,192,174877,1,8,0:0:0:0:
448,192,174877,1,2,0:0:0:0:
64,192,175043,128,8,175210:0:0:0:0:
320,192,175043,128,0,175210:0:0:0:0:
448,192,175043,128,0,175210:0:0:0:0:
64,192,175377,128,8,175460:0:0:0:0:
192,192,175377,128,0,175460:0:0:0:45:cymbal_loud.wav
320,192,175377,128,0,175460:0:0:0:0:
448,192,175377,128,0,175460:0:0:0:0:
64,192,175543,1,2,0:0:0:0:
192,192,175543,1,0,0:0:0:0:
64,192,175710,1,8,0:0:0:0:
320,192,175710,1,0,0:0:0:0:
448,192,175710,128,0,176043:0:0:0:0:
192,192,175877,1,2,0:0:0:0:
320,192,175877,1,0,0:0:0:0:
64,192,176043,1,8,0:0:0:0:
192,192,176043,128,0,176377:0:0:0:0:
320,192,176210,128,2,176377:0:0:0:0:
448,192,176210,1,0,0:0:0:0:
64,192,176377,1,8,0:0:0:0:
448,192,176377,1,0,0:0:0:0:
64,192,176543,128,2,176877:0:0:0:0:
320,192,176543,1,0,0:0:0:0:
192,192,176710,1,8,0:0:0:0:
320,192,176710,1,0,0:0:0:0:
192,192,176877,1,2,0:0:0:0:
448,192,176877,1,0,0:0:0:0:
64,192,177043,1,8,0:0:0:0:
320,192,177043,1,0,0:0:0:0:
448,192,177043,128,0,177377:0:0:0:0:
192,192,177210,1,2,0:0:0:0:
320,192,177210,128,0,177377:0:0:0:0:
64,192,177377,1,8,0:0:0:0:
192,192,177377,1,0,0:0:0:0:
64,192,177543,128,2,177710:0:0:0:0:
448,192,177543,1,0,0:0:0:0:
192,192,177710,1,8,0:0:0:0:
320,192,177710,1,0,0:0:0:0:
64,192,177877,128,8,178043:0:0:0:0:
192,192,177877,128,0,178043:0:0:0:45:cymbal_loud.wav
320,192,177877,128,0,178127:0:0:0:0:
448,192,177877,128,0,178210:0:0:0:0:
64,192,178210,1,2,0:0:0:0:
192,192,178210,1,0,0:0:0:0:
64,192,178377,128,8,178460:0:0:0:0:
320,192,178377,128,0,178460:0:0:0:0:
448,192,178377,128,0,178460:0:0:0:0:
320,192,178543,1,0,0:0:0:0:
64,192,178710,128,8,178793:0:0:0:0:
192,192,178710,128,0,178793:0:0:0:0:
448,192,178710,128,0,178793:0:0:0:0:
192,192,178877,1,0,0:0:0:60:Tom 2.wav
320,192,178877,1,0,0:0:0:0:
64,192,179043,1,0,0:0:0:60:Tom 3.wav
448,192,179043,1,0,0:0:0:0:
64,192,179210,128,8,179627:0:0:0:0:
192,192,179210,128,0,179627:0:0:0:0:
448,192,179210,128,0,179627:0:0:0:0:
64,192,179710,1,8,0:0:0:0:
192,192,179710,1,0,0:0:0:0:
448,192,179710,1,0,0:0:0:0:
320,192,179793,1,0,0:0:0:60:Tom 1.wav
64,192,179877,1,0,0:0:0:60:Tom 2.wav
448,192,179877,1,0,0:0:0:0:
192,192,179960,1,2,0:0:0:0:
64,192,180043,128,2,180127:0:0:0:0:
320,192,180043,128,8,180127:0:0:0:0:
448,192,180043,128,0,180127:0:0:0:0:
64,192,180210,128,8,180293:0:0:0:0:
320,192,180210,128,2,180293:0:0:0:0:
448,192,180210,128,0,180293:0:0:0:0:
192,192,180377,1,8,0:0:0:0:
320,192,180377,1,0,0:0:0:0:
192,192,180543,1,2,0:0:0:0:
64,192,180710,128,2,180877:0:0:0:0:
320,192,180710,128,0,180877:0:0:0:45:cymbal_loud.wav
448,192,180710,128,0,181127:0:0:0:0:
64,192,181043,128,8,181377:0:0:0:0:
192,192,181043,128,0,181293:0:0:0:0:
320,192,181043,128,0,181210:0:0:0:0:
320,192,181377,1,0,0:0:0:0:
448,192,181377,1,0,0:0:0:0:
192,192,181543,1,2,0:0:0:0:
320,192,181543,128,0,181627:0:0:0:0:
64,192,181710,1,8,0:0:0:0:
192,192,181710,1,0,0:0:0:0:
448,192,181710,1,0,0:0:0:0:
64,192,181877,128,2,182210:0:0:0:0:
448,192,181877,128,0,182210:0:0:0:0:
192,192,182043,1,0,0:0:0:0:
192,192,182210,128,2,182460:0:0:0:0:
320,192,182210,1,0,0:0:0:0:
64,192,182377,128,8,182627:0:0:0:0:
320,192,182377,1,0,0:0:0:0:
448,192,182377,1,0,0:0:0:0:
320,192,182543,128,0,182793:0:0:0:0:
192,192,182710,128,0,182960:0:0:0:0:
64,192,182877,1,2,0:0:0:0:
448,192,182877,128,0,183377:0:0:0:0:
64,192,183043,1,8,0:0:0:0:
192,192,183043,1,0,0:0:0:0:
320,192,183043,128,0,183377:0:0:0:0:
64,192,183377,128,2,183793:0:0:0:0:
192,192,183377,128,0,183543:0:0:0:0:
192,192,183710,128,8,183877:0:0:0:0:
320,192,183710,128,0,183960:0:0:0:0:
448,192,183710,128,0,184043:0:0:0:0:
64,192,183960,128,0,184210:0:0:0:0:
192,192,184043,128,0,184293:0:0:0:0:
320,192,184210,128,2,184377:0:0:0:0:
448,192,184210,128,0,184377:0:0:0:0:
64,192,184377,1,8,0:0:0:0:
192,192,184377,1,0,0:0:0:0:
64,192,184543,128,2,184877:0:0:0:0:
448,192,184543,128,0,185043:0:0:0:0:
320,192,184710,1,0,0:0:0:0:
192,192,184877,1,2,0:0:0:0:
64,192,185043,128,8,185377:0:0:0:0:
192,192,185043,128,0,185210:0:0:0:0:
320,192,185043,1,0,0:0:0:0:
448,192,185210,1,0,0:0:0:0:
192,192,185377,128,0,185710:0:0:0:0:
320,192,185377,128,0,185543:0:0:0:0:
64,192,185543,1,8,0:0:0:0:
448,192,185543,1,0,0:0:0:0:
64,192,185710,1,8,0:0:0:0:
320,192,185710,128,0,186043:0:0:0:0:
448,192,185710,128,0,185877:0:0:0:0:
192,192,185877,1,0,0:0:0:0:
64,192,186043,128,2,186460:0:0:0:0:
192,192,186043,128,0,186210:0:0:0:45:cymbal_loud.wav
448,192,186043,128,0,186210:0:0:0:0:
192,192,186377,128,8,186543:0:0:0:0:
320,192,186377,128,0,186627:0:0:0:0:
448,192,186377,128,0,186710:0:0:0:0:
64,192,186710,1,0,0:0:0:0:
192,192,186710,1,0,0:0:0:0:
192,192,186877,128,2,186918:0:0:0:0:
320,192,186877,128,0,186960:0:0:0:0:
64,192,187043,1,8,0:0:0:0:
320,192,187043,1,0,0:0:0:0:
448,192,187043,1,0,0:0:0:0:
64,192,187210,128,2,187252:0:0:0:0:
192,192,187210,128,0,187293:0:0:0:0:
192,192,187377,1,0,0:0:0:0:
320,192,187543,128,2,187585:0:0:0:0:
448,192,187543,128,0,187627:0:0:0:0:
64,192,187710,1,8,0:0:0:0:
192,192,187710,1,0,0:0:0:0:
448,192,187710,1,0,0:0:0:0:
64,192,187877,1,0,0:0:0:0:
320,192,188043,128,0,188293:0:0:0:0:
448,192,188043,128,0,188293:0:0:0:0:
64,192,188210,128,2,188293:0:0:0:0:
192,192,188210,128,0,188293:0:0:0:0:
64,192,188377,128,8,188710:0:0:0:0:
192,192,188377,128,0,188543:0:0:0:0:
448,192,188377,1,0,0:0:0:0:
320,192,188543,1,0,0:0:0:0:
192,192,188710,128,2,188793:0:0:0:0:
448,192,188710,128,0,188960:0:0:0:0:
320,192,188877,1,0,0:0:0:0:
64,192,189043,1,8,0:0:0:0:
192,192,189043,1,0,0:0:0:0:
448,192,189043,1,0,0:0:0:0:
192,192,189210,128,2,189293:0:0:0:0:
320,192,189210,128,0,189460:0:0:0:0:
64,192,189377,1,0,0:0:0:0:
320,192,189543,1,0,0:0:0:0:
64,192,189710,1,8,0:0:0:0:
192,192,189710,128,0,189960:0:0:0:0:
448,192,189710,128,0,189793:0:0:0:0:
320,192,189877,1,0,0:0:0:0:
64,192,190043,1,2,0:0:0:0:
192,192,190043,1,0,0:0:0:45:cymbal_loud.wav
448,192,190043,1,0,0:0:0:0:
64,192,190210,1,8,0:0:0:0:
320,192,190210,1,0,0:0:0:0:
448,192,190210,128,0,190460:0:0:0:0:
192,192,190377,1,0,0:0:0:60:Tom 2.wav
320,192,190377,128,0,190627:0:0:0:0:
64,192,190543,128,0,190793:0:0:0:60:Tom 3.wav
448,192,190543,1,0,0:0:0:0:
192,192,190710,128,2,190960:0:0:0:0:
320,192,190710,1,0,0:0:0:0:
64,192,190877,1,8,0:0:0:0:
320,192,190877,1,0,0:0:0:0:
448,192,190877,128,0,191043:0:0:0:0:
64,192,191043,128,8,191210:0:0:0:0:
192,192,191043,1,0,0:0:0:0:
320,192,191127,1,8,0:0:0:0:
448,192,191127,128,0,191293:0:0:0:0:
192,192,191210,1,0,0:0:0:60:Tom 2.wav
320,192,191293,1,0,0:0:0:0:
64,192,191377,128,2,191710:0:0:0:0:
192,192,191377,128,0,191543:0:0:0:45:cymbal_loud.wav
448,192,191377,1,0,0:0:0:0:
192,192,191710,1,8,0:0:0:0:
320,192,191710,128,0,191793:0:0:0:0:
448,192,191710,128,0,191877:0:0:0:0:
192,192,191877,1,0,0:0:0:0:
320,192,192043,128,0,192127:0:0:0:0:
448,192,192043,128,0,192210:0:0:0:0:
64,192,192210,1,2,0:0:0:0:
192,192,192210,128,0,192460:0:0:0:0:
64,192,192377,1,8,0:0:0:0:
320,192,192377,128,0,192627:0:0:0:0:
448,192,192377,1,0,0:0:0:0:
192,192,192543,1,2,0:0:0:0:
448,192,192543,128,0,192793:0:0:0:0:
64,192,192710,1,0,0:0:0:0:
320,192,192710,1,0,0:0:0:0:
192,192,192877,1,2,0:0:0:0:
448,192,192877,1,0,0:0:0:0:
64,192,193043,1,8,0:0:0:0:
192,192,193043,1,0,0:0:0:0:
320,192,193043,1,0,0:0:0:0:
320,192,193210,128,0,193293:0:0:0:0:
64,192,193377,128,0,194043:0:0:0:0:
192,192,193377,128,0,193543:0:0:0:0:
320,192,193543,1,2,0:0:0:0:
448,192,193543,1,0,0:0:0:0:
192,192,193710,1,8,0:0:0:0:
448,192,193710,1,0,0:0:0:0:
320,192,193877,1,0,0:0:0:0:
320,192,194043,128,2,194210:0:0:0:0:
448,192,194043,128,0,194710:0:0:0:0:
192,192,194210,1,0,0:0:0:0:
64,192,194377,1,8,0:0:0:0:
320,192,194377,1,0,0:0:0:0:
192,192,194543,1,0,0:0:0:0:
64,192,194710,1,0,0:0:0:0:
192,192,194710,1,0,0:0:0:0:
320,192,194877,1,2,0:0:0:0:
448,192,194877,1,0,0:0:0:0:
64,192,195043,1,8,0:0:0:0:
192,192,195043,1,0,0:0:0:0:
448,192,195043,1,0,0:0:0:0:
192,192,195210,128,2,195293:0:0:0:0:
320,192,195210,128,0,195377:0:0:0:0:
64,192,195377,1,0,0:0:0:0:
320,192,195543,128,2,195627:0:0:0:0:
448,192,195543,128,0,195710:0:0:0:0:
64,192,195710,1,8,0:0:0:0:
192,192,195710,1,0,0:0:0:0:
192,192,195877,128,0,196043:0:0:0:0:
320,192,195877,128,0,195960:0:0:0:0:
64,192,196043,1,0,0:0:0:0:
448,192,196043,1,0,0:0:0:0:
64,192,196210,128,2,196460:0:0:0:0:
192,192,196210,128,8,196293:0:0:0:0:
320,192,196210,1,0,0:0:0:0:
192,192,196377,128,8,196543:0:0:0:0:
320,192,196377,128,0,196627:0:0:0:0:
448,192,196377,128,0,196710:0:0:0:0:
64,192,196710,128,8,196877:0:0:0:0:
192,192,196710,128,0,196877:0:0:0:0:
320,192,196710,1,0,0:0:0:0:
320,192,196877,1,2,0:0:0:0:
448,192,196877,1,0,0:0:0:0:
64,192,197043,128,8,197210:0:0:0:0:
192,192,197043,1,0,0:0:0:0:
448,192,197043,128,0,197210:0:0:0:0:
192,192,197210,1,2,0:0:0:0:
320,192,197210,1,0,0:0:0:0:
64,192,197377,128,8,197627:0:0:0:0:
320,192,197377,128,0,197460:0:0:0:0:
448,192,197377,128,0,197460:0:0:0:0:
320,192,197543,128,2,197627:0:0:0:0:
448,192,197543,128,0,197627:0:0:0:0:
64,192,197710,1,8,0:0:0:0:
192,192,197710,1,0,0:0:0:0:
448,192,197710,1,0,0:0:0:0:
192,192,197877,128,2,198043:0:0:0:0:
320,192,197877,128,0,198043:0:0:0:0:
64,192,198043,1,8,0:0:0:0:
448,192,198043,1,0,0:0:0:0:
320,192,198210,128,2,198377:0:0:0:0:
448,192,198210,128,0,198377:0:0:0:0:
64,192,198377,1,8,0:0:0:0:
192,192,198377,1,0,0:0:0:0:
320,192,198543,1,2,0:0:0:0:
448,192,198543,1,0,0:0:0:0:
64,192,198710,128,8,199127:0:0:0:0:
192,192,198710,128,0,198960:0:0:0:0:
448,192,198710,128,0,198793:0:0:0:0:
320,192,198877,128,2,198960:0:0:0:0:
192,192,199043,128,8,199127:0:0:0:0:
320,192,199043,1,0,0:0:0:45:cymbal_loud.wav
448,192,199043,1,0,0:0:0:0:
64,192,199210,1,2,0:0:0:0:
320,192,199210,1,0,0:0:0:0:
64,192,199377,128,8,199710:0:0:0:0:
192,192,199377,128,0,199543:0:0:0:45:cymbal_loud.wav
448,192,199377,1,0,0:0:0:0:
320,192,199543,1,0,0:0:0:60:Tom 1.wav
448,192,199543,1,0,0:0:0:0:
192,192,199710,1,0,0:0:0:60:Tom 2.wav
320,192,199710,1,0,0:0:0:0:
64,192,199877,128,2,200043:0:0:0:0:
448,192,199877,128,0,200210:0:0:0:0:
192,192,200043,1,8,0:0:0:70:Snare Drum.wav
320,192,200043,1,0,0:0:0:0:
64,192,200210,1,8,0:0:0:0:
192,192,200210,1,0,0:0:0:0:
320,192,200377,128,2,200543:0:0:0:0:
448,192,200377,128,0,200543:0:0:0:0:
64,192,200543,1,2,0:0:0:0:
192,192,200543,1,0,0:0:0:0:
64,192,200710,128,8,200877:0:0:0:0:
320,192,200710,128,0,200877:0:0:0:45:cymbal_loud.wav
448,192,200710,128,0,200877:0:0:0:0:
64,192,201377,128,8,201960:0:0:0:0:
192,192,201377,128,0,202043:0:0:0:45:cymbal_loud.wav
320,192,201377,128,0,204543:0:0:0:0:
448,192,201377,128,0,204710:0:0:0:0:
64,192,202043,128,0,204210:0:0:0:0:
192,192,202127,128,0,204377:0:0:0:0:
