osu file format v14

[General]
AudioFilename: audio.ogg
AudioLeadIn: 0
PreviewTime: 18898
Countdown: 0
SampleSet: Soft
StackLeniency: 0.7
Mode: 0
LetterboxInBreaks: 0
WidescreenStoryboard: 1

[Editor]
DistanceSpacing: 1.8
BeatDivisor: 4
GridSize: 16
TimelineZoom: 1.5

[Metadata]
Title:Midsummer cat
TitleUnicode:Midsummer cat
Artist:Mitsukiyo
ArtistUnicode:ミツキヨ
Creator:Setu
Version:Normal
Source:ブルーアーカイブ -Blue Archive-
Tags:electronic instrumental coloured glazee shiratamamywife teages coloured_glazee ブルアカ video game yostar nat games nexon original soundtrack blueaka ost buruaka buru aka Longing for the memorable days vol.1 videogame
BeatmapID:4217476
BeatmapSetID:2021170

[Difficulty]
HPDrainRate:3
CircleSize:3
OverallDifficulty:4
ApproachRate:6
SliderMultiplier:1.6
SliderTickRate:1

[Events]
//Background and Video events
0,0,"109514556_p0.jpg",0,0
//Break Periods
//Storyboard Layer 0 (Background)
//Storyboard Layer 1 (Fail)
//Storyboard Layer 2 (Pass)
//Storyboard Layer 3 (Foreground)
//Storyboard Layer 4 (Overlay)
//Storyboard Sound Samples

[TimingPoints]
598,600,4,2,1,45,1,0
598,-125,4,2,1,45,0,0
19798,-100,4,2,1,45,0,0
56098,-100,4,2,1,65,0,0
58198,-100,4,2,1,75,0,1
60598,-90.9090909090909,4,2,1,75,0,1
77248,-90.9090909090909,4,2,1,75,0,0
77398,-90.9090909090909,4,2,1,75,0,1
98998,-100,4,2,1,45,0,0
101398,-125,4,2,1,45,0,0

[Colours]
Combo1 : 252,173,173
Combo2 : 180,245,239
Combo3 : 238,242,183

[HitObjects]
267,156,598,6,0,B|407:118|381:232|510:184,2,256,6|0|6,2:3|0:2|2:3,0:2:0:0:
45,326,5398,2,0,B|9:133|9:133|41:70,2,256,6|0|6,2:3|0:2|0:3,0:2:0:0:
306,241,8998,6,0,L|314:168,1,64,2|2,0:3|0:3,2:0:0:0:
235,134,9598,2,0,L|227:197,1,64,2|2,0:3|0:3,2:0:0:0:
225,287,10198,2,0,B|117:249|141:337|32:301,1,192,6|2,0:3|0:2,0:3:0:0:
7,221,11398,2,0,L|29:82,2,128,2|2|6,0:3|0:3|0:3,0:2:0:0:
378,301,14998,6,0,P|417:306|464:233,1,128,6|0,0:3|0:2,0:2:0:0:
355,101,16198,2,0,P|315:95|268:168,1,128,2|0,0:3|0:2,0:2:0:0:
119,260,17398,5,6,0:3:0:0:
38,298,17698,2,0,P|27:261|38:224,1,64,0|0,0:2|0:2,2:0:0:0:
12,149,18298,2,0,P|43:127|80:126,1,64,0|0,0:2|0:2,2:0:0:0:
157,148,18898,1,2,3:2:0:0:
241,124,19198,1,10,2:2:0:0:
223,37,19498,1,2,0:2:0:0:
136,54,19798,6,0,B|105:64|105:64|87:46|50:43,1,80,6|2,3:2|0:2,2:0:0:0:
41,130,20398,2,0,P|19:183|43:289,2,160,10|2|10,2:3|1:3|2:3,2:0:0:0:
123,99,21898,1,0,0:2:0:0:
201,138,22198,6,0,P|246:135|278:101,1,80,6|2,3:3|0:2,0:2:0:0:
339,57,22798,2,0,P|384:60|416:94,1,80,10|2,2:2|0:2,2:0:0:0:
482,131,23398,1,2,1:2:0:0:
424,197,23698,2,0,B|384:178|352:194|352:194|337:176|304:166,2,120,2|2|6,3:3|0:3|3:3,0:2:0:0:
480,264,24898,6,0,P|490:295|481:343,1,80,2|10,0:2|2:2,2:0:0:0:
397,364,25498,2,0,B|363:357|363:357|349:343|349:343|316:334,1,80,2|2,0:2|1:2,2:0:0:0:
256,280,26098,1,2,3:2:0:0:
176,318,26398,2,0,P|167:277|179:236,1,80,10|0,2:3|0:2,0:2:0:0:
245,186,26998,6,0,B|294:205|294:205|371:191,2,120,6|2|2,3:3|0:3|0:3,0:2:0:0:
180,125,28198,1,2,1:2:0:0:
123,57,28498,2,0,B|74:38|74:38|-3:52,2,120,2|2|6,3:3|0:3|3:3,0:2:0:0:
293,99,29998,6,0,P|335:92|376:90,1,80,10|0,2:3|0:2,2:0:0:0:
448,133,30598,2,0,P|467:172|462:221,1,80,2|0,1:3|3:2,2:0:0:0:
423,285,31198,1,10,2:3:0:0:
256,342,31798,6,0,B|246:286|246:286|263:246|263:246|251:186,1,160,6|10,3:3|2:2,0:2:0:0:
211,109,32698,1,2,0:2:0:0:
123,104,32998,1,2,1:2:0:0:
91,186,33298,2,0,B|113:211|116:242|116:242|88:257|92:297,2,120,2|2|6,3:3|0:3|3:3,0:2:0:0:
17,138,34498,6,0,P|6:95|17:55,1,80,2|10,0:2|2:2,2:0:0:0:
89,15,35098,2,0,P|130:24|183:25,1,80,2|2,0:2|1:2,2:0:0:0:
237,79,35698,1,2,3:2:0:0:
316,40,35998,2,0,P|329:79|318:120,1,80,10|0,2:3|0:2,0:2:0:0:
256,177,36598,6,0,B|228:157|196:161|196:161|178:189|136:190,2,120,6|0|2,3:3|0:3|0:3,0:2:0:0:
329,226,37798,1,2,1:2:0:0:
407,186,38098,1,2,3:2:0:0:
399,98,38398,2,0,P|361:104|305:95,1,80,10|2,2:3|0:2,0:2:0:0:
256,38,38998,5,6,3:3:0:0:
122,152,39598,2,0,L|41:141,1,80,10|0,2:3|0:2,2:0:0:0:
52,228,40198,2,0,B|102:234|102:234|127:253|127:253|174:255,2,120,2|2|2,1:3|0:3|0:3,0:2:0:0:
12,149,41398,6,0,P|-2:95|21:29,2,120,6|2|2,3:3|0:3|0:3,0:2:0:0:
71,214,42598,2,0,P|109:198|151:197,1,80,2|2,1:2|3:2,2:0:0:0:
219,146,43198,2,0,P|257:162|299:163,1,80,10|2,2:2|0:2,0:2:0:0:
350,232,43798,5,6,3:3:0:0:
478,111,44398,2,0,L|493:27,1,80,10|0,2:3|0:2,2:0:0:0:
406,64,44998,2,0,B|395:112|395:112|407:146|407:146|397:192,2,120,2|2|2,1:3|0:3|0:3,0:2:0:0:
332,16,46198,6,0,P|288:47|213:43,2,120,6|2|2,3:3|0:3|0:3,0:2:0:0:
404,66,47398,2,0,P|423:97|415:151,1,80,2|2,1:2|3:2,2:0:0:0:
369,211,47998,1,10,2:2:0:0:
282,194,48298,1,2,0:2:0:0:
265,107,48598,5,6,3:3:0:0:
106,184,49198,2,0,P|93:227|105:268,1,80,10|0,2:3|0:2,2:0:0:0:
158,326,49798,1,2,1:3:0:0:
235,284,50098,2,0,B|270:289|270:289|288:300|288:300|316:303,2,80,2|10|2,3:2|2:2|0:3,2:0:0:0:
182,213,50998,6,0,B|154:196|119:211|119:211|105:235|67:239,2,120,6|2|2,3:3|0:3|0:3,0:2:0:0:
261,175,52198,2,0,P|275:150|269:93,1,80,2|2,1:2|3:2,2:0:0:0:
340,43,52798,2,0,P|320:21|264:10,1,80,10|2,2:2|0:2,0:2:0:0:
194,48,53398,5,2,3:3:0:0:
275,203,53998,2,0,L|365:193,1,80,10|0,2:3|0:2,2:0:0:0:
423,248,54598,1,2,1:3:0:0:
488,188,54898,2,0,P|498:148|486:103,2,80,2|10|2,3:2|2:2|0:3,2:0:0:0:
314,156,56098,5,2,3:3:0:0:
230,131,56398,1,2,3:3:0:0:
205,216,56698,1,2,3:3:0:0:
290,240,56998,1,2,3:3:0:0:
453,174,57598,6,0,L|461:128,1,40,2|2,3:2|0:2,0:2:0:0:
430,101,57898,2,0,L|422:55,1,40,2|2,0:2|0:2,0:2:0:0:
456,33,58198,1,6,3:3:0:0:
293,94,58798,5,2,1:3:0:0:
241,22,59098,1,2,0:3:0:0:
157,50,59398,1,2,3:3:0:0:
157,137,59698,1,10,2:3:0:0:
241,164,59998,1,2,1:3:0:0:
284,240,60298,1,2,0:3:0:0:
222,302,60598,6,0,B|188:309|188:309|168:303|168:303|129:312,1,88,6|10,3:3|2:2,2:0:0:0:
100,284,61048,1,2,0:2:0:0:
100,284,61198,1,2,1:3:0:0:
43,216,61498,2,0,P|80:197|139:207,1,88.000002685547,2|2,0:3|3:2,2:0:0:0:
201,244,62098,2,0,P|238:263|297:253,1,88.000002685547,10|2,2:3|1:2,2:0:0:0:
320,234,62548,1,2,0:2:0:0:
320,234,62698,2,0,B|327:200|327:200|321:180|321:180|330:141,1,88,2|6,0:3|3:2,0:2:0:0:
311,61,63298,5,10,2:2:0:0:
235,16,63598,2,0,P|197:33|146:32,1,88,2|2,1:2|0:2,0:2:0:0:
63,41,64198,1,2,3:2:0:0:
51,128,64498,1,10,2:2:0:0:
130,167,64798,2,0,P|179:162|223:169,1,88,2|2,1:2|0:2,2:0:0:0:
263,157,65248,1,2,0:2:0:0:
263,157,65398,6,0,B|268:194|268:194|260:220|260:220|265:259,2,88,6|10|2,3:3|2:3|1:3,2:0:0:0:
313,84,66298,2,0,P|363:77|403:85,1,88,2|2,0:3|3:2,2:0:0:0:
460,148,66898,2,0,L|456:206,1,44,10|0,2:2|0:2,2:0:0:0:
431,228,67198,2,0,L|427:286,2,44,2|2|2,1:2|0:2|0:2,0:2:0:0:
356,180,67798,6,0,P|309:167|254:184,1,88,6|10,3:2|2:2,0:2:0:0:
209,236,68398,1,2,1:3:0:0:
132,280,68698,1,2,0:3:0:0:
67,221,68998,1,2,3:3:0:0:
102,140,69298,1,10,2:3:0:0:
190,150,69598,1,2,1:3:0:0:
252,88,69898,1,2,0:3:0:0:
211,9,70198,6,0,B|247:1|247:1|271:6|271:6|307:-3,1,88,6|10,3:3|2:2,2:0:0:0:
339,25,70648,1,2,0:2:0:0:
339,25,70798,1,2,1:3:0:0:
408,78,71098,2,0,P|405:131|407:174,1,88,2|2,0:3|3:2,2:0:0:0:
351,235,71698,2,0,P|318:217|260:218,1,88,10|2,2:3|1:2,2:0:0:0:
235,243,72148,1,2,0:2:0:0:
235,243,72298,1,2,0:2:0:0:
161,290,72598,6,0,P|144:253|156:195,1,88,6|10,3:3|2:2,0:2:0:0:
202,137,73198,2,0,L|255:146,1,44,2|2,1:2|0:2,2:0:0:0:
279,174,73498,2,0,L|332:165,1,44,2|2,0:2|0:2,2:0:0:0:
353,135,73798,2,0,P|373:182|360:235,1,88,2|10,3:2|2:2,2:0:0:0:
403,298,74398,2,0,P|364:331|310:335,1,88,2|2,1:2|0:2,2:0:0:0:
289,337,74848,1,2,0:2:0:0:
289,337,74998,6,0,B|279:300|279:300|264:286|264:286|250:244,1,88,6|10,3:2|2:2,0:2:0:0:
257,170,75598,2,0,B|219:167|219:167|201:177|201:177|157:178,1,88,2|2,1:2|0:2,0:2:0:0:
92,138,76198,2,0,B|78:172|78:172|82:193|82:193|68:235,1,88,2|10,3:2|2:2,0:2:0:0:
98,305,76798,2,0,L|153:296,1,44,2|2,1:2|0:2,2:0:0:0:
176,271,77098,2,0,L|231:280,1,44,2|2,0:2|0:2,2:0:0:0:
256,302,77398,5,6,3:3:0:0:
397,196,77998,1,2,1:3:0:0:
476,157,78298,1,2,0:3:0:0:
464,70,78598,1,2,3:3:0:0:
377,55,78898,1,10,2:3:0:0:
336,132,79198,1,2,1:3:0:0:
252,103,79498,1,2,0:3:0:0:
184,158,79798,6,0,B|147:152|147:152|124:161|124:161|88:158,1,88,6|10,3:3|2:2,2:0:0:0:
65,137,80248,1,2,0:2:0:0:
65,137,80398,1,2,1:3:0:0:
18,212,80698,2,0,P|13:264|17:311,1,88,2|2,0:3|3:2,2:0:0:0:
96,333,81298,2,0,P|101:281|97:234,1,88,10|2,2:3|1:2,2:0:0:0:
137,221,81748,1,2,0:2:0:0:
137,221,81898,2,0,B|176:225|176:225|191:238|191:238|229:241,1,88,2|6,0:3|3:2,0:2:0:0:
292,191,82498,5,10,2:2:0:0:
373,224,82798,2,0,P|387:271|370:323,1,88,2|2,1:2|0:2,0:2:0:0:
307,359,83398,1,2,3:2:0:0:
228,318,83698,1,10,2:2:0:0:
150,360,83998,2,0,P|138:324|152:271,1,88,2|2,1:2|0:2,2:0:0:0:
176,242,84448,1,2,0:2:0:0:
176,242,84598,6,0,B|163:191|163:191|174:154|174:154|160:99,2,132,2|8|2,3:2|0:2|0:2,2:0:0:0:
254,283,85798,1,2,3:2:0:0:
326,232,86098,2,0,L|383:228,1,44,10|0,2:2|2:0,2:0:0:0:
406,253,86398,2,0,L|463:249,2,44,2|2|2,1:2|2:0|0:2,0:2:0:0:
428,167,86998,6,0,P|436:123|420:74,1,88.000002685547,6|10,3:2|2:2,0:2:0:0:
347,39,87598,1,2,1:3:0:0:
264,12,87898,1,2,0:3:0:0:
206,69,88198,1,2,3:3:0:0:
250,145,88498,1,10,2:3:0:0:
336,127,88798,1,2,1:3:0:0:
395,191,89098,1,2,0:3:0:0:
361,272,89398,6,0,B|324:280|324:280|305:274|305:274|267:282,1,88,6|10,3:3|2:2,2:0:0:0:
243,309,89848,1,2,0:2:0:0:
243,309,89998,1,2,1:3:0:0:
163,346,90298,2,0,P|152:304|170:251,1,88,2|2,0:3|3:2,2:0:0:0:
232,207,90898,2,0,P|243:165|225:112,1,88,10|2,2:3|1:3,2:0:0:0:
203,96,91348,1,2,0:2:0:0:
203,96,91498,1,2,0:2:0:0:
132,148,91798,6,0,P|86:153|37:143,1,88,6|2,3:3|0:2,2:0:0:0:
15,121,92248,1,0,0:2:0:0:
15,121,92398,2,0,B|20:158|20:158|13:181|13:181|18:211,1,88,2|2,1:2|0:3,2:0:0:0:
3,294,92998,2,0,B|39:300|39:300|59:314|59:314|89:318,1,88,2|2,3:2|0:2,2:0:0:0:
160,271,93598,1,2,1:2:0:0:
325,212,94198,6,0,P|346:176|341:122,1,88,6|2,3:2|0:2,2:0:0:0:
321,87,94648,1,0,0:2:0:0:
321,87,94798,1,2,1:2:0:0:
258,149,95098,2,0,B|210:140|210:140|166:151|166:151|114:138,2,132,2|2|2,0:3|0:3|1:3,2:0:0:0:
292,185,96148,1,2,0:2:0:0:
292,185,96298,1,2,0:2:0:0:
358,243,96598,6,0,P|368:278|353:337,1,88,6|2,3:2|0:2,2:0:0:0:
329,361,97048,1,0,0:2:0:0:
329,361,97198,1,2,1:2:0:0:
254,314,97498,2,0,B|173:294|199:354|112:329,2,132,2|2|2,0:3|0:3|1:3,2:0:0:0:
292,289,98548,1,2,0:2:0:0:
292,289,98698,1,2,0:2:0:0:
369,330,98998,6,0,P|382:284|368:241,1,80,6|2,3:3|0:2,2:0:0:0:
435,189,99598,2,0,P|396:163|351:163,1,80,2|2,3:2|0:2,2:0:0:0:
323,82,100198,2,0,P|286:112|272:155,1,80,2|2,3:2|0:2,2:0:0:0:
187,155,100798,2,0,P|204:200|241:227,1,80,2|2,0:3|0:2,2:0:0:0:
259,304,101398,6,0,B|157:334|187:243|80:270,1,192,6|0,0:3|2:0,0:2:0:0:
1,108,102898,1,2,0:2:0:0:
260,37,103798,2,0,B|309:-7|391:37|391:37|335:84|355:147,1,256,6|0,0:3|2:0,0:2:0:0:
86,378,106198,6,0,B|98:310|98:310|85:262|85:262|98:180,1,192,6|2,0:3|0:2,0:2:0:0:
241,295,107698,1,2,0:2:0:0:
379,64,108598,2,0,B|227:19|279:139|129:85,1,256,6|0,0:3|2:0,0:2:0:0:
256,220,110398,1,2,0:3:0:0:
327,55,110998,6,0,B|367:7|430:32|430:32|456:74|504:71,2,192,6|2|2,0:3|0:3|0:3,0:2:0:0:
199,181,113398,2,0,B|131:196|131:196|83:186|83:186|5:203,2,192,6|2|2,0:3|0:3|0:3,0:2:0:0:
302,327,115798,6,0,P|339:352|348:229,1,256,6|2,0:3|0:2,0:2:0:0:
256,74,118198,2,0,B|106:22|152:129|-1:85,1,256,6|0,0:3|0:2,0:2:0:0:
9,87,120598,5,6,0:3:0:0:
174,299,121498,2,0,P|232:301|285:246,1,128,2|2,0:3|0:3,2:0:0:0:
190,2,122998,2,0,B|152:30|171:76|171:76|201:85|208:115,2,128,6|2|2,0:3|0:3|0:3,2:0:0:0:
354,73,124798,1,2,0:3:0:0:
225,197,125398,6,0,P|188:187|91:179,1,128,6|0,0:3|2:0,0:2:0:0:
22,226,126298,2,0,L|6:92,1,128,2|2,0:3|0:3,2:0:0:0:
263,18,127798,2,0,P|293:8|338:164,1,256,6|0,0:3|0:2,0:2:0:0:
33,335,130198,6,0,P|12:289|32:205,1,128,6|0,0:3|2:0,2:0:0:0:
0,131,131098,2,0,B|48:120|48:120|84:128|84:128|138:116,1,128,2|0,0:3|2:0,2:0:0:0:
209,148,131998,1,2,0:3:0:0:
331,278,132598,6,0,B|285:268|285:268|246:282|246:282|199:275,1,128,6|0,0:3|2:0,0:2:0:0:
135,331,133498,2,0,P|118:288|141:211,1,128,2|0,0:3|2:0,2:0:0:0:
209,148,134398,1,2,0:3:0:0:
256,320,134998,5,6,0:3:0:0:
256,192,135148,12,6,137398,0:3:0:0:
