osu file format v14

[General]
AudioFilename: audio.ogg
AudioLeadIn: 0
PreviewTime: 18898
Countdown: 0
SampleSet: Soft
StackLeniency: 0.7
Mode: 0
LetterboxInBreaks: 0
WidescreenStoryboard: 0

[Editor]
DistanceSpacing: 1.8
BeatDivisor: 4
GridSize: 16
TimelineZoom: 1.5

[Metadata]
Title:Midsummer cat
TitleUnicode:Midsummer cat
Artist:Mitsukiyo
ArtistUnicode:ミツキヨ
Creator:Setu
Version:Hard
Source:ブルーアーカイブ -Blue Archive-
Tags:electronic instrumental coloured glazee shiratamamywife teages coloured_glazee ブルアカ video game yostar nat games nexon original soundtrack blueaka ost buruaka buru aka Longing for the memorable days vol.1 videogame
BeatmapID:4209231
BeatmapSetID:2021170

[Difficulty]
HPDrainRate:4
CircleSize:3.5
OverallDifficulty:6
ApproachRate:7.5
SliderMultiplier:2
SliderTickRate:1

[Events]
//Background and Video events
0,0,"109514556_p0.jpg",0,0
//Break Periods
//Storyboard Layer 0 (Background)
//Storyboard Layer 1 (Fail)
//Storyboard Layer 2 (Pass)
//Storyboard Layer 3 (Foreground)
//Storyboard Layer 4 (Overlay)
//Storyboard Sound Samples

[TimingPoints]
598,600,4,2,1,45,1,0
598,-133.333333333333,4,2,1,45,0,0
19798,-100,4,2,1,45,0,0
56098,-100,4,2,1,65,0,0
58198,-100,4,2,1,75,0,1
77248,-100,4,2,1,75,0,0
77398,-100,4,2,1,75,0,1
98998,-100,4,2,1,45,0,0
101398,-200,4,2,1,45,0,0
139498,-200,4,2,1,5,0,0

[Colours]
Combo1 : 252,173,173
Combo2 : 180,245,239
Combo3 : 238,242,183

[HitObjects]
348,50,598,6,0,B|440:31|408:99|499:73,2,150,6|0|0,2:3|0:2|0:2,0:2:0:0:
256,168,2398,2,0,P|219:162|180:160,1,75.0000000000002,0|2,0:2|0:2,0:2:0:0:
128,106,2998,6,0,P|86:148|-8:140,2,150,6|0|0,2:3|0:2|0:2,0:2:0:0:
255,27,4798,2,0,B|276:56|276:56|261:109,1,75.0000000000002,0|2,0:2|0:2,0:2:0:0:
204,137,5398,6,0,B|260:127|260:127|292:135|292:135|351:121,2,150,6|0|0,2:3|0:2|0:2,0:2:0:0:
95,241,7198,2,0,L|17:230,1,75.0000000000002,0|2,0:2|0:2,0:2:0:0:
41,150,7798,6,0,P|111:132|90:241,1,225.000000000001,6|2,0:3|0:2,0:2:0:0:
83,314,8998,2,0,L|157:324,1,75.0000000000002,2|2,0:3|0:3,2:0:0:0:
220,365,9598,2,0,B|242:338|242:338|234:289,1,75.0000000000002,2|2,0:3|0:3,2:0:0:0:
186,240,10198,6,0,B|242:250|242:250|271:279|271:279|331:288,1,150,6|0,0:3|0:2,0:3:0:0:
468,320,11398,1,2,0:3:0:0:
502,174,11998,1,2,0:3:0:0:
356,140,12598,6,0,B|316:138|286:107|286:107|246:103|213:137,2,150,6|0|0,0:3|0:2|0:2,0:2:0:0:
234,228,14398,2,0,P|187:216|145:210,1,75.0000000000002,0|2,0:2|0:2,0:2:0:0:
126,278,14998,6,0,B|111:222|111:222|125:182|125:182|111:128,1,150,6|0,0:3|0:2,0:2:0:0:
211,20,16198,2,0,B|226:76|226:76|212:116|212:116|226:170,1,150,2|0,0:3|0:2,0:2:0:0:
334,273,17398,5,6,0:3:0:0:
334,273,17698,2,0,L|379:262,1,37.5000000000001,0|0,0:2|0:2,2:0:0:0:
454,189,18298,1,0,0:2:0:0:
300,140,18598,6,0,P|305:97|306:55,1,75.0000000000002,0|2,0:2|3:2,2:0:0:0:
385,124,19048,1,2,0:2:0:0:
385,124,19198,2,0,P|381:152|382:174,1,37.5000000000001,10|0,2:2|2:0,2:0:0:0:
331,217,19498,2,0,P|335:245|334:267,1,37.5000000000001,2|0,0:2|2:0,2:0:0:0:
384,310,19798,6,0,P|347:289|275:295,1,100,6|2,3:2|0:2,2:0:0:0:
228,328,20248,1,2,0:2:0:0:
228,328,20398,2,0,P|191:349|119:343,1,100,10|0,2:3|0:2,2:0:0:0:
33,237,20998,2,0,B|22:194|22:194|29:169|29:169|13:118,2,100,2|0|10,1:3|3:2|2:3,2:0:0:0:
186,257,21898,1,0,0:2:0:0:
186,257,22048,1,2,2:0:0:0:
237,202,22198,6,0,B|241:177|262:166|262:166|274:135|241:105,1,100,6|2,3:3|0:2,0:2:0:0:
147,7,22798,2,0,B|143:32|122:43|122:43|110:74|143:104,1,100,10|2,2:2|0:2,2:0:0:0:
188,151,23248,1,2,0:2:0:0:
188,151,23398,1,2,1:2:0:0:
307,59,23698,2,0,B|367:45|367:45|421:59,1,100,2|10,3:3|2:2,0:2:0:0:
460,104,24148,2,0,B|475:140|460:161|460:161|434:170|428:199,1,100,2|0,0:3|0:2,0:2:0:0:
493,229,24598,6,0,B|453:217|453:217|427:226|427:226|396:220,1,100,6|2,3:3|0:2,0:2:0:0:
339,169,25048,1,2,0:2:0:0:
339,169,25198,2,0,P|287:199|229:190,1,100,10|2,2:2|0:2,2:0:0:0:
190,244,25648,1,2,0:2:0:0:
190,244,25798,2,0,B|164:200|164:200|182:137,1,100,2|2,1:2|3:2,2:0:0:0:
256,25,26398,2,0,B|296:29|296:29|319:48|319:48|362:53,1,100,10|0,2:3|0:2,0:2:0:0:
471,138,26998,6,0,P|498:90|477:-12,2,150,6|2|2,3:3|0:3|0:3,0:2:0:0:
510,283,28198,2,0,L|451:274,1,50,2|2,1:2|0:2,2:0:0:0:
386,266,28498,1,2,3:3:0:0:
386,266,28648,1,2,0:2:0:0:
386,266,28798,2,0,P|366:236|376:168,1,100,10|2,2:2|0:2,2:0:0:0:
256,54,29398,6,0,B|212:63|212:63|196:80|196:80|151:90,1,100,6|2,3:3|0:2,2:0:0:0:
100,47,29848,1,2,0:2:0:0:
100,47,29998,2,0,P|88:100|115:147,1,100,10|0,2:3|0:2,2:0:0:0:
256,159,30598,2,0,B|302:167|302:167|320:183|320:183|369:192,1,100,2|0,1:3|3:2,2:0:0:0:
392,255,31048,1,0,0:2:0:0:
392,255,31198,2,0,L|380:150,1,100,10|0,2:3|0:2,0:2:0:0:
238,107,31798,6,0,P|209:141|217:209,1,100,6|2,3:3|0:2,0:2:0:0:
260,256,32248,1,2,0:2:0:0:
260,256,32398,2,0,P|289:290|281:358,1,100,10|2,2:2|0:2,2:0:0:0:
225,381,32848,1,2,0:2:0:0:
225,381,32998,1,2,1:2:0:0:
116,277,33298,2,0,L|99:177,1,100,2|10,3:3|2:2,0:2:0:0:
104,103,33748,2,0,B|143:110|143:110|160:129|160:129|194:134,1,100,2|0,0:3|0:2,0:2:0:0:
256,90,34198,6,0,P|308:81|374:59,2,100,6|2|10,3:3|0:2|2:2,0:2:0:0:
184,221,35098,2,0,P|177:249|182:276,1,50,2|2,0:2|0:2,2:0:0:0:
242,310,35398,2,0,B|286:303|286:303|311:310|311:310|351:302,1,100,2|2,1:2|3:2,2:0:0:0:
440,192,35998,2,0,P|459:148|438:98,1,100,10|0,2:3|0:2,0:2:0:0:
306,35,36598,6,0,B|250:44|250:44|218:73|218:73|162:79,2,150,6|0|2,3:3|0:3|0:3,0:2:0:0:
406,195,37798,2,0,P|350:204|304:172,1,100,2|2,1:2|3:2,2:0:0:0:
369,124,38248,1,2,0:2:0:0:
369,124,38398,2,0,P|376:98|367:62,1,50,10|2,2:3|0:2,0:2:0:0:
302,47,38698,2,0,P|295:73|304:109,1,50,2|2,0:2|0:2,0:2:0:0:
242,153,38998,6,0,B|200:167|200:167|136:155,1,100,6|2,3:3|0:2,2:0:0:0:
42,256,39598,2,0,B|84:242|84:242|148:254,1,100,10|0,2:3|0:2,2:0:0:0:
256,344,40198,2,0,P|281:278|250:196,2,150,2|2|2,1:3|0:3|0:3,0:2:0:0:
386,268,41398,2,0,B|474:250|474:250|507:189,2,150,6|2|2,3:3|0:3|0:3,0:2:0:0:
256,192,42598,6,0,P|202:192|159:236,1,100,2|2,1:2|3:2,2:0:0:0:
109,276,43048,1,2,0:2:0:0:
109,276,43198,2,0,B|82:260|56:257|56:257|46:233|17:218,1,100,10|2,2:2|0:2,0:2:0:0:
0,137,43648,1,2,0:2:0:0:
0,137,43798,6,0,P|42:131|103:167,1,100,6|2,3:3|0:2,2:0:0:0:
263,149,44398,2,0,P|306:157|364:121,1,100,10|0,2:3|0:2,2:0:0:0:
213,81,44998,2,0,P|184:114|186:182,1,100,2|2,1:3|3:2,0:2:0:0:
236,226,45448,1,2,0:3:0:0:
236,226,45598,2,0,L|223:285,1,50,10|2,2:2|0:2,2:0:0:0:
172,329,45898,1,2,0:3:0:0:
317,363,46198,6,0,B|379:352|379:352|401:328|401:328|467:317,2,150,6|2|2,3:3|0:3|0:3,0:2:0:0:
216,251,47398,2,0,P|203:197|233:142,1,100,2|2,1:2|3:2,2:0:0:0:
253,87,47848,1,2,0:2:0:0:
253,87,47998,2,0,B|211:95|211:95|193:109|193:109|151:115,1,100,10|2,2:2|0:2,0:2:0:0:
92,68,48448,1,2,0:2:0:0:
92,68,48598,6,0,P|76:115|102:170,1,100,6|2,3:3|0:2,2:0:0:0:
21,276,49198,2,0,L|129:254,1,100,10|0,2:3|0:2,2:0:0:0:
234,159,49798,2,0,P|276:157|326:204,1,100,2|2,1:3|3:2,0:2:0:0:
372,252,50248,1,2,0:3:0:0:
372,252,50398,2,0,L|426:241,1,50,10|2,2:2|0:2,2:0:0:0:
476,191,50698,1,2,0:3:0:0:
384,72,50998,6,0,B|358:70|331:93|331:93|281:95|257:44,2,150,6|2|2,3:3|0:3|0:3,0:2:0:0:
352,218,52198,2,0,P|303:210|238:228,1,100,2|2,1:2|3:2,2:0:0:0:
192,169,52648,1,2,0:2:0:0:
192,169,52798,2,0,P|173:199|191:272,1,100,10|2,2:2|0:2,0:2:0:0:
136,331,53248,1,2,0:2:0:0:
136,331,53398,6,0,B|100:321|100:321|67:327|67:327|25:315,1,100,2|2,3:3|0:2,2:0:0:0:
15,170,53998,2,0,B|51:180|51:180|84:174|84:174|126:186,1,100,10|0,2:3|0:2,2:0:0:0:
256,142,54598,2,0,B|280:91|280:91|256:1,2,150,2|2|2,1:3|0:3|0:3,0:2:0:0:
489,331,56098,6,0,B|502:305|502:305|494:272,1,50,2|0,3:3|2:0,2:0:0:0:
456,221,56398,2,0,B|430:208|430:208|397:216,1,50,2|0,3:3|2:0,2:0:0:0:
349,257,56698,2,0,B|336:283|336:283|344:316,1,50,2|0,3:3|2:0,2:0:0:0:
279,346,56998,2,0,B|258:350|258:350|232:337,1,50,2|0,3:3|2:0,2:0:0:0:
64,196,57598,5,2,3:2:0:0:
64,196,57748,1,2,0:2:0:0:
136,229,57898,1,2,0:2:0:0:
136,229,58048,1,2,0:2:0:0:
195,183,58198,6,0,B|206:142|206:142|200:119|200:119|214:71,1,100,6|10,3:3|2:2,0:2:0:0:
344,14,58798,2,0,P|383:19|407:23,1,50,2|2,1:3|0:2,0:2:0:0:
429,103,59098,2,0,P|390:98|366:94,1,50,2|0,0:3|0:2,0:2:0:0:
307,142,59398,6,0,P|296:163|301:204,1,50,2|2,3:3|0:2,0:2:0:0:
221,241,59698,2,0,P|237:257|278:265,1,50,10|2,2:3|0:2,0:2:0:0:
297,349,59998,2,0,P|318:338|338:302,1,50,2|0,1:3|0:2,2:0:0:0:
424,308,60298,2,0,P|420:284|392:254,1,50,2|0,0:3|0:2,0:2:0:0:
457,189,60598,6,0,B|418:200|418:200|400:218|400:218|361:229,1,100,6|10,3:3|2:2,2:0:0:0:
290,190,61048,1,2,0:2:0:0:
290,190,61198,2,0,L|231:179,1,50,2|0,1:3|2:0,2:0:0:0:
177,117,61498,2,0,P|140:155|73:163,1,100,2|2,0:3|3:2,2:0:0:0:
12,326,62098,6,0,B|50:306|50:306|123:322,1,100,10|2,2:3|1:2,2:0:0:0:
186,369,62548,1,2,0:2:0:0:
186,369,62698,2,0,L|245:359,1,50,2|0,0:3|0:2,0:2:0:0:
301,299,62998,6,0,P|318:255|292:202,1,100,6|10,3:2|2:2,0:2:0:0:
215,189,63448,1,2,2:0:0:0:
215,189,63598,2,0,P|198:145|224:92,1,100,2|2,1:2|0:2,0:2:0:0:
372,5,64198,6,0,P|391:18|407:56,1,50,2|0,3:2|2:0,2:0:0:0:
496,50,64498,2,0,P|489:71|457:98,1,50,10|0,2:2|2:0,2:0:0:0:
481,182,64798,2,0,P|457:182|422:160,1,50,2|0,1:2|2:0,2:0:0:0:
361,116,65098,1,2,0:2:0:0:
361,116,65248,1,2,0:2:0:0:
361,116,65398,5,6,3:3:0:0:
259,4,65698,1,10,2:3:0:0:
123,64,65998,1,2,1:3:0:0:
139,213,66298,1,2,0:3:0:0:
139,213,66448,1,2,2:0:0:0:
139,213,66598,6,0,B|104:236|104:236|38:226,2,100,2|10|2,3:2|2:2|1:2,2:0:0:0:
193,285,67348,1,2,0:2:0:0:
193,285,67498,2,0,L|249:291,1,50,2|2,0:2|0:2,0:2:0:0:
312,340,67798,6,0,P|329:296|307:235,1,100,6|10,3:2|2:2,0:2:0:0:
416,97,68398,2,0,P|379:100|360:97,1,50,2|2,1:3|0:2,0:2:0:0:
290,147,68698,2,0,P|253:144|234:147,1,50,2|0,0:3|0:2,0:2:0:0:
201,67,68998,6,0,P|179:76|158:112,1,50,2|2,3:3|0:2,0:2:0:0:
73,92,69298,2,0,P|75:114|103:146,1,50,10|2,2:3|0:2,0:2:0:0:
66,224,69598,2,0,P|89:228|127:212,1,50,2|0,1:3|0:2,2:0:0:0:
191,270,69898,2,0,P|202:248|199:207,1,50,2|0,0:3|0:2,0:2:0:0:
267,159,70198,6,0,B|313:168|313:168|330:185|330:185|368:192,1,100,6|10,3:3|2:2,2:0:0:0:
437,145,70648,1,2,0:2:0:0:
437,145,70798,2,0,P|445:112|436:84,1,50,2|0,1:3|2:0,2:0:0:0:
357,63,71098,2,0,P|335:108|349:157,1,100,2|2,0:3|3:2,2:0:0:0:
453,300,71698,6,0,B|411:286|411:286|383:308|346:303,1,100,10|2,2:3|1:2,2:0:0:0:
281,344,72148,1,2,0:2:0:0:
281,344,72298,2,0,L|270:280,1,50,2|2,0:2|0:2,0:2:0:0:
189,258,72598,6,0,P|217:213|213:158,1,100,6|10,3:3|2:2,0:2:0:0:
334,32,73198,1,2,1:2:0:0:
334,32,73348,1,2,0:2:0:0:
412,85,73498,1,2,0:2:0:0:
412,85,73648,1,2,0:2:0:0:
352,152,73798,6,0,P|330:146|302:143,1,50,2|0,3:2|2:0,2:0:0:0:
237,80,74098,2,0,P|224:99|212:124,1,50,10|0,2:2|2:0,2:0:0:0:
133,164,74398,2,0,P|147:181|168:200,1,50,2|0,1:2|2:0,2:0:0:0:
219,287,74698,1,2,0:2:0:0:
219,287,74848,1,2,0:2:0:0:
219,287,74998,6,0,B|287:268|262:318|334:299,1,100,6|10,3:2|2:2,0:2:0:0:
437,172,75598,2,0,B|369:153|394:203|322:184,1,100,2|2,1:2|0:2,0:2:0:0:
269,145,76048,1,2,2:0:0:0:
269,145,76198,6,0,P|252:100|275:44,1,100,2|10,3:2|2:2,0:2:0:0:
97,11,76798,1,2,1:2:0:0:
97,11,76948,1,2,0:2:0:0:
39,80,77098,1,2,0:2:0:0:
39,80,77248,1,2,0:2:0:0:
99,146,77398,6,0,B|140:136|140:136|166:145|166:145|214:137,1,100,6|10,3:3|2:2,0:2:0:0:
341,109,77998,2,0,P|335:147|334:170,1,50,2|2,1:3|0:2,0:2:0:0:
416,162,78298,2,0,P|422:124|423:101,1,50,2|0,0:3|0:2,0:2:0:0:
495,180,78598,6,0,P|489:203|457:229,1,50,2|2,3:3|0:2,0:2:0:0:
490,310,78898,2,0,P|467:311|431:288,1,50,10|2,2:3|0:2,0:2:0:0:
361,338,79198,2,0,P|353:315|363:275,1,50,2|0,1:3|0:2,2:0:0:0:
296,221,79498,2,0,P|316:206|356:203,1,50,2|0,0:3|0:2,0:2:0:0:
408,141,79798,6,0,P|425:109|408:35,1,100,6|10,3:3|2:2,2:0:0:0:
339,11,80248,1,2,0:2:0:0:
339,11,80398,2,0,L|282:22,1,50,2|0,1:3|2:0,2:0:0:0:
216,72,80698,2,0,P|184:43|118:36,1,100,2|2,0:3|3:2,2:0:0:0:
1,160,81298,6,0,B|38:158|62:134|62:134|79:151|99:156,1,100,10|2,2:3|1:2,2:0:0:0:
182,151,81748,1,2,0:2:0:0:
182,151,81898,2,0,L|170:213,1,50,2|0,0:3|0:2,0:2:0:0:
216,279,82198,6,0,P|252:246|314:239,1,100,6|10,3:2|2:2,0:2:0:0:
377,295,82648,1,2,2:0:0:0:
377,295,82798,2,0,B|390:250|390:250|381:229|381:229|390:185,1,100,2|2,1:2|0:2,0:2:0:0:
371,19,83398,6,0,P|390:32|406:70,1,50,2|0,3:2|2:0,2:0:0:0:
495,64,83698,2,0,P|488:85|456:112,1,50,10|0,2:2|2:0,2:0:0:0:
480,196,83998,2,0,P|456:196|421:174,1,50,2|0,1:2|2:0,2:0:0:0:
360,130,84298,1,2,0:2:0:0:
360,130,84448,1,2,0:2:0:0:
360,130,84598,6,0,B|299:109|310:159|245:131,1,100,2|10,3:2|2:2,2:0:0:0:
190,93,85048,1,0,0:2:0:0:
190,93,85198,2,0,P|175:122|184:158,1,50,2|0,1:2|2:0,2:0:0:0:
208,222,85498,2,0,L|99:203,1,100,2|2,0:2|3:2,2:0:0:0:
256,308,86098,2,0,B|297:299|297:299|321:306|321:306|360:298,2,100,10|2|2,2:2|1:2|0:2,2:0:0:0:
86,368,86998,6,0,B|61:334|61:334|77:270,1,100,6|10,3:2|2:2,0:2:0:0:
172,131,87598,2,0,P|208:142|244:131,1,50,2|2,1:3|0:2,0:2:0:0:
293,180,87898,2,0,P|325:169|358:165,1,50,2|0,0:3|0:2,0:2:0:0:
427,139,88198,6,0,P|435:161|422:201,1,50,2|2,3:3|0:2,0:2:0:0:
493,251,88498,2,0,P|475:264|432:264,1,50,10|2,2:3|0:2,0:2:0:0:
400,344,88798,2,0,P|381:329|368:290,1,50,2|0,1:3|0:2,2:0:0:0:
282,282,89098,2,0,P|290:259|323:233,1,50,2|0,0:3|0:2,0:2:0:0:
342,157,89398,6,0,B|305:150|305:150|275:158|275:158|222:149,1,100,6|10,3:3|2:2,2:0:0:0:
177,99,89848,1,2,0:2:0:0:
177,99,89998,2,0,P|157:136|161:166,1,50,2|0,1:3|2:0,2:0:0:0:
192,225,90298,2,0,P|208:255|191:330,1,100,2|2,0:3|3:2,2:0:0:0:
27,372,90898,6,0,B|28:349|5:333|5:333|-9:304|30:268,1,100,10|2,2:3|1:3,2:0:0:0:
59,206,91348,1,2,0:2:0:0:
59,206,91498,2,0,P|95:212|124:212,1,50,2|2,0:2|0:2,2:0:0:0:
190,174,91798,5,6,3:3:0:0:
339,274,92098,2,0,L|395:265,2,50,2|0|2,0:2|0:2|1:2,2:0:0:0:
178,357,92698,2,0,B|173:321|173:321|184:295|184:295|175:245,1,100,2|2,0:3|3:2,2:0:0:0:
276,109,93298,6,0,B|281:145|281:145|270:171|270:171|279:221,1,100,2|2,0:2|1:2,2:0:0:0:
398,353,93898,1,2,0:2:0:0:
398,353,94048,1,0,2:0:0:0:
398,353,94198,5,6,3:2:0:0:
234,276,94498,2,0,L|178:267,2,50,2|0|2,0:2|0:2|1:2,2:0:0:0:
393,191,95098,6,0,P|411:165|405:93,1,100,2|2,0:3|3:2,2:0:0:0:
341,38,95548,2,0,P|309:35|250:76,1,100,2|0,0:3|2:0,0:2:0:0:
332,134,95998,1,2,1:3:0:0:
332,134,96148,1,2,0:2:0:0:
332,134,96298,1,2,0:2:0:0:
163,197,96598,6,0,B|123:189|123:189|98:195|98:195|57:186,1,100,6|2,3:2|0:2,2:0:0:0:
9,123,97048,1,0,0:2:0:0:
9,123,97198,2,0,P|-2:84|4:56,1,50,2|0,1:2|2:0,2:0:0:0:
71,21,97498,6,0,B|99:28|123:19|123:19|147:24|163:51,1,100,2|2,0:3|3:2,2:0:0:0:
249,58,97948,2,0,B|228:78|224:104|224:104|208:122|177:122,1,100,2|0,0:3|2:0,0:2:0:0:
129,195,98398,2,0,B|121:167|101:150|101:150|93:127|108:100,1,100,2|2,1:3|0:2,2:0:0:0:
305,113,98998,5,6,3:3:0:0:
447,66,99298,2,0,L|454:12,2,50,2|2|2,0:2|0:2|3:2,2:0:0:0:
308,122,99898,2,0,L|315:176,2,50,2|2|2,0:2|0:2|3:2,2:0:0:0:
399,241,100498,2,0,L|406:187,1,50,2|2,0:2|0:2,2:0:0:0:
474,144,100798,1,2,0:3:0:0:
485,151,101398,6,0,B|394:113|417:194|326:162,1,150,6|0,0:3|2:0,0:2:0:0:
112,86,102898,1,2,0:2:0:0:
334,22,103798,6,0,B|296:68|324:117|324:117|347:143|356:203|356:203|300:228|308:293,1,300,6|0,0:3|0:2,0:2:0:0:
255,172,106198,6,0,B|201:158|201:158|156:171|156:171|94:156,1,150,6|2,0:3|0:2,0:2:0:0:
6,284,107698,1,2,0:2:0:0:
312,250,108598,6,0,P|383:192|254:173,1,300,6|2,0:3|0:3,0:2:0:0:
178,288,110998,6,0,B|233:299|233:299|259:323|259:323|319:336,2,150,6|2|2,0:3|0:3|0:3,0:2:0:0:
78,230,113398,2,0,P|58:185|84:85,2,150,6|2|2,0:3|0:3|0:3,0:2:0:0:
165,160,115798,6,0,B|357:116|295:257|460:188,1,300,6|2,0:3|0:2,0:2:0:0:
394,104,118198,2,0,B|364:172|365:302|365:302|318:286|275:257,1,300,6|0,0:3|2:0,0:2:0:0:
465,47,120598,5,6,0:3:0:0:
465,47,121498,2,0,P|388:44|344:35,2,100,2|2|0,0:3|0:3|0:2,2:0:0:0:
498,122,122998,1,6,0:3:0:0:
382,206,123598,6,0,P|360:183|355:117,2,100,2|2|2,0:3|0:3|0:3,0:2:0:0:
460,299,125398,6,0,B|404:291|404:291|364:305|364:305|302:297,1,150,6|2,0:3|0:3,0:2:0:0:
94,138,126898,1,2,0:3:0:0:
154,76,127798,6,0,B|224:82|213:159|213:159|160:170|157:235,1,200,6|0,0:3|0:2,0:2:0:0:
326,301,130198,5,6,0:3:0:0:
256,94,131098,1,2,0:3:0:0:
406,191,131998,1,2,0:3:0:0:
237,311,132598,2,0,B|245:258|245:258|270:217|270:217|278:150,2,150,6|2|2,0:3|0:3|0:3,0:2:0:0:
133,372,134998,2,0,P|124:306|77:73,1,300,6|0,0:3|2:0,0:2:0:0:
256,192,137398,5,6,0:3:0:0:
256,192,137548,12,0,139498,0:2:0:0:
