osu file format v14

[General]
AudioFilename: audio.ogg
AudioLeadIn: 0
PreviewTime: 39575
Countdown: 0
SampleSet: Normal
StackLeniency: 0.7
Mode: 1
LetterboxInBreaks: 0
WidescreenStoryboard: 1

[Editor]
DistanceSpacing: 0.85
BeatDivisor: 1
GridSize: 4
TimelineZoom: 0.3

[Metadata]
Title:Luminous Memory ~Raytoly Artcore Remix~
TitleUnicode:Luminous Memory ~Raytoly Artcore Remix~
Artist:Mitsukiyo
ArtistUnicode:ミツキヨ
Creator:Raytoly
Version:Kantan
Source:ブルーアーカイブ -Blue Archive-
Tags:A_rise Hardcore Artcore Artstep Dubstep Classic instrumental video game electronic nexon yostar nat games blue archive ブルアカ blueaka mobile rpg recollection lobby bgm background music ost Original Sound Track
BeatmapID:3747277
BeatmapSetID:1825848

[Difficulty]
HPDrainRate:7
CircleSize:5
OverallDifficulty:3
ApproachRate:10
SliderMultiplier:1.4
SliderTickRate:1

[Events]
//Background and Video events
0,0,"Waifus.jpg",0,50
//Break Periods
//Storyboard Layer 0 (Background)
//Storyboard Layer 1 (Fail)
//Storyboard Layer 2 (Pass)
//Storyboard Layer 3 (Foreground)
//Storyboard Layer 4 (Overlay)
//Storyboard Sound Samples

[TimingPoints]
1175,600,4,1,0,40,1,0
1175,-66.6666666666667,4,1,0,40,0,0
20375,-66.6666666666667,4,1,0,60,0,0
39575,-66.6666666666667,4,1,0,80,0,1
77975,-66.6666666666667,4,1,0,80,0,0
78125,-66.6666666666667,4,1,0,60,0,0
97175,-66.6666666666667,4,1,0,80,0,1
135575,-66.6666666666667,4,1,0,80,0,0
135725,-66.6666666666667,4,1,0,60,0,0

[HitObjects]
319,254,1175,5,4,0:0:0:0:
266,236,2375,1,8,0:0:0:0:
312,270,3575,1,0,0:0:0:0:
286,200,4175,1,0,0:0:0:0:
286,200,4775,1,8,0:0:0:0:
211,187,5975,1,8,0:0:0:0:
286,200,7175,1,0,0:0:0:0:
286,200,8375,1,8,0:0:0:0:
286,200,8975,1,8,0:0:0:0:
286,200,9575,1,8,0:0:0:0:
286,200,10775,1,0,0:0:0:0:
286,200,11975,1,8,0:0:0:0:
286,200,13175,1,0,0:0:0:0:
286,200,13775,1,0,0:0:0:0:
286,200,14375,1,8,0:0:0:0:
286,200,15575,1,0,0:0:0:0:
286,200,17975,1,0,0:0:0:0:
286,200,20375,1,4,0:0:0:0:
309,202,22175,1,8,0:0:0:0:
270,224,22775,1,0,0:0:0:0:
270,224,24575,1,8,0:0:0:0:
270,224,25175,1,0,0:0:0:0:
246,154,26975,1,8,0:0:0:0:
270,224,27575,1,0,0:0:0:0:
270,224,29375,1,8,0:0:0:0:
270,224,29975,1,4,0:0:0:0:
245,145,31775,1,8,0:0:0:0:
270,224,32375,1,0,0:0:0:0:
275,169,34175,1,8,0:0:0:0:
275,169,34775,1,4,0:0:0:0:
185,161,35975,1,0,0:0:0:0:
185,161,36575,1,8,0:0:0:0:
270,224,37175,1,4,0:0:0:0:
270,224,39575,1,12,0:0:0:0:
247,139,40175,1,8,0:0:0:0:
328,148,40625,1,0,0:0:0:0:
272,179,41975,1,8,0:0:0:0:
272,179,42575,1,8,0:0:0:0:
272,179,43025,1,0,0:0:0:0:
189,152,43625,1,0,0:0:0:0:
189,152,44075,1,0,0:0:0:0:
272,179,44375,1,0,0:0:0:0:
272,179,45425,1,8,0:0:0:0:
238,189,46775,1,0,0:0:0:0:
238,189,47825,1,8,0:0:0:0:
245,132,48425,1,0,0:0:0:0:
245,132,48875,1,0,0:0:0:0:
228,156,49175,1,12,0:0:0:0:
228,156,49775,1,8,0:0:0:0:
228,156,50225,1,0,0:0:0:0:
230,192,51575,1,8,0:0:0:0:
230,192,52175,1,8,0:0:0:0:
230,192,52625,1,0,0:0:0:0:
256,160,53225,1,0,0:0:0:0:
256,160,53675,1,0,0:0:0:0:
230,192,53975,1,0,0:0:0:0:
230,192,55025,1,8,0:0:0:0:
230,192,56375,1,0,0:0:0:0:
197,150,58175,1,0,0:0:0:0:
216,139,58475,1,0,0:0:0:0:
270,224,58775,1,12,0:0:0:0:
247,139,59375,1,8,0:0:0:0:
328,148,59825,1,0,0:0:0:0:
272,179,61175,1,8,0:0:0:0:
272,179,61775,1,8,0:0:0:0:
272,179,62225,1,0,0:0:0:0:
250,104,62825,1,0,0:0:0:0:
250,104,63275,1,0,0:0:0:0:
272,179,63575,1,0,0:0:0:0:
272,179,64625,1,8,0:0:0:0:
238,189,65975,1,0,0:0:0:0:
238,189,67025,1,8,0:0:0:0:
250,104,67625,1,0,0:0:0:0:
250,104,68075,1,0,0:0:0:0:
228,156,68375,1,12,0:0:0:0:
228,156,68975,1,8,0:0:0:0:
228,156,69425,1,0,0:0:0:0:
230,192,70775,1,8,0:0:0:0:
230,192,71375,1,8,0:0:0:0:
230,192,71825,1,0,0:0:0:0:
250,104,72425,1,0,0:0:0:0:
250,104,72875,1,0,0:0:0:0:
230,192,73175,1,0,0:0:0:0:
230,192,74225,1,8,0:0:0:0:
230,192,75575,1,0,0:0:0:0:
211,149,77975,1,12,0:0:0:0:
170,161,79775,1,8,0:0:0:0:
230,167,80375,1,0,0:0:0:0:
223,121,82175,1,8,0:0:0:0:
230,168,82775,1,0,0:0:0:0:
223,121,84575,1,8,0:0:0:0:
230,168,85175,1,0,0:0:0:0:
215,119,86975,1,8,0:0:0:0:
225,191,87575,1,4,0:0:0:0:
230,192,89375,1,8,0:0:0:0:
230,192,89975,1,0,0:0:0:0:
342,108,91775,1,8,0:0:0:0:
341,113,92375,1,4,0:0:0:0:
308,197,93575,1,0,0:0:0:0:
308,197,94175,1,8,0:0:0:0:
308,197,94775,1,0,0:0:0:0:
206,195,97175,1,4,0:0:0:0:
254,198,97775,1,0,0:0:0:0:
254,198,98075,1,0,0:0:0:0:
254,198,98375,1,8,0:0:0:0:
254,198,98975,1,0,0:0:0:0:
254,198,99575,1,8,0:0:0:0:
254,198,99875,1,8,0:0:0:0:
254,198,100175,1,0,0:0:0:0:
254,198,100475,1,0,0:0:0:0:
254,198,100775,1,8,0:0:0:0:
255,198,101975,1,8,0:0:0:0:
255,198,102575,1,0,0:0:0:0:
255,198,102875,1,0,0:0:0:0:
255,198,103175,1,8,0:0:0:0:
255,198,103475,1,0,0:0:0:0:
255,198,103775,1,8,0:0:0:0:
255,198,104375,1,0,0:0:0:0:
255,198,104675,1,8,0:0:0:0:
255,198,105275,1,0,0:0:0:0:
255,198,105575,1,8,0:0:0:0:
255,198,106775,1,8,0:0:0:0:
255,198,107375,1,0,0:0:0:0:
255,198,107675,1,0,0:0:0:0:
255,198,107975,1,8,0:0:0:0:
255,198,108575,1,0,0:0:0:0:
255,198,109175,1,8,0:0:0:0:
255,198,109475,1,8,0:0:0:0:
255,198,109775,1,0,0:0:0:0:
255,198,110075,1,0,0:0:0:0:
255,198,110375,1,8,0:0:0:0:
255,198,110975,1,8,0:0:0:0:
255,198,111575,1,0,0:0:0:0:
301,193,113075,1,8,0:0:0:0:
301,193,113375,1,0,0:0:0:0:
301,193,113675,1,0,0:0:0:0:
301,193,113975,1,8,0:0:0:0:
301,193,114575,1,8,0:0:0:0:
301,193,115175,1,0,0:0:0:0:
301,193,116375,5,4,0:0:0:0:
254,198,116975,1,0,0:0:0:0:
254,198,117275,1,0,0:0:0:0:
254,198,117575,1,8,0:0:0:0:
254,198,118175,1,0,0:0:0:0:
254,198,118775,1,8,0:0:0:0:
254,198,119075,1,8,0:0:0:0:
254,198,119375,1,0,0:0:0:0:
254,198,119675,1,0,0:0:0:0:
254,198,119975,1,8,0:0:0:0:
255,198,121175,1,8,0:0:0:0:
255,198,121775,1,0,0:0:0:0:
255,198,122075,1,0,0:0:0:0:
255,198,122375,1,8,0:0:0:0:
255,198,122675,1,0,0:0:0:0:
255,198,122975,1,8,0:0:0:0:
255,198,123575,1,0,0:0:0:0:
255,198,123875,1,8,0:0:0:0:
255,198,124475,1,0,0:0:0:0:
255,198,124775,1,8,0:0:0:0:
255,198,125975,1,8,0:0:0:0:
255,198,126575,1,0,0:0:0:0:
255,198,126875,1,0,0:0:0:0:
255,198,127175,1,8,0:0:0:0:
255,198,127775,1,0,0:0:0:0:
255,198,128375,1,8,0:0:0:0:
255,198,128675,1,8,0:0:0:0:
255,198,128975,1,0,0:0:0:0:
255,198,129275,1,0,0:0:0:0:
255,198,129575,1,8,0:0:0:0:
255,198,130175,1,8,0:0:0:0:
255,198,130775,1,0,0:0:0:0:
301,193,132275,1,8,0:0:0:0:
301,193,132575,1,0,0:0:0:0:
301,193,132875,1,0,0:0:0:0:
301,193,133175,1,8,0:0:0:0:
301,193,133775,1,8,0:0:0:0:
301,193,134375,1,0,0:0:0:0:
298,165,134975,1,0,0:0:0:0:
206,195,135575,5,4,0:0:0:0:
181,147,137975,1,8,0:0:0:0:
210,164,140375,1,0,0:0:0:0:
220,182,142775,1,8,0:0:0:0:
220,182,145175,1,0,0:0:0:0:
220,182,147575,1,8,0:0:0:0:
129,186,149975,1,0,0:0:0:0:
198,175,152375,1,8,0:0:0:0:
212,180,154775,1,4,0:0:0:0:
