osu file format v14

[General]
AudioFilename: audio.mp3
AudioLeadIn: 0
PreviewTime: 96117
Countdown: 0
SampleSet: Normal
StackLeniency: 0
Mode: 1
LetterboxInBreaks: 0
WidescreenStoryboard: 1

[Editor]
Bookmarks: 134805
DistanceSpacing: 0.8
BeatDivisor: 8
GridSize: 32
TimelineZoom: 1.399999

[Metadata]
Title:Luminous memory
TitleUnicode:Luminous memory
Artist:Mitsukiyo
ArtistUnicode:ミツキヨ
Creator:FreezingAnimenz
Version:Ph0eNiiXZ's Oni
Source:ブルーアーカイブ -Blue Archive-
Tags:Ph0eNiiXZ Share instrumental video game electronic nexon yostar nat games ブルアカ blueaka mobile rpg recollection lobby bgm background music ost Original Sound Track vgm electro phoeniixz phoenix
BeatmapID:3777329
BeatmapSetID:1830506

[Difficulty]
HPDrainRate:6
CircleSize:2
OverallDifficulty:6
ApproachRate:10
SliderMultiplier:2.8
SliderTickRate:1

[Events]
//Background and Video events
0,0,"i6D9yDO.jpeg",0,60
//Break Periods
//Storyboard Layer 0 (Background)
//Storyboard Layer 1 (Fail)
//Storyboard Layer 2 (Pass)
//Storyboard Layer 3 (Foreground)
//Storyboard Layer 4 (Overlay)
//Storyboard Sound Samples

[TimingPoints]
-483,600,2,1,0,60,1,8
-33,-142.857142857143,4,1,0,60,0,0
717,600,4,1,0,60,1,0
717,-142.857142857143,4,1,0,60,0,0
19467,-142.857142857143,4,1,0,70,0,0
19907,-142.78022451686,4,1,0,70,0,0
20207,-142.624224813263,4,1,0,70,0,0
20282,-142.576017285184,4,1,0,70,0,0
20357,-142.524517436187,4,1,0,70,0,0
20432,-142.469869890933,4,1,0,70,0,0
20507,-142.412201217522,4,1,0,70,0,0
20657,-142.288237902439,4,1,0,70,0,0
20807,-142.153398255564,4,1,0,70,0,0
20957,-142.008322739471,4,1,0,70,0,0
21107,-141.853558035287,4,1,0,70,0,0
21407,-141.516812412282,4,1,0,70,0,0
21557,-141.335632609257,4,1,0,70,0,0
21707,-141.146385294205,4,1,0,70,0,0
21857,-140.949385867298,4,1,0,70,0,0
22007,-140.744925683774,4,1,0,70,0,0
22157,-140.533275718813,4,1,0,70,0,0
22307,-140.314689474309,4,1,0,70,0,0
22607,-139.857648386593,4,1,0,70,0,0
22757,-139.619632159862,4,1,0,70,0,0
22907,-139.375559762168,4,1,0,70,0,0
23207,-138.870013593946,4,1,0,70,0,0
23357,-138.60890335991,4,1,0,70,0,0
23507,-138.34246549711,4,1,0,70,0,0
23657,-138.070864869082,4,1,0,70,0,0
23807,-137.794260573176,4,1,0,70,0,0
23957,-137.512806384365,4,1,0,70,0,0
24107,-136.935939104886,4,1,0,70,0,0
24257,-136.935939104886,4,1,0,70,0,0
24407,-136.64081023014,4,1,0,70,0,0
24557,-136.341400467034,4,1,0,70,0,0
24707,-136.037841984958,4,1,0,70,0,0
25007,-135.418789921727,4,1,0,70,0,0
25082,-135.26163086754,4,1,0,70,0,0
25157,-135.103543619326,4,1,0,70,0,0
25232,-134.944542958691,4,1,0,70,0,0
25307,-134.784643486315,4,1,0,70,0,0
25457,-134.462205629047,4,1,0,70,0,0
25607,-134.136343386872,4,1,0,70,0,0
25757,-133.807167450081,4,1,0,70,0,0
25907,-133.474785967728,4,1,0,70,0,0
26207,-132.800826841342,4,1,0,70,0,0
26357,-132.459453639539,4,1,0,70,0,0
26507,-132.11528393763,4,1,0,70,0,0
26657,-131.768414513194,4,1,0,70,0,0
26807,-131.41894009127,4,1,0,70,0,0
26957,-131.066953406211,4,1,0,70,0,0
27107,-130.712545259375,4,1,0,70,0,0
27407,-129.996818441147,4,1,0,70,0,0
27557,-129.635672176425,4,1,0,70,0,0
27707,-129.272449355483,4,1,0,70,0,0
28007,-128.540099920738,4,1,0,70,0,0
28157,-128.171132147212,4,1,0,70,0,0
28307,-127.800405571744,4,1,0,70,0,0
28457,-127.427995679566,4,1,0,70,0,0
28607,-127.053976442219,4,1,0,70,0,0
28757,-126.67842034869,4,1,0,70,0,0
28907,-125.922980313822,4,1,0,70,0,0
29057,-125.922980313822,4,1,0,70,0,0
29207,-125.543234199868,4,1,0,70,0,0
29357,-125.162226938378,4,1,0,70,0,0
29507,-124.780024029556,4,1,0,70,0,0
29657,-124.396689653369,4,1,0,70,0,0
29807,-124.012286693329,4,1,0,70,0,0
29882,-123.819703796643,4,1,0,70,0,0
29957,-123.626876759517,4,1,0,70,0,0
30032,-123.433813087902,4,1,0,70,0,0
30107,-123.240520210915,4,1,0,70,0,0
30257,-122.853276177095,4,1,0,70,0,0
30407,-122.465202579299,4,1,0,70,0,0
30557,-122.076356150967,4,1,0,70,0,0
30707,-121.686792457738,4,1,0,70,0,0
30857,-121.296565916963,4,1,0,70,0,0
31157,-120.514336334665,4,1,0,70,0,0
31307,-120.122436555818,4,1,0,70,0,0
31607,-119.337317093344,4,1,0,70,0,0
31757,-118.94419427702,4,1,0,70,0,0
31907,-118.550758932534,4,1,0,70,0,0
32207,-117.763133205353,4,1,0,70,0,0
32357,-117.369031636057,4,1,0,70,0,0
32507,-116.974795197064,4,1,0,70,0,0
32807,-116.186084853065,4,1,0,70,0,0
33107,-115.397327269573,4,1,0,70,0,0
33257,-115.003028412638,4,1,0,70,0,0
33407,-114.608833169412,4,1,0,70,0,0
33557,-114.214778210192,4,1,0,70,0,0
33707,-113.820899363973,4,1,0,70,0,0
34007,-113.033809202228,4,1,0,70,0,0
34242,-112.247833007523,4,1,0,70,0,0
34402,-111.463228502783,4,1,0,71,0,0
34562,-111.463228502783,4,1,0,72,0,0
34682,-111.267320738938,4,1,0,72,0,0
34722,-111.071517829269,4,1,0,73,0,0
34832,-110.875823448132,4,1,0,73,0,0
34882,-110.680241224635,4,1,0,74,0,0
35042,-110.289427543045,4,1,0,75,0,0
35202,-109.899104926891,4,1,0,76,0,0
35362,-109.509300818846,4,1,0,77,0,0
35507,-109.120041973759,4,1,0,77,0,0
35682,-108.343263723092,4,1,0,79,0,0
35842,-107.955794493089,4,1,0,80,0,0
36002,-107.568970899955,4,1,0,81,0,0
36162,-107.182816432684,4,1,0,82,0,0
36322,-106.797353960729,4,1,0,83,0,0
36482,-106.412605744875,4,1,0,84,0,0
36642,-106.028593447974,4,1,0,85,0,0
36802,-105.645338145542,4,1,0,86,0,0
36962,-105.262860336218,4,1,0,87,0,0
37122,-104.881179952082,4,1,0,88,0,0
37282,-104.500316368844,4,1,0,89,0,0
37382,-104.310196782816,4,1,0,89,0,0
37442,-104.120288415898,4,1,0,90,0,0
37602,-103.741114386232,4,1,0,91,0,0
37762,-103.362812046222,4,1,0,92,0,0
37907,-102.985398645279,4,1,0,92,0,0
37922,-102.734291854594,4,1,0,93,0,0
38082,-102.483592436293,4,1,0,94,0,0
38207,-102.233305130449,4,1,0,94,0,0
38242,-101.983434581195,4,1,0,95,0,0
38402,-101.733985337922,4,1,0,96,0,0
38507,-101.484961856468,4,1,0,96,0,0
38562,-100,4,1,0,97,0,0
38722,-100,4,1,0,98,0,0
38882,-100,4,1,0,99,0,0
39042,-100,4,1,0,100,0,0
39117,-100,4,1,0,100,0,1
57707,-100,4,1,0,100,0,1
57857,-101.449275362319,4,1,0,100,0,1
58007,-102.941176470588,4,1,0,100,0,1
58157,-104.477611940299,4,1,0,100,0,1
58307,-106.060606060606,4,1,0,100,0,1
58467,-107.692307692308,4,1,0,100,0,0
58607,-109.375,4,1,0,100,0,0
58757,-111.111111111111,4,1,0,100,0,0
58842,-90.9090909090909,4,1,0,100,0,0
58917,-90.9090909090909,4,1,0,100,0,1
59217,-100,4,1,0,100,0,1
77517,-100,4,1,0,100,0,0
77667,-117.647058823529,4,1,0,90,0,0
86957,-117.647058823529,4,1,0,90,0,0
87257,-117.323360152489,4,1,0,90,0,0
87407,-117.099751782979,4,1,0,90,0,0
87557,-116.853213159727,4,1,0,90,0,0
87707,-116.588453734585,4,1,0,90,0,0
87857,-116.308536416997,4,1,0,90,0,0
88007,-116.015654993332,4,1,0,90,0,0
88157,-115.711480005143,4,1,0,90,0,0
88457,-115.074319152187,4,1,0,90,0,0
88607,-114.743334473743,4,1,0,90,0,0
88757,-114.405165769721,4,1,0,90,0,0
88907,-114.060491191078,4,1,0,90,0,0
89057,-113.709906844502,4,1,0,90,0,0
89207,-113.353942121388,4,1,0,90,0,0
89357,-112.99307124273,4,1,0,90,0,0
89657,-112.25828342322,4,1,0,90,0,0
89807,-111.885109910633,4,1,0,90,0,0
89957,-111.508527121464,4,1,0,90,0,0
90107,-111.128834932815,4,1,0,90,0,0
90257,-110.746310612858,4,1,0,90,0,0
90407,-110.361211355246,4,1,0,90,0,0
90557,-109.973776417469,4,1,0,90,0,0
90857,-109.192777508273,4,1,0,90,0,0
91007,-108.799617496465,4,1,0,90,0,0
91157,-108.404932242304,4,1,0,90,0,0
91307,-108.008894069555,4,1,0,90,0,0
91457,-107.61166518921,4,1,0,90,0,0
91607,-107.213398495887,4,1,0,90,0,0
91757,-106.814238275353,4,1,0,90,0,0
91907,-106.414320835945,4,1,0,90,0,0
92207,-105.612722985542,4,1,0,90,0,0
92507,-104.809556008656,4,1,0,90,0,0
92807,-104.005674259662,4,1,0,90,0,0
93107,-103.20184705062,4,1,0,90,0,0
93257,-102.800173488676,4,1,0,90,0,0
93407,-102.398768409758,4,1,0,90,0,0
93557,-101.997708157328,4,1,0,90,0,0
93707,-101.597065333311,4,1,0,90,0,0
93857,-101.196908993925,4,1,0,90,0,0
94007,-100.797304831847,4,1,0,90,0,0
94157,-100.398315345986,4,1,0,90,0,0
94307,-100,4,1,0,90,0,0
94467,-125,4,1,0,70,0,0
96567,-100,4,1,0,100,0,0
96717,-100,4,1,0,100,0,1
115317,-100,4,1,0,100,0,0
115617,-111.111111111111,4,1,0,70,0,0
116057,-111.344053494766,4,1,0,70,0,0
116207,-111.577484237808,4,1,0,70,0,0
116357,-111.811404364073,4,1,0,70,0,0
116507,-112.045814899544,4,1,0,70,0,0
116657,-112.280716872356,4,1,0,70,0,0
116807,-112.516111312796,4,1,0,70,0,0
116957,-112.751999253315,4,1,0,70,0,0
117257,-113.225259775213,4,1,0,70,0,0
117407,-113.462634432331,4,1,0,70,0,0
117557,-113.700506741015,4,1,0,70,0,0
117707,-113.938877744582,4,1,0,70,0,0
117857,-114.177748488537,4,1,0,70,0,0
118007,-114.417120020577,4,1,0,70,0,0
118157,-114.656993390593,4,1,0,70,0,0
118457,-115.13824985514,4,1,0,70,0,0
118607,-115.37963506048,4,1,0,70,0,0
118757,-115.621526325426,4,1,0,70,0,0
118907,-115.863924710923,4,1,0,70,0,0
119057,-116.106831280139,4,1,0,70,0,0
119207,-116.350247098472,4,1,0,70,0,0
119357,-116.594173233554,4,1,0,70,0,0
119657,-117.083560735684,4,1,0,70,0,0
119807,-117.329024249205,4,1,0,70,0,0
119957,-117.575002372429,4,1,0,70,0,0
120107,-117.821496184227,4,1,0,70,0,0
120257,-118.06850676573,4,1,0,70,0,0
120407,-118.316035200335,4,1,0,70,0,0
120557,-118.564082573713,4,1,0,70,0,0
120857,-119.061738490847,4,1,0,70,0,0
121007,-119.311349217342,4,1,0,70,0,0
121157,-119.561483248096,4,1,0,70,0,0
121307,-119.812141680207,4,1,0,70,0,0
121457,-120.063325613071,4,1,0,70,0,0
121607,-120.315036148391,4,1,0,70,0,0
121757,-120.567274390181,4,1,0,70,0,0
122057,-121.073338420793,4,1,0,70,0,0
122207,-121.327166429232,4,1,0,70,0,0
122357,-121.581526583383,4,1,0,70,0,0
122507,-121.83641999888,4,1,0,70,0,0
122657,-122.091847793694,4,1,0,70,0,0
122807,-122.347811088143,4,1,0,70,0,0
122957,-122.604311004892,4,1,0,70,0,0
123257,-123.118925207721,4,1,0,70,0,0
123407,-123.377041750919,4,1,0,70,0,0
123557,-123.635699430663,4,1,0,70,0,0
123707,-123.894899381435,4,1,0,70,0,0
123857,-124.154642740096,4,1,0,70,0,0
124007,-124.414930645891,4,1,0,70,0,0
124157,-124.675764240454,4,1,0,70,0,0
124457,-125.199073074383,4,1,0,70,0,0
124607,-125.461550609003,4,1,0,70,0,0
124757,-125.724578422906,4,1,0,70,0,0
124907,-125.988157669742,4,1,0,70,0,0
125057,-126.252289505581,4,1,0,70,0,0
125207,-126.516975088915,4,1,0,70,0,0
125357,-126.782215580665,4,1,0,70,0,0
125657,-127.314365945275,4,1,0,70,0,0
125807,-127.581278152166,4,1,0,70,0,0
125957,-127.848749935548,4,1,0,70,0,0
126107,-128.116782468564,4,1,0,70,0,0
126257,-128.385376926814,4,1,0,70,0,0
126407,-128.654534488364,4,1,0,70,0,0
126557,-128.924256333749,4,1,0,70,0,0
126857,-129.46539761055,4,1,0,70,0,0
127007,-129.736819415432,4,1,0,70,0,0
127157,-130.008810251094,4,1,0,70,0,0
127307,-130.281371310499,4,1,0,70,0,0
127457,-130.554503789109,4,1,0,70,0,0
127607,-130.828208884894,4,1,0,70,0,0
127757,-131.102487798337,4,1,0,70,0,0
128057,-131.652771892707,4,1,0,70,0,0
128207,-131.928779487202,4,1,0,70,0,0
128357,-132.2053657265,4,1,0,70,0,0
128507,-132.482531823719,4,1,0,70,0,0
128657,-132.76027899452,4,1,0,70,0,0
128807,-133.038608457113,4,1,0,70,0,0
128957,-133.317521432262,4,1,0,70,0,0
129257,-133.877102816086,4,1,0,70,0,0
129407,-134.157773679107,4,1,0,70,0,0
129557,-134.439032963387,4,1,0,70,0,0
129707,-134.72088190254,4,1,0,70,0,0
129857,-135.003321732766,4,1,0,70,0,0
130007,-135.286353692858,4,1,0,70,0,0
130157,-135.569979024205,4,1,0,70,0,0
130457,-136.139014779239,4,1,0,70,0,0
130607,-136.424427698739,4,1,0,70,0,0
130757,-136.710438981131,4,1,0,70,0,0
130907,-136.997049880872,4,1,0,70,0,0
131057,-137.284261655048,4,1,0,70,0,0
131207,-137.572075563382,4,1,0,70,0,0
131357,-137.860492868237,4,1,0,70,0,0
131657,-138.439142730199,4,1,0,70,0,0
131807,-138.729377825288,4,1,0,70,0,0
131957,-139.02022139287,4,1,0,70,0,0
132107,-139.311674708598,4,1,0,70,0,0
132257,-139.603739050796,4,1,0,70,0,0
132407,-139.89641570047,4,1,0,70,0,0
132557,-140.189705941313,4,1,0,70,0,0
132857,-140.778132344728,4,1,0,70,0,0
133007,-141.073271088162,4,1,0,70,0,0
133157,-141.369028584497,4,1,0,70,0,0
133307,-141.665406130938,4,1,0,70,0,0
133457,-141.962405027408,4,1,0,70,0,0
133607,-142.260026576557,4,1,0,70,0,0
133757,-142.558272083763,4,1,0,70,0,0
133907,-142.857142857143,4,1,0,70,0,0

[HitObjects]
256,192,117,5,0,0:0:0:0:
256,192,417,1,0,0:0:0:0:
256,192,717,1,8,0:0:0:0:
256,192,1317,1,0,0:0:0:0:
256,192,1617,1,0,0:0:0:0:
256,192,1917,1,8,0:0:0:0:
256,192,2517,1,0,0:0:0:0:
256,192,2817,1,0,0:0:0:0:
256,192,3117,1,8,0:0:0:0:
256,192,3417,1,8,0:0:0:0:
256,192,3717,1,0,0:0:0:0:
256,192,4017,1,0,0:0:0:0:
256,192,4317,1,8,0:0:0:0:
256,192,4917,1,8,0:0:0:0:
256,192,5217,1,0,0:0:0:0:
256,192,5517,1,8,0:0:0:0:
256,192,6117,1,0,0:0:0:0:
256,192,6417,1,0,0:0:0:0:
256,192,6717,1,8,0:0:0:0:
256,192,7017,1,0,0:0:0:0:
256,192,7317,1,8,0:0:0:0:
256,192,7617,1,8,0:0:0:0:
256,192,7917,1,0,0:0:0:0:
256,192,8217,1,8,0:0:0:0:
256,192,8817,1,0,0:0:0:0:
256,192,9117,1,8,0:0:0:0:
256,192,9717,1,8,0:0:0:0:
256,192,10017,1,0,0:0:0:0:
256,192,10317,1,8,0:0:0:0:
256,192,10917,1,0,0:0:0:0:
256,192,11217,1,0,0:0:0:0:
256,192,11517,1,8,0:0:0:0:
256,192,12117,1,0,0:0:0:0:
256,192,12417,1,0,0:0:0:0:
256,192,12717,1,8,0:0:0:0:
256,192,13017,1,8,0:0:0:0:
256,192,13317,1,0,0:0:0:0:
256,192,13617,1,0,0:0:0:0:
256,192,13917,1,8,0:0:0:0:
256,192,14517,1,8,0:0:0:0:
256,192,15117,1,0,0:0:0:0:
256,192,15717,1,0,0:0:0:0:
256,192,16317,1,8,0:0:0:0:
256,192,16617,1,0,0:0:0:0:
256,192,16917,1,0,0:0:0:0:
256,192,17217,1,0,0:0:0:0:
256,192,17517,1,8,0:0:0:0:
256,192,17817,1,0,0:0:0:0:
256,192,18117,1,8,0:0:0:0:
256,192,18417,1,8,0:0:0:0:
256,192,18717,1,0,0:0:0:0:
256,192,19017,1,8,0:0:0:0:
256,192,19617,1,0,0:0:0:0:
256,192,19917,1,8,0:0:0:0:
256,192,20067,1,8,0:0:0:0:
256,192,20217,1,0,0:0:0:0:
256,192,20292,1,0,0:0:0:0:
256,192,20367,1,8,0:0:0:0:
256,192,20442,1,8,0:0:0:0:
256,192,20517,1,0,0:0:0:0:
256,192,20667,1,0,0:0:0:0:
256,192,20817,1,8,0:0:0:0:
256,192,20967,1,8,0:0:0:0:
256,192,21117,1,0,0:0:0:0:
256,192,21417,1,0,0:0:0:0:
256,192,21567,1,0,0:0:0:0:
256,192,21717,1,8,0:0:0:0:
256,192,21867,1,0,0:0:0:0:
256,192,22017,1,8,0:0:0:0:
256,192,22167,1,8,0:0:0:0:
256,192,22317,1,0,0:0:0:0:
256,192,22617,1,0,0:0:0:0:
256,192,22767,1,0,0:0:0:0:
256,192,22917,1,8,0:0:0:0:
256,192,23217,1,0,0:0:0:0:
256,192,23367,1,8,0:0:0:0:
256,192,23517,1,0,0:0:0:0:
256,192,23667,1,0,0:0:0:0:
256,192,23817,1,8,0:0:0:0:
256,192,23967,1,8,0:0:0:0:
256,192,24267,1,0,0:0:0:0:
256,192,24417,1,8,0:0:0:0:
256,192,24567,1,0,0:0:0:0:
256,192,24717,1,0,0:0:0:0:
256,192,25017,1,8,0:0:0:0:
256,192,25092,1,8,0:0:0:0:
256,192,25167,1,0,0:0:0:0:
256,192,25242,1,0,0:0:0:0:
256,192,25317,1,8,0:0:0:0:
256,192,25467,1,0,0:0:0:0:
256,192,25617,1,8,0:0:0:0:
256,192,25767,1,8,0:0:0:0:
256,192,25917,1,0,0:0:0:0:
256,192,26217,1,0,0:0:0:0:
256,192,26367,1,0,0:0:0:0:
256,192,26517,1,8,0:0:0:0:
256,192,26667,1,8,0:0:0:0:
256,192,26817,1,0,0:0:0:0:
256,192,26967,1,8,0:0:0:0:
256,192,27117,1,0,0:0:0:0:
256,192,27417,1,0,0:0:0:0:
256,192,27567,1,0,0:0:0:0:
256,192,27717,1,8,0:0:0:0:
256,192,28017,1,0,0:0:0:0:
256,192,28167,1,8,0:0:0:0:
256,192,28317,1,0,0:0:0:0:
256,192,28467,1,0,0:0:0:0:
256,192,28617,1,0,0:0:0:0:
256,192,28767,1,8,0:0:0:0:
256,192,29067,1,0,0:0:0:0:
256,192,29217,1,8,0:0:0:0:
256,192,29367,1,8,0:0:0:0:
256,192,29517,1,0,0:0:0:0:
256,192,29667,1,8,0:0:0:0:
256,192,29817,1,0,0:0:0:0:
256,192,29892,1,0,0:0:0:0:
256,192,29967,1,8,0:0:0:0:
256,192,30042,1,8,0:0:0:0:
256,192,30117,1,0,0:0:0:0:
256,192,30267,1,0,0:0:0:0:
256,192,30417,1,8,0:0:0:0:
256,192,30567,1,8,0:0:0:0:
256,192,30717,1,0,0:0:0:0:
256,192,30867,1,8,0:0:0:0:
256,192,31167,1,0,0:0:0:0:
256,192,31317,1,8,0:0:0:0:
256,192,31617,1,8,0:0:0:0:
256,192,31767,1,8,0:0:0:0:
256,192,31917,1,0,0:0:0:0:
256,192,32217,1,8,0:0:0:0:
256,192,32367,1,0,0:0:0:0:
256,192,32517,1,8,0:0:0:0:
256,192,32817,1,8,0:0:0:0:
256,192,33117,1,0,0:0:0:0:
256,192,33267,1,8,0:0:0:0:
256,192,33417,1,0,0:0:0:0:
256,192,33567,1,0,0:0:0:0:
256,192,33717,1,8,0:0:0:0:
256,192,34017,1,8,0:0:0:0:
256,192,34317,1,0,0:0:0:0:
256,192,34617,1,0,0:0:0:0:
256,192,34692,1,0,0:0:0:0:
256,192,34767,1,8,0:0:0:0:
256,192,34842,1,8,0:0:0:0:
256,192,34917,1,0,0:0:0:0:
256,192,35067,1,8,0:0:0:0:
256,192,35217,1,8,0:0:0:0:
256,192,35367,1,8,0:0:0:0:
256,192,35517,1,0,0:0:0:0:
256,192,35817,1,8,0:0:0:0:
256,192,35967,1,8,0:0:0:0:
256,192,36117,1,0,0:0:0:0:
256,192,36267,1,0,0:0:0:0:
256,192,36417,1,8,0:0:0:0:
256,192,36567,1,8,0:0:0:0:
256,192,36717,1,0,0:0:0:0:
256,192,36867,1,8,0:0:0:0:
256,192,37017,1,0,0:0:0:0:
256,192,37167,1,0,0:0:0:0:
256,192,37317,1,8,0:0:0:0:
256,192,37392,1,8,0:0:0:0:
256,192,37467,1,0,0:0:0:0:
256,192,37617,1,8,0:0:0:0:
256,192,37767,1,0,0:0:0:0:
256,192,37917,1,8,0:0:0:0:
256,192,38017,1,8,0:0:0:0:
256,192,38117,1,0,0:0:0:0:
256,192,38217,1,0,0:0:0:0:
256,192,38317,1,8,0:0:0:0:
256,192,38417,1,8,0:0:0:0:
256,192,38517,1,0,0:0:0:0:
256,192,39117,1,12,0:0:0:0:
256,192,39417,1,0,0:0:0:0:
256,192,39567,1,0,0:0:0:0:
256,192,39717,1,8,0:0:0:0:
256,192,39867,1,0,0:0:0:0:
256,192,40017,1,8,0:0:0:0:
256,192,40092,1,0,0:0:0:0:
256,192,40167,1,8,0:0:0:0:
256,192,40467,1,8,0:0:0:0:
256,192,40617,1,0,0:0:0:0:
256,192,40767,1,8,0:0:0:0:
256,192,40842,1,8,0:0:0:0:
256,192,40917,1,8,0:0:0:0:
256,192,41067,1,0,0:0:0:0:
256,192,41217,1,8,0:0:0:0:
256,192,41367,1,0,0:0:0:0:
256,192,41442,1,0,0:0:0:0:
256,192,41517,1,8,0:0:0:0:
256,192,41817,1,0,0:0:0:0:
256,192,41967,1,0,0:0:0:0:
256,192,42117,1,8,0:0:0:0:
256,192,42192,1,8,0:0:0:0:
256,192,42267,1,0,0:0:0:0:
256,192,42342,1,0,0:0:0:0:
256,192,42417,1,8,0:0:0:0:
256,192,42567,1,0,0:0:0:0:
256,192,42717,1,8,0:0:0:0:
256,192,42867,1,8,0:0:0:0:
256,192,43017,1,0,0:0:0:0:
256,192,43167,1,0,0:0:0:0:
256,192,43317,1,8,0:0:0:0:
256,192,43617,1,8,0:0:0:0:
256,192,43767,1,8,0:0:0:0:
256,192,43917,1,0,0:0:0:0:
256,192,44217,1,8,0:0:0:0:
256,192,44367,1,0,0:0:0:0:
256,192,44517,1,8,0:0:0:0:
256,192,44667,1,0,0:0:0:0:
256,192,44742,1,8,0:0:0:0:
256,192,44817,1,0,0:0:0:0:
256,192,44967,1,8,0:0:0:0:
256,192,45267,1,8,0:0:0:0:
256,192,45417,1,0,0:0:0:0:
256,192,45567,1,0,0:0:0:0:
256,192,45642,1,0,0:0:0:0:
256,192,45717,1,8,0:0:0:0:
256,192,46017,1,8,0:0:0:0:
256,192,46167,1,8,0:0:0:0:
256,192,46242,1,8,0:0:0:0:
256,192,46317,1,0,0:0:0:0:
256,192,46467,1,0,0:0:0:0:
256,192,46617,1,8,0:0:0:0:
256,192,46767,1,0,0:0:0:0:
256,192,46917,1,8,0:0:0:0:
256,192,46992,1,0,0:0:0:0:
256,192,47067,1,8,0:0:0:0:
256,192,47142,1,8,0:0:0:0:
256,192,47217,1,0,0:0:0:0:
256,192,47367,1,8,0:0:0:0:
256,192,47667,1,8,0:0:0:0:
256,192,47817,1,0,0:0:0:0:
256,192,47967,1,8,0:0:0:0:
256,192,48117,1,8,0:0:0:0:
256,192,48267,1,8,0:0:0:0:
256,192,48417,1,8,0:0:0:0:
256,192,48567,1,0,0:0:0:0:
256,192,48717,1,8,0:0:0:0:
256,192,49017,1,0,0:0:0:0:
256,192,49167,1,0,0:0:0:0:
256,192,49317,1,8,0:0:0:0:
256,192,49392,1,8,0:0:0:0:
256,192,49467,1,0,0:0:0:0:
256,192,49542,1,0,0:0:0:0:
256,192,49617,1,8,0:0:0:0:
256,192,49767,1,8,0:0:0:0:
256,192,50067,1,8,0:0:0:0:
256,192,50217,1,0,0:0:0:0:
256,192,50367,1,8,0:0:0:0:
256,192,50442,1,8,0:0:0:0:
256,192,50517,1,8,0:0:0:0:
256,192,50667,1,0,0:0:0:0:
256,192,50817,1,8,0:0:0:0:
256,192,50967,1,8,0:0:0:0:
256,192,51117,1,0,0:0:0:0:
256,192,51417,1,0,0:0:0:0:
256,192,51567,1,0,0:0:0:0:
256,192,51717,1,8,0:0:0:0:
256,192,51792,1,8,0:0:0:0:
256,192,51867,1,0,0:0:0:0:
256,192,51942,1,0,0:0:0:0:
256,192,52017,1,8,0:0:0:0:
256,192,52167,1,0,0:0:0:0:
256,192,52317,1,8,0:0:0:0:
256,192,52467,1,8,0:0:0:0:
256,192,52617,1,0,0:0:0:0:
256,192,52767,1,0,0:0:0:0:
256,192,52917,1,8,0:0:0:0:
256,192,53217,1,8,0:0:0:0:
256,192,53367,1,8,0:0:0:0:
256,192,53517,1,0,0:0:0:0:
256,192,53817,1,0,0:0:0:0:
256,192,53967,1,0,0:0:0:0:
256,192,54117,1,8,0:0:0:0:
256,192,54267,1,0,0:0:0:0:
256,192,54417,1,0,0:0:0:0:
256,192,54567,1,8,0:0:0:0:
256,192,54867,1,8,0:0:0:0:
256,192,55017,1,0,0:0:0:0:
256,192,55167,1,0,0:0:0:0:
256,192,55242,1,0,0:0:0:0:
256,192,55317,1,8,0:0:0:0:
256,192,55617,1,8,0:0:0:0:
256,192,55767,1,8,0:0:0:0:
256,192,55842,1,8,0:0:0:0:
256,192,55917,1,0,0:0:0:0:
256,192,56067,1,8,0:0:0:0:
256,192,56217,1,0,0:0:0:0:
256,192,56367,1,0,0:0:0:0:
256,192,56517,1,8,0:0:0:0:
256,192,56592,1,8,0:0:0:0:
256,192,56667,1,0,0:0:0:0:
256,192,56742,1,0,0:0:0:0:
256,192,56817,1,8,0:0:0:0:
256,192,56967,1,0,0:0:0:0:
256,192,57267,1,8,0:0:0:0:
256,192,57417,1,0,0:0:0:0:
256,192,57717,1,8,0:0:0:0:
256,192,57867,1,8,0:0:0:0:
256,192,58017,1,0,0:0:0:0:
256,192,58167,1,0,0:0:0:0:
256,192,58317,1,8,0:0:0:0:
256,192,58917,1,12,0:0:0:0:
256,192,59367,1,4,0:0:0:0:
256,192,59667,1,8,0:0:0:0:
256,192,59817,1,0,0:0:0:0:
256,192,59967,1,0,0:0:0:0:
256,192,60042,1,0,0:0:0:0:
256,192,60117,1,8,0:0:0:0:
256,192,60417,1,8,0:0:0:0:
256,192,60567,1,0,0:0:0:0:
256,192,60717,1,8,0:0:0:0:
256,192,60867,1,8,0:0:0:0:
256,192,61017,1,8,0:0:0:0:
256,192,61167,1,0,0:0:0:0:
256,192,61317,1,8,0:0:0:0:
256,192,61392,1,8,0:0:0:0:
256,192,61467,1,0,0:0:0:0:
256,192,61542,1,8,0:0:0:0:
256,192,61617,1,0,0:0:0:0:
256,192,61767,1,8,0:0:0:0:
256,192,62067,1,8,0:0:0:0:
256,192,62217,1,0,0:0:0:0:
256,192,62367,1,8,0:0:0:0:
256,192,62517,1,8,0:0:0:0:
256,192,62667,1,0,0:0:0:0:
256,192,62817,1,8,0:0:0:0:
256,192,62967,1,8,0:0:0:0:
256,192,63117,1,0,0:0:0:0:
256,192,63417,1,0,0:0:0:0:
256,192,63567,1,0,0:0:0:0:
256,192,63717,1,8,0:0:0:0:
256,192,63867,1,0,0:0:0:0:
256,192,63942,1,0,0:0:0:0:
256,192,64017,1,0,0:0:0:0:
256,192,64167,1,8,0:0:0:0:
256,192,64317,1,0,0:0:0:0:
256,192,64467,1,0,0:0:0:0:
256,192,64617,1,8,0:0:0:0:
256,192,64692,1,8,0:0:0:0:
256,192,64767,1,0,0:0:0:0:
256,192,64842,1,0,0:0:0:0:
256,192,64917,1,8,0:0:0:0:
256,192,65067,1,0,0:0:0:0:
256,192,65217,1,8,0:0:0:0:
256,192,65367,1,8,0:0:0:0:
256,192,65517,1,0,0:0:0:0:
256,192,65817,1,0,0:0:0:0:
256,192,65967,1,0,0:0:0:0:
256,192,66117,1,8,0:0:0:0:
256,192,66192,1,0,0:0:0:0:
256,192,66267,1,8,0:0:0:0:
256,192,66342,1,8,0:0:0:0:
256,192,66417,1,0,0:0:0:0:
256,192,66567,1,8,0:0:0:0:
256,192,66717,1,8,0:0:0:0:
256,192,66867,1,8,0:0:0:0:
256,192,67017,1,0,0:0:0:0:
256,192,67317,1,8,0:0:0:0:
256,192,67467,1,0,0:0:0:0:
256,192,67617,1,0,0:0:0:0:
256,192,67767,1,0,0:0:0:0:
256,192,67917,1,8,0:0:0:0:
256,192,68217,1,0,0:0:0:0:
256,192,68367,1,0,0:0:0:0:
256,192,68517,1,8,0:0:0:0:
256,192,68667,1,0,0:0:0:0:
256,192,68742,1,8,0:0:0:0:
256,192,68817,1,0,0:0:0:0:
256,192,68967,1,8,0:0:0:0:
256,192,69267,1,8,0:0:0:0:
256,192,69417,1,0,0:0:0:0:
256,192,69492,1,8,0:0:0:0:
256,192,69567,1,0,0:0:0:0:
256,192,69642,1,0,0:0:0:0:
256,192,69717,1,8,0:0:0:0:
256,192,69867,1,8,0:0:0:0:
256,192,70017,1,0,0:0:0:0:
256,192,70167,1,0,0:0:0:0:
256,192,70317,1,8,0:0:0:0:
256,192,70617,1,0,0:0:0:0:
256,192,70767,1,0,0:0:0:0:
256,192,70917,1,8,0:0:0:0:
256,192,71067,1,8,0:0:0:0:
256,192,71142,1,8,0:0:0:0:
256,192,71217,1,0,0:0:0:0:
256,192,71367,1,0,0:0:0:0:
256,192,71517,1,8,0:0:0:0:
256,192,71667,1,8,0:0:0:0:
256,192,71817,1,0,0:0:0:0:
256,192,71967,1,0,0:0:0:0:
256,192,72117,1,8,0:0:0:0:
256,192,72267,1,8,0:0:0:0:
256,192,72417,1,8,0:0:0:0:
256,192,72567,1,8,0:0:0:0:
256,192,72717,1,0,0:0:0:0:
256,192,73017,1,0,0:0:0:0:
256,192,73167,1,0,0:0:0:0:
256,192,73317,1,8,0:0:0:0:
256,192,73467,1,0,0:0:0:0:
256,192,73542,1,8,0:0:0:0:
256,192,73617,1,0,0:0:0:0:
256,192,73767,1,8,0:0:0:0:
256,192,74067,1,8,0:0:0:0:
256,192,74217,1,0,0:0:0:0:
256,192,74367,1,8,0:0:0:0:
256,192,74442,1,0,0:0:0:0:
256,192,74517,1,8,0:0:0:0:
256,192,74667,1,0,0:0:0:0:
256,192,74817,1,8,0:0:0:0:
256,192,74967,1,8,0:0:0:0:
256,192,75117,1,0,0:0:0:0:
256,192,75417,1,8,0:0:0:0:
256,192,75567,1,0,0:0:0:0:
256,192,75717,1,8,0:0:0:0:
256,192,75792,1,8,0:0:0:0:
256,192,75867,1,0,0:0:0:0:
256,192,75942,1,0,0:0:0:0:
256,192,76017,1,8,0:0:0:0:
256,192,76167,1,0,0:0:0:0:
256,192,76317,1,8,0:0:0:0:
256,192,76467,1,8,0:0:0:0:
256,192,76617,1,0,0:0:0:0:
256,192,76767,1,0,0:0:0:0:
256,192,76917,1,8,0:0:0:0:
256,192,77067,1,0,0:0:0:0:
256,192,77217,1,8,0:0:0:0:
256,192,77367,1,8,0:0:0:0:
256,192,77517,1,4,0:0:0:0:
256,192,77817,1,0,0:0:0:0:
256,192,77967,1,0,0:0:0:0:
256,192,78117,1,8,0:0:0:0:
256,192,78417,1,8,0:0:0:0:
256,192,78567,1,0,0:0:0:0:
256,192,79017,1,0,0:0:0:0:
256,192,79167,1,0,0:0:0:0:
256,192,79317,1,8,0:0:0:0:
256,192,79617,1,8,0:0:0:0:
256,192,79767,1,0,0:0:0:0:
256,192,80067,1,0,0:0:0:0:
256,192,80217,1,0,0:0:0:0:
256,192,80367,1,0,0:0:0:0:
256,192,80517,1,8,0:0:0:0:
256,192,80817,1,8,0:0:0:0:
256,192,80967,1,0,0:0:0:0:
256,192,81417,1,0,0:0:0:0:
256,192,81567,1,0,0:0:0:0:
256,192,81717,1,8,0:0:0:0:
256,192,82017,1,8,0:0:0:0:
256,192,82167,1,0,0:0:0:0:
256,192,82467,1,0,0:0:0:0:
256,192,82617,1,0,0:0:0:0:
256,192,82767,1,0,0:0:0:0:
256,192,82917,1,8,0:0:0:0:
256,192,83067,1,8,0:0:0:0:
256,192,83217,1,8,0:0:0:0:
256,192,83367,1,0,0:0:0:0:
256,192,83667,1,0,0:0:0:0:
256,192,83817,1,0,0:0:0:0:
256,192,83967,1,8,0:0:0:0:
256,192,84117,1,8,0:0:0:0:
256,192,84267,1,0,0:0:0:0:
256,192,84417,1,8,0:0:0:0:
256,192,84567,1,0,0:0:0:0:
256,192,84867,1,0,0:0:0:0:
256,192,85017,1,0,0:0:0:0:
256,192,85167,1,0,0:0:0:0:
256,192,85317,1,8,0:0:0:0:
256,192,85467,1,0,0:0:0:0:
256,192,85617,1,0,0:0:0:0:
256,192,85767,1,8,0:0:0:0:
256,192,86067,1,8,0:0:0:0:
256,192,86217,1,0,0:0:0:0:
256,192,86367,1,8,0:0:0:0:
256,192,86517,1,8,0:0:0:0:
256,192,86667,1,8,0:0:0:0:
256,192,86817,1,0,0:0:0:0:
256,192,86967,1,8,0:0:0:0:
256,192,87267,1,0,0:0:0:0:
256,192,87417,1,0,0:0:0:0:
256,192,87567,1,8,0:0:0:0:
256,192,87867,1,0,0:0:0:0:
256,192,88017,1,0,0:0:0:0:
256,192,88167,1,8,0:0:0:0:
256,192,88467,1,0,0:0:0:0:
256,192,88617,1,0,0:0:0:0:
256,192,88767,1,8,0:0:0:0:
256,192,89067,1,0,0:0:0:0:
256,192,89217,1,0,0:0:0:0:
256,192,89367,1,8,0:0:0:0:
256,192,89667,1,0,0:0:0:0:
256,192,89817,1,8,0:0:0:0:
256,192,89967,1,8,0:0:0:0:
256,192,90267,1,0,0:0:0:0:
256,192,90417,1,8,0:0:0:0:
256,192,90567,1,8,0:0:0:0:
256,192,90867,1,0,0:0:0:0:
256,192,91017,1,8,0:0:0:0:
256,192,91167,1,8,0:0:0:0:
256,192,91467,1,0,0:0:0:0:
256,192,91617,1,8,0:0:0:0:
256,192,91767,1,8,0:0:0:0:
256,192,91917,1,0,0:0:0:0:
256,192,92217,1,0,0:0:0:0:
256,192,92517,1,8,0:0:0:0:
256,192,92817,1,0,0:0:0:0:
256,192,93117,1,0,0:0:0:0:
256,192,93267,1,0,0:0:0:0:
256,192,93417,1,0,0:0:0:0:
256,192,93567,1,0,0:0:0:0:
256,192,93717,1,8,0:0:0:0:
256,192,93867,1,0,0:0:0:0:
256,192,94017,1,0,0:0:0:0:
256,192,94167,1,0,0:0:0:0:
256,192,94317,1,8,0:0:0:0:
256,192,95517,1,8,0:0:0:0:
256,192,96117,1,0,0:0:0:0:
256,192,96417,1,0,0:0:0:0:
256,192,96717,1,12,0:0:0:0:
256,192,97017,1,8,0:0:0:0:
256,192,97167,1,0,0:0:0:0:
256,192,97317,1,8,0:0:0:0:
256,192,97467,1,8,0:0:0:0:
256,192,97617,1,8,0:0:0:0:
256,192,97767,1,0,0:0:0:0:
256,192,97917,1,8,0:0:0:0:
256,192,98217,1,0,0:0:0:0:
256,192,98292,1,0,0:0:0:0:
256,192,98367,1,0,0:0:0:0:
256,192,98442,1,0,0:0:0:0:
256,192,98517,1,8,0:0:0:0:
256,192,98667,1,8,0:0:0:0:
256,192,98817,1,0,0:0:0:0:
256,192,98967,1,0,0:0:0:0:
256,192,99042,1,0,0:0:0:0:
256,192,99117,1,8,0:0:0:0:
64,64,99267,1,0,0:0:0:0:
256,192,99417,1,8,0:0:0:0:
256,192,99567,1,8,0:0:0:0:
256,192,99717,1,0,0:0:0:0:
256,192,99792,1,0,0:0:0:0:
256,192,99867,1,8,0:0:0:0:
256,192,99942,1,8,0:0:0:0:
256,192,100017,1,0,0:0:0:0:
256,192,100167,1,0,0:0:0:0:
256,192,100317,1,8,0:0:0:0:
256,192,100617,1,0,0:0:0:0:
256,192,100767,1,0,0:0:0:0:
256,192,100917,1,8,0:0:0:0:
256,192,101067,1,8,0:0:0:0:
256,192,101217,1,0,0:0:0:0:
256,192,101367,1,0,0:0:0:0:
256,192,101517,1,8,0:0:0:0:
256,192,101817,1,0,0:0:0:0:
256,192,101967,1,0,0:0:0:0:
256,192,102117,1,8,0:0:0:0:
256,192,102267,1,0,0:0:0:0:
256,192,102417,1,8,0:0:0:0:
256,192,102492,1,8,0:0:0:0:
256,192,102567,1,0,0:0:0:0:
256,192,102717,1,8,0:0:0:0:
256,192,102867,1,8,0:0:0:0:
256,192,103017,1,0,0:0:0:0:
256,192,103167,1,0,0:0:0:0:
256,192,103242,1,0,0:0:0:0:
256,192,103317,1,8,0:0:0:0:
256,192,103467,1,8,0:0:0:0:
256,192,103617,1,0,0:0:0:0:
256,192,103767,1,8,0:0:0:0:
256,192,103842,1,8,0:0:0:0:
256,192,103917,1,0,0:0:0:0:
256,192,104217,1,8,0:0:0:0:
256,192,104367,1,0,0:0:0:0:
256,192,104517,1,8,0:0:0:0:
256,192,104592,1,8,0:0:0:0:
256,192,104667,1,0,0:0:0:0:
256,192,104742,1,0,0:0:0:0:
256,192,104817,1,8,0:0:0:0:
256,192,104967,1,0,0:0:0:0:
256,192,105117,1,8,0:0:0:0:
256,192,105267,1,8,0:0:0:0:
256,192,105417,1,0,0:0:0:0:
256,192,105567,1,0,0:0:0:0:
256,192,105717,1,8,0:0:0:0:
256,192,106017,1,0,0:0:0:0:
256,192,106167,1,0,0:0:0:0:
256,192,106317,1,8,0:0:0:0:
256,192,106467,1,0,0:0:0:0:
256,192,106617,1,8,0:0:0:0:
256,192,106767,1,8,0:0:0:0:
256,192,106917,1,0,0:0:0:0:
256,192,107217,1,0,0:0:0:0:
256,192,107367,1,0,0:0:0:0:
256,192,107517,1,8,0:0:0:0:
256,192,107667,1,0,0:0:0:0:
256,192,107817,1,8,0:0:0:0:
256,192,107967,1,8,0:0:0:0:
256,192,108117,1,0,0:0:0:0:
256,192,108417,1,0,0:0:0:0:
256,192,108567,1,0,0:0:0:0:
256,192,108717,1,8,0:0:0:0:
256,192,109017,1,8,0:0:0:0:
256,192,109167,1,0,0:0:0:0:
256,192,109317,1,8,0:0:0:0:
256,192,109392,1,0,0:0:0:0:
256,192,109467,1,8,0:0:0:0:
256,192,109542,1,8,0:0:0:0:
256,192,109617,1,0,0:0:0:0:
256,192,109767,1,0,0:0:0:0:
256,192,109917,1,8,0:0:0:0:
256,192,110067,1,8,0:0:0:0:
256,192,110217,1,0,0:0:0:0:
256,192,110367,1,0,0:0:0:0:
256,192,110517,1,8,0:0:0:0:
256,192,110667,1,0,0:0:0:0:
256,192,110817,1,8,0:0:0:0:
256,192,110967,1,8,0:0:0:0:
256,192,111117,1,0,0:0:0:0:
256,192,111417,1,0,0:0:0:0:
256,192,111567,1,0,0:0:0:0:
256,192,111717,1,8,0:0:0:0:
256,192,111867,1,0,0:0:0:0:
256,192,111942,1,0,0:0:0:0:
256,192,112017,1,8,0:0:0:0:
256,192,112167,1,0,0:0:0:0:
256,192,112317,1,8,0:0:0:0:
256,192,112467,1,8,0:0:0:0:
256,192,112617,1,0,0:0:0:0:
256,192,112692,1,0,0:0:0:0:
256,192,112767,1,0,0:0:0:0:
256,192,112842,1,0,0:0:0:0:
256,192,112917,1,8,0:0:0:0:
256,192,113067,1,0,0:0:0:0:
256,192,113217,1,8,0:0:0:0:
256,192,113367,1,0,0:0:0:0:
256,192,113442,1,0,0:0:0:0:
256,192,113517,1,8,0:0:0:0:
256,192,113817,1,0,0:0:0:0:
256,192,113967,1,0,0:0:0:0:
256,192,114117,1,8,0:0:0:0:
256,192,114267,1,8,0:0:0:0:
256,192,114342,1,8,0:0:0:0:
256,192,114417,1,0,0:0:0:0:
256,192,114567,1,0,0:0:0:0:
256,192,114717,1,8,0:0:0:0:
256,192,114867,1,8,0:0:0:0:
256,192,115017,1,0,0:0:0:0:
256,192,115167,1,0,0:0:0:0:
256,192,115317,1,12,0:0:0:0:
256,192,115917,1,0,0:0:0:0:
256,192,116067,1,0,0:0:0:0:
256,192,116217,1,0,0:0:0:0:
256,192,116367,1,8,0:0:0:0:
256,192,116667,1,8,0:0:0:0:
256,192,116817,1,0,0:0:0:0:
256,192,116967,1,8,0:0:0:0:
256,192,117267,1,0,0:0:0:0:
256,192,117417,1,0,0:0:0:0:
256,192,117567,1,8,0:0:0:0:
256,192,117867,1,0,0:0:0:0:
256,192,118017,1,8,0:0:0:0:
256,192,118167,1,8,0:0:0:0:
256,192,118467,1,0,0:0:0:0:
256,192,118617,1,0,0:0:0:0:
256,192,118767,1,0,0:0:0:0:
256,192,119067,1,8,0:0:0:0:
256,192,119217,1,8,0:0:0:0:
256,192,119367,1,8,0:0:0:0:
256,192,119667,1,0,0:0:0:0:
256,192,119817,1,0,0:0:0:0:
256,192,119967,1,8,0:0:0:0:
256,192,120267,1,8,0:0:0:0:
256,192,120417,1,8,0:0:0:0:
256,192,120567,1,0,0:0:0:0:
256,192,120867,1,0,0:0:0:0:
256,192,121017,1,8,0:0:0:0:
256,192,121167,1,0,0:0:0:0:
256,192,121467,1,0,0:0:0:0:
256,192,121617,1,8,0:0:0:0:
256,192,121767,1,8,0:0:0:0:
256,192,122067,1,0,0:0:0:0:
256,192,122217,1,0,0:0:0:0:
256,192,122367,1,0,0:0:0:0:
256,192,122667,1,8,0:0:0:0:
256,192,122817,1,8,0:0:0:0:
256,192,122967,1,8,0:0:0:0:
256,192,123267,1,0,0:0:0:0:
256,192,123417,1,8,0:0:0:0:
256,192,123567,1,0,0:0:0:0:
256,192,123867,1,0,0:0:0:0:
256,192,124017,1,0,0:0:0:0:
256,192,124167,1,8,0:0:0:0:
256,192,124467,1,8,0:0:0:0:
256,192,124617,1,0,0:0:0:0:
256,192,124767,1,8,0:0:0:0:
256,192,125067,1,8,0:0:0:0:
256,192,125217,1,8,0:0:0:0:
256,192,125367,1,8,0:0:0:0:
256,192,125667,1,8,0:0:0:0:
256,192,125817,1,8,0:0:0:0:
256,192,125967,1,0,0:0:0:0:
256,192,126267,1,8,0:0:0:0:
256,192,126417,1,0,0:0:0:0:
256,192,126567,1,0,0:0:0:0:
256,192,126867,1,0,0:0:0:0:
256,192,127017,1,0,0:0:0:0:
256,192,127167,1,8,0:0:0:0:
256,192,127467,1,8,0:0:0:0:
256,192,127617,1,8,0:0:0:0:
256,192,127767,1,0,0:0:0:0:
256,192,128067,1,0,0:0:0:0:
256,192,128217,1,8,0:0:0:0:
256,192,128367,1,8,0:0:0:0:
256,192,128667,1,0,0:0:0:0:
256,192,128817,1,8,0:0:0:0:
256,192,128967,1,0,0:0:0:0:
256,192,129267,1,8,0:0:0:0:
256,192,129417,1,0,0:0:0:0:
256,192,129567,1,8,0:0:0:0:
256,192,129867,1,8,0:0:0:0:
256,192,130017,1,8,0:0:0:0:
256,192,130167,1,0,0:0:0:0:
256,192,130467,1,0,0:0:0:0:
256,192,130617,1,0,0:0:0:0:
256,192,130767,1,0,0:0:0:0:
256,192,131067,1,0,0:0:0:0:
256,192,131217,1,0,0:0:0:0:
256,192,131367,1,8,0:0:0:0:
256,192,131667,1,0,0:0:0:0:
256,192,131817,1,0,0:0:0:0:
256,192,131967,1,0,0:0:0:0:
256,192,132267,1,0,0:0:0:0:
256,192,132417,1,8,0:0:0:0:
256,192,132567,1,8,0:0:0:0:
256,192,132867,1,0,0:0:0:0:
256,192,133017,1,0,0:0:0:0:
256,192,133167,1,0,0:0:0:0:
256,192,133467,1,0,0:0:0:0:
256,192,133617,1,0,0:0:0:0:
256,192,133767,1,8,0:0:0:0:
256,192,133917,1,8,0:0:0:0:
