osu file format v14

[General]
AudioFilename: audio.mp3
AudioLeadIn: 0
PreviewTime: 96117
Countdown: 0
SampleSet: Normal
StackLeniency: 0
Mode: 1
LetterboxInBreaks: 0
WidescreenStoryboard: 0

[Editor]
Bookmarks: 134805
DistanceSpacing: 0.8
BeatDivisor: 8
GridSize: 32
TimelineZoom: 1.6

[Metadata]
Title:Luminous memory
TitleUnicode:Luminous memory
Artist:Mitsukiyo
ArtistUnicode:ミツキヨ
Creator:FreezingAnimenz
Version:Muzukashii
Source:ブルーアーカイブ -Blue Archive-
Tags:Ph0eNiiXZ Share instrumental video game electronic nexon yostar nat games ブルアカ blueaka mobile rpg recollection lobby bgm background music ost Original Sound Track vgm electro phoeniixz phoenix
BeatmapID:3757149
BeatmapSetID:1830506

[Difficulty]
HPDrainRate:6
CircleSize:3
OverallDifficulty:5
ApproachRate:9
SliderMultiplier:2.8
SliderTickRate:1

[Events]
//Background and Video events
0,0,"i6D9yDO.jpeg",0,60
//Break Periods
//Storyboard Layer 0 (Background)
//Storyboard Layer 1 (Fail)
//Storyboard Layer 2 (Pass)
//Storyboard Layer 3 (Foreground)
//Storyboard Layer 4 (Overlay)
//Storyboard Sound Samples

[TimingPoints]
-483,600,2,1,0,60,1,8
-33,-125,4,1,0,60,0,0
717,600,4,1,0,60,1,0
717,-125,4,1,0,60,0,0
19467,-125,4,1,0,70,0,0
34307,-125,4,1,0,70,0,0
34402,-125,4,1,0,71,0,0
34562,-123.076923076923,4,1,0,72,0,0
34722,-122.137404580153,4,1,0,73,0,0
34882,-121.212121212121,4,1,0,74,0,0
35042,-125,4,1,0,75,0,0
35202,-119.402985074627,4,1,0,76,0,0
35517,-117.647058823529,4,1,0,77,0,0
35522,-125,4,1,0,78,0,0
35682,-115.942028985507,4,1,0,79,0,0
35842,-115.107913669065,4,1,0,80,0,0
36002,-114.285714285714,4,1,0,81,0,0
36162,-125,4,1,0,82,0,0
36322,-112.676056338028,4,1,0,83,0,0
36482,-125,4,1,0,84,0,0
36642,-111.111111111111,4,1,0,85,0,0
36802,-110.344827586207,4,1,0,86,0,0
36962,-109.58904109589,4,1,0,87,0,0
37122,-108.843537414966,4,1,0,88,0,0
37282,-108.108108108108,4,1,0,89,0,0
37442,-125,4,1,0,90,0,0
37602,-106.666666666667,4,1,0,91,0,0
37762,-105.960264900662,4,1,0,92,0,0
37907,-105.263157894737,4,1,0,92,0,0
37922,-125,4,1,0,93,0,0
38082,-103.896103896104,4,1,0,94,0,0
38242,-125,4,1,0,95,0,0
38402,-102.564102564103,4,1,0,96,0,0
38562,-125,4,1,0,97,0,0
38722,-125,4,1,0,98,0,0
38882,-125,4,1,0,99,0,0
39042,-125,4,1,0,100,0,0
39117,-100,4,1,0,100,0,1
58317,-100,4,1,0,100,0,0
58917,-100,4,1,0,100,0,1
77517,-100,4,1,0,100,0,0
77667,-111.111111111111,4,1,0,90,0,0
91907,-111.111111111111,4,1,0,90,0,0
92207,-109.58904109589,4,1,0,90,0,0
92507,-108.108108108108,4,1,0,90,0,0
92807,-106.666666666667,4,1,0,90,0,0
93107,-105.263157894737,4,1,0,90,0,0
93257,-104.575163398693,4,1,0,90,0,0
93407,-103.896103896104,4,1,0,90,0,0
93557,-103.225806451613,4,1,0,90,0,0
93707,-102.564102564103,4,1,0,90,0,0
93857,-101.910828025478,4,1,0,90,0,0
94007,-101.26582278481,4,1,0,90,0,0
94157,-100.62893081761,4,1,0,90,0,0
94307,-100,4,1,0,90,0,0
94467,-111.111111111111,4,1,0,70,0,0
96567,-100,4,1,0,100,0,0
96717,-100,4,1,0,100,0,1
115617,-111.111111111111,4,1,0,70,0,1
115917,-111.313868613139,4,1,0,70,0,0
116507,-111.721611721612,4,1,0,70,0,0
116807,-111.926605504587,4,1,0,70,0,0
116957,-112.029384756658,4,1,0,70,0,0
117107,-112.132352941177,4,1,0,70,0,0
117707,-112.546125461255,4,1,0,70,0,0
118007,-112.75415896488,4,1,0,70,0,0
118157,-112.858464384829,4,1,0,70,0,0
118307,-112.962962962963,4,1,0,70,0,0
118907,-113.382899628253,4,1,0,70,0,0
119207,-113.594040968343,4,1,0,70,0,0
119357,-113.699906803355,4,1,0,70,0,0
119507,-113.805970149254,4,1,0,70,0,0
120107,-114.232209737828,4,1,0,70,0,0
120407,-114.446529080675,4,1,0,70,0,0
120557,-114.553990610329,4,1,0,70,0,0
120707,-114.661654135338,4,1,0,70,0,0
121307,-115.094339622641,4,1,0,70,0,0
121607,-115.31190926276,4,1,0,70,0,0
121757,-115.421002838221,4,1,0,70,0,0
121907,-115.530303030303,4,1,0,70,0,0
122507,-115.969581749049,4,1,0,70,0,0
122807,-116.190476190476,4,1,0,70,0,0
122957,-116.301239275501,4,1,0,70,0,0
123107,-116.412213740458,4,1,0,70,0,0
123707,-116.858237547893,4,1,0,70,0,0
124007,-117.082533589251,4,1,0,70,0,0
124157,-117.195004803074,4,1,0,70,0,0
124307,-117.307692307692,4,1,0,70,0,0
124907,-117.760617760618,4,1,0,70,0,0
125507,-118.217054263566,4,1,0,70,0,0
125657,-118.331716779825,4,1,0,70,0,0
125807,-118.446601941748,4,1,0,70,0,0
125957,-118.561710398445,4,1,0,70,0,0
126107,-118.677042801556,4,1,0,70,0,0
126407,-118.908382066277,4,1,0,70,0,0
126557,-119.024390243902,4,1,0,70,0,0
126707,-119.140625,4,1,0,70,0,0
127307,-119.607843137255,4,1,0,70,0,0
127607,-119.760479041916,4,1,0,70,0,0
127907,-120.07874015748,4,1,0,70,0,0
128057,-120.197044334975,4,1,0,70,0,0
128207,-120.315581854043,4,1,0,70,0,0
128357,-120.434353405726,4,1,0,70,0,0
128507,-120.553359683794,4,1,0,70,0,0
128807,-120.792079207921,4,1,0,70,0,0
128957,-120.911793855302,4,1,0,70,0,0
129107,-121.031746031746,4,1,0,70,0,0
129407,-121.212121212121,4,1,0,70,0,0
129707,-121.513944223108,4,1,0,70,0,0
130007,-121.756487025948,4,1,0,70,0,0
130157,-121.878121878122,4,1,0,70,0,0
130307,-122,4,1,0,70,0,0
130907,-122.489959839357,4,1,0,70,0,0
131207,-122.736418511066,4,1,0,70,0,0
131357,-122.860020140987,4,1,0,70,0,0
131507,-122.983870967742,4,1,0,70,0,0
132107,-123.481781376518,4,1,0,70,0,0
132407,-123.732251521298,4,1,0,70,0,0
132557,-123.857868020305,4,1,0,70,0,0
132707,-123.983739837398,4,1,0,70,0,0
133307,-124.489795918367,4,1,0,70,0,0
133607,-124.744376278119,4,1,0,70,0,0
133757,-124.872057318321,4,1,0,70,0,0
133907,-125,4,1,0,70,0,0

[HitObjects]
256,192,117,5,0,0:0:0:0:
256,192,417,1,0,0:0:0:0:
256,192,717,1,8,0:0:0:0:
256,192,1317,1,0,0:0:0:0:
256,192,1617,1,0,0:0:0:0:
256,192,1917,1,8,0:0:0:0:
256,192,2517,1,0,0:0:0:0:
256,192,2817,1,0,0:0:0:0:
256,192,3117,1,8,0:0:0:0:
256,192,3417,1,8,0:0:0:0:
256,192,3717,1,0,0:0:0:0:
256,192,4017,1,0,0:0:0:0:
256,192,4317,1,8,0:0:0:0:
256,192,4917,1,8,0:0:0:0:
256,192,5217,1,0,0:0:0:0:
256,192,5517,1,8,0:0:0:0:
256,192,6117,1,0,0:0:0:0:
256,192,6417,1,0,0:0:0:0:
256,192,6717,1,8,0:0:0:0:
256,192,7017,1,0,0:0:0:0:
256,192,7317,1,8,0:0:0:0:
256,192,7617,1,8,0:0:0:0:
256,192,7917,1,0,0:0:0:0:
256,192,8217,1,8,0:0:0:0:
256,192,8817,1,0,0:0:0:0:
256,192,9117,1,8,0:0:0:0:
256,192,9717,1,8,0:0:0:0:
256,192,10017,1,0,0:0:0:0:
256,192,10317,1,8,0:0:0:0:
256,192,10917,1,0,0:0:0:0:
256,192,11217,1,0,0:0:0:0:
256,192,11517,1,8,0:0:0:0:
256,192,12117,1,0,0:0:0:0:
256,192,12417,1,0,0:0:0:0:
256,192,12717,1,8,0:0:0:0:
256,192,13017,1,8,0:0:0:0:
256,192,13317,1,0,0:0:0:0:
256,192,13617,1,0,0:0:0:0:
256,192,13917,1,8,0:0:0:0:
256,192,14517,1,8,0:0:0:0:
256,192,15117,1,0,0:0:0:0:
256,192,15717,1,0,0:0:0:0:
256,192,16317,1,8,0:0:0:0:
256,192,16617,1,0,0:0:0:0:
256,192,16917,1,0,0:0:0:0:
256,192,17217,1,0,0:0:0:0:
256,192,17517,1,8,0:0:0:0:
256,192,18117,1,8,0:0:0:0:
256,192,18417,1,8,0:0:0:0:
256,192,18717,1,0,0:0:0:0:
256,192,19017,1,8,0:0:0:0:
256,192,19617,1,0,0:0:0:0:
256,192,19917,1,12,0:0:0:0:
256,192,20217,1,0,0:0:0:0:
256,192,20367,1,8,0:0:0:0:
256,192,20667,1,0,0:0:0:0:
256,192,20817,1,0,0:0:0:0:
256,192,20967,1,8,0:0:0:0:
256,192,21267,1,0,0:0:0:0:
256,192,21567,1,0,0:0:0:0:
256,192,21867,1,8,0:0:0:0:
256,192,22017,1,8,0:0:0:0:
256,192,22167,1,8,0:0:0:0:
256,192,22467,1,0,0:0:0:0:
256,192,22767,1,0,0:0:0:0:
256,192,23067,1,8,0:0:0:0:
256,192,23217,1,0,0:0:0:0:
256,192,23367,1,8,0:0:0:0:
256,192,23667,1,0,0:0:0:0:
256,192,23967,1,8,0:0:0:0:
256,192,24267,1,0,0:0:0:0:
256,192,24417,1,8,0:0:0:0:
252,197,24717,1,0,0:0:0:0:
256,192,25017,1,0,0:0:0:0:
256,192,25167,1,8,0:0:0:0:
256,192,25467,1,0,0:0:0:0:
256,192,25617,1,0,0:0:0:0:
256,192,25767,1,8,0:0:0:0:
247,198,26067,1,0,0:0:0:0:
256,192,26367,1,0,0:0:0:0:
256,192,26667,1,8,0:0:0:0:
256,192,26817,1,8,0:0:0:0:
256,192,26967,1,8,0:0:0:0:
256,192,27267,1,0,0:0:0:0:
256,192,27567,1,0,0:0:0:0:
256,192,27867,1,8,0:0:0:0:
256,192,28017,1,0,0:0:0:0:
256,192,28167,1,8,0:0:0:0:
256,192,28467,1,0,0:0:0:0:
256,192,28767,1,0,0:0:0:0:
256,192,29067,1,8,0:0:0:0:
256,192,29217,1,8,0:0:0:0:
256,192,29517,1,0,0:0:0:0:
256,192,29967,1,8,0:0:0:0:
256,192,30117,1,0,0:0:0:0:
256,192,30417,1,8,0:0:0:0:
256,192,30717,1,0,0:0:0:0:
256,192,30867,1,8,0:0:0:0:
256,192,31017,1,0,0:0:0:0:
256,192,31317,1,8,0:0:0:0:
256,192,31617,1,8,0:0:0:0:
256,192,31917,1,0,0:0:0:0:
256,192,32217,1,8,0:0:0:0:
256,192,32367,1,8,0:0:0:0:
256,192,32517,1,0,0:0:0:0:
256,192,32817,1,8,0:0:0:0:
256,192,33117,1,0,0:0:0:0:
256,192,33267,1,8,0:0:0:0:
256,192,33417,1,0,0:0:0:0:
256,192,33717,1,8,0:0:0:0:
256,192,34017,1,8,0:0:0:0:
256,192,34317,1,0,0:0:0:0:
256,192,34617,1,8,0:0:0:0:
256,192,34767,1,8,0:0:0:0:
256,192,34917,1,0,0:0:0:0:
256,192,35217,1,8,0:0:0:0:
256,192,35517,1,0,0:0:0:0:
256,192,35817,1,8,0:0:0:0:
256,192,35967,1,8,0:0:0:0:
256,192,36117,1,0,0:0:0:0:
256,192,36417,1,8,0:0:0:0:
256,192,36717,1,0,0:0:0:0:
256,192,36867,1,8,0:0:0:0:
256,192,37017,1,0,0:0:0:0:
256,192,37167,1,0,0:0:0:0:
256,192,37317,1,8,0:0:0:0:
256,192,37617,1,0,0:0:0:0:
256,192,37767,1,0,0:0:0:0:
256,192,37917,1,8,0:0:0:0:
256,192,38217,1,8,0:0:0:0:
256,192,38517,1,0,0:0:0:0:
256,192,39117,1,12,0:0:0:0:
256,192,39417,1,0,0:0:0:0:
256,192,39567,1,0,0:0:0:0:
256,192,39717,1,8,0:0:0:0:
256,192,39867,1,0,0:0:0:0:
256,192,40017,1,8,0:0:0:0:
256,192,40167,1,8,0:0:0:0:
256,192,40467,1,8,0:0:0:0:
256,192,40617,1,0,0:0:0:0:
256,192,40692,1,0,0:0:0:0:
256,192,40767,1,0,0:0:0:0:
256,192,40917,1,8,0:0:0:0:
256,192,41217,1,0,0:0:0:0:
256,192,41367,1,0,0:0:0:0:
256,192,41517,1,8,0:0:0:0:
256,192,41817,1,0,0:0:0:0:
256,192,41967,1,0,0:0:0:0:
256,192,42117,1,8,0:0:0:0:
256,192,42192,1,8,0:0:0:0:
256,192,42267,1,8,0:0:0:0:
256,192,42417,1,0,0:0:0:0:
256,192,42567,1,8,0:0:0:0:
256,192,42867,1,8,0:0:0:0:
256,192,43017,1,0,0:0:0:0:
256,192,43167,1,8,0:0:0:0:
256,192,43317,1,8,0:0:0:0:
256,192,43917,1,0,0:0:0:0:
256,192,44217,1,0,0:0:0:0:
256,192,44367,1,0,0:0:0:0:
256,192,44517,1,8,0:0:0:0:
256,192,44817,1,0,0:0:0:0:
256,192,44967,1,8,0:0:0:0:
256,192,45267,1,8,0:0:0:0:
256,192,45417,1,0,0:0:0:0:
256,192,45492,1,0,0:0:0:0:
256,192,45567,1,0,0:0:0:0:
256,192,45717,1,8,0:0:0:0:
256,192,46017,1,0,0:0:0:0:
256,192,46167,1,8,0:0:0:0:
256,192,46317,1,0,0:0:0:0:
256,192,46617,1,8,0:0:0:0:
256,192,46767,1,8,0:0:0:0:
256,192,46917,1,0,0:0:0:0:
256,192,46992,1,0,0:0:0:0:
256,192,47067,1,0,0:0:0:0:
256,192,47217,1,8,0:0:0:0:
256,192,47367,1,8,0:0:0:0:
256,192,47817,1,0,0:0:0:0:
256,192,47967,1,0,0:0:0:0:
256,192,48117,1,8,0:0:0:0:
256,192,48267,1,8,0:0:0:0:
256,192,48417,1,0,0:0:0:0:
256,192,48567,1,0,0:0:0:0:
256,192,48717,1,8,0:0:0:0:
256,192,49017,1,0,0:0:0:0:
256,192,49167,1,0,0:0:0:0:
256,192,49317,1,8,0:0:0:0:
256,192,49467,1,0,0:0:0:0:
256,192,49617,1,8,0:0:0:0:
256,192,49767,1,8,0:0:0:0:
256,192,50067,1,8,0:0:0:0:
256,192,50217,1,0,0:0:0:0:
256,192,50292,1,0,0:0:0:0:
256,192,50367,1,0,0:0:0:0:
256,192,50517,1,8,0:0:0:0:
256,192,50817,1,0,0:0:0:0:
256,192,50967,1,0,0:0:0:0:
256,192,51117,1,8,0:0:0:0:
256,192,51417,1,0,0:0:0:0:
256,192,51567,1,0,0:0:0:0:
256,192,51717,1,8,0:0:0:0:
256,192,51792,1,8,0:0:0:0:
256,192,51867,1,8,0:0:0:0:
256,192,52017,1,0,0:0:0:0:
256,192,52167,1,8,0:0:0:0:
256,192,52467,1,8,0:0:0:0:
256,192,52617,1,0,0:0:0:0:
256,192,52767,1,8,0:0:0:0:
256,192,52917,1,8,0:0:0:0:
256,192,53517,1,0,0:0:0:0:
256,192,53817,1,0,0:0:0:0:
256,192,53967,1,0,0:0:0:0:
256,192,54117,1,8,0:0:0:0:
256,192,54417,1,0,0:0:0:0:
256,192,54567,1,8,0:0:0:0:
256,192,54867,1,8,0:0:0:0:
256,192,55017,1,0,0:0:0:0:
256,192,55092,1,0,0:0:0:0:
256,192,55167,1,0,0:0:0:0:
256,192,55317,1,8,0:0:0:0:
256,192,55617,1,0,0:0:0:0:
256,192,55767,1,8,0:0:0:0:
256,192,55917,1,0,0:0:0:0:
256,192,56217,1,8,0:0:0:0:
256,192,56367,1,8,0:0:0:0:
256,192,56517,1,0,0:0:0:0:
256,192,56592,1,0,0:0:0:0:
256,192,56667,1,0,0:0:0:0:
256,192,56817,1,8,0:0:0:0:
256,192,56967,1,0,0:0:0:0:
256,192,57267,1,8,0:0:0:0:
256,192,57417,1,0,0:0:0:0:
256,192,57717,1,8,0:0:0:0:
256,192,57867,1,8,0:0:0:0:
256,192,58017,1,0,0:0:0:0:
256,192,58167,1,0,0:0:0:0:
256,192,58317,1,8,0:0:0:0:
256,192,58917,1,12,0:0:0:0:
256,192,59367,1,0,0:0:0:0:
256,192,59667,1,8,0:0:0:0:
256,192,59817,1,0,0:0:0:0:
256,192,59892,1,0,0:0:0:0:
256,192,59967,1,0,0:0:0:0:
256,192,60117,1,8,0:0:0:0:
256,192,60417,1,0,0:0:0:0:
256,192,60567,1,0,0:0:0:0:
256,192,60717,1,8,0:0:0:0:
256,192,61017,1,0,0:0:0:0:
256,192,61167,1,0,0:0:0:0:
256,192,61317,1,8,0:0:0:0:
256,192,61392,1,8,0:0:0:0:
256,192,61467,1,8,0:0:0:0:
256,192,61617,1,0,0:0:0:0:
256,192,61767,1,8,0:0:0:0:
256,192,62067,1,8,0:0:0:0:
256,192,62217,1,0,0:0:0:0:
256,192,62517,1,8,0:0:0:0:
256,192,63117,1,0,0:0:0:0:
256,192,63417,1,0,0:0:0:0:
256,192,63567,1,0,0:0:0:0:
256,192,63717,1,8,0:0:0:0:
256,192,64017,1,0,0:0:0:0:
256,192,64167,1,8,0:0:0:0:
256,192,64467,1,8,0:0:0:0:
256,192,64617,1,0,0:0:0:0:
256,192,64692,1,0,0:0:0:0:
256,192,64767,1,0,0:0:0:0:
256,192,64917,1,8,0:0:0:0:
256,192,65217,1,0,0:0:0:0:
256,192,65367,1,8,0:0:0:0:
256,192,65517,1,0,0:0:0:0:
256,192,65817,1,8,0:0:0:0:
256,192,65967,1,8,0:0:0:0:
256,192,66117,1,0,0:0:0:0:
256,192,66192,1,0,0:0:0:0:
256,192,66267,1,0,0:0:0:0:
256,192,66417,1,8,0:0:0:0:
256,192,66567,1,8,0:0:0:0:
256,192,67017,1,0,0:0:0:0:
256,192,67167,1,0,0:0:0:0:
256,192,67317,1,8,0:0:0:0:
256,192,67467,1,8,0:0:0:0:
256,192,67617,1,0,0:0:0:0:
256,192,67767,1,0,0:0:0:0:
256,192,67917,1,8,0:0:0:0:
256,192,68217,1,0,0:0:0:0:
256,192,68367,1,0,0:0:0:0:
256,192,68517,1,8,0:0:0:0:
256,192,68817,1,8,0:0:0:0:
256,192,68967,1,0,0:0:0:0:
256,192,69267,1,8,0:0:0:0:
256,192,69417,1,0,0:0:0:0:
256,192,69492,1,0,0:0:0:0:
256,192,69567,1,0,0:0:0:0:
256,192,69717,1,8,0:0:0:0:
256,192,70017,1,0,0:0:0:0:
256,192,70167,1,0,0:0:0:0:
256,192,70317,1,8,0:0:0:0:
256,192,70617,1,0,0:0:0:0:
256,192,70767,1,0,0:0:0:0:
256,192,70917,1,8,0:0:0:0:
256,192,70992,1,8,0:0:0:0:
256,192,71067,1,8,0:0:0:0:
256,192,71217,1,0,0:0:0:0:
256,192,71367,1,8,0:0:0:0:
256,192,71667,1,8,0:0:0:0:
256,192,71817,1,0,0:0:0:0:
256,192,72117,1,8,0:0:0:0:
256,192,72717,1,0,0:0:0:0:
256,192,73017,1,0,0:0:0:0:
256,192,73167,1,0,0:0:0:0:
256,192,73317,1,8,0:0:0:0:
256,192,73617,1,0,0:0:0:0:
256,192,73767,1,8,0:0:0:0:
256,192,74067,1,8,0:0:0:0:
256,192,74217,1,0,0:0:0:0:
256,192,74292,1,0,0:0:0:0:
256,192,74367,1,0,0:0:0:0:
256,192,74517,1,8,0:0:0:0:
256,192,74817,1,0,0:0:0:0:
256,192,74967,1,8,0:0:0:0:
256,192,75117,1,0,0:0:0:0:
256,192,75417,1,8,0:0:0:0:
256,192,75567,1,8,0:0:0:0:
256,192,75717,1,0,0:0:0:0:
256,192,75792,1,0,0:0:0:0:
256,192,75867,1,0,0:0:0:0:
256,192,76017,1,8,0:0:0:0:
256,192,76167,1,0,0:0:0:0:
256,192,76467,1,8,0:0:0:0:
256,192,76617,1,0,0:0:0:0:
256,192,76917,1,8,0:0:0:0:
256,192,77067,1,8,0:0:0:0:
256,192,77217,1,8,0:0:0:0:
256,192,77367,1,8,0:0:0:0:
256,192,77517,1,4,0:0:0:0:
256,192,78117,1,8,0:0:0:0:
256,192,78417,1,8,0:0:0:0:
256,192,78567,1,0,0:0:0:0:
256,192,79017,1,0,0:0:0:0:
256,192,79167,1,0,0:0:0:0:
256,192,79317,1,8,0:0:0:0:
256,192,79467,1,0,0:0:0:0:
256,192,79617,1,8,0:0:0:0:
256,192,79767,1,8,0:0:0:0:
256,192,79917,1,0,0:0:0:0:
256,192,80217,1,0,0:0:0:0:
256,192,80367,1,0,0:0:0:0:
256,192,80517,1,8,0:0:0:0:
256,192,80817,1,8,0:0:0:0:
256,192,80967,1,0,0:0:0:0:
256,192,81417,1,0,0:0:0:0:
256,192,81567,1,0,0:0:0:0:
256,192,81717,1,8,0:0:0:0:
256,192,81867,1,8,0:0:0:0:
256,192,82017,1,0,0:0:0:0:
256,192,82167,1,8,0:0:0:0:
256,192,82317,1,0,0:0:0:0:
256,192,82917,1,8,0:0:0:0:
256,192,83067,1,8,0:0:0:0:
256,192,83217,1,8,0:0:0:0:
256,192,83367,1,0,0:0:0:0:
256,192,83667,1,8,0:0:0:0:
256,192,83817,1,0,0:0:0:0:
256,192,84117,1,8,0:0:0:0:
256,192,84417,1,8,0:0:0:0:
256,192,84567,1,8,0:0:0:0:
256,192,84717,1,0,0:0:0:0:
256,192,85017,1,0,0:0:0:0:
256,192,85317,1,8,0:0:0:0:
256,192,85467,1,8,0:0:0:0:
256,192,85617,1,8,0:0:0:0:
256,192,85767,1,0,0:0:0:0:
256,192,86067,1,8,0:0:0:0:
256,192,86217,1,0,0:0:0:0:
256,192,86517,1,8,0:0:0:0:
256,192,86667,1,8,0:0:0:0:
256,192,86817,1,0,0:0:0:0:
256,192,86967,1,8,0:0:0:0:
256,192,87117,1,0,0:0:0:0:
256,192,87417,1,8,0:0:0:0:
256,192,87567,1,0,0:0:0:0:
256,192,87717,1,8,0:0:0:0:
256,192,88017,1,8,0:0:0:0:
256,192,88317,1,0,0:0:0:0:
256,192,88617,1,0,0:0:0:0:
256,192,88767,1,0,0:0:0:0:
256,192,88917,1,8,0:0:0:0:
256,192,89217,1,8,0:0:0:0:
256,192,89367,1,8,0:0:0:0:
256,192,89517,1,0,0:0:0:0:
256,192,89817,1,0,0:0:0:0:
256,192,89967,1,8,0:0:0:0:
256,192,90117,1,0,0:0:0:0:
256,192,90417,1,8,0:0:0:0:
256,192,90717,1,0,0:0:0:0:
256,192,91017,1,8,0:0:0:0:
256,192,91167,1,0,0:0:0:0:
256,192,91317,1,8,0:0:0:0:
256,192,91617,1,0,0:0:0:0:
256,192,91767,1,0,0:0:0:0:
256,192,91917,1,8,0:0:0:0:
256,192,92217,1,0,0:0:0:0:
256,192,92517,1,8,0:0:0:0:
256,192,92817,1,0,0:0:0:0:
256,192,93117,1,8,0:0:0:0:
256,192,93267,1,0,0:0:0:0:
256,192,93417,1,0,0:0:0:0:
256,192,93567,1,0,0:0:0:0:
256,192,93717,1,8,0:0:0:0:
256,192,93867,1,0,0:0:0:0:
256,192,94017,1,0,0:0:0:0:
256,192,94167,1,0,0:0:0:0:
256,192,94317,1,8,0:0:0:0:
256,192,95517,1,8,0:0:0:0:
256,192,96117,1,0,0:0:0:0:
256,192,96417,1,0,0:0:0:0:
256,192,96717,1,12,0:0:0:0:
256,192,97017,1,0,0:0:0:0:
256,192,97167,1,0,0:0:0:0:
256,192,97317,1,8,0:0:0:0:
256,192,97467,1,8,0:0:0:0:
256,192,97617,1,0,0:0:0:0:
256,192,97767,1,0,0:0:0:0:
256,192,97917,1,8,0:0:0:0:
256,192,98217,1,0,0:0:0:0:
256,192,98292,1,0,0:0:0:0:
256,192,98367,1,0,0:0:0:0:
256,192,98517,1,8,0:0:0:0:
256,192,98817,1,0,0:0:0:0:
256,192,98967,1,8,0:0:0:0:
256,192,99042,1,8,0:0:0:0:
256,192,99117,1,8,0:0:0:0:
256,192,99417,1,8,0:0:0:0:
256,192,99717,1,0,0:0:0:0:
256,192,99792,1,0,0:0:0:0:
256,192,99867,1,0,0:0:0:0:
256,192,100017,1,8,0:0:0:0:
256,192,100167,1,0,0:0:0:0:
251,187,100317,1,8,0:0:0:0:
256,192,100617,1,0,0:0:0:0:
250,186,100917,1,8,0:0:0:0:
256,192,101067,1,8,0:0:0:0:
256,192,101217,1,0,0:0:0:0:
251,187,101367,1,0,0:0:0:0:
250,186,101517,1,8,0:0:0:0:
250,186,102117,1,8,0:0:0:0:
250,186,102417,1,0,0:0:0:0:
256,192,102567,1,0,0:0:0:0:
250,186,102717,1,8,0:0:0:0:
250,186,102867,1,8,0:0:0:0:
250,186,103017,1,0,0:0:0:0:
250,186,103092,1,0,0:0:0:0:
250,186,103167,1,0,0:0:0:0:
250,186,103317,1,8,0:0:0:0:
250,186,103617,1,0,0:0:0:0:
250,186,103767,1,8,0:0:0:0:
250,186,103842,1,8,0:0:0:0:
250,186,103917,1,8,0:0:0:0:
250,186,104067,1,0,0:0:0:0:
250,186,104217,1,8,0:0:0:0:
250,186,104517,1,8,0:0:0:0:
250,186,104592,1,8,0:0:0:0:
250,186,104667,1,8,0:0:0:0:
250,186,104817,1,0,0:0:0:0:
250,186,104967,1,0,0:0:0:0:
250,186,105117,1,8,0:0:0:0:
250,186,105417,1,0,0:0:0:0:
250,186,105717,1,8,0:0:0:0:
256,192,105867,1,8,0:0:0:0:
250,186,106017,1,0,0:0:0:0:
250,186,106167,1,0,0:0:0:0:
250,186,106317,1,8,0:0:0:0:
250,186,106917,1,0,0:0:0:0:
250,186,107067,1,0,0:0:0:0:
250,186,107217,1,8,0:0:0:0:
250,186,107367,1,0,0:0:0:0:
250,186,107517,1,8,0:0:0:0:
256,192,107817,1,0,0:0:0:0:
256,192,107892,1,0,0:0:0:0:
256,192,107967,1,0,0:0:0:0:
256,192,108117,1,8,0:0:0:0:
256,192,108417,1,0,0:0:0:0:
256,192,108567,1,8,0:0:0:0:
256,192,108642,1,8,0:0:0:0:
256,192,108717,1,8,0:0:0:0:
256,192,109017,1,8,0:0:0:0:
256,192,109317,1,0,0:0:0:0:
256,192,109392,1,0,0:0:0:0:
256,192,109467,1,0,0:0:0:0:
256,192,109617,1,8,0:0:0:0:
256,192,109767,1,0,0:0:0:0:
251,187,109917,1,8,0:0:0:0:
256,192,110217,1,0,0:0:0:0:
250,186,110517,1,8,0:0:0:0:
256,192,110667,1,8,0:0:0:0:
256,192,110817,1,0,0:0:0:0:
251,187,110967,1,0,0:0:0:0:
250,186,111117,1,8,0:0:0:0:
256,192,111717,1,8,0:0:0:0:
250,186,112017,1,8,0:0:0:0:
256,192,112167,1,0,0:0:0:0:
256,192,112467,1,8,0:0:0:0:
256,192,112617,1,0,0:0:0:0:
256,192,112692,1,0,0:0:0:0:
256,192,112767,1,0,0:0:0:0:
256,192,112917,1,8,0:0:0:0:
256,192,113217,1,0,0:0:0:0:
256,192,113367,1,8,0:0:0:0:
256,192,113442,1,8,0:0:0:0:
256,192,113517,1,8,0:0:0:0:
256,192,113817,1,0,0:0:0:0:
256,192,113967,1,0,0:0:0:0:
256,192,114117,1,8,0:0:0:0:
256,192,114192,1,8,0:0:0:0:
256,192,114267,1,8,0:0:0:0:
256,192,114417,1,0,0:0:0:0:
256,192,114567,1,0,0:0:0:0:
256,192,114717,1,8,0:0:0:0:
256,192,115017,1,0,0:0:0:0:
256,320,115317,1,12,0:0:0:0:
255,189,115917,1,0,0:0:0:0:
255,189,116517,1,0,0:0:0:0:
255,189,116817,1,8,0:0:0:0:
255,189,116967,1,8,0:0:0:0:
255,189,117117,1,0,0:0:0:0:
255,189,117717,1,0,0:0:0:0:
255,189,118017,1,8,0:0:0:0:
255,189,118167,1,8,0:0:0:0:
255,189,118317,1,8,0:0:0:0:
255,189,118917,1,8,0:0:0:0:
255,189,119217,1,0,0:0:0:0:
255,189,119367,1,0,0:0:0:0:
255,189,119517,1,8,0:0:0:0:
255,189,120117,1,8,0:0:0:0:
255,189,120417,1,8,0:0:0:0:
256,192,120567,1,0,0:0:0:0:
255,189,120717,1,8,0:0:0:0:
255,189,121317,1,0,0:0:0:0:
255,189,121617,1,8,0:0:0:0:
255,189,121767,1,8,0:0:0:0:
255,189,121917,1,0,0:0:0:0:
255,189,122517,1,0,0:0:0:0:
255,189,122817,1,8,0:0:0:0:
255,189,122967,1,8,0:0:0:0:
255,189,123117,1,8,0:0:0:0:
255,189,123717,1,8,0:0:0:0:
255,189,124017,1,0,0:0:0:0:
255,189,124167,1,0,0:0:0:0:
255,189,124317,1,8,0:0:0:0:
255,189,124917,1,8,0:0:0:0:
255,189,125517,1,0,0:0:0:0:
256,192,125667,1,8,0:0:0:0:
256,192,125817,1,8,0:0:0:0:
256,192,125967,1,8,0:0:0:0:
255,189,126117,1,0,0:0:0:0:
255,189,126417,1,8,0:0:0:0:
255,189,126567,1,8,0:0:0:0:
255,189,126717,1,0,0:0:0:0:
255,189,127317,1,0,0:0:0:0:
255,189,127917,1,8,0:0:0:0:
255,189,128067,1,0,0:0:0:0:
256,192,128217,1,0,0:0:0:0:
256,192,128367,1,0,0:0:0:0:
255,189,128517,1,8,0:0:0:0:
255,189,128817,1,0,0:0:0:0:
255,189,128967,1,0,0:0:0:0:
255,189,129117,1,8,0:0:0:0:
255,189,129717,1,8,0:0:0:0:
255,189,130017,1,8,0:0:0:0:
256,192,130167,1,8,0:0:0:0:
255,189,130317,1,0,0:0:0:0:
255,189,130917,1,0,0:0:0:0:
255,189,131217,1,8,0:0:0:0:
255,189,131367,1,8,0:0:0:0:
255,189,131517,1,0,0:0:0:0:
255,189,132117,1,0,0:0:0:0:
255,189,132417,1,8,0:0:0:0:
255,189,132567,1,8,0:0:0:0:
255,189,132717,1,8,0:0:0:0:
255,189,133317,1,8,0:0:0:0:
255,189,133617,1,0,0:0:0:0:
255,189,133767,1,0,0:0:0:0:
255,189,133917,1,8,0:0:0:0:
