osu file format v14

[General]
AudioFilename: audio.mp3
AudioLeadIn: 0
PreviewTime: 52254
Countdown: 0
SampleSet: Soft
StackLeniency: 0
Mode: 0
LetterboxInBreaks: 0
WidescreenStoryboard: 1

[Editor]
DistanceSpacing: 1
BeatDivisor: 4
GridSize: 16
TimelineZoom: 1

[Metadata]
Title:Future Bossa
TitleUnicode:Future Bossa
Artist:Mitsukiyo
ArtistUnicode:ミツキヨ
Creator:Stompy_
Version:Shurelia Sensei's Special Lesson
Source:ブルーアーカイブ -Blue Archive-
Tags:ブルアカ blue archive Longing for the memorable days volume 1 vol vol.1 vgm videogame video game electronic instrumental yostar nat games nexon ost original soundtrack sound track share shurelia jiysea take nakazawa leomineXD leomine
BeatmapID:4113746
BeatmapSetID:1981110

[Difficulty]
HPDrainRate:4
CircleSize:6
OverallDifficulty:8
ApproachRate:2
SliderMultiplier:2
SliderTickRate:1

[Events]
//Background and Video events
0,0,"aronabg.jpg",0,0
//Break Periods
//Storyboard Layer 0 (Background)
//Storyboard Layer 1 (Fail)
//Storyboard Layer 2 (Pass)
//Storyboard Layer 3 (Foreground)
//Storyboard Layer 4 (Overlay)
//Storyboard Sound Samples

[TimingPoints]
105,333.333333333333,4,2,1,50,1,0
115,-1000,4,2,1,50,0,0
10271,-1000,4,2,3,35,0,0
10438,-1000,4,2,5,35,0,0
10771,-166.666666666667,4,2,1,55,0,0
11438,-125,4,2,1,55,0,0
12104,-100,4,2,1,55,0,0
12771,-83.3333333333334,4,2,1,55,0,0
13438,-166.666666666667,4,2,1,55,0,0
16771,-125,4,2,1,55,0,0
17437,-100,4,2,1,55,0,0
18104,-83.3333333333334,4,2,1,55,0,0
18771,-142.857142857143,4,2,1,55,0,0
31438,-142.857142857143,4,2,4,45,0,0
31771,-142.857142857143,4,2,5,45,0,0
32104,-142.857142857143,4,2,1,55,0,0
52604,-142.857142857143,4,2,3,45,0,0
52938,-142.857142857143,4,2,4,45,0,0
53104,-142.857142857143,4,2,5,45,0,0
53438,-142.857142857143,4,2,1,60,0,0
63604,-142.857142857143,4,2,3,50,0,0
63771,-142.857142857143,4,2,5,50,0,0
63938,-142.857142857143,4,2,1,60,0,0
73938,-142.857142857143,4,2,3,60,0,0
74271,-142.857142857143,4,2,4,60,0,0
74438,-142.857142857143,4,2,5,60,0,0
74604,-142.857142857143,4,2,1,65,0,0
74771,-142.857142857143,4,2,2,85,0,0
79604,-142.857142857143,4,2,3,75,0,0
79771,-142.857142857143,4,2,5,75,0,0
79938,-142.857142857143,4,2,2,85,0,0
84938,-142.857142857143,4,2,3,75,0,0
85105,-142.857142857143,4,2,5,75,0,0
85272,-142.857142857143,4,2,2,85,0,0
95604,-142.857142857143,4,2,3,75,0,0
95771,-142.857142857143,4,2,4,75,0,0
95938,-142.857142857143,4,2,5,75,0,0
96104,-142.857142857143,4,2,2,85,0,0
100938,-142.857142857143,4,2,3,75,0,0
101105,-142.857142857143,4,2,5,75,0,0
101272,-142.857142857143,4,2,2,85,0,0
106271,-142.857142857143,4,2,3,75,0,0
106438,-142.857142857143,4,2,5,75,0,0
106605,-142.857142857143,4,2,2,85,0,0
113438,-200,4,2,2,85,0,0
116938,-200,4,2,3,75,0,0
117105,-200,4,2,4,75,0,0
117272,-200,4,2,5,75,0,0
117438,-250,4,2,1,55,0,0
127104,-1000,4,2,1,55,0,0
127271,-1000,4,2,1,55,0,0
129438,-1000,4,2,1,5,0,0

[Colours]
Combo1 : 255,183,219
Combo2 : 0,225,225

[HitObjects]
10,48,105,5,2,2:2:0:0:
86,62,438,1,10,2:2:0:0:
160,48,938,1,2,2:2:0:0:
233,63,1271,1,2,2:2:0:0:
309,43,1604,1,2,2:2:0:0:
379,64,2104,1,2,2:2:0:0:
451,43,2438,1,10,2:2:0:0:
13,121,2771,5,2,2:2:0:0:
89,135,3104,1,10,2:2:0:0:
163,121,3604,1,2,2:2:0:0:
236,136,3937,1,2,2:2:0:0:
312,116,4270,1,2,2:2:0:0:
382,137,4770,1,2,2:2:0:0:
236,136,5104,1,10,2:2:0:0:
17,201,5438,5,2,2:2:0:0:
93,215,5771,1,10,2:2:0:0:
167,201,6271,1,2,2:2:0:0:
240,216,6604,1,2,2:2:0:0:
316,196,6937,1,2,2:2:0:0:
386,217,7437,1,2,2:2:0:0:
458,196,7771,1,10,2:2:0:0:
14,268,8104,5,2,2:2:0:0:
90,282,8437,1,10,2:2:0:0:
164,268,8937,1,2,2:2:0:0:
237,283,9270,1,2,2:2:0:0:
316,260,9771,2,0,L|345:265,1,30,2|4,2:2|0:3,0:0:0:0:
408,291,10438,1,4,0:3:0:0:
408,291,10771,5,2,1:2:0:0:
474,255,10938,2,0,L|474:195,2,59.9999981689454,2|8|0,2:2|2:2|0:0,0:0:0:0:
336,259,11438,5,2,1:2:0:0:
402,223,11604,2,0,L|402:142,2,80,2|8|0,2:2|2:2|0:0,0:0:0:0:
266,228,12104,5,2,1:2:0:0:
332,192,12271,2,0,L|332:92,2,100,2|8|0,2:2|2:2|0:0,0:0:0:0:
200,197,12771,5,2,1:2:0:0:
266,161,12938,2,0,L|266:41,2,119.999996337891,2|8|0,2:2|2:2|0:0,0:0:0:0:
135,165,13438,6,0,L|15:165,1,119.999996337891,2|8,1:2|2:2,0:0:0:0:
13,247,13938,1,2,2:2:0:0:
13,247,14104,2,0,L|132:246,1,119.999996337891,2|8,1:2|2:2,0:0:0:0:
135,308,14604,1,2,2:2:0:0:
135,308,14771,1,0,1:1:0:0:
22,372,15104,1,8,2:2:0:0:
79,373,15271,1,0,0:0:0:0:
136,373,15438,1,2,1:2:0:0:
207,56,15771,1,10,2:2:0:0:
207,56,16104,5,2,1:2:0:0:
261,13,16271,2,0,L|321:13,2,59.9999981689454,2|8|0,2:2|2:2|0:0,0:0:0:0:
208,131,16771,5,2,1:2:0:0:
262,88,16938,2,0,L|342:88,2,80,2|8|0,2:2|2:2|0:0,0:0:0:0:
209,202,17438,5,2,1:2:0:0:
263,159,17605,2,0,L|363:159,2,100,2|8|0,2:2|2:2|0:0,0:0:0:0:
212,273,18104,5,2,1:2:0:0:
266,230,18271,2,0,L|385:230,2,119.999996337891,2|8|0,2:2|2:2|0:0,0:0:0:0:
212,338,18771,6,0,L|351:337,1,139.999995727539,2|8,1:2|2:2,0:0:0:0:
417,337,19271,1,2,2:2:0:0:
476,231,19437,2,0,L|476:91,1,139.999995727539,2|8,1:2|2:2,0:0:0:0:
475,28,19937,1,2,2:2:0:0:
475,28,20104,1,0,1:1:0:0:
310,52,20437,1,8,2:2:0:0:
237,13,20604,1,0,0:0:0:0:
377,7,20771,1,2,1:2:0:0:
9,34,21104,1,10,2:2:0:0:
161,82,21438,5,2,1:2:0:0:
203,118,21604,1,2,2:2:0:0:
169,163,21771,1,10,2:2:0:0:
126,126,21938,1,2,2:2:0:0:
126,126,22438,5,10,2:2:0:0:
17,368,22771,1,2,1:2:0:0:
217,384,23271,1,2,2:2:0:0:
302,196,23771,1,10,2:2:0:0:
413,109,24104,5,2,1:2:0:0:
455,72,24270,1,2,2:2:0:0:
505,96,24437,1,10,2:2:0:0:
463,133,24604,1,2,2:2:0:0:
463,133,25104,5,10,2:2:0:0:
512,360,25438,1,2,1:2:0:0:
343,384,25937,1,2,2:2:0:0:
179,343,26438,1,10,2:2:0:0:
40,381,26771,5,2,1:2:0:0:
0,267,27104,1,8,2:2:0:0:
0,267,27604,1,2,2:2:0:0:
137,229,27938,1,2,2:2:0:0:
163,81,28271,1,2,2:2:0:0:
101,38,28438,1,10,2:2:0:0:
337,0,28771,1,2,1:2:0:0:
451,40,29104,1,10,2:2:0:0:
499,249,29438,5,2,1:2:0:0:
396,337,29771,1,10,2:2:0:0:
313,289,29938,1,2,2:2:0:0:
282,108,30271,1,2,2:2:0:0:
101,38,30604,1,2,2:2:0:0:
101,38,30771,5,0,1:1:0:0:
53,92,30938,1,0,3:3:0:0:
122,137,31104,1,8,3:2:0:0:
41,160,31271,1,0,3:3:0:0:
126,209,31438,1,4,0:3:0:0:
30,248,31771,1,4,0:3:0:0:
152,298,32104,5,2,1:2:0:0:
197,365,32271,1,2,2:2:0:0:
197,365,32438,1,8,2:2:0:0:
134,360,32604,1,0,0:0:0:0:
233,242,32771,5,2,1:2:0:0:
278,309,32938,1,2,2:2:0:0:
278,309,33105,1,8,2:2:0:0:
215,304,33271,1,0,0:0:0:0:
315,186,33438,5,2,1:2:0:0:
360,253,33605,1,2,2:2:0:0:
360,253,33772,1,8,2:2:0:0:
297,248,33938,1,0,0:0:0:0:
398,129,34104,5,2,1:2:0:0:
443,196,34271,1,2,2:2:0:0:
443,196,34438,1,8,2:2:0:0:
380,191,34604,1,0,0:0:0:0:
484,83,34771,5,2,1:2:0:0:
163,24,35271,1,2,2:2:0:0:
163,24,35438,1,2,1:2:0:0:
292,73,35771,1,8,2:2:0:0:
112,70,36104,1,0,1:1:0:0:
175,93,36271,1,2,2:2:0:0:
69,121,36438,1,8,2:2:0:0:
230,46,36771,1,2,1:2:0:0:
5,99,37104,1,10,2:2:0:0:
0,302,37438,5,2,1:2:0:0:
194,306,37771,1,10,2:2:0:0:
214,363,37938,1,2,2:2:0:0:
422,323,38271,1,2,2:2:0:0:
512,131,38604,1,2,2:2:0:0:
512,131,39104,5,10,2:2:0:0:
422,323,39438,1,2,1:2:0:0:
214,363,39771,1,10,2:2:0:0:
6,180,40104,5,2,1:2:0:0:
6,180,40938,1,2,2:2:0:0:
250,4,41271,1,2,2:2:0:0:
250,4,41771,1,10,2:2:0:0:
228,66,42104,1,2,1:2:0:0:
257,125,42438,1,10,2:2:0:0:
229,187,42771,5,2,1:2:0:0:
294,222,42938,1,2,2:2:0:0:
366,194,43104,1,10,2:2:0:0:
153,192,43271,1,2,2:2:0:0:
18,321,43771,1,10,2:2:0:0:
113,382,44104,1,2,1:2:0:0:
333,384,44604,1,2,2:2:0:0:
496,293,45104,1,10,2:2:0:0:
450,135,45438,5,2,1:2:0:0:
453,67,45604,1,2,2:2:0:0:
508,22,45771,1,10,2:2:0:0:
307,7,45938,1,2,2:2:0:0:
106,205,46438,1,10,2:2:0:0:
267,165,46771,1,2,1:2:0:0:
0,117,47271,1,2,2:2:0:0:
0,307,47771,1,10,2:2:0:0:
132,366,48104,5,0,1:1:0:0:
327,312,48438,1,10,2:2:0:0:
139,283,48771,1,2,1:2:0:0:
347,223,49104,1,10,2:2:0:0:
151,189,49438,1,2,1:2:0:0:
396,148,50104,1,2,1:2:0:0:
113,66,50771,5,2,1:2:0:0:
20,135,51104,1,8,2:2:0:0:
101,215,51438,1,2,1:2:0:0:
25,309,51771,1,0,1:1:0:0:
0,384,51938,1,2,1:2:0:0:
0,384,52271,5,2,1:2:0:0:
90,350,52438,1,10,2:2:0:0:
236,384,52771,1,4,0:3:0:0:
367,344,53104,1,4,0:3:0:0:
505,368,53438,6,0,L|488:228,1,139.999995727539,4|8,1:2|2:2,0:0:0:0:
442,202,53938,1,2,1:2:0:0:
442,202,54104,1,2,1:2:0:0:
442,202,54271,1,2,2:2:0:0:
383,227,54438,1,10,2:2:0:0:
322,211,54604,1,2,1:2:0:0:
276,170,54771,6,0,L|259:30,1,139.999995727539,2|8,1:2|2:2,0:0:0:0:
213,4,55271,1,2,1:2:0:0:
213,4,55437,1,2,1:2:0:0:
213,4,55604,1,2,2:2:0:0:
134,37,55771,1,10,2:2:0:0:
59,0,55937,1,2,1:2:0:0:
12,107,56104,5,2,1:2:0:0:
335,156,56438,1,10,2:2:0:0:
43,180,56771,1,2,1:2:0:0:
263,240,57104,1,10,2:2:0:0:
68,242,57438,1,2,1:2:0:0:
231,296,57771,1,10,2:2:0:0:
86,308,58104,1,2,1:2:0:0:
208,355,58438,1,10,2:2:0:0:
115,362,58604,1,2,1:2:0:0:
276,384,58771,5,2,1:2:0:0:
8,300,59104,1,10,2:2:0:0:
231,296,59438,1,2,1:2:0:0:
68,242,59771,1,10,2:2:0:0:
203,208,60104,1,2,1:2:0:0:
113,149,60438,1,10,2:2:0:0:
202,139,60771,1,2,1:2:0:0:
139,93,61104,1,10,2:2:0:0:
197,77,61438,6,0,L|336:56,1,139.999995727539,2|8,1:2|2:2,0:0:0:0:
371,11,61938,1,2,1:2:0:0:
371,11,62104,1,2,1:2:0:0:
359,185,62604,1,2,1:2:0:0:
359,185,62771,1,2,1:2:0:0:
483,18,63104,1,8,2:2:0:0:
464,138,63438,1,2,1:2:0:0:
448,195,63604,1,4,0:3:0:0:
505,185,63771,1,4,0:3:0:0:
494,341,64104,5,2,1:2:0:0:
430,308,64271,1,2,2:2:0:0:
361,311,64438,1,10,2:2:0:0:
144,377,64771,1,2,1:2:0:0:
494,341,65104,5,10,2:2:0:0:
430,308,65271,1,2,1:2:0:0:
361,311,65438,1,2,1:2:0:0:
83,384,65771,1,10,2:2:0:0:
83,384,66104,5,2,1:2:0:0:
56,334,66271,1,2,2:2:0:0:
94,284,66438,1,10,2:2:0:0:
148,318,66604,1,2,1:2:0:0:
144,377,66771,5,2,1:2:0:0:
29,273,67104,1,10,2:2:0:0:
21,116,67438,1,2,1:2:0:0:
117,16,67771,1,10,2:2:0:0:
293,23,68104,1,2,1:2:0:0:
409,154,68438,1,10,2:2:0:0:
352,224,68604,1,2,1:2:0:0:
238,162,68938,2,0,L|100:187,1,139.999995727539,2|0,2:2|1:1,0:0:0:0:
85,244,69438,5,2,1:2:0:0:
332,281,69771,1,8,2:2:0:0:
387,272,69938,1,2,1:2:0:0:
370,325,70104,1,2,1:2:0:0:
262,326,70438,1,8,2:2:0:0:
207,317,70605,1,2,1:2:0:0:
224,370,70771,1,2,1:2:0:0:
409,364,71104,5,10,2:2:0:0:
495,279,71438,1,2,1:2:0:0:
478,130,71771,1,10,2:2:0:0:
272,7,72104,5,2,1:2:0:0:
8,309,72771,1,2,1:2:0:0:
512,33,73438,1,2,1:2:0:0:
413,52,74021,5,4,0:3:0:0:
414,57,74104,1,4,0:3:0:0:
438,108,74271,1,4,0:3:0:0:
405,161,74438,1,4,0:3:0:0:
430,221,74604,1,2,3:2:0:0:
384,339,74771,5,4,1:2:0:0:
268,295,74938,1,2,2:2:0:0:
384,339,75104,1,2,2:2:0:0:
268,295,75271,1,2,2:2:0:0:
384,339,75438,1,10,2:2:0:0:
268,295,75604,1,2,2:2:0:0:
384,339,75938,5,2,1:2:0:0:
268,295,76271,5,2,1:2:0:0:
384,339,76438,1,2,2:2:0:0:
280,384,76604,1,2,1:2:0:0:
171,349,76771,1,10,2:2:0:0:
491,384,77104,1,2,2:2:0:0:
206,168,77438,5,2,1:2:0:0:
67,245,77771,1,2,2:2:0:0:
0,208,77938,1,2,1:2:0:0:
25,48,78271,1,2,2:2:0:0:
249,12,78604,1,2,1:2:0:0:
67,104,78938,1,0,1:1:0:0:
238,73,79271,1,0,1:1:0:0:
302,45,79438,5,8,2:2:0:0:
371,36,79604,1,4,0:3:0:0:
435,62,79771,1,4,0:3:0:0:
470,122,79938,1,2,1:2:0:0:
376,174,80104,5,2,1:2:0:0:
512,230,80271,1,2,2:2:0:0:
376,174,80438,1,2,2:2:0:0:
512,230,80604,1,2,1:2:0:0:
376,174,80771,1,10,2:2:0:0:
512,230,80938,1,2,2:2:0:0:
376,174,81271,5,2,1:2:0:0:
512,230,81604,5,2,1:2:0:0:
376,174,81771,1,2,2:2:0:0:
253,233,81938,1,2,1:2:0:0:
379,287,82104,1,10,2:2:0:0:
231,24,82438,1,2,2:2:0:0:
12,235,82771,5,2,1:2:0:0:
244,380,83271,5,0,1:1:0:0:
318,333,83438,1,8,2:2:0:0:
391,384,83604,1,2,2:2:0:0:
483,368,83771,1,2,2:2:0:0:
318,333,83938,1,2,1:2:0:0:
512,150,84271,1,2,1:2:0:0:
361,17,84604,1,2,1:2:0:0:
224,105,84938,1,4,0:3:0:0:
163,40,85104,1,4,0:3:0:0:
224,105,85271,1,2,1:2:0:0:
163,40,85438,5,2,1:2:0:0:
14,92,85604,1,2,2:2:0:0:
163,40,85771,1,2,2:2:0:0:
14,92,85938,1,2,1:2:0:0:
163,40,86104,1,10,2:2:0:0:
14,92,86271,1,2,2:2:0:0:
163,40,86604,5,2,1:2:0:0:
14,92,86938,5,2,1:2:0:0:
104,108,87104,2,0,L|111:177,2,69.9999978637696,2|2|8,2:2|1:2|2:2,0:0:0:0:
84,229,87604,1,2,2:2:0:0:
84,229,87938,1,2,1:2:0:0:
58,320,88104,5,2,1:2:0:0:
192,369,88271,1,2,2:2:0:0:
58,320,88438,1,2,2:2:0:0:
192,369,88604,1,2,1:2:0:0:
58,320,88771,1,10,2:2:0:0:
192,369,88938,1,2,2:2:0:0:
58,320,89271,5,2,1:2:0:0:
239,255,89604,6,0,L|308:261,2,69.9999978637696,2|2|2,1:2|2:2|1:2,0:0:0:0:
172,273,90104,1,8,2:2:0:0:
192,205,90271,1,2,2:2:0:0:
178,131,90438,1,2,2:2:0:0:
110,94,90604,1,2,1:2:0:0:
0,97,90771,5,2,1:2:0:0:
68,145,90938,1,2,2:2:0:0:
151,146,91104,1,2,2:2:0:0:
232,123,91271,1,2,1:2:0:0:
287,59,91438,1,10,2:2:0:0:
0,97,91771,5,2,2:2:0:0:
68,145,91938,1,2,1:2:0:0:
151,146,92104,1,2,2:2:0:0:
232,123,92271,1,2,1:2:0:0:
287,59,92438,1,2,2:2:0:0:
287,59,92771,5,10,2:2:0:0:
377,19,92938,1,2,2:2:0:0:
470,45,93104,1,2,2:2:0:0:
509,135,93271,1,2,1:2:0:0:
512,243,93438,5,2,1:2:0:0:
358,246,93604,1,2,2:2:0:0:
512,323,93771,1,2,2:2:0:0:
359,237,93938,1,2,1:2:0:0:
458,384,94104,1,10,2:2:0:0:
360,226,94271,1,2,2:2:0:0:
54,352,94604,1,2,1:2:0:0:
54,352,94938,5,2,1:2:0:0:
114,319,95104,1,2,2:2:0:0:
52,285,95271,1,2,1:2:0:0:
104,238,95438,1,8,2:2:0:0:
104,238,95604,1,4,0:3:0:0:
153,188,95771,1,4,0:3:0:0:
157,118,95938,1,4,0:3:0:0:
151,0,96104,5,4,1:2:0:0:
25,118,96271,1,2,2:2:0:0:
151,0,96438,1,2,2:2:0:0:
25,118,96604,1,2,1:2:0:0:
151,0,96771,1,10,2:2:0:0:
25,118,96938,1,2,2:2:0:0:
151,0,97271,5,2,1:2:0:0:
25,118,97604,5,2,1:2:0:0:
157,118,97771,1,2,2:2:0:0:
151,0,97938,1,2,1:2:0:0:
25,0,98104,1,10,2:2:0:0:
290,280,98438,1,2,2:2:0:0:
432,0,98771,5,2,1:2:0:0:
512,130,99104,1,2,2:2:0:0:
468,192,99271,1,2,1:2:0:0:
349,100,99604,1,2,2:2:0:0:
209,136,99938,1,2,1:2:0:0:
28,76,100271,1,0,1:1:0:0:
215,202,100604,1,0,1:1:0:0:
209,136,100771,1,8,2:2:0:0:
147,173,100938,1,4,0:3:0:0:
276,163,101104,1,4,0:3:0:0:
384,234,101271,1,2,1:2:0:0:
368,380,101438,5,2,1:2:0:0:
509,306,101604,1,2,2:2:0:0:
368,380,101771,1,2,2:2:0:0:
509,306,101938,1,2,1:2:0:0:
368,380,102104,1,10,2:2:0:0:
509,306,102271,1,2,2:2:0:0:
368,380,102604,5,2,1:2:0:0:
509,306,102938,5,2,1:2:0:0:
458,384,103104,1,2,2:2:0:0:
368,380,103271,1,2,1:2:0:0:
384,234,103438,1,10,2:2:0:0:
217,370,103771,1,2,2:2:0:0:
6,20,104104,5,2,1:2:0:0:
6,20,104438,2,0,L|0:89,2,69.9999978637696,0|0|8,0:0|1:1|2:2,0:0:0:0:
127,0,104938,1,2,2:2:0:0:
202,60,105104,1,2,2:2:0:0:
307,33,105271,1,2,1:2:0:0:
93,166,105604,1,2,1:2:0:0:
346,261,105938,1,2,1:2:0:0:
104,311,106271,1,4,0:3:0:0:
51,280,106438,1,4,0:3:0:0:
9,322,106604,1,0,1:1:0:0:
18,384,106771,5,2,1:2:0:0:
285,327,107104,1,0,0:0:0:0:
245,379,107271,1,2,1:2:0:0:
179,379,107438,1,8,2:2:0:0:
179,379,107771,5,2,2:2:0:0:
343,360,107938,1,2,1:2:0:0:
343,360,108438,5,2,2:2:0:0:
504,267,108771,1,10,2:2:0:0:
482,113,109104,1,2,2:2:0:0:
347,17,109438,5,2,1:2:0:0:
19,67,109771,1,2,2:2:0:0:
433,203,110104,1,10,2:2:0:0:
0,257,110438,1,2,2:2:0:0:
166,366,110604,6,0,L|176:226,1,139.999995727539,0|0,1:1|1:1,0:0:0:0:
179,156,111104,1,0,0:0:0:0:
224,102,111271,1,0,1:1:0:0:
293,108,111438,1,10,2:2:0:0:
512,379,111771,1,2,2:2:0:0:
512,379,112104,6,0,B|304:346,1,209.999993591309,2|0,1:2|1:1,0:0:0:0:
214,320,112771,1,10,2:2:0:0:
214,320,113271,1,0,1:1:0:0:
77,384,113438,2,0,L|68:284,1,100,2|0,2:2|0:0,0:0:0:0:
90,228,113938,1,0,1:1:0:0:
39,179,114104,1,8,2:2:0:0:
176,74,114438,1,2,2:2:0:0:
0,4,114771,5,2,1:2:0:0:
352,20,115104,1,2,2:2:0:0:
79,121,115438,1,10,2:2:0:0:
448,102,115771,1,2,2:2:0:0:
448,102,116438,5,2,2:2:0:0:
200,186,116771,1,10,2:2:0:0:
393,241,117104,1,4,0:3:0:0:
332,325,117438,6,0,L|410:311,1,80,2|8,1:2|2:2,0:0:0:0:
449,268,117938,1,2,2:2:0:0:
449,268,118104,1,2,2:2:0:0:
449,268,118438,1,8,2:2:0:0:
489,221,118604,2,0,L|528:215,1,40,2|0,2:2|0:0,0:0:0:0:
424,177,118938,2,0,L|463:171,1,40,2|8,2:2|2:2,0:0:0:0:
357,133,119271,1,2,2:2:0:0:
357,133,119438,2,0,L|396:127,1,40,2|0,2:2|0:0,0:0:0:0:
290,90,119771,2,0,L|329:84,1,40,10|0,2:2|0:0,0:0:0:0:
235,45,120104,6,0,L|155:40,1,80,2|8,1:2|2:2,0:0:0:0:
102,74,120604,1,2,2:2:0:0:
102,74,120770,1,2,2:2:0:0:
102,74,121104,1,8,2:2:0:0:
47,113,121270,2,0,L|7:118,1,40,2|0,2:2|0:0,0:0:0:0:
112,165,121604,2,0,L|72:169,1,40,2|8,2:2|2:2,0:0:0:0:
183,223,121937,1,2,2:2:0:0:
183,223,122104,2,0,L|143:229,1,40,2|0,2:2|0:0,0:0:0:0:
270,368,122437,2,0,L|230:374,1,40,10|0,2:2|0:0,0:0:0:0:
319,327,122771,6,0,L|397:309,1,80,2|8,1:2|2:2,0:0:0:0:
416,252,123271,1,2,2:2:0:0:
416,252,123437,1,2,2:2:0:0:
416,252,123771,1,8,2:2:0:0:
334,219,123937,2,0,L|373:211,1,40,2|0,2:2|0:0,0:0:0:0:
269,173,124271,2,0,L|308:165,1,40,2|8,2:2|2:2,0:0:0:0:
204,131,124604,1,2,2:2:0:0:
204,131,124771,2,0,L|243:123,1,40,2|0,2:2|0:0,0:0:0:0:
125,95,125104,2,0,L|164:87,1,40,10|0,2:2|0:0,0:0:0:0:
86,144,125438,6,0,L|6:139,1,80,2|8,1:2|2:2,0:0:0:0:
0,201,125938,1,2,2:2:0:0:
0,201,126104,1,2,2:2:0:0:
0,201,126438,1,8,2:2:0:0:
80,256,126604,2,0,L|40:253,1,40,2|0,2:2|0:0,0:0:0:0:
294,363,127104,6,0,L|155:384,1,140,10|0,2:2|0:0,0:0:0:0:
