osu file format v14

[General]
AudioFilename: audio.mp3
AudioLeadIn: 0
PreviewTime: 52254
Countdown: 0
SampleSet: Soft
StackLeniency: 0.4
Mode: 0
LetterboxInBreaks: 0
WidescreenStoryboard: 1

[Editor]
Bookmarks: 15,10681,22838,32004,42004,48338,53338,70004,74671,82504,96004,117338
DistanceSpacing: 1.2
BeatDivisor: 4
GridSize: 8
TimelineZoom: 1

[Metadata]
Title:Future Bossa
TitleUnicode:Future Bossa
Artist:Mitsukiyo
ArtistUnicode:ミツキヨ
Creator:Stompy_
Version:Share Sensei's Insane
Source:ブルーアーカイブ -Blue Archive-
Tags:ブルアカ blue archive Longing for the memorable days volume 1 vol vol.1 vgm videogame video game electronic instrumental yostar nat games nexon ost original soundtrack sound track share shurelia jiysea take nakazawa leomineXD leomine
BeatmapID:4113745
BeatmapSetID:1981110

[Difficulty]
HPDrainRate:4
CircleSize:3.8
OverallDifficulty:7.5
ApproachRate:8.6
SliderMultiplier:1.7
SliderTickRate:1

[Events]
//Background and Video events
0,0,"BG_CS_PV2_30.jpg",0,0
//Break Periods
//Storyboard Layer 0 (Background)
//Storyboard Layer 1 (Fail)
//Storyboard Layer 2 (Pass)
//Storyboard Layer 3 (Foreground)
//Storyboard Layer 4 (Overlay)
//Storyboard Sound Samples

[TimingPoints]
105,333.333333333333,4,2,1,50,1,0
105,-133.333333333333,4,2,1,50,0,0
9771,-166.666666666667,4,2,1,50,0,0
10271,-166.666666666667,4,2,3,35,0,0
10438,-166.666666666667,4,2,5,35,0,0
10771,-117.647058823529,4,2,1,55,0,0
31438,-117.647058823529,4,2,4,45,0,0
31771,-117.647058823529,4,2,5,45,0,0
32104,-111.111111111111,4,2,1,55,0,0
52604,-111.111111111111,4,2,3,45,0,0
52938,-111.111111111111,4,2,4,45,0,0
53104,-111.111111111111,4,2,5,45,0,0
53438,-114.942528735632,4,2,1,60,0,0
63604,-114.942528735632,4,2,3,50,0,0
63771,-114.942528735632,4,2,5,50,0,0
63938,-114.942528735632,4,2,1,60,0,0
73938,-114.942528735632,4,2,3,60,0,0
74104,-105.263157894737,4,2,3,60,0,0
74271,-105.263157894737,4,2,4,60,0,0
74438,-105.263157894737,4,2,5,60,0,0
74604,-105.263157894737,4,2,1,65,0,0
74771,-100,4,2,2,85,0,1
79604,-100,4,2,3,75,0,1
79771,-100,4,2,5,75,0,1
79938,-100,4,2,2,85,0,1
84938,-100,4,2,3,75,0,1
85105,-100,4,2,5,75,0,1
85272,-100,4,2,2,85,0,1
95604,-100,4,2,3,75,0,1
95771,-100,4,2,4,75,0,1
95938,-100,4,2,5,75,0,1
96104,-95.2380952380952,4,2,2,85,0,1
100938,-95.2380952380952,4,2,3,75,0,1
101105,-95.2380952380952,4,2,5,75,0,1
101272,-95.2380952380952,4,2,2,85,0,1
106271,-95.2380952380952,4,2,3,75,0,1
106438,-95.2380952380952,4,2,5,75,0,1
106605,-95.2380952380952,4,2,2,85,0,1
106771,-117.647058823529,4,2,2,85,0,0
116938,-117.647058823529,4,2,3,75,0,0
117105,-117.647058823529,4,2,4,75,0,0
117272,-117.647058823529,4,2,5,75,0,0
117438,-133.333333333333,4,2,1,55,0,0
127104,-166.666666666667,4,2,1,55,0,0
129354,-166.666666666667,4,2,1,55,0,0
129438,-166.666666666667,4,2,1,5,0,0

[Colours]
Combo1 : 202,202,255
Combo2 : 212,212,212
Combo3 : 145,219,255

[HitObjects]
85,49,105,6,0,B|45:75|45:75|64:175,1,127.500004863739,2|10,2:2|2:2,0:0:0:0:
13,298,771,1,0,0:0:0:0:
22,305,938,2,0,B|100:275|82:335|161:305,1,127.500004863739,2|2,2:2|2:2,0:0:0:0:
235,361,1438,5,0,0:0:0:0:
223,361,1604,2,0,P|190:303|218:250,1,127.500004863739,2|0,2:2|0:0,0:0:0:0:
281,193,2104,2,0,L|351:201,1,63.7500024318696,2|0,2:2|0:0,0:0:0:0:
450,310,2438,2,0,P|421:295|401:271,1,63.7500024318696,10|0,2:2|0:0,0:0:0:0:
478,156,2771,6,0,L|469:226,1,63.7500024318696,2|0,2:2|0:0,0:0:0:0:
511,79,3104,2,0,P|480:69|448:77,1,63.7500024318696,10|0,2:2|0:0,0:0:0:0:
394,145,3438,1,0,0:0:0:0:
383,138,3604,2,0,B|305:111|305:111|264:142,1,127.500004863739,2|2,2:2|2:2,0:0:0:0:
192,201,4104,5,0,0:0:0:0:
191,186,4271,2,0,B|184:136|184:136|199:114|199:114|192:59,1,127.500004863739,2|0,2:2|0:0,0:0:0:0:
88,18,4771,2,0,L|96:88,1,63.7500024318696,2|0,2:2|0:0,0:0:0:0:
7,162,5104,2,0,P|37:154|67:164,1,63.7500024318696,10|0,2:2|0:0,0:0:0:0:
43,309,5438,6,0,L|35:245,1,63.7500024318696,2|0,2:2|0:0,0:0:0:0:
152,183,5771,2,0,L|144:246,1,63.7500024318696,10|0,2:2|0:0,0:0:0:0:
265,348,6104,1,0,0:0:0:0:
268,335,6271,2,0,L|252:207,1,127.500004863739,2|2,2:2|2:2,0:0:0:0:
193,118,6771,5,0,0:0:0:0:
202,128,6938,2,0,P|258:159|317:124,1,127.500004863739,2|0,2:2|0:0,0:0:0:0:
394,54,7438,2,0,L|401:117,1,63.7500024318696,2|0,2:2|0:0,0:0:0:0:
467,187,7771,2,0,L|459:250,1,63.7500024318696,10|0,2:2|0:0,0:0:0:0:
328,297,8104,6,0,P|342:268|369:252,1,63.7500024318696,2|0,2:2|0:0,0:0:0:0:
474,338,8438,2,0,P|443:345|413:335,1,63.7500024318696,10|0,2:2|0:0,0:0:0:0:
463,176,8771,1,0,0:0:0:0:
467,187,8938,2,0,L|459:250,1,63.7500024318696,2|8,2:2|2:2,0:0:0:0:
328,297,9271,6,0,B|256:271|274:329|199:297,1,127.500004863739,2|0,2:2|0:0,0:0:0:0:
124,167,9771,2,0,B|106:134|143:106|143:106|181:149|160:209|131:231|131:231|165:212|204:214,1,280.49999143982,2|0,2:2|0:0,0:0:0:0:
215,220,10771,5,2,1:2:0:0:
215,220,10938,2,0,B|304:191|276:262|366:232,1,144.500002756119,2|0,2:2|0:0,0:0:0:0:
474,225,11438,1,2,1:2:0:0:
466,237,11604,2,0,B|438:276|438:276|425:170,1,144.500002756119,2|0,2:2|0:0,0:0:0:0:
486,84,12104,5,2,1:2:0:0:
476,96,12271,2,0,B|425:129|425:129|341:111,1,144.500002756119,2|0,2:2|0:0,0:0:0:0:
247,17,12771,1,2,1:2:0:0:
249,32,12938,2,0,B|256:92|256:92|239:119|239:119|246:178,1,144.500002756119,2|0,2:2|0:0,0:0:0:0:
142,241,13438,6,0,L|151:164,1,72.2500013780594,2|0,1:2|0:0,0:0:0:0:
160,91,13771,1,8,2:2:0:0:
160,91,13938,1,2,2:2:0:0:
81,128,14104,2,0,P|43:135|8:120,1,72.2500013780594,2|0,1:2|0:0,0:0:0:0:
25,29,14438,2,0,P|63:22|98:37,1,72.2500013780594,8|2,2:2|2:2,0:0:0:0:
168,162,14771,6,0,L|158:85,1,72.2500013780594,0|2,1:1|2:2,0:0:0:0:
240,17,15104,1,8,2:2:0:0:
297,102,15271,1,0,0:0:0:0:
376,37,15438,2,0,P|414:30|449:45,1,72.2500013780594,2|0,1:2|0:0,0:0:0:0:
484,144,15771,2,0,P|446:151|411:136,1,72.2500013780594,10|0,2:2|0:0,0:0:0:0:
295,86,16104,5,2,1:2:0:0:
297,102,16271,2,0,L|314:249,1,144.500002756119,2|0,2:2|0:0,0:0:0:0:
355,324,16771,1,2,1:2:0:0:
339,332,16938,2,0,B|258:354|285:288|201:315,1,144.500002756119,2|0,2:2|0:0,0:0:0:0:
83,311,17438,5,2,1:2:0:0:
93,319,17604,2,0,B|125:323|143:335|143:335|177:300|153:247,1,144.500002756119,2|0,2:2|0:0,0:0:0:0:
83,162,18104,1,2,1:2:0:0:
90,173,18271,2,0,B|126:181|151:214|151:214|173:181|207:168,1,144.500002756119,2|0,2:2|0:0,0:0:0:0:
310,131,18771,6,0,L|301:202,1,72.2500013780594,2|0,1:2|0:0,0:0:0:0:
292,281,19104,1,8,2:2:0:0:
292,281,19271,1,2,2:2:0:0:
391,229,19437,2,0,P|429:222|464:237,1,72.2500013780594,2|0,1:2|0:0,0:0:0:0:
455,334,19771,2,0,P|417:341|382:326,1,72.2500013780594,8|2,2:2|2:2,0:0:0:0:
283,209,20104,6,0,L|291:280,1,72.2500013780594,0|2,1:1|2:2,0:0:0:0:
218,365,20438,1,8,2:2:0:0:
163,277,20604,1,0,0:0:0:0:
93,358,20771,2,0,P|55:365|20:350,1,72.2500013780594,2|0,1:2|0:0,0:0:0:0:
54,202,21104,2,0,L|62:273,1,72.2500013780594,10|0,2:2|0:0,0:0:0:0:
19,120,21438,6,0,P|53:112|87:124,1,72.2500013780594,2|2,1:2|2:2,0:0:0:0:
165,189,21771,1,10,2:2:0:0:
202,25,21938,2,0,B|155:61|155:61|176:152,1,144.500002756119,2|0,2:2|0:0,0:0:0:0:
271,195,22438,2,0,L|279:124,1,72.2500013780594,10|0,2:2|0:0,0:0:0:0:
364,63,22771,5,2,1:2:0:0:
439,157,22938,2,0,P|473:168|509:161,1,72.2500013780594,0|8,0:0|2:2,0:0:0:0:
361,111,23271,2,0,B|334:195|382:176|356:264,1,144.500002756119,2|0,2:2|0:0,0:0:0:0:
382,350,23771,2,0,P|348:339|313:346,1,72.2500013780594,10|0,2:2|0:0,0:0:0:0:
156,316,24104,6,0,P|173:346|205:363,1,72.2500013780594,2|2,1:2|2:2,0:0:0:0:
317,248,24438,1,10,2:2:0:0:
238,282,24604,2,0,B|215:205|263:224|236:140,1,144.500002756119,2|0,2:2|0:0,0:0:0:0:
286,42,25104,2,0,P|252:53|217:45,1,72.2500013780594,10|0,2:2|0:0,0:0:0:0:
50,90,25438,5,2,1:2:0:0:
127,22,25604,2,0,L|135:93,1,72.2500013780594,0|8,0:0|2:2,0:0:0:0:
42,237,25938,1,2,2:2:0:0:
46,222,26104,2,0,P|59:188|87:166,1,72.2500013780594,0|0,1:1|0:0,0:0:0:0:
191,288,26438,2,0,P|157:274|135:246,1,72.2500013780594,10|0,2:2|0:0,0:0:0:0:
213,156,26771,6,0,B|295:129|268:195|349:173,1,144.500002756119,2|8,1:2|2:2,0:0:0:0:
487,123,27271,1,0,0:0:0:0:
440,270,27438,1,0,1:1:0:0:
438,256,27604,2,0,L|430:185,1,72.2500013780594,2|8,2:2|2:2,0:0:0:0:
496,46,27938,6,0,P|482:80|454:102,1,72.2500013780594,2|0,2:2|1:1,0:0:0:0:
294,145,28271,1,2,2:2:0:0:
304,135,28438,2,0,P|334:118|370:119,1,72.2500013780594,10|0,2:2|0:0,0:0:0:0:
496,46,28771,2,0,P|482:80|454:102,1,72.2500013780594,2|0,1:2|0:0,0:0:0:0:
438,256,29104,2,0,L|430:185,1,72.2500013780594,10|0,2:2|0:0,0:0:0:0:
312,64,29438,6,0,L|304:135,1,72.2500013780594,2|0,1:2|0:0,0:0:0:0:
331,267,29771,1,10,2:2:0:0:
212,227,29938,2,0,B|126:197|126:197|72:235,1,144.500002756119,2|2,2:2|2:2,0:0:0:0:
23,323,30438,1,8,2:2:0:0:
141,373,30604,6,0,L|133:302,1,72.2500013780594,2|0,2:2|1:1,0:0:0:0:
181,139,30938,5,0,3:3:0:0:
82,227,31104,1,8,3:2:0:0:
254,193,31271,5,0,3:3:0:0:
87,104,31438,1,4,0:3:0:0:
168,257,31604,5,0,0:0:0:0:
234,57,31771,2,0,L|305:65,1,72.2500013780594,4|0,0:3|0:0,0:0:0:0:
406,44,32104,5,2,1:2:0:0:
419,54,32271,2,0,B|471:27|471:27|451:129,1,152.999995330811,2|0,2:2|0:0,0:0:0:0:
496,209,32771,1,2,1:2:0:0:
481,218,32938,2,0,B|395:241|423:171|336:199,1,152.999995330811,2|0,2:2|0:0,0:0:0:0:
249,310,33438,5,2,1:2:0:0:
246,294,33604,2,0,B|238:233|238:233|255:203|255:203|245:128,1,152.999995330811,2|0,2:2|0:0,0:0:0:0:
185,50,34104,1,2,1:2:0:0:
171,61,34271,2,0,P|104:35|44:84,1,152.999995330811,2|0,2:2|0:0,0:0:0:0:
3,176,34771,6,0,P|43:165|82:177,1,76.4999976654053,2|0,1:2|0:0,0:0:0:0:
160,301,35104,1,8,2:2:0:0:
45,256,35271,1,2,2:2:0:0:
166,144,35438,2,0,L|156:224,1,76.4999976654053,2|0,1:2|0:0,0:0:0:0:
224,355,35771,1,8,2:2:0:0:
280,241,35938,1,2,2:2:0:0:
358,355,36104,6,0,P|394:363|431:352,1,76.4999976654053,0|2,1:1|2:2,0:0:0:0:
498,291,36438,1,8,2:2:0:0:
498,291,36521,1,0,0:0:0:0:
498,291,36604,1,0,0:0:0:0:
380,193,36771,2,0,L|389:273,1,76.4999976654053,2|0,1:2|0:0,0:0:0:0:
463,145,37104,2,0,P|440:114|405:99,1,76.4999976654053,10|0,2:2|0:0,0:0:0:0:
249,150,37438,6,0,P|286:151|320:134,1,76.4999976654053,2|0,1:2|0:0,0:0:0:0:
390,17,37771,1,10,2:2:0:0:
269,64,37938,2,0,L|193:54,1,76.4999976654053,2|0,2:2|1:1,0:0:0:0:
46,32,38271,2,0,P|80:46|103:77,1,76.4999976654053,2|8,2:2|2:2,0:0:0:0:
143,173,38604,1,2,2:2:0:0:
191,81,38771,5,0,1:1:0:0:
42,156,38938,1,0,0:0:0:0:
134,259,39104,2,0,L|124:183,1,76.4999976654053,10|0,2:2|0:0,0:0:0:0:
79,339,39438,2,0,P|112:356|150:354,1,76.4999976654053,2|0,1:2|0:0,0:0:0:0:
273,230,39771,2,0,P|238:244|215:275,1,76.4999976654053,10|0,2:2|0:0,0:0:0:0:
290,360,40104,5,2,1:2:0:0:
290,360,40188,1,0,0:0:0:0:
290,360,40271,2,0,L|327:355,1,38.2499988327027
420,379,40438,2,0,B|375:344|375:344|389:240,1,152.999995330811,8|0,2:2|1:1,0:0:0:0:
465,158,40938,2,0,P|431:140|393:142,1,76.4999976654053,2|8,2:2|2:2,0:0:0:0:
363,241,41271,6,0,B|277:264|305:194|218:222,1,152.999995330811,2|0,2:2|0:0,0:0:0:0:
137,334,41771,2,0,L|127:258,1,76.4999976654053,10|0,2:2|0:0,0:0:0:0:
41,220,42104,2,0,L|50:144,1,76.4999976654053,2|0,1:2|0:0,0:0:0:0:
18,29,42438,2,0,P|51:46|89:44,1,76.4999976654053,10|0,2:2|0:0,0:0:0:0:
274,117,42771,5,2,1:2:0:0:
110,62,42938,1,2,2:2:0:0:
280,12,43104,1,10,2:2:0:0:
219,196,43271,2,0,B|175:162|175:162|201:45,1,152.999995330811,2|0,2:2|0:0,0:0:0:0:
349,107,43771,2,0,L|273:116,1,76.4999976654053,10|0,2:2|0:0,0:0:0:0:
421,33,44104,6,0,B|461:121|461:121|420:179,1,152.999995330811,2|8,1:2|2:2,0:0:0:0:
456,263,44604,2,0,B|370:286|398:216|311:244,1,152.999995330811,2|0,2:2|0:0,0:0:0:0:
211,206,45104,2,0,L|220:281,1,76.4999976654053,10|0,2:2|0:0,0:0:0:0:
149,368,45438,5,2,1:2:0:0:
87,258,45604,1,2,2:2:0:0:
22,365,45771,1,10,2:2:0:0:
19,206,45938,2,0,P|91:169|160:213,1,152.999995330811,2|0,2:2|0:0,0:0:0:0:
229,302,46438,2,0,L|238:226,1,76.4999976654053,10|0,2:2|0:0,0:0:0:0:
239,127,46771,6,0,B|337:164|337:164|388:133,1,152.999995330811,2|8,1:2|2:2,0:0:0:0:
491,83,47271,2,0,B|472:70|453:48|453:48|465:152,1,152.999995330811,2|0,2:2|0:0,0:0:0:0:
493,258,47771,2,0,P|459:240|421:242,1,76.4999976654053,10|0,2:2|0:0,0:0:0:0:
347,366,48104,6,0,L|337:290,1,76.4999976654053,0|0,1:1|0:0,0:0:0:0:
245,230,48438,2,0,L|235:305,1,76.4999976654053,10|0,2:2|0:0,0:0:0:0:
141,362,48771,2,0,L|131:286,1,76.4999976654053,2|0,1:2|0:0,0:0:0:0:
8,203,49104,2,0,P|41:220|79:218,1,76.4999976654053,10|0,2:2|0:0,0:0:0:0:
151,149,49438,6,0,B|247:122|247:122|294:167,1,152.999995330811,2|8,1:2|2:2,0:0:0:0:
437,303,50104,6,0,B|355:271|375:338|285:302,1,152.999995330811,2|8,1:2|2:2,0:0:0:0:
84,358,50771,6,0,B|133:330|133:330|121:233,1,152.999995330811,2|8,1:2|2:2,0:0:0:0:
72,130,51271,1,0,1:1:0:0:
185,174,51438,2,0,P|228:186|268:175,1,76.4999976654053,2|8,1:2|2:2,0:0:0:0:
405,110,51771,1,0,1:1:0:0:
351,247,51938,6,0,L|341:171,1,76.4999976654053,2|8,1:2|2:2,0:0:0:0:
502,93,52271,2,0,L|492:168,1,76.4999976654053,2|10,1:2|2:2,0:0:0:0:
500,292,52604,5,4,0:3:0:0:
500,292,52688,1,4,0:3:0:0:
500,292,52771,2,0,P|457:280|417:291,1,76.4999976654053,4|4,0:3|0:3,0:0:0:0:
281,352,53104,2,0,P|324:364|364:353,1,76.4999976654053,4|0,0:3|0:0,0:0:0:0:
304,186,53438,5,4,1:2:0:0:
307,200,53604,2,0,L|317:288,1,73.9500006206131,0|8,0:0|2:2,0:0:0:0:
201,192,53938,1,2,1:2:0:0:
181,354,54104,2,0,L|190:280,1,73.9500006206131,2|2,1:2|2:2,0:0:0:0:
50,174,54438,1,10,2:2:0:0:
99,291,54604,1,2,1:2:0:0:
201,192,54771,6,0,B|287:169|264:231|350:204,1,147.900001241226,2|8,1:2|2:2,0:0:0:0:
478,144,55271,1,2,1:2:0:0:
443,293,55438,2,0,L|433:219,1,73.9500006206131,2|2,1:2|2:2,0:0:0:0:
476,54,55771,1,10,2:2:0:0:
366,153,55938,1,2,1:2:0:0:
283,26,56104,6,0,P|213:1|142:40,1,147.900001241226,2|10,1:2|2:2,0:0:0:0:
149,145,56604,1,0,1:1:0:0:
44,26,56771,2,0,L|53:99,1,73.9500006206131,2|0,1:2|0:0,0:0:0:0:
14,203,57104,2,0,P|57:191|97:202,1,73.9500006206131,10|0,2:2|1:1,0:0:0:0:
113,346,57438,6,0,P|76:320|58:283,1,73.9500006206131,2|0,1:2|0:0,0:0:0:0:
195,200,57771,2,0,P|183:243|154:272,1,73.9500006206131,10|0,2:2|1:1,0:0:0:0:
201,101,58104,2,0,P|244:112|273:141,1,73.9500006206131,2|0,1:2|0:0,0:0:0:0:
344,252,58438,1,10,2:2:0:0:
195,200,58604,1,2,1:2:0:0:
271,353,58771,6,0,L|261:279,1,73.9500006206131,2|0,1:2|0:0,0:0:0:0:
438,222,59104,2,0,L|428:295,1,73.9500006206131,10|0,2:2|1:1,0:0:0:0:
498,118,59438,2,0,P|460:111|424:123,1,73.9500006206131,2|0,1:2|0:0,0:0:0:0:
278,198,59771,2,0,P|314:209|351:203,1,73.9500006206131,10|0,2:2|1:1,0:0:0:0:
312,42,60104,6,0,L|321:115,1,73.9500006206131,2|0,1:2|0:0,0:0:0:0:
176,215,60438,2,0,L|185:141,1,73.9500006206131,10|0,2:2|1:1,0:0:0:0:
60,55,60771,2,0,L|69:128,1,73.9500006206131,2|0,1:2|0:0,0:0:0:0:
5,231,61104,2,0,P|42:224|78:236,1,73.9500006206131,10|0,2:2|1:1,0:0:0:0:
133,324,61438,5,2,1:2:0:0:
154,335,61521,1,0,0:0:0:0:
178,341,61604,1,0,0:0:0:0:
203,340,61688,1,0,0:0:0:0:
220,334,61771,2,0,L|210:260,1,73.9500006206131,8|2,2:2|1:2,0:0:0:0:
294,216,62104,5,2,1:2:0:0:
365,254,62271,1,0,0:0:0:0:
425,199,62438,2,0,P|462:192|498:204,1,73.9500006206131,8|2,2:2|1:2,0:0:0:0:
349,362,62771,5,2,1:2:0:0:
456,282,62938,1,0,0:0:0:0:
289,294,63104,5,8,2:2:0:0:
438,368,63271,1,2,1:2:0:0:
346,175,63438,2,0,L|355:248,1,73.9500006206131,2|4,1:2|0:3,0:0:0:0:
192,349,63771,2,0,L|201:275,1,73.9500006206131,4|0,0:3|1:1,0:0:0:0:
124,189,64104,5,2,1:2:0:0:
27,274,64271,1,2,2:2:0:0:
11,115,64438,2,0,P|47:103|84:109,1,73.9500006206131,10|0,2:2|1:1,0:0:0:0:
200,215,64771,2,0,B|286:192|263:254|349:227,1,147.900001241226,2|10,1:2|2:2,0:0:0:0:
442,141,65271,1,2,1:2:0:0:
313,70,65438,6,0,P|308:106|320:141,1,73.9500006206131,2|0,1:2|0:0,0:0:0:0:
472,246,65771,2,0,P|484:212|480:176,1,73.9500006206131,10|0,2:2|1:1,0:0:0:0:
298,284,66104,5,2,1:2:0:0:
414,348,66271,1,2,2:2:0:0:
270,277,66438,5,10,2:2:0:0:
402,205,66604,1,2,1:2:0:0:
238,269,66771,6,0,B|146:246|146:246|100:286,1,147.900001241226,2|10,1:2|2:2,0:0:0:0:
3,223,67271,1,0,1:1:0:0:
76,99,67438,2,0,L|85:173,1,73.9500006206131,2|0,1:2|0:0,0:0:0:0:
33,21,67771,2,0,P|69:9|106:15,1,73.9500006206131,10|0,2:2|1:1,0:0:0:0:
221,134,68104,6,0,P|185:120|161:91,1,73.9500006206131,2|0,1:2|0:0,0:0:0:0:
324,25,68438,1,10,2:2:0:0:
322,38,68604,2,0,L|313:112,1,73.9500006206131,2|0,1:2|1:1,0:0:0:0:
368,232,68938,2,0,P|439:254|501:209,1,147.900001241226,2|0,2:2|1:1,0:0:0:0:
432,89,69438,6,0,L|423:163,1,73.9500006206131,2|0,1:2|0:0,0:0:0:0:
307,291,69771,1,8,2:2:0:0:
442,253,69938,1,2,1:2:0:0:
338,202,70104,2,0,P|300:195|264:207,1,73.9500006206131,2|0,1:2|0:0,0:0:0:0:
205,352,70438,2,0,L|196:278,1,73.9500006206131,8|0,2:2|1:1,0:0:0:0:
185,168,70771,5,0,1:1:0:0:
108,256,70938,1,0,0:0:0:0:
92,258,71104,2,0,P|54:264|18:252,1,73.9500006206131,10|0,2:2|1:1,0:0:0:0:
23,132,71438,2,0,P|60:125|96:137,1,73.9500006206131,2|0,1:2|0:0,0:0:0:0:
202,322,71771,2,0,L|193:248,1,73.9500006206131,10|0,2:2|1:1,0:0:0:0:
252,157,72104,5,2,1:2:0:0:
274,143,72187,1,0,0:0:0:0:
300,137,72270,1,0,0:0:0:0:
327,140,72353,1,0,0:0:0:0:
351,151,72438,2,0,L|342:77,1,73.9500006206131,8|0,2:2|1:1,0:0:0:0:
435,22,72771,5,2,1:2:0:0:
435,22,72854,1,0,0:0:0:0:
435,22,72938,1,0,0:0:0:0:
499,96,73104,2,0,L|490:170,1,73.9500006206131,8|0,2:2|1:1,0:0:0:0:
500,305,73438,5,2,1:2:0:0:
477,291,73521,1,0,0:0:0:0:
451,285,73604,1,0,0:0:0:0:
424,288,73687,1,0,0:0:0:0:
405,300,73772,2,0,L|331:291,1,73.9500006206131,8|4,2:2|0:3,0:0:0:0:
282,324,74021,5,4,0:3:0:0:
282,324,74104,2,0,L|202:314,1,80.7499978437424,4|4,0:3|0:3,0:0:0:0:
54,216,74438,1,4,0:3:0:0:
102,359,74604,1,2,3:2:0:0:
159,213,74771,6,0,B|185:106|185:106|162:136|135:143,1,170,4|2,1:2|2:2,0:0:0:0:
21,298,75271,1,2,2:2:0:0:
197,334,75438,2,0,L|281:323,1,85,10|2,2:2|2:2,0:0:0:0:
451,236,75771,1,0,0:0:0:0:
372,370,75938,6,0,B|403:265|328:305|364:185,1,170,2|2,1:2|1:2,0:0:0:0:
448,26,76438,1,2,2:2:0:0:
302,114,76604,1,2,1:2:0:0:
485,134,76771,2,0,P|444:121|400:133,1,85,10|0,2:2|0:0,0:0:0:0:
279,276,77104,2,0,P|319:285|359:272,1,85,2|0,2:2|1:1,0:0:0:0:
302,114,77438,6,0,L|312:198,1,85,2|0,1:2|0:0,0:0:0:0:
261,358,77771,1,2,2:2:0:0:
213,204,77938,2,0,P|172:194|132:207,1,85,2|8,1:2|2:2,0:0:0:0:
14,345,78271,2,0,P|54:357|95:348,1,85,2|0,2:2|0:0,0:0:0:0:
91,131,78604,6,0,B|38:163|38:163|58:270,1,170,2|0,1:2|1:1,0:0:0:0:
184,360,79104,2,0,L|173:275,1,85,0|0,0:0|1:1,0:0:0:0:
239,107,79438,5,8,2:2:0:0:
98,214,79604,1,4,0:3:0:0:
306,180,79771,5,4,0:3:0:0:
140,50,79938,1,2,1:2:0:0:
188,253,80104,6,0,B|283:221|261:295|350:260,1,170,2|2,1:2|2:2,0:0:0:0:
507,175,80604,1,2,1:2:0:0:
456,354,80771,2,0,L|445:269,1,85,10|2,2:2|2:2,0:0:0:0:
488,57,81104,1,0,0:0:0:0:
365,157,81271,6,0,B|302:149|302:149|267:174|267:174|197:165,1,170,2|2,1:2|1:2,0:0:0:0:
65,109,81771,1,2,2:2:0:0:
183,30,81938,1,2,1:2:0:0:
67,126,82104,2,0,L|78:211,1,85,10|0,2:2|0:0,0:0:0:0:
7,368,82438,2,0,P|25:330|61:307,1,85,2|0,2:2|1:1,0:0:0:0:
177,343,82771,6,0,B|279:312|251:379|341:353,1,170,2|0,1:2|0:0,0:0:0:0:
340,354,83438,5,8,2:2:0:0:
509,262,83604,1,2,2:2:0:0:
313,207,83771,1,2,2:2:0:0:
430,374,83938,6,0,L|419:289,1,85,2|0,1:2|0:0,0:0:0:0:
509,128,84271,2,0,P|491:166|455:189,1,85,2|0,1:2|0:0,0:0:0:0:
364,14,84604,2,0,P|399:36|417:74,1,85,2|8,1:2|2:2,0:0:0:0:
206,177,84938,1,4,0:3:0:0:
428,207,85104,1,4,0:3:0:0:
281,57,85271,1,2,1:2:0:0:
317,270,85438,6,0,L|328:185,1,85,2|2,1:2|2:2,0:0:0:0:
164,26,85771,1,2,2:2:0:0:
225,209,85938,1,2,1:2:0:0:
313,31,86104,1,10,2:2:0:0:
163,120,86271,2,0,L|78:109,1,85,2|0,2:2|0:0,0:0:0:0:
1,322,86604,6,0,B|107:291|107:291|126:318|154:333,1,170,2|2,1:2|1:2,0:0:0:0:
151,332,87271,5,2,1:2:0:0:
297,344,87438,2,0,B|394:305|370:395|470:353,1,170,8|0,2:2|0:0,0:0:0:0:
356,209,87938,1,2,1:2:0:0:
432,274,88104,6,0,P|466:249|481:210,1,85,2|2,1:2|2:2,0:0:0:0:
275,23,88438,1,2,2:2:0:0:
482,113,88604,1,2,1:2:0:0:
277,167,88771,1,10,2:2:0:0:
394,9,88938,2,0,L|383:94,1,85,2|0,2:2|0:0,0:0:0:0:
468,262,89271,6,0,B|374:224|374:224|313:275,1,170,2|2,1:2|1:2,0:0:0:0:
321,268,89938,1,2,1:2:0:0:
229,360,90104,2,0,L|218:271,1,85,8|2,2:2|2:2,0:0:0:0:
285,142,90438,1,2,2:2:0:0:
129,224,90604,1,2,1:2:0:0:
187,123,90771,5,2,1:2:0:0:
218,275,90938,1,2,2:2:0:0:
184,111,91104,2,0,L|195:22,1,85,2|2,2:2|1:2,0:0:0:0:
45,168,91438,6,0,L|34:83,1,85,10|0,2:2|0:0,0:0:0:0:
77,328,91771,1,2,2:2:0:0:
140,178,91938,1,2,1:2:0:0:
161,353,92104,5,2,2:2:0:0:
8,250,92271,1,2,1:2:0:0:
174,353,92438,2,0,L|258:342,1,85,2|0,2:2|1:1,0:0:0:0:
462,185,92771,5,10,2:2:0:0:
292,262,92938,1,2,2:2:0:0:
489,304,93104,1,2,2:2:0:0:
339,143,93271,1,2,1:2:0:0:
386,368,93438,6,0,L|375:284,1,85,2|2,1:2|2:2,0:0:0:0:
432,105,93771,5,2,2:2:0:0:
458,265,93938,1,2,1:2:0:0:
356,33,94104,5,10,2:2:0:0:
294,226,94271,2,0,L|210:215,1,85,2|0,2:2|0:0,0:0:0:0:
91,61,94604,6,0,B|144:93|144:93|124:200,1,170,2|2,1:2|1:2,0:0:0:0:
24,340,95104,1,2,2:2:0:0:
187,277,95271,1,2,1:2:0:0:
28,175,95438,6,0,B|15:219|15:219|37:253,1,85,8|4,2:2|0:3,0:0:0:0:
210,360,95771,1,4,0:3:0:0:
147,189,95938,1,4,0:3:0:0:
104,358,96104,5,4,1:2:0:0:
251,202,96271,1,2,2:2:0:0:
56,248,96438,1,2,2:2:0:0:
268,195,96604,1,2,1:2:0:0:
181,315,96771,6,0,L|169:226,1,89.2499972763062,10|2,2:2|2:2,0:0:0:0:
239,72,97104,1,0,0:0:0:0:
119,132,97271,6,0,B|9:100|9:100|48:93|74:77,1,178.499994552612,2|2,1:2|1:2,0:0:0:0:
300,170,97771,1,2,2:2:0:0:
158,35,97938,1,2,1:2:0:0:
198,243,98104,6,0,L|209:155,1,89.2499972763062,10|0,2:2|0:0,0:0:0:0:
374,19,98438,2,0,L|385:110,1,89.2499972763062,2|0,2:2|1:1,0:0:0:0:
493,218,98771,6,0,P|447:214|409:236,1,89.2499972763062,2|0,1:2|0:0,0:0:0:0:
360,341,99104,1,2,2:2:0:0:
297,167,99271,2,0,L|284:262,1,89.2499972763062,2|8,1:2|2:2,0:0:0:0:
165,351,99604,2,0,L|153:264,1,89.2499972763062,2|0,2:2|0:0,0:0:0:0:
32,134,99938,6,0,B|135:96|107:183|205:143,1,178.499994552612,2|0,1:2|1:1,0:0:0:0:
385,69,100438,1,0,0:0:0:0:
287,202,100604,1,0,1:1:0:0:
203,34,100771,2,0,P|246:30|285:51,1,89.2499972763062,8|4,2:2|0:3,0:0:0:0:
361,253,101104,5,4,0:3:0:0:
207,151,101271,1,2,1:2:0:0:
437,163,101438,5,2,1:2:0:0:
249,279,101604,1,2,2:2:0:0:
470,294,101771,1,2,2:2:0:0:
314,124,101938,1,2,1:2:0:0:
342,369,102104,6,0,L|353:280,1,89.2499972763062,10|2,2:2|2:2,0:0:0:0:
298,146,102438,1,0,0:0:0:0:
191,334,102604,6,0,B|93:297|93:297|24:339,1,178.499994552612,2|2,1:2|1:2,0:0:0:0:
218,133,103104,1,2,2:2:0:0:
32,199,103271,1,2,1:2:0:0:
136,263,103438,6,0,L|124:175,1,89.2499972763062,10|0,2:2|0:0,0:0:0:0:
28,56,103771,2,0,P|66:77|111:74,1,89.2499972763062,2|0,2:2|1:1,0:0:0:0:
264,19,104104,6,0,B|208:52|208:52|229:164,1,178.499994552612,2|0,1:2|0:0,0:0:0:0:
228,163,104771,1,8,2:2:0:0:
306,336,104938,1,2,2:2:0:0:
384,162,105104,1,2,2:2:0:0:
222,273,105271,6,0,P|178:282|136:269,1,89.2499972763062,2|0,1:2|0:0,0:0:0:0:
298,88,105604,2,0,L|310:176,1,89.2499972763062,2|0,1:2|0:0,0:0:0:0:
489,169,105938,2,0,P|450:148|406:151,1,89.2499972763062,2|8,1:2|2:2,0:0:0:0:
251,259,106271,2,0,P|289:280|333:277,1,89.2499972763062,4|4,0:3|0:3,0:0:0:0:
470,174,106604,1,0,1:1:0:0:
323,112,106771,6,0,B|243:91|260:149|173:112,1,144.500002756119,2|0,1:2|0:0,0:0:0:0:
74,46,107271,1,2,1:2:0:0:
78,58,107438,2,0,L|67:141,1,72.2500013780594,8|0,2:2|0:0,0:0:0:0:
4,253,107771,1,2,2:2:0:0:
12,242,107938,6,0,P|88:221|142:257,1,144.500002756119,2|0,1:2|1:1,0:0:0:0:
204,369,108438,2,0,L|212:297,1,72.2500013780594,2|0,2:2|1:1,0:0:0:0:
304,268,108771,2,0,P|337:279|372:272,1,72.2500013780594,10|0,2:2|0:0,0:0:0:0:
500,172,109104,2,0,P|465:164|431:176,1,72.2500013780594,2|0,2:2|1:1,0:0:0:0:
481,331,109438,6,0,L|472:259,1,72.2500013780594,2|0,1:2|0:0,0:0:0:0:
351,121,109771,2,0,L|342:192,1,72.2500013780594,2|0,2:2|1:1,0:0:0:0:
295,332,110104,1,10,2:2:0:0:
215,240,110271,1,0,0:0:0:0:
215,240,110354,1,0,0:0:0:0:
215,240,110438,1,2,2:2:0:0:
109,345,110604,6,0,B|130:265|72:282|109:195,1,144.500002756119,0|0,1:1|1:1,0:0:0:0:
125,81,111104,1,0,0:0:0:0:
51,135,111271,1,0,1:1:0:0:
182,161,111438,2,0,P|215:172|250:165,1,72.2500013780594,10|0,2:2|0:0,0:0:0:0:
262,22,111771,2,0,P|229:11|194:18,1,72.2500013780594,2|0,2:2|1:1,0:0:0:0:
337,97,112104,6,0,B|422:72|422:72|464:110,1,144.500002756119,2|0,1:2|0:0,0:0:0:0:
467,200,112604,1,0,1:1:0:0:
472,214,112771,2,0,B|464:273|464:273|441:295|441:295|433:354,1,144.500002756119,10|0,2:2|0:0,0:0:0:0:
330,340,113271,5,0,1:1:0:0:
324,351,113438,2,0,B|244:330|261:388|174:351,1,144.500002756119,2|0,2:2|0:0,0:0:0:0:
31,276,113938,1,0,1:1:0:0:
96,371,114104,2,0,L|105:300,1,72.2500013780594,8|0,2:2|0:0,0:0:0:0:
39,161,114438,2,0,P|57:190|88:207,1,72.2500013780594,2|0,2:2|1:1,0:0:0:0:
211,107,114771,6,0,P|181:125|164:156,1,72.2500013780594,2|0,1:2|0:0,0:0:0:0:
262,259,115104,2,0,L|253:188,1,72.2500013780594,2|0,2:2|1:1,0:0:0:0:
366,131,115438,2,0,L|357:202,1,72.2500013780594,10|0,2:2|0:0,0:0:0:0:
498,292,115771,5,2,2:2:0:0:
486,292,115938,2,0,B|432:285|432:285|404:304|404:304|348:296,1,144.500002756119,2|0,1:2|1:1,0:0:0:0:
263,367,116438,2,0,L|254:296,1,72.2500013780594,2|0,2:2|1:1,0:0:0:0:
182,188,116771,1,10,2:2:0:0:
119,309,116938,1,4,0:3:0:0:
182,172,117104,2,0,L|173:101,1,72.2500013780594,4|4,0:3|0:3,0:0:0:0:
116,44,117354,5,0,0:0:0:0:
116,44,117438,2,0,P|175:21|236:54,1,127.500004863739,2|8,1:2|2:2,0:0:0:0:
288,115,117938,1,2,2:2:0:0:
297,122,118105,2,0,B|375:92|357:152|436:122,1,127.500004863739,2|8,2:2|2:2,0:0:0:0:
500,219,118604,6,0,P|470:208|439:216,1,63.7500024318696,2|0,2:2|0:0,0:0:0:0:
379,350,118938,2,0,L|371:287,1,63.7500024318696,2|8,2:2|2:2,0:0:0:0:
281,219,119271,1,2,2:2:0:0:
281,232,119438,2,0,L|273:295,1,63.7500024318696,2|0,2:2|0:0,0:0:0:0:
183,343,119771,2,0,L|175:280,1,63.7500024318696,10|0,2:2|0:0,0:0:0:0:
82,189,120104,6,0,B|160:162|160:162|201:193,1,127.500004863739,2|8,1:2|2:2,0:0:0:0:
281,232,120604,5,2,2:2:0:0:
280,217,120771,2,0,B|273:167|273:167|288:145|288:145|281:90,1,127.500004863739,2|8,2:2|2:2,0:0:0:0:
361,45,121271,6,0,L|424:53,1,63.7500024318696,2|0,2:2|0:0,0:0:0:0:
491,137,121604,2,0,L|428:145,1,63.7500024318696,2|8,2:2|2:2,0:0:0:0:
366,252,121938,1,2,2:2:0:0:
379,252,122105,2,0,L|442:244,1,63.7500024318696,2|0,2:2|0:0,0:0:0:0:
501,354,122438,2,0,L|438:346,1,63.7500024318696,10|0,2:2|0:0,0:0:0:0:
330,343,122771,6,0,B|264:322|277:371|204:348,1,127.500004863739,2|8,1:2|2:2,0:0:0:0:
78,326,123271,1,2,2:2:0:0:
86,332,123438,2,0,B|124:360|124:360|129:274,1,127.500004863739,2|8,2:2|2:2,0:0:0:0:
50,177,123938,6,0,L|42:240,1,63.7500024318696,2|0,2:2|0:0,0:0:0:0:
28,101,124271,2,0,P|58:93|88:103,1,63.7500024318696,2|8,2:2|2:2,0:0:0:0:
144,183,124604,1,2,2:2:0:0:
157,191,124771,2,0,P|186:201|217:193,1,63.7500024318696,2|0,2:2|0:0,0:0:0:0:
197,48,125104,2,0,L|189:111,1,63.7500024318696,10|0,2:2|0:0,0:0:0:0:
325,211,125438,6,0,B|318:161|318:161|333:139|333:139|326:84,1,127.500004863739,2|8,1:2|2:2,0:0:0:0:
440,50,125938,1,2,2:2:0:0:
440,63,126105,2,0,L|432:126,1,63.7500024318696,2|0,2:2|0:0,0:0:0:0:
503,224,126438,1,8,2:2:0:0:
491,218,126604,6,0,P|460:210|430:220,1,63.7500024318696,2|0,2:2|0:0,0:0:0:0:
375,274,126854,1,0,0:0:0:0:
375,274,126938,2,0,L|328:270,1,31.8750012159348
279,230,127104,6,0,B|197:271|181:360|181:360|185:311|157:285|199:183|71:198|96:62|228:46|228:46|220:67|278:145|179:192,1,713.99997821045,10|0,2:2|0:0,0:0:0:0:
