osu file format v14

[General]
AudioFilename: jerma985sfursonawouldbearat.ogg
AudioLeadIn: 0
PreviewTime:68493
Countdown: 0
SampleSet: Normal
StackLeniency: 0.7
Mode: 1
LetterboxInBreaks: 0
WidescreenStoryboard: 1

[Editor]
Bookmarks: 12752,32881,57655,70042,94816,107203,127332,152106,164493,189267,201654,219461
DistanceSpacing: 0.6
BeatDivisor: 4
GridSize: 32
TimelineZoom: 1.3

[Metadata]
Title:Dream Leaf
TitleUnicode:Dream Leaf
Artist:Mitsukiyo
ArtistUnicode:ミツキヨ
Creator:Hivie
Version:Oni
Source:
Tags:electronic instrumental faputa 緑の手紙 Fantasy The Green Letter Midori no Tegami
BeatmapID:3677473
BeatmapSetID:1792033

[Difficulty]
HPDrainRate:5.5
CircleSize:2
OverallDifficulty:5.5
ApproachRate:10
SliderMultiplier:1.4
SliderTickRate:1

[Events]
//Background and Video events
0,0,"BG1080.png",0,0
//Break Periods
//Storyboard Layer 0 (Background)
//Storyboard Layer 1 (Fail)
//Storyboard Layer 2 (Pass)
//Storyboard Layer 3 (Foreground)
//Storyboard Layer 4 (Overlay)
//Storyboard Sound Samples

[TimingPoints]
365,387.096774193548,4,1,0,50,1,0
365,-125,4,1,0,50,0,0
6558,-111.111111111111,4,1,0,70,0,0
8784,-100,4,1,0,100,0,0
9071,-97.5671246691037,4,1,0,100,0,0
9265,-95.2380952380952,4,1,0,100,0,0
9361,-94.1262313024444,4,1,0,100,0,0
9458,-93.0288461538461,4,1,0,100,0,0
9655,-90.9090909090909,4,1,0,100,0,1
11974,-93.7474788221057,4,1,0,100,0,1
12071,-94.4869084403968,4,1,0,100,0,1
12168,-95.2380952380952,4,1,0,100,0,1
12265,-96.0013218770654,4,1,0,100,0,1
12361,-96.7688207861426,4,1,0,100,0,1
12458,-97.5568801947779,4,1,0,100,0,1
12555,-98.3578804807855,4,1,0,100,0,1
12752,-100,4,1,0,100,0,0
24752,-98.3578804807855,4,1,0,100,0,0
24845,-97.5650713685978,4,1,0,100,0,0
24942,-96.7768801532439,4,1,0,100,0,0
25039,-96.0013218770654,4,1,0,100,0,0
25136,-95.2380952380952,4,1,0,100,0,0
31329,-125,4,1,0,100,0,0
32881,387.096774193548,4,1,0,100,1,0
33074,-111.111111111111,4,1,0,100,0,0
43329,-107.149455015703,4,1,0,100,0,0
43429,-105.263157894737,4,1,0,100,0,0
43523,-103.442125914036,4,1,0,100,0,0
43716,-100,4,1,0,100,0,0
45074,-90.9090909090909,4,1,0,100,0,0
45461,-100,4,1,0,100,0,0
67136,-98.7622814852622,4,1,0,100,0,0
67329,-97.5609756097561,4,1,0,100,0,0
67426,-96.9681784014032,4,1,0,100,0,0
67523,-96.3825415603013,4,1,0,100,0,0
67619,-95.8098656928885,4,1,0,100,0,0
67716,-95.2380952380952,4,1,0,100,0,0
67910,-94.1147859922179,4,1,0,100,0,0
68007,-93.5630099728014,4,1,0,100,0,0
68103,-93.0232558139535,4,1,0,100,0,0
68200,-92.4841677619787,4,1,0,100,0,0
68297,-91.951291951292,4,1,0,100,0,0
68490,-90.9090909090909,4,1,0,100,0,0
69558,-111.111111111111,4,1,0,100,0,0
70042,-83.3333333333333,4,1,0,100,0,1
70235,-95.2380952380952,4,1,0,100,0,1
94816,-100,4,1,0,100,0,0
94913,-100,4,1,0,100,0,0
103716,-95.2380952380952,4,1,0,100,0,0
103813,-94.1147859922179,4,1,0,100,0,0
103910,-93.0176661458959,4,1,0,100,0,0
104106,-90.9090909090909,4,1,0,100,0,1
106424,-93.7474788221057,4,1,0,100,0,1
106521,-94.4869084403968,4,1,0,100,0,1
106618,-95.2380952380952,4,1,0,100,0,1
106715,-96.0013218770654,4,1,0,100,0,1
106811,-96.7688207861426,4,1,0,100,0,1
106908,-97.5568801947779,4,1,0,100,0,1
107005,-98.3578804807855,4,1,0,100,0,1
107203,-100,4,1,0,100,0,0
119200,-98.3578804807855,4,1,0,100,0,0
119296,-97.5650713685978,4,1,0,100,0,0
119393,-96.7768801532439,4,1,0,100,0,0
119490,-96.0013218770654,4,1,0,100,0,0
119587,-95.2380952380952,4,1,0,100,0,0
125780,-125,4,1,0,100,0,0
127332,387.096774193548,4,1,0,100,1,0
127525,-111.111111111111,4,1,0,100,0,0
137780,-107.149455015703,4,1,0,100,0,0
137877,-105.263157894737,4,1,0,100,0,0
137974,-103.442125914036,4,1,0,100,0,0
138167,-100,4,1,0,100,0,0
139525,-90.9090909090909,4,1,0,100,0,0
139912,-100,4,1,0,100,0,0
161587,-98.7622814852622,4,1,0,100,0,0
161780,-97.5609756097561,4,1,0,100,0,0
161877,-96.9681784014032,4,1,0,100,0,0
161974,-96.3825415603013,4,1,0,100,0,0
162070,-95.8098656928885,4,1,0,100,0,0
162167,-95.2380952380952,4,1,0,100,0,0
162361,-94.1147859922179,4,1,0,100,0,0
162458,-93.5630099728014,4,1,0,100,0,0
162554,-93.0232558139535,4,1,0,100,0,0
162651,-92.4841677619787,4,1,0,100,0,0
162748,-91.951291951292,4,1,0,100,0,0
162941,-90.9090909090909,4,1,0,100,0,0
164009,-111.111111111111,4,1,0,100,0,0
164493,-83.3333333333333,4,1,0,100,0,1
164686,-95.2380952380952,4,1,0,100,0,1
189267,-100,4,1,0,100,0,0
189364,-100,4,1,0,100,0,0
198167,-95.2380952380952,4,1,0,100,0,0
198264,-94.1147859922179,4,1,0,100,0,0
198361,-93.0176661458959,4,1,0,100,0,0
198557,-90.9090909090909,4,1,0,100,0,1
200875,-93.7474788221057,4,1,0,100,0,1
200972,-94.4869084403968,4,1,0,100,0,1
201069,-95.2380952380952,4,1,0,100,0,1
201166,-96.0013218770654,4,1,0,100,0,1
201262,-96.7688207861426,4,1,0,100,0,1
201359,-97.5568801947779,4,1,0,100,0,1
201456,-98.3578804807855,4,1,0,100,0,1
201654,-100,4,1,0,100,0,0
201848,-100,4,1,0,100,0,0
213654,-98.3578804807855,4,1,0,100,0,0
213747,-97.5650713685978,4,1,0,100,0,0
213844,-96.7768801532439,4,1,0,100,0,0
213941,-96.0013218770654,4,1,0,100,0,0
214038,-95.2380952380952,4,1,0,100,0,0

[HitObjects]
256,192,365,5,8,0:0:0:0:
256,192,655,1,0,0:0:0:0:
256,192,1139,1,8,0:0:0:0:
256,192,1429,1,8,0:0:0:0:
256,192,1913,1,8,0:0:0:0:
256,192,2203,1,0,0:0:0:0:
256,192,2494,1,8,0:0:0:0:
256,192,2687,1,0,0:0:0:0:
256,192,3268,1,8,0:0:0:0:
256,192,3461,1,0,0:0:0:0:
256,192,3752,1,8,0:0:0:0:
256,192,4042,1,0,0:0:0:0:
256,192,4235,1,8,0:0:0:0:
256,192,4429,1,0,0:0:0:0:
256,192,4623,1,8,0:0:0:0:
256,192,5010,1,0,0:0:0:0:
256,192,5300,1,8,0:0:0:0:
256,192,5590,1,0,0:0:0:0:
256,192,5784,1,8,0:0:0:0:
256,192,6171,1,0,0:0:0:0:
256,192,6558,1,8,0:0:0:0:
256,192,6848,1,0,0:0:0:0:
256,192,7139,1,0,0:0:0:0:
256,192,7332,1,8,0:0:0:0:
256,192,7623,1,8,0:0:0:0:
256,192,7913,1,8,0:0:0:0:
256,192,8106,1,0,0:0:0:0:
256,192,8397,1,8,0:0:0:0:
256,192,8687,1,0,0:0:0:0:
256,96,8881,1,12,0:0:0:0:
256,192,9074,1,0,0:0:0:0:
256,192,9268,1,8,0:0:0:0:
256,192,9364,1,0,0:0:0:0:
256,192,9461,1,8,0:0:0:0:
256,96,9655,1,4,0:0:0:0:
256,96,9848,1,4,0:0:0:0:
256,96,10235,1,4,0:0:0:0:
256,96,10429,1,4,0:0:0:0:
256,96,10816,1,4,0:0:0:0:
256,96,11010,1,4,0:0:0:0:
256,96,11397,1,12,0:0:0:0:
256,96,11590,1,12,0:0:0:0:
256,192,11977,1,0,0:0:0:0:
256,192,12074,1,8,0:0:0:0:
256,192,12171,1,0,0:0:0:0:
256,192,12268,1,0,0:0:0:0:
256,192,12364,1,8,0:0:0:0:
256,192,12461,1,0,0:0:0:0:
256,192,12558,1,8,0:0:0:0:
256,96,12752,1,4,0:0:0:0:
256,192,13042,1,0,0:0:0:0:
256,192,13139,1,8,0:0:0:0:
256,192,13332,1,0,0:0:0:0:
256,192,13526,1,8,0:0:0:0:
256,192,13816,1,0,0:0:0:0:
256,192,14106,1,8,0:0:0:0:
256,192,14203,1,8,0:0:0:0:
256,192,14300,1,0,0:0:0:0:
256,192,14494,1,8,0:0:0:0:
256,192,14590,1,0,0:0:0:0:
256,192,14687,1,8,0:0:0:0:
256,192,14784,1,8,0:0:0:0:
256,192,14881,1,0,0:0:0:0:
256,192,15074,1,8,0:0:0:0:
256,192,15364,1,0,0:0:0:0:
256,192,15655,1,8,0:0:0:0:
256,192,15848,1,0,0:0:0:0:
256,192,16139,1,0,0:0:0:0:
256,192,16235,1,8,0:0:0:0:
256,192,16429,1,0,0:0:0:0:
256,192,16623,1,8,0:0:0:0:
256,192,16913,1,0,0:0:0:0:
256,192,17203,1,8,0:0:0:0:
256,192,17300,1,8,0:0:0:0:
256,192,17397,1,0,0:0:0:0:
256,192,17590,1,8,0:0:0:0:
256,192,17687,1,8,0:0:0:0:
256,192,17784,1,0,0:0:0:0:
256,192,17881,1,8,0:0:0:0:
256,192,17977,1,0,0:0:0:0:
256,192,18171,1,8,0:0:0:0:
256,192,18558,1,8,0:0:0:0:
256,192,18752,1,0,0:0:0:0:
256,192,18848,1,0,0:0:0:0:
256,192,18945,1,8,0:0:0:0:
256,192,19235,1,0,0:0:0:0:
256,192,19332,1,8,0:0:0:0:
256,192,19526,1,0,0:0:0:0:
256,192,19719,1,8,0:0:0:0:
256,192,20010,1,0,0:0:0:0:
256,192,20300,1,8,0:0:0:0:
256,192,20494,1,0,0:0:0:0:
256,192,20687,1,8,0:0:0:0:
256,192,20784,1,0,0:0:0:0:
256,192,20881,1,8,0:0:0:0:
256,192,21074,1,0,0:0:0:0:
256,192,21268,1,8,0:0:0:0:
256,192,21461,1,0,0:0:0:0:
256,192,21558,1,8,0:0:0:0:
256,192,21655,1,0,0:0:0:0:
256,192,21848,1,8,0:0:0:0:
256,192,22042,1,0,0:0:0:0:
256,192,22332,1,8,0:0:0:0:
256,192,22623,1,0,0:0:0:0:
256,192,22816,1,8,0:0:0:0:
256,192,23106,1,0,0:0:0:0:
256,192,23397,1,8,0:0:0:0:
256,96,23590,1,4,0:0:0:0:
256,192,23977,1,8,0:0:0:0:
256,192,24171,1,0,0:0:0:0:
256,192,24268,1,0,0:0:0:0:
256,192,24364,1,8,0:0:0:0:
256,192,24558,1,0,0:0:0:0:
256,192,24752,1,8,0:0:0:0:
256,192,24848,1,8,0:0:0:0:
256,192,24945,1,0,0:0:0:0:
256,192,25042,1,0,0:0:0:0:
256,192,25139,1,8,0:0:0:0:
256,192,25332,1,0,0:0:0:0:
256,192,25429,1,8,0:0:0:0:
256,192,25719,1,0,0:0:0:0:
256,192,25913,1,8,0:0:0:0:
256,192,26106,1,0,0:0:0:0:
256,192,26203,1,8,0:0:0:0:
256,192,26494,1,0,0:0:0:0:
256,192,26687,1,8,0:0:0:0:
256,192,26881,1,0,0:0:0:0:
256,192,26977,1,8,0:0:0:0:
256,192,27171,1,0,0:0:0:0:
256,192,27268,1,8,0:0:0:0:
256,192,27461,1,0,0:0:0:0:
256,192,27655,1,8,0:0:0:0:
256,192,27752,1,8,0:0:0:0:
256,192,27848,1,0,0:0:0:0:
256,192,28042,1,0,0:0:0:0:
256,192,28235,1,8,0:0:0:0:
256,192,28429,1,0,0:0:0:0:
256,192,28526,1,8,0:0:0:0:
256,192,28816,1,0,0:0:0:0:
256,192,29010,1,8,0:0:0:0:
256,192,29203,1,0,0:0:0:0:
256,192,29300,1,8,0:0:0:0:
256,192,29590,1,8,0:0:0:0:
256,192,29784,1,0,0:0:0:0:
256,192,29881,1,8,0:0:0:0:
256,192,29977,1,0,0:0:0:0:
256,192,30074,1,8,0:0:0:0:
256,192,30268,1,0,0:0:0:0:
256,192,30364,1,0,0:0:0:0:
256,192,30558,1,12,0:0:0:0:
256,192,31332,5,0,0:0:0:0:
256,192,31719,1,0,0:0:0:0:
256,192,32106,1,8,0:0:0:0:
256,192,32300,1,0,0:0:0:0:
256,192,32494,1,8,0:0:0:0:
256,96,32881,1,4,0:0:0:0:
256,192,33461,1,0,0:0:0:0:
256,192,33655,1,8,0:0:0:0:
256,192,33848,1,0,0:0:0:0:
256,192,34042,1,8,0:0:0:0:
256,192,34235,1,8,0:0:0:0:
256,192,34429,1,0,0:0:0:0:
256,192,34816,1,8,0:0:0:0:
256,192,35010,1,0,0:0:0:0:
256,192,35203,1,8,0:0:0:0:
256,192,35590,1,0,0:0:0:0:
256,192,35977,1,8,0:0:0:0:
256,192,36364,1,0,0:0:0:0:
256,192,36558,1,0,0:0:0:0:
256,192,36751,1,8,0:0:0:0:
256,192,37139,1,0,0:0:0:0:
256,192,37526,1,8,0:0:0:0:
256,192,37913,1,0,0:0:0:0:
256,192,38106,1,8,0:0:0:0:
256,192,38300,1,0,0:0:0:0:
256,192,38687,1,0,0:0:0:0:
256,192,39074,1,8,0:0:0:0:
256,192,39655,1,0,0:0:0:0:
256,192,39848,1,8,0:0:0:0:
256,192,40042,1,0,0:0:0:0:
256,192,40235,1,8,0:0:0:0:
256,192,40429,1,8,0:0:0:0:
256,192,40622,1,0,0:0:0:0:
256,192,41010,1,8,0:0:0:0:
256,192,41203,1,0,0:0:0:0:
256,192,41397,1,8,0:0:0:0:
256,192,41784,1,0,0:0:0:0:
256,192,42171,1,8,0:0:0:0:
256,192,42558,1,0,0:0:0:0:
256,192,42751,1,0,0:0:0:0:
256,192,42945,1,8,0:0:0:0:
256,192,43139,1,0,0:0:0:0:
256,192,43332,1,8,0:0:0:0:
256,192,43429,1,0,0:0:0:0:
256,192,43526,1,0,0:0:0:0:
256,96,43719,1,12,0:0:0:0:
256,96,44010,1,0,0:0:0:0:
256,192,44300,1,0,0:0:0:0:
256,192,44397,1,0,0:0:0:0:
256,192,44493,1,8,0:0:0:0:
256,192,44687,1,8,0:0:0:0:
256,192,44880,1,0,0:0:0:0:
256,96,45268,1,12,0:0:0:0:
256,192,45655,1,8,0:0:0:0:
256,192,45848,1,0,0:0:0:0:
256,192,46042,1,8,0:0:0:0:
256,192,46235,1,8,0:0:0:0:
256,192,46429,1,0,0:0:0:0:
256,192,46622,1,8,0:0:0:0:
256,192,46816,1,0,0:0:0:0:
256,192,46913,1,8,0:0:0:0:
256,192,47010,1,0,0:0:0:0:
256,192,47203,1,8,0:0:0:0:
256,192,47397,1,0,0:0:0:0:
256,192,47590,1,8,0:0:0:0:
256,192,47977,1,8,0:0:0:0:
256,192,48171,1,8,0:0:0:0:
256,192,48364,1,0,0:0:0:0:
256,192,48461,1,0,0:0:0:0:
256,192,48558,1,8,0:0:0:0:
256,192,48751,1,0,0:0:0:0:
256,192,48945,1,0,0:0:0:0:
256,192,49139,1,8,0:0:0:0:
256,192,49526,1,8,0:0:0:0:
256,192,49719,1,0,0:0:0:0:
256,192,49913,1,8,0:0:0:0:
256,192,50010,1,8,0:0:0:0:
256,192,50106,1,0,0:0:0:0:
256,192,50300,1,8,0:0:0:0:
256,192,50493,1,0,0:0:0:0:
256,192,50687,1,8,0:0:0:0:
256,192,50880,1,8,0:0:0:0:
256,192,51074,1,0,0:0:0:0:
256,192,51461,1,8,0:0:0:0:
256,192,51848,1,8,0:0:0:0:
256,192,52042,1,0,0:0:0:0:
256,192,52235,1,8,0:0:0:0:
256,192,52429,1,0,0:0:0:0:
256,192,52622,1,8,0:0:0:0:
256,192,52816,1,8,0:0:0:0:
256,192,53010,1,0,0:0:0:0:
256,192,53106,1,8,0:0:0:0:
256,192,53203,1,0,0:0:0:0:
256,192,53397,1,8,0:0:0:0:
256,192,53590,1,0,0:0:0:0:
256,192,53784,1,8,0:0:0:0:
256,192,54171,1,8,0:0:0:0:
256,192,54364,1,8,0:0:0:0:
256,192,54558,1,0,0:0:0:0:
256,192,54655,1,0,0:0:0:0:
256,192,54751,1,8,0:0:0:0:
256,192,54945,1,0,0:0:0:0:
256,192,55139,1,8,0:0:0:0:
256,192,55235,1,8,0:0:0:0:
256,192,55332,1,8,0:0:0:0:
256,192,55526,1,0,0:0:0:0:
256,192,55622,1,0,0:0:0:0:
256,192,55719,1,8,0:0:0:0:
256,192,55816,1,8,0:0:0:0:
256,192,55913,1,0,0:0:0:0:
256,192,56106,1,0,0:0:0:0:
256,192,56300,1,8,0:0:0:0:
256,192,56493,1,0,0:0:0:0:
256,192,56687,1,0,0:0:0:0:
256,192,56784,1,0,0:0:0:0:
256,192,56880,1,8,0:0:0:0:
256,192,56977,1,8,0:0:0:0:
256,192,57074,1,0,0:0:0:0:
256,192,57171,1,0,0:0:0:0:
256,192,57268,1,8,0:0:0:0:
256,192,57461,1,8,0:0:0:0:
256,96,57655,1,4,0:0:0:0:
256,192,57945,1,8,0:0:0:0:
256,192,58235,1,0,0:0:0:0:
256,192,58429,1,8,0:0:0:0:
256,192,58719,1,0,0:0:0:0:
256,192,59010,1,0,0:0:0:0:
256,192,59106,1,0,0:0:0:0:
256,192,59203,1,8,0:0:0:0:
256,192,59493,1,0,0:0:0:0:
256,192,59784,1,8,0:0:0:0:
256,192,59880,1,0,0:0:0:0:
256,192,59977,1,8,0:0:0:0:
256,192,60268,1,8,0:0:0:0:
256,192,60751,1,0,0:0:0:0:
256,192,61042,1,0,0:0:0:0:
256,192,61332,1,8,0:0:0:0:
256,192,61526,1,8,0:0:0:0:
256,192,61816,1,0,0:0:0:0:
256,192,62106,1,0,0:0:0:0:
256,192,62203,1,0,0:0:0:0:
256,192,62300,1,8,0:0:0:0:
256,192,62687,1,8,0:0:0:0:
256,192,62880,1,0,0:0:0:0:
256,192,63074,1,8,0:0:0:0:
256,192,63268,1,0,0:0:0:0:
256,192,63364,1,0,0:0:0:0:
256,192,63461,1,8,0:0:0:0:
256,192,63558,1,8,0:0:0:0:
256,192,63655,1,0,0:0:0:0:
256,192,63848,1,12,0:0:0:0:
256,192,64235,1,8,0:0:0:0:
256,192,64429,1,0,0:0:0:0:
256,192,64622,1,8,0:0:0:0:
256,192,64719,1,0,0:0:0:0:
256,192,64913,1,8,0:0:0:0:
256,192,65203,1,8,0:0:0:0:
256,192,65397,1,0,0:0:0:0:
256,192,65590,1,0,0:0:0:0:
256,192,65687,1,8,0:0:0:0:
256,192,65977,1,0,0:0:0:0:
256,192,66171,1,8,0:0:0:0:
256,192,66364,1,0,0:0:0:0:
256,192,66461,1,0,0:0:0:0:
256,192,66558,1,8,0:0:0:0:
256,192,66751,1,0,0:0:0:0:
256,192,66945,1,8,0:0:0:0:
256,192,67139,1,0,0:0:0:0:
256,192,67332,1,8,0:0:0:0:
256,192,67429,1,0,0:0:0:0:
256,192,67526,1,8,0:0:0:0:
256,192,67622,1,8,0:0:0:0:
256,192,67719,1,0,0:0:0:0:
256,192,67913,1,8,0:0:0:0:
256,192,68010,1,0,0:0:0:0:
256,192,68106,1,8,0:0:0:0:
256,192,68203,1,0,0:0:0:0:
256,192,68300,1,8,0:0:0:0:
256,96,68493,1,4,0:0:0:0:
256,96,68784,1,4,0:0:0:0:
256,96,69074,1,4,0:0:0:0:
256,96,69268,1,4,0:0:0:0:
256,192,69655,1,0,0:0:0:0:
256,96,70042,1,12,0:0:0:0:
256,192,70332,1,0,0:0:0:0:
256,192,70622,1,8,0:0:0:0:
256,192,70719,1,0,0:0:0:0:
256,192,70816,1,8,0:0:0:0:
256,192,71010,1,0,0:0:0:0:
256,192,71106,1,8,0:0:0:0:
256,192,71397,1,8,0:0:0:0:
256,192,71590,1,0,0:0:0:0:
256,192,71784,1,0,0:0:0:0:
256,192,71880,1,8,0:0:0:0:
256,192,72171,1,8,0:0:0:0:
256,192,72268,1,0,0:0:0:0:
256,192,72364,1,8,0:0:0:0:
256,192,72558,1,0,0:0:0:0:
256,192,72751,1,8,0:0:0:0:
256,192,72945,1,8,0:0:0:0:
256,192,73042,1,0,0:0:0:0:
256,192,73139,1,8,0:0:0:0:
256,192,73332,1,0,0:0:0:0:
256,192,73429,1,8,0:0:0:0:
256,192,73719,1,0,0:0:0:0:
256,192,73913,1,8,0:0:0:0:
256,192,74106,1,0,0:0:0:0:
256,192,74203,1,0,0:0:0:0:
256,192,74300,1,8,0:0:0:0:
256,192,74493,1,8,0:0:0:0:
256,192,74687,1,0,0:0:0:0:
256,192,74977,1,8,0:0:0:0:
256,192,75268,1,0,0:0:0:0:
256,192,75461,1,8,0:0:0:0:
256,192,75558,1,8,0:0:0:0:
256,192,75751,1,0,0:0:0:0:
256,192,75848,1,8,0:0:0:0:
256,192,76235,1,8,0:0:0:0:
256,192,76526,1,0,0:0:0:0:
256,192,76816,1,8,0:0:0:0:
256,192,76913,1,0,0:0:0:0:
256,192,77010,1,8,0:0:0:0:
256,192,77203,1,0,0:0:0:0:
256,192,77300,1,8,0:0:0:0:
256,192,77590,1,8,0:0:0:0:
256,192,77784,1,0,0:0:0:0:
256,192,77977,1,8,0:0:0:0:
256,192,78074,1,0,0:0:0:0:
256,192,78364,1,8,0:0:0:0:
256,192,78558,1,0,0:0:0:0:
256,192,78655,1,8,0:0:0:0:
256,192,78751,1,0,0:0:0:0:
256,192,78848,1,8,0:0:0:0:
256,192,79139,1,0,0:0:0:0:
256,192,79332,1,8,0:0:0:0:
256,192,79526,1,0,0:0:0:0:
256,192,79622,1,8,0:0:0:0:
256,192,79913,1,8,0:0:0:0:
256,192,80010,1,8,0:0:0:0:
256,192,80106,1,0,0:0:0:0:
256,192,80300,1,8,0:0:0:0:
256,192,80397,1,8,0:0:0:0:
256,192,80687,1,0,0:0:0:0:
256,192,80880,1,8,0:0:0:0:
256,192,81074,1,0,0:0:0:0:
256,192,81171,1,8,0:0:0:0:
256,192,81364,1,8,0:0:0:0:
256,192,81461,1,0,0:0:0:0:
256,192,81558,1,8,0:0:0:0:
256,192,81751,1,8,0:0:0:0:
256,192,81945,1,0,0:0:0:0:
256,192,82042,1,0,0:0:0:0:
256,96,82429,1,12,0:0:0:0:
256,192,82719,1,0,0:0:0:0:
256,192,83009,1,0,0:0:0:0:
256,192,83106,1,0,0:0:0:0:
256,192,83203,1,8,0:0:0:0:
256,192,83397,1,0,0:0:0:0:
256,192,83493,1,8,0:0:0:0:
256,192,83784,1,8,0:0:0:0:
256,192,83977,1,0,0:0:0:0:
256,192,84171,1,0,0:0:0:0:
256,192,84267,1,8,0:0:0:0:
256,192,84558,1,8,0:0:0:0:
256,192,84655,1,0,0:0:0:0:
256,192,84751,1,8,0:0:0:0:
256,192,84945,1,0,0:0:0:0:
256,192,85138,1,8,0:0:0:0:
256,192,85332,1,0,0:0:0:0:
256,192,85429,1,8,0:0:0:0:
256,192,85526,1,0,0:0:0:0:
256,192,85719,1,8,0:0:0:0:
256,192,85816,1,8,0:0:0:0:
256,192,86106,1,0,0:0:0:0:
256,192,86300,1,8,0:0:0:0:
256,192,86493,1,0,0:0:0:0:
256,192,86590,1,0,0:0:0:0:
256,192,86687,1,8,0:0:0:0:
256,192,86880,1,8,0:0:0:0:
256,192,87074,1,0,0:0:0:0:
256,192,87364,1,8,0:0:0:0:
256,192,87655,1,0,0:0:0:0:
256,192,87848,1,8,0:0:0:0:
256,192,87945,1,8,0:0:0:0:
256,192,88138,1,0,0:0:0:0:
256,192,88235,1,8,0:0:0:0:
256,192,88622,1,8,0:0:0:0:
256,192,88913,1,0,0:0:0:0:
256,192,89203,1,8,0:0:0:0:
256,192,89300,1,0,0:0:0:0:
256,192,89397,1,8,0:0:0:0:
256,192,89590,1,0,0:0:0:0:
256,192,89687,1,8,0:0:0:0:
256,192,89977,1,8,0:0:0:0:
256,192,90171,1,0,0:0:0:0:
256,192,90364,1,8,0:0:0:0:
256,192,90461,1,0,0:0:0:0:
256,192,90751,1,8,0:0:0:0:
256,192,90945,1,0,0:0:0:0:
256,192,91042,1,8,0:0:0:0:
256,192,91138,1,0,0:0:0:0:
256,192,91235,1,8,0:0:0:0:
256,192,91526,5,0,0:0:0:0:
256,192,91719,1,8,0:0:0:0:
256,192,91913,1,0,0:0:0:0:
256,192,92106,1,8,0:0:0:0:
256,192,92300,1,0,0:0:0:0:
256,192,92493,1,8,0:0:0:0:
256,192,92590,1,8,0:0:0:0:
256,192,92687,1,0,0:0:0:0:
256,192,92880,1,8,0:0:0:0:
256,192,93074,1,0,0:0:0:0:
256,192,93171,1,0,0:0:0:0:
256,192,93268,1,8,0:0:0:0:
256,192,93461,1,0,0:0:0:0:
256,192,93558,1,8,0:0:0:0:
256,192,93848,1,0,0:0:0:0:
256,192,94042,1,8,0:0:0:0:
256,192,94429,1,8,0:0:0:0:
256,96,94816,1,4,0:0:0:0:
256,192,95106,1,8,0:0:0:0:
256,192,95397,1,0,0:0:0:0:
256,192,95590,1,8,0:0:0:0:
256,192,95687,1,8,0:0:0:0:
256,192,95880,1,0,0:0:0:0:
256,192,96364,1,8,0:0:0:0:
256,192,96655,1,0,0:0:0:0:
256,192,96945,1,8,0:0:0:0:
256,192,97139,1,0,0:0:0:0:
256,192,97235,1,0,0:0:0:0:
256,192,97429,1,8,0:0:0:0:
256,192,97913,1,8,0:0:0:0:
256,192,98010,1,0,0:0:0:0:
256,192,98203,1,8,0:0:0:0:
256,192,98493,1,0,0:0:0:0:
256,192,98687,1,8,0:0:0:0:
256,192,98784,1,0,0:0:0:0:
256,192,98977,1,8,0:0:0:0:
256,192,99268,1,0,0:0:0:0:
256,192,99461,1,8,0:0:0:0:
256,192,99751,1,0,0:0:0:0:
256,192,99848,1,8,0:0:0:0:
256,192,100042,1,0,0:0:0:0:
256,192,100235,1,8,0:0:0:0:
256,192,100332,1,0,0:0:0:0:
256,192,100622,1,8,0:0:0:0:
256,192,101010,1,0,0:0:0:0:
256,192,101397,1,8,0:0:0:0:
256,192,101784,1,0,0:0:0:0:
256,192,101977,1,0,0:0:0:0:
256,192,102171,1,8,0:0:0:0:
256,192,102364,1,8,0:0:0:0:
256,192,102558,1,0,0:0:0:0:
256,192,102655,1,8,0:0:0:0:
256,192,102751,1,0,0:0:0:0:
256,192,102945,1,8,0:0:0:0:
256,96,103332,1,12,0:0:0:0:
256,192,103719,1,0,0:0:0:0:
256,192,103816,1,0,0:0:0:0:
256,192,103913,1,8,0:0:0:0:
256,96,104106,1,4,0:0:0:0:
256,96,104300,1,4,0:0:0:0:
256,96,104687,1,4,0:0:0:0:
256,96,104880,1,4,0:0:0:0:
256,96,105268,1,4,0:0:0:0:
256,96,105461,1,4,0:0:0:0:
256,96,105848,1,12,0:0:0:0:
256,96,106042,1,12,0:0:0:0:
256,192,106429,1,0,0:0:0:0:
256,192,106526,1,8,0:0:0:0:
256,192,106622,1,0,0:0:0:0:
256,192,106719,1,0,0:0:0:0:
256,192,106816,1,8,0:0:0:0:
256,192,106913,1,0,0:0:0:0:
256,192,107010,1,8,0:0:0:0:
256,96,107203,1,4,0:0:0:0:
256,192,107493,1,0,0:0:0:0:
256,192,107590,1,8,0:0:0:0:
256,192,107783,1,0,0:0:0:0:
256,192,107977,1,8,0:0:0:0:
256,192,108267,1,0,0:0:0:0:
256,192,108557,1,8,0:0:0:0:
256,192,108654,1,0,0:0:0:0:
256,192,108751,1,0,0:0:0:0:
256,192,108945,1,8,0:0:0:0:
256,192,109041,1,0,0:0:0:0:
256,192,109138,1,8,0:0:0:0:
256,192,109235,1,8,0:0:0:0:
256,192,109332,1,0,0:0:0:0:
256,192,109525,1,8,0:0:0:0:
256,192,109815,1,0,0:0:0:0:
256,192,110106,1,8,0:0:0:0:
256,192,110299,1,0,0:0:0:0:
256,192,110590,1,0,0:0:0:0:
256,192,110686,1,8,0:0:0:0:
256,192,110880,1,0,0:0:0:0:
256,192,111074,1,8,0:0:0:0:
256,192,111364,1,0,0:0:0:0:
256,192,111654,1,8,0:0:0:0:
256,192,111751,1,8,0:0:0:0:
256,192,111848,1,0,0:0:0:0:
256,192,112041,1,8,0:0:0:0:
256,192,112138,1,8,0:0:0:0:
256,192,112235,1,0,0:0:0:0:
256,192,112332,1,8,0:0:0:0:
256,192,112428,1,0,0:0:0:0:
256,192,112622,1,8,0:0:0:0:
256,192,113009,1,8,0:0:0:0:
256,192,113203,1,0,0:0:0:0:
256,192,113299,1,0,0:0:0:0:
256,192,113396,1,8,0:0:0:0:
256,192,113686,1,0,0:0:0:0:
256,192,113783,1,8,0:0:0:0:
256,192,113977,1,0,0:0:0:0:
256,192,114170,1,8,0:0:0:0:
256,192,114461,1,0,0:0:0:0:
256,192,114751,1,8,0:0:0:0:
256,192,114945,1,0,0:0:0:0:
256,192,115138,1,8,0:0:0:0:
256,192,115235,1,0,0:0:0:0:
256,192,115332,1,8,0:0:0:0:
256,192,115525,1,0,0:0:0:0:
256,192,115719,1,8,0:0:0:0:
256,192,115912,1,0,0:0:0:0:
256,192,116009,1,8,0:0:0:0:
256,192,116106,1,0,0:0:0:0:
256,192,116299,1,8,0:0:0:0:
256,192,116493,1,0,0:0:0:0:
256,192,116783,1,8,0:0:0:0:
256,192,117074,1,0,0:0:0:0:
256,192,117267,1,8,0:0:0:0:
256,192,117557,1,0,0:0:0:0:
256,192,117848,1,8,0:0:0:0:
256,96,118041,1,4,0:0:0:0:
256,192,118428,1,8,0:0:0:0:
256,192,118622,1,0,0:0:0:0:
256,192,118719,1,0,0:0:0:0:
256,192,118815,1,8,0:0:0:0:
256,192,119009,1,0,0:0:0:0:
256,192,119203,1,8,0:0:0:0:
256,192,119299,1,8,0:0:0:0:
256,192,119396,1,0,0:0:0:0:
256,192,119493,1,0,0:0:0:0:
256,192,119590,1,8,0:0:0:0:
256,192,119783,1,0,0:0:0:0:
256,192,119880,1,8,0:0:0:0:
256,192,120170,1,0,0:0:0:0:
256,192,120364,1,8,0:0:0:0:
256,192,120557,1,0,0:0:0:0:
256,192,120654,1,8,0:0:0:0:
256,192,120945,1,0,0:0:0:0:
256,192,121138,1,8,0:0:0:0:
256,192,121332,1,0,0:0:0:0:
256,192,121428,1,8,0:0:0:0:
256,192,121622,1,0,0:0:0:0:
256,192,121719,1,8,0:0:0:0:
256,192,121912,1,0,0:0:0:0:
256,192,122106,1,8,0:0:0:0:
256,192,122203,1,8,0:0:0:0:
256,192,122299,1,0,0:0:0:0:
256,192,122397,1,8,0:0:0:0:
256,192,122493,1,0,0:0:0:0:
256,192,122686,1,8,0:0:0:0:
256,192,122880,1,0,0:0:0:0:
256,192,122977,1,8,0:0:0:0:
256,192,123267,1,0,0:0:0:0:
256,192,123461,1,8,0:0:0:0:
256,192,123654,1,0,0:0:0:0:
256,192,123751,1,8,0:0:0:0:
256,192,124041,1,8,0:0:0:0:
256,192,124235,1,0,0:0:0:0:
256,192,124332,1,8,0:0:0:0:
256,192,124428,1,0,0:0:0:0:
256,192,124525,1,8,0:0:0:0:
256,192,124719,1,0,0:0:0:0:
256,192,124816,1,0,0:0:0:0:
256,192,125009,1,12,0:0:0:0:
256,192,125783,5,0,0:0:0:0:
256,192,126170,1,0,0:0:0:0:
256,192,126557,1,8,0:0:0:0:
256,192,126751,1,0,0:0:0:0:
256,192,126945,1,8,0:0:0:0:
256,96,127332,1,4,0:0:0:0:
256,192,127719,1,8,0:0:0:0:
256,192,127912,1,0,0:0:0:0:
256,192,128106,1,8,0:0:0:0:
256,192,128299,1,0,0:0:0:0:
256,192,128493,1,8,0:0:0:0:
256,192,128686,1,8,0:0:0:0:
256,192,128880,1,0,0:0:0:0:
256,192,129267,1,8,0:0:0:0:
256,192,129461,1,0,0:0:0:0:
256,192,129654,1,8,0:0:0:0:
256,192,130041,1,0,0:0:0:0:
256,192,130428,1,8,0:0:0:0:
256,192,130815,1,0,0:0:0:0:
256,192,131009,1,0,0:0:0:0:
256,192,131202,1,8,0:0:0:0:
256,192,131396,1,0,0:0:0:0:
256,192,131590,1,8,0:0:0:0:
256,192,131977,1,8,0:0:0:0:
256,192,132364,1,0,0:0:0:0:
256,192,132557,1,8,0:0:0:0:
256,192,132751,1,0,0:0:0:0:
256,192,132944,1,0,0:0:0:0:
256,192,133138,1,8,0:0:0:0:
256,192,133525,1,8,0:0:0:0:
256,192,133912,1,8,0:0:0:0:
256,192,134106,1,0,0:0:0:0:
256,192,134299,1,8,0:0:0:0:
256,192,134493,1,0,0:0:0:0:
256,192,134686,1,8,0:0:0:0:
256,192,134880,1,8,0:0:0:0:
256,192,135073,1,0,0:0:0:0:
256,192,135461,1,8,0:0:0:0:
256,192,135654,1,0,0:0:0:0:
256,192,135848,1,8,0:0:0:0:
256,192,136235,1,0,0:0:0:0:
256,192,136622,1,8,0:0:0:0:
256,192,137009,1,0,0:0:0:0:
256,192,137202,1,0,0:0:0:0:
256,192,137396,1,8,0:0:0:0:
256,192,137590,1,0,0:0:0:0:
256,192,137783,1,8,0:0:0:0:
256,192,137880,1,0,0:0:0:0:
256,192,137977,1,0,0:0:0:0:
256,96,138170,1,12,0:0:0:0:
256,96,138461,1,0,0:0:0:0:
256,192,138751,1,0,0:0:0:0:
256,192,138848,1,0,0:0:0:0:
256,192,138944,1,8,0:0:0:0:
256,192,139138,1,8,0:0:0:0:
256,192,139331,1,0,0:0:0:0:
256,96,139719,1,12,0:0:0:0:
256,192,140106,1,8,0:0:0:0:
256,192,140299,1,0,0:0:0:0:
256,192,140493,1,8,0:0:0:0:
256,192,140686,1,8,0:0:0:0:
256,192,140880,1,0,0:0:0:0:
256,192,141073,1,8,0:0:0:0:
256,192,141267,1,0,0:0:0:0:
256,192,141364,1,8,0:0:0:0:
256,192,141461,1,0,0:0:0:0:
256,192,141654,1,8,0:0:0:0:
256,192,141848,1,0,0:0:0:0:
256,192,142041,1,8,0:0:0:0:
256,192,142428,1,0,0:0:0:0:
256,192,142622,1,8,0:0:0:0:
256,192,142815,1,0,0:0:0:0:
256,192,142912,1,0,0:0:0:0:
256,192,143009,1,8,0:0:0:0:
256,192,143202,1,0,0:0:0:0:
256,192,143396,1,0,0:0:0:0:
256,192,143590,1,8,0:0:0:0:
256,192,143977,1,8,0:0:0:0:
256,192,144170,1,0,0:0:0:0:
256,192,144364,1,8,0:0:0:0:
256,192,144461,1,8,0:0:0:0:
256,192,144557,1,0,0:0:0:0:
256,192,144751,1,8,0:0:0:0:
256,192,144944,1,0,0:0:0:0:
256,192,145138,1,8,0:0:0:0:
256,192,145331,1,8,0:0:0:0:
256,192,145525,1,0,0:0:0:0:
256,192,145622,1,0,0:0:0:0:
256,192,145719,1,0,0:0:0:0:
256,192,145912,1,8,0:0:0:0:
256,192,146299,1,8,0:0:0:0:
256,192,146493,1,0,0:0:0:0:
256,192,146686,1,8,0:0:0:0:
256,192,146880,1,0,0:0:0:0:
256,192,147073,1,8,0:0:0:0:
256,192,147267,1,8,0:0:0:0:
256,192,147461,1,0,0:0:0:0:
256,192,147557,1,8,0:0:0:0:
256,192,147654,1,0,0:0:0:0:
256,192,147848,1,8,0:0:0:0:
256,192,148041,1,0,0:0:0:0:
256,192,148235,1,8,0:0:0:0:
256,192,148622,1,0,0:0:0:0:
256,192,148815,1,8,0:0:0:0:
256,192,149009,1,0,0:0:0:0:
256,192,149106,1,0,0:0:0:0:
256,192,149202,1,8,0:0:0:0:
256,192,149396,1,0,0:0:0:0:
256,192,149590,1,8,0:0:0:0:
256,192,149686,1,8,0:0:0:0:
256,192,149783,1,8,0:0:0:0:
256,192,149977,1,0,0:0:0:0:
256,192,150073,1,0,0:0:0:0:
256,192,150170,1,8,0:0:0:0:
256,192,150267,1,8,0:0:0:0:
256,192,150364,1,0,0:0:0:0:
256,192,150557,1,0,0:0:0:0:
256,192,150751,1,8,0:0:0:0:
256,192,150944,1,0,0:0:0:0:
256,192,151138,1,0,0:0:0:0:
256,192,151235,1,0,0:0:0:0:
256,192,151331,1,8,0:0:0:0:
256,192,151428,1,8,0:0:0:0:
256,192,151525,1,0,0:0:0:0:
256,192,151622,1,0,0:0:0:0:
256,192,151719,1,8,0:0:0:0:
256,192,151912,1,8,0:0:0:0:
256,96,152106,1,4,0:0:0:0:
256,192,152396,1,8,0:0:0:0:
256,192,152686,1,0,0:0:0:0:
256,192,152880,1,8,0:0:0:0:
256,192,153170,1,0,0:0:0:0:
256,192,153461,1,0,0:0:0:0:
256,192,153557,1,0,0:0:0:0:
256,192,153654,1,8,0:0:0:0:
256,192,153944,1,0,0:0:0:0:
256,192,154235,1,8,0:0:0:0:
256,192,154331,1,0,0:0:0:0:
256,192,154428,1,8,0:0:0:0:
256,192,154719,1,8,0:0:0:0:
256,192,155202,1,0,0:0:0:0:
256,192,155493,1,0,0:0:0:0:
256,192,155783,1,8,0:0:0:0:
256,192,155977,1,8,0:0:0:0:
256,192,156267,1,0,0:0:0:0:
256,192,156557,1,0,0:0:0:0:
256,192,156654,1,0,0:0:0:0:
256,192,156751,1,8,0:0:0:0:
256,192,157138,1,8,0:0:0:0:
256,192,157331,1,0,0:0:0:0:
256,192,157525,1,8,0:0:0:0:
256,192,157719,1,0,0:0:0:0:
256,192,157815,1,0,0:0:0:0:
256,192,157912,1,8,0:0:0:0:
256,192,158009,1,8,0:0:0:0:
256,192,158106,1,0,0:0:0:0:
256,192,158299,1,12,0:0:0:0:
256,192,158686,1,8,0:0:0:0:
256,192,158880,1,0,0:0:0:0:
256,192,159073,1,8,0:0:0:0:
256,192,159170,1,0,0:0:0:0:
256,192,159364,1,8,0:0:0:0:
256,192,159654,1,8,0:0:0:0:
256,192,159848,1,0,0:0:0:0:
256,192,160041,1,0,0:0:0:0:
256,192,160138,1,8,0:0:0:0:
256,192,160428,1,0,0:0:0:0:
256,192,160622,1,8,0:0:0:0:
256,192,160815,1,0,0:0:0:0:
256,192,160912,1,0,0:0:0:0:
256,192,161009,1,8,0:0:0:0:
256,192,161202,1,0,0:0:0:0:
256,192,161396,1,8,0:0:0:0:
256,192,161590,1,0,0:0:0:0:
256,192,161783,1,8,0:0:0:0:
256,192,161880,1,0,0:0:0:0:
256,192,161977,1,8,0:0:0:0:
256,192,162073,1,8,0:0:0:0:
256,192,162170,1,0,0:0:0:0:
256,192,162364,1,8,0:0:0:0:
256,192,162461,1,0,0:0:0:0:
256,192,162557,1,8,0:0:0:0:
256,192,162654,1,0,0:0:0:0:
256,192,162751,1,8,0:0:0:0:
256,96,162944,1,4,0:0:0:0:
256,96,163235,1,4,0:0:0:0:
256,96,163525,1,4,0:0:0:0:
256,96,163719,1,4,0:0:0:0:
256,192,164106,1,0,0:0:0:0:
256,96,164493,1,12,0:0:0:0:
256,192,164783,1,0,0:0:0:0:
256,192,165073,1,8,0:0:0:0:
256,192,165170,1,0,0:0:0:0:
256,192,165267,1,8,0:0:0:0:
256,192,165461,1,0,0:0:0:0:
256,192,165557,1,8,0:0:0:0:
256,192,165848,1,8,0:0:0:0:
256,192,166041,1,0,0:0:0:0:
256,192,166235,1,0,0:0:0:0:
256,192,166331,1,8,0:0:0:0:
256,192,166622,1,8,0:0:0:0:
256,192,166719,1,0,0:0:0:0:
256,192,166815,1,8,0:0:0:0:
256,192,167009,1,0,0:0:0:0:
256,192,167202,1,8,0:0:0:0:
256,192,167396,1,0,0:0:0:0:
256,192,167493,1,8,0:0:0:0:
256,192,167590,1,8,0:0:0:0:
256,192,167783,1,0,0:0:0:0:
256,192,167880,1,8,0:0:0:0:
256,192,168170,1,0,0:0:0:0:
256,192,168364,1,8,0:0:0:0:
256,192,168557,1,0,0:0:0:0:
256,192,168654,1,0,0:0:0:0:
256,192,168751,1,8,0:0:0:0:
256,192,168944,1,8,0:0:0:0:
256,192,169138,1,0,0:0:0:0:
256,192,169428,1,8,0:0:0:0:
256,192,169719,1,0,0:0:0:0:
256,192,169912,1,8,0:0:0:0:
256,192,170009,1,8,0:0:0:0:
256,192,170202,1,0,0:0:0:0:
256,192,170299,1,8,0:0:0:0:
256,192,170686,1,8,0:0:0:0:
256,192,170977,1,0,0:0:0:0:
256,192,171267,1,8,0:0:0:0:
256,192,171364,1,0,0:0:0:0:
256,192,171461,1,8,0:0:0:0:
256,192,171654,1,0,0:0:0:0:
256,192,171751,1,8,0:0:0:0:
256,192,172041,1,8,0:0:0:0:
256,192,172235,1,0,0:0:0:0:
256,192,172428,1,8,0:0:0:0:
256,192,172525,1,0,0:0:0:0:
256,192,172815,1,0,0:0:0:0:
256,192,173009,1,8,0:0:0:0:
256,192,173106,1,0,0:0:0:0:
256,192,173202,1,0,0:0:0:0:
256,192,173299,1,8,0:0:0:0:
256,192,173590,1,0,0:0:0:0:
256,192,173783,1,8,0:0:0:0:
256,192,173977,1,0,0:0:0:0:
256,192,174073,1,8,0:0:0:0:
256,192,174364,1,8,0:0:0:0:
256,192,174461,1,8,0:0:0:0:
256,192,174557,1,0,0:0:0:0:
256,192,174751,1,8,0:0:0:0:
256,192,174848,1,8,0:0:0:0:
256,192,175138,1,0,0:0:0:0:
256,192,175331,1,8,0:0:0:0:
256,192,175525,1,0,0:0:0:0:
256,192,175622,1,8,0:0:0:0:
256,192,175815,1,8,0:0:0:0:
256,192,175912,1,0,0:0:0:0:
256,192,176009,1,8,0:0:0:0:
256,192,176202,1,8,0:0:0:0:
256,192,176396,1,0,0:0:0:0:
256,192,176493,1,0,0:0:0:0:
256,96,176880,1,12,0:0:0:0:
256,192,177170,1,0,0:0:0:0:
256,192,177460,1,0,0:0:0:0:
256,192,177557,1,0,0:0:0:0:
256,192,177654,1,8,0:0:0:0:
256,192,177848,1,0,0:0:0:0:
256,192,177944,1,8,0:0:0:0:
256,192,178235,1,8,0:0:0:0:
256,192,178428,1,0,0:0:0:0:
256,192,178622,1,0,0:0:0:0:
256,192,178718,1,8,0:0:0:0:
256,192,179009,1,8,0:0:0:0:
256,192,179106,1,0,0:0:0:0:
256,192,179202,1,8,0:0:0:0:
256,192,179396,1,0,0:0:0:0:
256,192,179589,1,8,0:0:0:0:
256,192,179783,1,0,0:0:0:0:
256,192,179880,1,8,0:0:0:0:
256,192,179977,1,0,0:0:0:0:
256,192,180170,1,8,0:0:0:0:
256,192,180267,1,8,0:0:0:0:
256,192,180557,1,0,0:0:0:0:
256,192,180751,1,8,0:0:0:0:
256,192,180944,1,0,0:0:0:0:
256,192,181041,1,0,0:0:0:0:
256,192,181138,1,8,0:0:0:0:
256,192,181331,1,8,0:0:0:0:
256,192,181525,1,0,0:0:0:0:
256,192,181815,1,8,0:0:0:0:
256,192,182106,1,0,0:0:0:0:
256,192,182299,1,8,0:0:0:0:
256,192,182396,1,8,0:0:0:0:
256,192,182589,1,0,0:0:0:0:
256,192,182686,1,8,0:0:0:0:
256,192,183073,1,8,0:0:0:0:
256,192,183364,1,0,0:0:0:0:
256,192,183654,1,8,0:0:0:0:
256,192,183751,1,0,0:0:0:0:
256,192,183848,1,8,0:0:0:0:
256,192,184041,1,0,0:0:0:0:
256,192,184138,1,8,0:0:0:0:
256,192,184428,1,8,0:0:0:0:
256,192,184622,1,0,0:0:0:0:
256,192,184815,1,8,0:0:0:0:
256,192,184912,1,0,0:0:0:0:
256,192,185202,1,8,0:0:0:0:
256,192,185396,1,0,0:0:0:0:
256,192,185493,1,8,0:0:0:0:
256,192,185589,1,0,0:0:0:0:
256,192,185686,1,8,0:0:0:0:
256,192,185977,5,0,0:0:0:0:
256,192,186170,1,8,0:0:0:0:
256,192,186364,1,0,0:0:0:0:
256,192,186557,1,8,0:0:0:0:
256,192,186751,1,0,0:0:0:0:
256,192,186944,1,8,0:0:0:0:
256,192,187041,1,8,0:0:0:0:
256,192,187138,1,0,0:0:0:0:
256,192,187331,1,8,0:0:0:0:
256,192,187525,1,0,0:0:0:0:
256,192,187622,1,0,0:0:0:0:
256,192,187719,1,8,0:0:0:0:
256,192,187912,1,0,0:0:0:0:
256,192,188009,1,8,0:0:0:0:
256,192,188299,1,0,0:0:0:0:
256,192,188493,1,8,0:0:0:0:
256,192,188880,1,8,0:0:0:0:
256,96,189267,1,4,0:0:0:0:
256,192,189557,1,8,0:0:0:0:
256,192,189848,1,0,0:0:0:0:
256,192,190041,1,8,0:0:0:0:
256,192,190138,1,8,0:0:0:0:
256,192,190331,1,0,0:0:0:0:
256,192,190815,1,8,0:0:0:0:
256,192,191106,1,0,0:0:0:0:
256,192,191396,1,8,0:0:0:0:
256,192,191590,1,0,0:0:0:0:
256,192,191686,1,0,0:0:0:0:
256,192,191880,1,8,0:0:0:0:
256,192,192364,1,8,0:0:0:0:
256,192,192461,1,0,0:0:0:0:
256,192,192654,1,8,0:0:0:0:
256,192,192944,1,0,0:0:0:0:
256,192,193138,1,8,0:0:0:0:
256,192,193235,1,0,0:0:0:0:
256,192,193428,1,8,0:0:0:0:
256,192,193719,1,0,0:0:0:0:
256,192,193912,1,8,0:0:0:0:
256,192,194202,1,0,0:0:0:0:
256,192,194299,1,8,0:0:0:0:
256,192,194493,1,0,0:0:0:0:
256,192,194686,1,8,0:0:0:0:
256,192,194783,1,0,0:0:0:0:
256,192,195073,1,8,0:0:0:0:
256,192,195461,1,0,0:0:0:0:
256,192,195848,1,8,0:0:0:0:
256,192,196235,1,0,0:0:0:0:
256,192,196428,1,0,0:0:0:0:
256,192,196622,1,8,0:0:0:0:
256,192,196815,1,8,0:0:0:0:
256,192,197009,1,0,0:0:0:0:
256,192,197106,1,8,0:0:0:0:
256,192,197202,1,0,0:0:0:0:
256,192,197396,1,8,0:0:0:0:
256,96,197783,1,12,0:0:0:0:
256,192,198170,1,0,0:0:0:0:
256,192,198267,1,0,0:0:0:0:
256,192,198364,1,8,0:0:0:0:
256,96,198557,1,4,0:0:0:0:
256,96,198751,1,4,0:0:0:0:
256,96,199138,1,4,0:0:0:0:
256,96,199331,1,4,0:0:0:0:
256,96,199719,1,4,0:0:0:0:
256,96,199912,1,4,0:0:0:0:
256,96,200299,1,12,0:0:0:0:
256,96,200493,1,12,0:0:0:0:
256,192,200880,1,0,0:0:0:0:
256,192,200977,1,8,0:0:0:0:
256,192,201073,1,0,0:0:0:0:
256,192,201170,1,0,0:0:0:0:
256,192,201267,1,8,0:0:0:0:
256,192,201364,1,0,0:0:0:0:
256,192,201461,1,8,0:0:0:0:
256,96,201654,1,4,0:0:0:0:
256,192,201944,1,0,0:0:0:0:
256,192,202041,1,8,0:0:0:0:
256,192,202234,1,0,0:0:0:0:
256,192,202428,1,8,0:0:0:0:
256,192,202718,1,0,0:0:0:0:
256,192,203008,1,8,0:0:0:0:
256,192,203105,1,8,0:0:0:0:
256,192,203202,1,0,0:0:0:0:
256,192,203396,1,0,0:0:0:0:
256,192,203493,1,8,0:0:0:0:
256,192,203590,1,0,0:0:0:0:
256,192,203686,1,0,0:0:0:0:
256,192,203783,1,8,0:0:0:0:
256,192,203976,1,8,0:0:0:0:
256,192,204266,1,0,0:0:0:0:
256,192,204557,1,8,0:0:0:0:
256,192,204750,1,0,0:0:0:0:
256,192,205041,1,0,0:0:0:0:
256,192,205137,1,8,0:0:0:0:
256,192,205331,1,0,0:0:0:0:
256,192,205525,1,8,0:0:0:0:
256,192,205815,1,0,0:0:0:0:
256,192,206105,1,8,0:0:0:0:
256,192,206202,1,8,0:0:0:0:
256,192,206299,1,0,0:0:0:0:
256,192,206492,1,8,0:0:0:0:
256,192,206589,1,8,0:0:0:0:
256,192,206686,1,0,0:0:0:0:
256,192,206783,1,8,0:0:0:0:
256,192,206879,1,0,0:0:0:0:
256,192,207073,1,8,0:0:0:0:
256,192,207460,1,8,0:0:0:0:
256,192,207654,1,0,0:0:0:0:
256,192,207750,1,0,0:0:0:0:
256,192,207847,1,8,0:0:0:0:
256,192,208137,1,0,0:0:0:0:
256,192,208234,1,8,0:0:0:0:
256,192,208428,1,0,0:0:0:0:
256,192,208621,1,8,0:0:0:0:
256,192,208912,1,0,0:0:0:0:
256,192,209202,1,8,0:0:0:0:
256,192,209396,1,0,0:0:0:0:
256,192,209589,1,8,0:0:0:0:
256,192,209686,1,0,0:0:0:0:
256,192,209783,1,8,0:0:0:0:
256,192,209976,1,0,0:0:0:0:
256,192,210170,1,8,0:0:0:0:
256,192,210363,1,0,0:0:0:0:
256,192,210460,1,8,0:0:0:0:
256,192,210557,1,0,0:0:0:0:
256,192,210750,1,8,0:0:0:0:
256,192,210944,1,0,0:0:0:0:
256,192,211234,1,8,0:0:0:0:
256,192,211525,1,0,0:0:0:0:
256,192,211718,1,8,0:0:0:0:
256,192,212008,1,0,0:0:0:0:
256,192,212299,1,8,0:0:0:0:
256,96,212492,1,4,0:0:0:0:
256,192,212879,1,8,0:0:0:0:
256,192,213073,1,0,0:0:0:0:
256,192,213170,1,0,0:0:0:0:
256,192,213266,1,8,0:0:0:0:
256,192,213460,1,0,0:0:0:0:
256,192,213654,1,8,0:0:0:0:
256,192,213750,1,8,0:0:0:0:
256,192,213847,1,0,0:0:0:0:
256,192,213944,1,0,0:0:0:0:
256,192,214041,1,8,0:0:0:0:
256,192,214234,1,0,0:0:0:0:
256,192,214331,1,8,0:0:0:0:
256,192,214621,1,0,0:0:0:0:
256,192,214815,1,8,0:0:0:0:
256,192,215008,1,0,0:0:0:0:
256,192,215105,1,8,0:0:0:0:
256,192,215396,1,0,0:0:0:0:
256,192,215589,1,8,0:0:0:0:
256,192,215783,1,0,0:0:0:0:
256,192,215879,1,8,0:0:0:0:
256,192,216073,1,0,0:0:0:0:
256,192,216170,1,8,0:0:0:0:
256,192,216363,1,0,0:0:0:0:
256,192,216557,1,8,0:0:0:0:
256,192,216654,1,8,0:0:0:0:
256,192,216750,1,0,0:0:0:0:
256,192,216848,1,8,0:0:0:0:
256,192,216944,1,0,0:0:0:0:
256,192,217137,1,8,0:0:0:0:
256,192,217331,1,0,0:0:0:0:
256,192,217428,1,8,0:0:0:0:
256,192,217718,1,0,0:0:0:0:
256,192,217912,1,8,0:0:0:0:
256,192,218105,1,0,0:0:0:0:
256,192,218202,1,8,0:0:0:0:
256,192,218492,1,8,0:0:0:0:
256,192,218686,1,0,0:0:0:0:
256,192,218783,1,8,0:0:0:0:
256,192,218879,1,0,0:0:0:0:
256,192,218976,1,8,0:0:0:0:
256,192,219170,1,0,0:0:0:0:
256,192,219266,1,0,0:0:0:0:
256,192,219460,1,12,0:0:0:0:
