osu file format v14

[General]
AudioFilename: audio.mp3
AudioLeadIn: 0
PreviewTime: 83664
Countdown: 0
SampleSet: Soft
StackLeniency: 0.3
Mode: 0
LetterboxInBreaks: 0
WidescreenStoryboard: 1

[Editor]
Bookmarks: 8655,17226,30084,34369,51516,68655,85798,120084
DistanceSpacing: 1.5
BeatDivisor: 4
GridSize: 32
TimelineZoom: 3.499999

[Metadata]
Title:Constant Moderato
TitleUnicode:Constant Moderato
Artist:Mitsukiyo
ArtistUnicode:ミツキヨ
Creator:araran
Version:xidorn's Hard
Source:ブルーアーカイブ -Blue Archive-
Tags:Yostar nat games Blue Archive ブルアカ blueaka mobile rpg instrumental video game electronic Pino -[Pino]- Sunazuka Akira xidorn lushifer Celine
BeatmapID:3379564
BeatmapSetID:1640689

[Difficulty]
HPDrainRate:4
CircleSize:3.6
OverallDifficulty:6
ApproachRate:7
SliderMultiplier:1.8
SliderTickRate:1

[Events]
//Background and Video events
0,0,"997d81e47ee3f8e6b9cd54aaec577d9f4b1a52e6_s2_n1.jpg",0,0
//Break Periods
2,30280,33465
2,70458,76322
//Storyboard Layer 0 (Background)
//Storyboard Layer 1 (Fail)
//Storyboard Layer 2 (Pass)
//Storyboard Layer 3 (Foreground)
//Storyboard Layer 4 (Overlay)
//Storyboard Sound Samples

[TimingPoints]
80,535.714285714286,4,2,1,50,1,0
80,-125,4,2,1,50,0,0
1687,-125,4,2,2,50,0,0
2222,-125,4,2,1,50,0,0
3830,-125,4,2,2,50,0,0
4365,-125,4,2,1,50,0,0
5972,-125,4,2,2,50,0,0
6508,-125,4,2,1,50,0,0
8115,-125,4,2,2,50,0,0
8651,-100,4,2,1,50,0,0
15080,-100,4,2,1,65,0,0
15749,-100,4,2,1,50,0,0
16553,-100,4,2,1,70,0,0
16687,-100,4,2,2,80,0,0
16955,-100,4,2,1,70,0,0
17222,-83.3333333333333,4,2,7,80,0,0
30080,-83.3333333333333,4,2,7,50,0,0
32222,-83.3333333333333,4,2,1,50,0,0
33830,-83.3333333333333,4,2,7,50,0,0
34008,-83.3333333333333,4,2,1,50,0,0
34365,-100,4,2,1,60,0,0
68651,-100,4,2,2,50,0,0
69452,-100,4,2,1,50,0,0
72401,-100,4,2,2,50,0,0
72937,-100,4,2,1,50,0,0
76687,-100,4,2,2,50,0,0
76955,-100,4,2,1,50,0,0
77222,-90.9090909090909,4,2,1,50,0,0
84187,-90.9090909090909,4,2,7,50,0,0
84455,-90.9090909090909,4,2,1,50,0,0
85258,-90.9090909090909,4,2,2,50,0,0
85392,-90.9090909090909,4,2,1,50,0,0
85794,-83.3333333333333,4,2,7,80,0,0
120080,-83.3333333333333,4,2,3,80,0,0

[Colours]
Combo1 : 255,155,55
Combo2 : 255,74,179
Combo3 : 255,191,226
Combo4 : 157,204,255

[HitObjects]
20,114,80,6,0,P|27:63|1:5,2,108
71,346,1419,2,0,P|29:358|-7:382,2,72,0|8|0,0:0|0:0|0:0,0:0:0:0:
164,272,2222,6,0,P|155:220|113:172,2,108
379,373,3562,1,0,0:0:0:0:
459,285,3830,2,0,L|508:294,2,36,8|0|0,0:0|0:0|0:0,0:0:0:0:
341,269,4365,6,0,P|284:283|229:313,2,108
506,33,5972,2,0,L|500:118,1,72,8|0,0:0|0:0,0:0:0:0:
418,172,6508,6,0,P|472:200|511:236,2,108
334,108,7580,2,0,P|309:125|308:173,1,72
321,281,8115,2,0,P|233:265|212:265,1,108,10|0,0:0|0:0,0:0:0:0:
145,293,8651,6,0,P|124:314|63:290,1,90,0|0,3:0|0:0,0:0:0:0:
18,247,9053,1,8,0:0:0:0:
18,247,9187,2,0,L|10:194,2,45,0|0|8,3:2|0:0|3:2,0:0:0:0:
133,154,9722,6,0,P|154:114|131:65,1,90,0|0,3:0|0:0,0:0:0:0:
186,15,10124,1,8,0:0:0:0:
186,15,10258,2,0,L|237:26,1,45,0|0,3:0|0:0,0:0:0:0:
281,78,10526,1,8,3:2:0:0:
418,20,10794,6,0,P|388:35|361:93,1,90,0|0,3:0|0:0,0:0:0:0:
322,148,11196,1,8,0:0:0:0:
322,148,11330,2,0,L|303:195,2,45,0|0|8,3:2|0:0|3:2,0:0:0:0:
468,109,11865,5,0,3:0:0:0:
468,109,11999,2,0,P|491:129|488:184,1,90,0|8,0:0|0:0,0:0:0:0:
433,235,12401,1,0,3:0:0:0:
503,365,12669,1,8,3:2:0:0:
354,365,12937,6,0,L|303:359,1,45,0|8,3:0|0:0,0:0:0:0:
240,329,13205,2,0,L|190:338,1,45,0|8,3:0|0:0,0:0:0:0:
126,363,13472,2,0,L|76:353,2,45,0|0|8,3:0|0:0|3:2,0:0:0:0:
47,236,14008,5,0,3:0:0:0:
47,236,14142,2,0,L|38:184,2,45,8|0|8,0:0|3:0|0:0,0:0:0:0:
107,279,14544,2,0,L|165:265,1,45,0|0,3:0|0:0,0:0:0:0:
213,228,14812,2,0,L|269:234,1,45,8|0,3:2|0:0,0:0:0:0:
309,287,15080,5,0,3:0:0:0:
309,287,16955,5,0,0:0:0:0:
447,369,17222,2,0,P|445:300|379:300,1,107.999996704102,6|2,3:2|0:1,0:0:0:0:
328,155,17758,2,0,P|367:135|402:194,1,107.999996704102,10|0,0:0|0:0,0:0:0:0:
480,142,18160,2,0,P|506:110|459:68,1,107.999996704102,2|0,3:2|0:0,0:0:0:0:
398,36,18562,1,2,3:2:0:0:
235,34,18830,1,8,0:0:0:0:
235,34,18963,1,2,0:0:0:0:
73,46,19231,6,0,P|149:63|168:94,1,107.999996704102,2|0,3:2|0:0,0:0:0:0:
211,150,19633,1,2,3:2:0:0:
55,197,19901,1,10,0:0:0:0:
106,350,20169,1,2,0:0:0:0:
106,350,20303,2,0,P|75:356|49:352,1,53.9999983520508,2|0,3:2|0:0,0:0:0:0:
178,304,20571,1,2,0:2:0:0:
178,304,20705,2,0,P|224:310|281:353,1,107.999996704102,2|8,3:2|0:0,0:0:0:0:
346,307,21106,2,0,P|305:256|295:210,1,107.999996704102,2|0,3:2|0:0,0:0:0:0:
341,148,21508,6,0,P|358:117|289:122,1,107.999996704102,2|2,3:2|0:1,0:0:0:0:
151,46,22044,2,0,P|106:60|62:18,1,107.999996704102,10|0,0:0|0:0,0:0:0:0:
4,79,22446,2,0,P|26:107|1:169,1,107.999996704102,2|0,3:2|0:0,0:0:0:0:
9,249,22847,1,2,3:2:0:0:
9,249,22981,1,2,0:0:0:0:
128,358,23249,1,2,0:0:0:0:
216,221,23517,6,0,P|206:179|216:104,1,107.999996704102,2|0,3:2|0:0,0:0:0:0:
243,39,23919,1,2,3:2:0:0:
401,6,24187,1,10,0:0:0:0:
495,137,24455,1,2,0:0:0:0:
495,137,24588,2,0,L|440:130,1,53.9999983520508,2|0,3:2|0:0,0:0:0:0:
374,83,24856,1,2,0:0:0:0:
374,83,24990,2,0,P|347:116|339:183,1,107.999996704102,2|8,3:2|0:0,0:0:0:0:
409,218,25392,2,0,P|423:247|429:324,1,107.999996704102,2|0,3:2|0:0,0:0:0:0:
482,383,25794,6,0,P|452:362|312:361,1,161.999995056153,6|0,3:2|0:0,0:0:0:0:
252,377,26330,2,0,P|178:353|179:316,1,107.999996704102,10|0,0:0|0:0,0:0:0:0:
234,279,26731,2,0,P|245:240|182:220,1,107.999996704102,2|0,3:2|0:0,0:0:0:0:
114,236,27133,1,2,3:2:0:0:
7,358,27401,1,8,0:0:0:0:
7,358,27535,1,2,0:0:0:0:
17,196,27803,6,0,P|25:160|89:154,1,107.999996704102,2|0,3:2|0:0,0:0:0:0:
166,134,28205,1,2,3:2:0:0:
287,27,28472,1,10,0:0:0:0:
405,137,28740,1,2,0:0:0:0:
405,137,28874,2,0,L|341:151,1,53.9999983520508,2|0,3:2|0:0,0:0:0:0:
273,170,29142,6,0,P|225:185|307:309,1,269.999991760254,2|0,0:0|0:0,0:0:0:0:
459,351,30080,5,2,3:1:0:0:
248,100,34365,6,0,P|248:52|272:3,2,90,2|2|10,3:2|0:0|0:0,0:0:0:0:
317,232,35169,1,0,0:0:0:0:
317,232,35303,2,0,P|267:207|227:205,1,90,2|2,3:2|0:0,0:0:0:0:
90,216,35838,1,0,0:0:0:0:
90,216,35972,1,10,0:0:0:0:
148,84,36240,1,0,0:0:0:0:
3,84,36508,6,0,P|0:18|14:0,2,90,2|2|10,3:2|0:0|0:0,0:0:0:0:
11,232,37312,1,0,0:0:0:0:
11,232,37446,2,0,P|54:267|62:320,1,90,2|2,3:2|0:0,0:0:0:0:
191,232,37981,1,0,0:0:0:0:
191,232,38115,2,0,L|181:179,2,45,10|0|0,0:0|0:0|0:0,0:0:0:0:
321,294,38651,6,0,P|315:337|315:385,2,90,2|2|10,3:2|0:0|0:0,0:0:0:0:
469,294,39455,1,0,0:0:0:0:
469,294,39588,2,0,P|469:338|462:383,1,90,2|2,3:2|0:0,0:0:0:0:
395,255,40124,1,0,0:0:0:0:
395,255,40258,1,10,0:0:0:0:
325,128,40526,1,0,0:0:0:0:
465,160,40794,6,0,P|492:168|498:225,2,90,2|2|10,3:2|0:0|0:0,0:0:0:0:
493,18,41597,1,0,0:0:0:0:
493,18,41731,2,0,P|454:31|440:49,1,45,2|0,3:2|0:0,0:0:0:0:
416,96,41999,2,0,P|363:90|314:72,1,90,2|0,0:0|0:0,0:0:0:0:
198,27,42535,1,0,0:0:0:0:
198,27,42669,2,0,P|202:53|202:79,1,45
263,111,42937,6,0,P|262:148|273:213,2,90,2|2|10,3:2|0:0|0:0,0:0:0:0:
114,117,43740,1,0,0:0:0:0:
114,117,43874,2,0,P|53:128|48:162,1,90,2|2,3:2|0:0,0:0:0:0:
36,291,44410,1,0,0:0:0:0:
36,291,44544,2,0,P|48:263|65:251,1,45,10|0,0:0|0:0,0:0:0:0:
104,198,44812,1,0,0:0:0:0:
75,56,45080,6,0,P|101:19|153:9,2,90,2|2|10,3:2|0:0|0:0,0:0:0:0:
219,87,45883,1,0,0:0:0:0:
219,87,46017,2,0,P|188:134|185:179,1,90,2|2,3:2|0:0,0:0:0:0:
301,259,46553,1,0,0:0:0:0:
301,259,46687,2,0,L|357:244,2,45,10|0|0,0:0|0:0|0:0,0:0:0:0:
161,295,47222,6,0,P|172:340|168:387,2,90,2|2|10,3:2|0:0|0:0,0:0:0:0:
248,185,48026,1,0,0:0:0:0:
248,185,48160,2,0,P|246:133|267:83,1,90,2|2,3:2|0:0,0:0:0:0:
380,19,48696,1,0,0:0:0:0:
380,19,48830,2,0,P|419:22|438:28,1,45,10|0,0:0|0:0,0:0:0:0:
475,74,49097,1,0,0:0:0:0:
332,79,49365,6,0,P|304:62|308:0,2,90,2|2|10,3:2|0:0|0:0,0:0:0:0:
473,76,50169,1,0,0:0:0:0:
473,76,50303,2,0,P|492:51|492:-18,1,90,2|2,3:2|0:0,0:0:0:0:
400,101,50838,1,0,0:0:0:0:
400,101,50972,2,0,L|405:154,1,45,10|0,0:0|0:0,0:0:0:0:
457,194,51240,1,0,0:0:0:0:
482,335,51508,6,0,L|387:359,1,90
252,383,52044,1,10,0:0:0:0:
179,264,52312,1,2,0:0:0:0:
179,264,52446,1,2,3:2:0:0:
94,379,52713,1,2,0:0:0:0:
20,254,52981,1,2,0:0:0:0:
20,254,53115,2,0,P|19:212|22:199,1,45,10|0,0:0|0:0,0:0:0:0:
65,153,53383,1,2,0:0:0:0:
207,134,53651,6,0,P|241:141|294:163,2,90,2|2|10,3:2|0:0|0:0,0:0:0:0:
123,22,54455,1,2,0:0:0:0:
123,22,54588,2,0,P|133:55|131:79,1,45,2|0,3:2|0:0,0:0:0:0:
123,137,54856,1,2,0:0:0:0:
252,74,55124,1,2,0:0:0:0:
252,74,55258,2,0,P|292:59|301:47,1,45,10|0,0:0|0:0,0:0:0:0:
348,12,55526,1,0,0:0:0:0:
447,116,55794,6,0,P|491:112|511:67,2,90,2|2|10,3:2|0:0|0:0,0:0:0:0:
402,255,56597,1,2,0:0:0:0:
402,255,56731,2,0,P|383:232|380:200,1,45,2|0,3:2|0:0,0:0:0:0:
373,145,56999,1,2,0:0:0:0:
488,231,57267,1,2,0:0:0:0:
488,231,57401,2,0,P|500:266|497:275,1,45,10|0,0:0|0:0,0:0:0:0:
482,342,57669,1,2,0:0:0:0:
338,334,57937,5,2,3:2:0:0:
330,190,58205,1,2,0:0:0:0:
186,186,58472,1,10,0:0:0:0:
177,329,58740,1,2,0:0:0:0:
177,329,58874,1,2,3:2:0:0:
38,367,59142,1,2,0:0:0:0:
7,226,59410,2,0,L|-6:192,2,22.5,2|0|10,0:0|0:0|0:0,0:0:0:0:
77,257,59678,1,0,0:0:0:0:
77,257,59812,2,0,L|126:237,1,45
118,167,60080,6,0,P|88:121|56:100,2,90,2|2|10,3:2|0:0|0:0,0:0:0:0:
164,33,60883,1,2,0:0:0:0:
164,33,61017,2,0,P|126:35|112:32,1,45,2|0,3:2|0:0,0:0:0:0:
48,17,61285,1,2,0:0:0:0:
12,159,61553,1,2,0:0:0:0:
12,159,61687,2,0,P|-1:189|1:216,1,45,10|0,0:0|0:0,0:0:0:0:
46,255,61955,1,2,0:0:0:0:
156,346,62222,6,0,P|122:360|61:360,2,90,2|2|10,3:2|0:0|0:0,0:0:0:0:
245,232,63026,1,2,0:0:0:0:
245,232,63160,2,0,P|280:224|291:226,1,45,2|0,3:2|0:0,0:0:0:0:
357,247,63428,1,2,0:0:0:0:
273,364,63696,1,0,0:0:0:0:
273,364,63830,2,0,P|254:329|234:319,1,45,10|0,0:0|0:0,0:0:0:0:
191,284,64097,1,0,0:0:0:0:
200,140,64365,6,0,P|154:125|103:126,2,90,2|2|10,3:2|0:0|0:0,0:0:0:0:
269,13,65169,1,2,0:0:0:0:
269,13,65303,2,0,P|302:3|320:7,1,45,2|0,3:2|0:0,0:0:0:0:
381,24,65571,1,2,0:0:0:0:
466,145,65838,1,2,0:0:0:0:
466,145,65972,2,0,P|433:153|404:149,1,45,10|0,0:0|0:0,0:0:0:0:
357,120,66240,1,2,0:0:0:0:
213,112,66508,5,2,3:2:0:0:
70,94,66776,1,2,0:0:0:0:
163,203,67044,1,10,0:0:0:0:
38,275,67312,1,2,0:0:0:0:
38,275,67446,1,2,3:2:0:0:
162,346,67713,1,2,0:0:0:0:
293,286,67981,2,0,L|282:248,2,22.5,2|0|10,0:0|0:0|0:0,0:0:0:0:
400,382,68383,2,0,P|426:367|446:367,1,45
512,384,68651,6,0,P|499:353|501:198,1,180,2|0,0:0|0:0,0:0:0:0:
510,65,69455,2,0,P|478:24|427:151,1,270,2|0,0:0|0:0,0:0:0:0:
497,13,77222,6,0,P|445:14|445:109,1,148.50000453186,0|8,3:0|0:0,0:0:0:0:
496,139,77758,2,0,P|435:146|401:182,1,99.0000030212403,0|8,3:0|0:0,0:0:0:0:
251,197,78294,1,0,3:0:0:0:
251,197,78428,2,0,L|256:131,1,49.5000015106202,8|0,0:0|0:0,0:0:0:0:
189,102,78696,1,8,0:0:0:0:
189,102,78830,2,0,L|168:218,1,99.0000030212403,0|8,3:0|0:0,0:0:0:0:
108,344,79365,6,0,P|74:371|-14:311,1,148.50000453186,0|8,3:0|0:0,0:0:0:0:
16,254,79901,2,0,P|19:218|-20:156,1,99.0000030212403,0|8,3:0|0:0,0:0:0:0:
33,10,80437,2,0,L|-18:2,2,49.5000015106202,0|8|0,3:0|0:0|0:0,0:0:0:0:
78,74,80838,1,8,0:0:0:0:
78,74,80972,2,0,L|192:61,1,99.0000030212403,0|8,3:0|0:0,0:0:0:0:
324,5,81508,5,0,3:0:0:0:
258,149,81776,1,0,3:0:0:0:
337,286,82044,1,0,3:0:0:0:
203,370,82312,1,0,3:0:0:0:
105,245,82580,6,0,P|154:246|163:252,1,49.5000015106202,0|0,3:0|0:0,0:0:0:0:
228,223,82847,2,0,P|253:226|278:220,1,49.5000015106202,0|0,3:0|0:0,0:0:0:0:
346,181,83115,2,0,P|337:149|343:125,2,49.5000015106202,0|0|0,3:0|3:0|3:0,0:0:0:0:
410,228,83517,1,0,3:0:0:0:
410,228,83651,6,0,L|426:291,1,49.5000015106202
470,339,83919,1,0,3:0:0:0:
470,339,85526,5,2,0:0:0:0:
360,219,85794,2,0,P|317:225|330:294,1,107.999996704102,6|2,3:2|0:1,0:0:0:0:
157,332,86330,2,0,P|146:368|83:362,1,107.999996704102,10|0,0:0|0:0,0:0:0:0:
7,342,86731,2,0,P|-24:301|14:255,1,107.999996704102,2|0,3:2|0:0,0:0:0:0:
72,215,87133,1,2,3:2:0:0:
9,65,87401,1,8,0:0:0:0:
9,65,87535,1,0,0:0:0:0:
147,148,87803,6,0,P|184:146|187:76,1,107.999996704102,2|0,3:2|0:0,0:0:0:0:
186,4,88205,1,2,3:2:0:0:
321,91,88472,1,10,0:0:0:0:
480,61,88740,1,2,0:0:0:0:
480,61,88874,2,0,P|470:34|447:19,1,53.9999983520508,2|0,3:2|0:0,0:0:0:0:
507,134,89142,1,0,0:0:0:0:
507,134,89276,2,0,P|451:148|388:185,1,107.999996704102,2|8,3:2|0:0,0:0:0:0:
333,207,89678,2,0,P|289:210|210:188,1,107.999996704102,2|0,3:2|0:0,0:0:0:0:
168,138,90080,6,0,P|154:87|107:112,1,107.999996704102,2|2,3:2|0:1,0:0:0:0:
24,235,90615,2,0,P|41:260|2:321,1,107.999996704102,10|0,0:0|0:0,0:0:0:0:
68,372,91017,2,0,P|119:337|170:361,1,107.999996704102,2|0,3:2|0:0,0:0:0:0:
236,375,91419,1,2,3:2:0:0:
236,375,91553,1,2,0:0:0:0:
181,222,91821,1,2,0:0:0:0:
321,301,92088,6,0,P|371:302|411:238,1,107.999996704102,2|0,3:2|0:0,0:0:0:0:
450,191,92490,1,2,3:2:0:0:
511,41,92758,1,10,0:0:0:0:
349,50,93026,1,2,0:0:0:0:
348,49,93160,2,0,P|355:76|354:103,1,53.9999983520508,2|0,3:2|0:0,0:0:0:0:
276,24,93428,1,2,0:0:0:0:
276,24,93562,2,0,P|213:18|132:42,1,107.999996704102,2|8,3:2|0:0,0:0:0:0:
176,106,93963,2,0,P|123:109|81:57,1,107.999996704102,2|0,3:2|0:0,0:0:0:0:
12,35,94365,6,0,P|36:87|1:174,1,107.999996704102,4|2,3:2|0:1,0:0:0:0:
7,297,94901,2,0,P|7:354|80:344,1,107.999996704102,10|0,0:0|0:0,0:0:0:0:
115,322,95303,2,0,P|103:295|174:242,1,107.999996704102,2|0,3:2|0:0,0:0:0:0:
224,219,95705,1,2,3:2:0:0:
211,379,95972,1,8,0:0:0:0:
211,379,96106,1,0,0:0:0:0:
351,297,96374,6,0,P|411:309|444:361,1,107.999996704102,2|0,3:2|0:0,0:0:0:0:
510,382,96776,1,2,3:2:0:0:
506,219,97044,1,10,0:0:0:0:
362,143,97312,1,2,0:0:0:0:
362,143,97446,2,0,P|364:170|357:196,1,53.9999983520508,2|0,3:2|0:0,0:0:0:0:
278,122,97713,1,2,0:0:0:0:
278,122,97847,2,0,P|290:76|281:15,1,107.999996704102,2|8,3:2|0:0,0:0:0:0:
200,28,98249,2,0,P|181:82|142:122,1,107.999996704102,2|0,3:2|0:0,0:0:0:0:
65,124,98651,6,0,P|68:77|12:21,1,107.999996704102,2|2,3:2|0:1,0:0:0:0:
12,191,99187,2,0,P|73:215|125:186,1,107.999996704102,10|0,0:0|0:0,0:0:0:0:
190,191,99588,2,0,P|258:180|301:208,1,107.999996704102,2|0,3:2|0:0,0:0:0:0:
366,167,99990,1,2,3:2:0:0:
366,167,100124,1,2,0:2:0:0:
438,312,100392,1,2,0:0:0:0:
283,361,100660,6,0,L|157:340,1,107.999996704102,2|0,3:2|0:0,0:0:0:0:
97,363,101062,1,2,3:2:0:0:
24,217,101330,1,10,0:0:0:0:
183,194,101597,1,2,0:0:0:0:
183,194,101731,2,0,L|298:174,1,107.999996704102,2|0,3:2|0:0,0:0:0:0:
341,112,102133,1,2,3:2:0:0:
341,112,102267,2,0,L|260:83,1,53.9999983520508,2|8,0:0|0:0,0:0:0:0:
252,21,102535,1,2,3:2:0:0:
252,21,102669,1,0,0:0:0:0:
414,17,102937,6,0,P|496:45|492:86,1,107.999996704102,6|2,3:2|0:1,0:0:0:0:
497,214,103472,2,0,P|496:175|426:171,1,107.999996704102,10|0,0:0|0:0,0:0:0:0:
408,236,103874,2,0,P|440:298|436:351,1,107.999996704102,2|0,3:2|0:0,0:0:0:0:
372,380,104276,1,2,3:2:0:0:
247,275,104544,1,8,0:0:0:0:
247,275,104678,1,0,0:0:0:0:
114,368,104946,6,0,P|40:367|47:307,1,107.999996704102,2|0,3:2|0:0,0:0:0:0:
46,267,105347,1,2,3:2:0:0:
39,105,105615,1,10,0:0:0:0:
194,152,105883,1,2,0:0:0:0:
194,152,106017,2,0,P|195:175|190:218,1,53.9999983520508,2|0,3:2|0:0,0:0:0:0:
208,285,106285,1,2,0:0:0:0:
208,285,106419,2,0,P|273:302|304:349,1,107.999996704102,2|8,3:2|0:0,0:0:0:0:
370,369,106821,2,0,P|422:352|393:303,1,107.999996704102,2|0,3:2|0:0,0:0:0:0:
367,242,107222,6,0,P|423:226|478:268,1,107.999996704102,2|2,3:2|0:1,0:0:0:0:
496,88,107758,2,0,P|482:30|436:52,1,107.999996704102,10|0,0:2|0:0,0:0:0:0:
415,111,108160,2,0,P|366:93|307:105,1,107.999996704102,2|0,3:2|0:0,0:0:0:0:
244,147,108562,1,2,3:2:0:0:
244,147,108696,1,2,0:0:0:0:
133,29,108963,1,2,0:0:0:0:
10,135,109231,6,0,L|31:261,1,107.999996704102,2|0,3:2|0:0,0:0:0:0:
7,320,109633,1,2,3:2:0:0:
162,366,109901,1,10,0:0:0:0:
275,250,110169,1,2,0:0:0:0:
275,250,110303,2,0,P|265:207|234:187,1,53.9999983520508,2|0,3:2|0:0,0:0:0:0:
181,177,110571,1,2,0:0:0:0:
181,177,110705,2,0,P|155:120|196:74,1,107.999996704102,2|8,3:2|0:0,0:0:0:0:
236,30,111106,2,0,L|355:42,1,107.999996704102,2|0,3:2|0:0,0:0:0:0:
424,28,111508,6,0,P|432:75|510:57,1,107.999996704102,6|2,3:2|0:1,0:0:0:0:
495,248,112044,2,0,P|480:301|496:355,1,107.999996704102,10|0,0:0|0:0,0:0:0:0:
412,361,112446,2,0,P|364:353|394:288,1,107.999996704102,2|0,3:2|0:0,0:0:0:0:
406,233,112847,1,2,3:2:0:0:
256,169,113115,1,8,0:0:0:0:
256,169,113249,1,2,0:0:0:0:
109,238,113517,6,0,P|60:276|20:215,1,107.999996704102,2|0,3:2|0:0,0:0:0:0:
21,175,113919,1,2,3:2:0:0:
125,51,114187,1,10,0:0:0:0:
280,95,114455,1,2,0:0:0:0:
280,95,114588,2,0,P|310:89|343:70,1,53.9999983520508,2|0,3:2|0:0,0:0:0:0:
220,151,114856,1,2,0:0:0:0:
220,151,114990,2,0,P|205:218|224:291,1,107.999996704102,2|8,3:2|0:0,0:0:0:0:
218,337,115392,2,0,P|154:333|117:370,1,107.999996704102,2|0,3:2|0:0,0:0:0:0:
41,362,115794,6,0,P|-25:344|12:298,1,107.999996704102,2|2,3:2|0:1,0:0:0:0:
4,160,116330,2,0,P|59:150|120:185,1,107.999996704102,10|0,0:0|0:0,0:0:0:0:
184,156,116731,2,0,P|210:197|168:220,1,107.999996704102,2|0,3:2|0:0,0:0:0:0:
95,252,117133,1,2,3:2:0:0:
95,252,117267,2,0,L|85:316,1,53.9999983520508,2|8,0:0|0:0,0:0:0:0:
117,381,117535,1,2,0:0:0:0:
256,297,117803,1,2,3:2:0:0:
256,297,118472,6,0,L|256:64,2,215.999993408203,2|2|2,3:2|3:2|3:2,0:0:0:0:
256,384,120080,5,4,0:0:0:0:
