osu file format v14

[General]
AudioFilename: audio.mp3
AudioLeadIn: 0
PreviewTime: 83664
Countdown: 0
SampleSet: Soft
StackLeniency: 0.3
Mode: 0
LetterboxInBreaks: 0
WidescreenStoryboard: 1

[Editor]
Bookmarks: 8651,17222,30080,34365,51508,68651,85794,118472,120080
DistanceSpacing: 1.5
BeatDivisor: 12
GridSize: 32
TimelineZoom: 5.899996

[Metadata]
Title:Constant Moderato
TitleUnicode:Constant Moderato
Artist:Mitsukiyo
ArtistUnicode:ミツキヨ
Creator:araran
Version:Sunazuka Akira's Extra
Source:ブルーアーカイブ -Blue Archive-
Tags:Yostar nat games Blue Archive ブルアカ blueaka mobile rpg instrumental video game electronic Pino -[Pino]- Sunazuka Akira xidorn lushifer Celine
BeatmapID:3369276
BeatmapSetID:1640689

[Difficulty]
HPDrainRate:5
CircleSize:4
OverallDifficulty:8.8
ApproachRate:9.2
SliderMultiplier:2.49999990463257
SliderTickRate:1

[Events]
//Background and Video events
0,0,"bg.jpg",0,0
//Break Periods
//Storyboard Layer 0 (Background)
//Storyboard Layer 1 (Fail)
//Storyboard Layer 2 (Pass)
//Storyboard Layer 3 (Foreground)
//Storyboard Layer 4 (Overlay)
//Storyboard Sound Samples

[TimingPoints]
80,535.714285714286,4,2,1,50,1,0
80,-125,4,2,1,50,0,0
1687,-76.9230769230769,4,2,2,50,0,0
2222,-125,4,2,1,50,0,0
3830,-76.9230769230769,4,2,2,50,0,0
4365,-125,4,2,1,50,0,0
5972,-76.9230769230769,4,2,2,50,0,0
6508,-125,4,2,1,50,0,0
8115,-50,4,2,2,50,0,0
8651,-66.6666666666667,4,2,1,50,0,0
15080,-333.333333333333,4,2,1,65,0,0
15749,-333.333333333333,4,2,1,50,0,0
16553,-33.3333333333333,4,2,1,70,0,0
16687,-33.3333333333333,4,2,2,80,0,0
16821,-45.4545454545455,4,2,2,80,0,0
16955,-45.4545454545455,4,2,1,70,0,0
17222,-40,4,2,7,80,0,0
17490,-66.6666666666667,4,2,7,80,0,0
17758,-40,4,2,7,80,0,0
18160,-33.3333333333333,4,2,7,80,0,0
18963,-55.5555555555556,4,2,7,80,0,0
19231,-33.3333333333333,4,2,7,80,0,0
19633,-55.5555555555556,4,2,7,80,0,0
19901,-40,4,2,7,80,0,0
20169,-83.3333333333333,4,2,7,80,0,0
20303,-40,4,2,7,80,0,0
20571,-83.3333333333333,4,2,7,80,0,0
20705,-40,4,2,7,80,0,0
20972,-83.3333333333333,4,2,7,80,0,0
21106,-33.3333333333333,4,2,7,80,0,0
21508,-40,4,2,7,80,0,0
21776,-66.6666666666667,4,2,7,80,0,0
22044,-40,4,2,7,80,0,0
22446,-33.3333333333333,4,2,7,80,0,0
22981,-40,4,2,7,80,0,0
23517,-33.3333333333333,4,2,7,80,0,0
24187,-40,4,2,7,80,0,0
24455,-83.3333333333333,4,2,7,80,0,0
24588,-40,4,2,7,80,0,0
24856,-83.3333333333333,4,2,7,80,0,0
24990,-40,4,2,7,80,0,0
25258,-83.3333333333333,4,2,7,80,0,0
25392,-33.3333333333333,4,2,7,80,0,0
25794,-40,4,2,7,80,0,0
26062,-66.6666666666667,4,2,7,80,0,0
26330,-40,4,2,7,80,0,0
26731,-33.3333333333333,4,2,7,80,0,0
27535,-55.5555555555556,4,2,7,80,0,0
27803,-33.3333333333333,4,2,7,80,0,0
28205,-55.5555555555556,4,2,7,80,0,0
28472,-40,4,2,7,80,0,0
28740,-83.3333333333333,4,2,7,80,0,0
28874,-40,4,2,7,80,0,0
29142,-33.3333333333333,4,2,7,80,0,0
30080,-666.666666666667,4,2,7,50,0,0
32222,-100,4,2,1,50,0,0
33763,-100,4,2,7,50,0,0
33963,-100,4,2,1,50,0,0
34365,-66.6666666666667,4,2,1,60,0,0
35035,-57.1428571428571,4,2,1,60,0,0
35705,-66.6666666666667,4,2,1,60,0,0
37446,-57.1428571428571,4,2,1,60,0,0
37847,-66.6666666666667,4,2,1,60,0,0
39321,-57.1428571428571,4,2,1,60,0,0
40258,-66.6666666666667,4,2,1,60,0,0
42401,-50,4,2,1,60,0,0
42937,-66.6666666666667,4,2,1,60,0,0
43606,-57.1428571428571,4,2,1,60,0,0
44544,-66.6666666666667,4,2,1,60,0,0
46017,-57.1428571428571,4,2,1,60,0,0
46687,-66.6666666666667,4,2,1,60,0,0
47892,-57.1428571428571,4,2,1,60,0,0
48830,-66.6666666666667,4,2,1,60,0,0
50972,-50,4,2,1,60,0,0
51508,-55.5555555555556,4,2,1,60,0,0
51776,-50,4,2,1,60,0,0
52044,-62.5,4,2,1,60,0,0
53651,-55.5555555555556,4,2,1,60,0,0
53919,-50,4,2,1,60,0,0
54187,-62.5,4,2,1,60,0,0
55258,-50,4,2,1,60,0,0
55794,-55.5555555555556,4,2,1,60,0,0
56062,-50,4,2,1,60,0,0
56330,-62.5,4,2,1,60,0,0
58205,-55.5555555555556,4,2,1,60,0,0
58874,-62.5,4,2,1,60,0,0
59544,-50,4,2,1,60,0,0
60080,-55.5555555555556,4,2,1,60,0,0
60347,-50,4,2,1,60,0,0
60615,-62.5,4,2,1,60,0,0
62222,-55.5555555555556,4,2,1,60,0,0
62758,-50,4,2,1,60,0,0
63026,-62.5,4,2,1,60,0,0
63830,-50,4,2,1,60,0,0
64365,-55.5555555555556,4,2,1,60,0,0
64633,-50,4,2,1,60,0,0
64901,-62.5,4,2,1,60,0,0
66776,-57.1428571428571,4,2,1,60,0,0
67446,-62.5,4,2,1,60,0,0
68115,-50,4,2,1,60,0,0
68651,-125,4,2,2,50,0,0
69455,-125,4,2,1,50,0,0
72401,-71.4285714285714,4,2,2,50,0,0
72937,-125,4,2,1,50,0,0
76151,-100,4,2,1,50,0,0
76687,-55.5555555555556,4,2,2,50,0,0
76955,-83.3333333333333,4,2,1,50,0,0
77222,-71.4285714285714,4,2,1,50,0,0
81508,-62.5,4,2,1,50,0,0
83919,-41.6666666666667,4,2,1,50,0,0
84187,-41.6666666666667,4,2,7,50,0,0
84455,-41.6666666666667,4,2,1,50,0,0
85258,-41.6666666666667,4,2,2,50,0,0
85392,-41.6666666666667,4,2,1,50,0,0
85526,-62.5,4,2,1,50,0,0
85794,-40,4,2,7,80,0,0
86062,-66.6666666666667,4,2,7,80,0,0
86330,-40,4,2,7,80,0,0
86731,-33.3333333333333,4,2,7,80,0,0
87535,-55.5555555555556,4,2,7,80,0,0
87803,-33.3333333333333,4,2,7,80,0,0
88472,-40,4,2,7,80,0,0
88740,-83.3333333333333,4,2,7,80,0,0
88874,-40,4,2,7,80,0,0
89142,-83.3333333333333,4,2,7,80,0,0
89276,-40,4,2,7,80,0,0
89544,-83.3333333333333,4,2,7,80,0,0
89678,-33.3333333333333,4,2,7,80,0,0
90080,-40,4,2,7,80,0,0
90347,-66.6666666666667,4,2,7,80,0,0
90615,-40,4,2,7,80,0,0
91017,-33.3333333333333,4,2,7,80,0,0
91553,-40,4,2,7,80,0,0
92088,-33.3333333333333,4,2,7,80,0,0
92758,-40,4,2,7,80,0,0
93026,-83.3333333333333,4,2,7,80,0,0
93160,-40,4,2,7,80,0,0
93428,-83.3333333333333,4,2,7,80,0,0
93562,-40,4,2,7,80,0,0
93830,-83.3333333333333,4,2,7,80,0,0
93963,-33.3333333333333,4,2,7,80,0,0
94365,-40,4,2,7,80,0,0
94633,-83.3333333333333,4,2,7,80,0,0
94901,-40,4,2,7,80,0,0
95303,-33.3333333333333,4,2,7,80,0,0
96106,-55.5555555555556,4,2,7,80,0,0
96374,-33.3333333333333,4,2,7,80,0,0
96776,-55.5555555555556,4,2,7,80,0,0
97044,-40,4,2,7,80,0,0
97312,-83.3333333333333,4,2,7,80,0,0
97446,-40,4,2,7,80,0,0
97713,-83.3333333333333,4,2,7,80,0,0
97847,-40,4,2,7,80,0,0
98115,-83.3333333333333,4,2,7,80,0,0
98249,-33.3333333333333,4,2,7,80,0,0
98651,-40,4,2,7,80,0,0
98919,-66.6666666666667,4,2,7,80,0,0
99187,-40,4,2,7,80,0,0
99588,-33.3333333333333,4,2,7,80,0,0
100258,-40,4,2,7,80,0,0
100660,-33.3333333333333,4,2,7,80,0,0
101597,-66.6666666666667,4,2,7,80,0,0
101731,-33.3333333333333,4,2,7,80,0,0
102133,-66.6666666666667,4,2,7,80,0,0
102267,-33.3333333333333,4,2,7,80,0,0
102937,-40,4,2,7,80,0,0
103205,-66.6666666666667,4,2,7,80,0,0
103472,-40,4,2,7,80,0,0
103874,-33.3333333333333,4,2,7,80,0,0
104678,-55.5555555555556,4,2,7,80,0,0
104946,-33.3333333333333,4,2,7,80,0,0
105615,-40,4,2,7,80,0,0
105883,-83.3333333333333,4,2,7,80,0,0
106017,-40,4,2,7,80,0,0
106285,-83.3333333333333,4,2,7,80,0,0
106419,-40,4,2,7,80,0,0
106687,-83.3333333333333,4,2,7,80,0,0
106821,-33.3333333333333,4,2,7,80,0,0
107222,-40,4,2,7,80,0,0
107490,-66.6666666666667,4,2,7,80,0,0
107758,-40,4,2,7,80,0,0
108160,-33.3333333333333,4,2,7,80,0,0
108696,-40,4,2,7,80,0,0
109231,-33.3333333333333,4,2,7,80,0,0
109901,-40,4,2,7,80,0,0
110169,-83.3333333333333,4,2,7,80,0,0
110303,-40,4,2,7,80,0,0
110571,-83.3333333333333,4,2,7,80,0,0
110705,-40,4,2,7,80,0,0
110972,-83.3333333333333,4,2,7,80,0,0
111106,-33.3333333333333,4,2,7,80,0,0
111508,-40,4,2,7,80,0,0
111776,-66.6666666666667,4,2,7,80,0,0
112044,-40,4,2,7,80,0,0
112446,-33.3333333333333,4,2,7,80,0,0
113115,-55.5555555555556,4,2,7,80,0,0
113517,-33.3333333333333,4,2,7,80,0,0
114187,-40,4,2,7,80,0,0
114455,-83.3333333333333,4,2,7,80,0,0
114588,-40,4,2,7,80,0,0
114856,-83.3333333333333,4,2,7,80,0,0
114990,-40,4,2,7,80,0,0
115258,-83.3333333333333,4,2,7,80,0,0
115392,-33.3333333333333,4,2,7,80,0,0
115794,-40,4,2,7,80,0,0
116062,-66.6666666666667,4,2,7,80,0,0
116330,-40,4,2,7,80,0,0
116731,-33.3333333333333,4,2,7,80,0,0
117267,-40,4,2,7,80,0,0
117803,-33.3333333333333,4,2,7,80,0,0
118472,-50,4,2,7,80,0,0
119008,-100,4,2,7,80,0,0
119544,-200,4,2,7,80,0,0
120080,-200,4,2,3,80,0,0

[Colours]
Combo1 : 255,255,166
Combo2 : 145,255,255

[HitObjects]
40,40,80,5,0,0:0:0:0:
40,40,347,2,0,L|51:111,1,49.9999980926514
165,23,615,5,0,0:0:0:0:
143,134,749,1,0,0:0:0:0:
143,134,883,1,0,0:0:0:0:
2,269,1151,5,0,0:0:0:0:
42,339,1419,1,0,0:0:0:0:
227,283,1687,6,0,B|186:245|128:269|131:309|133:312|134:316|145:365|64:386|40:335,1,243.749979543687,8|0,0:0|0:0,0:0:0:0:
2,269,2222,5,0,0:0:0:0:
2,269,2490,2,0,L|9:219,1,49.9999980926514
179,382,2758,5,0,0:0:0:0:
157,271,2892,1,0,0:0:0:0:
157,271,3026,1,0,0:0:0:0:
265,155,3294,5,0,0:0:0:0:
187,175,3562,1,0,0:0:0:0:
263,0,3830,6,0,B|321:-9|356:45|330:115|330:115|308:74|241:78,1,243.749979543687,8|0,0:0|0:0,0:0:0:0:
487,22,4365,5,0,0:0:0:0:
487,22,4633,2,0,L|476:93,1,49.9999980926514
487,190,4901,5,0,0:0:0:0:
403,155,5035,1,0,0:0:0:0:
403,155,5169,1,0,0:0:0:0:
405,360,5437,5,0,0:0:0:0:
479,326,5705,1,0,0:0:0:0:
294,271,5972,6,0,B|335:233|393:257|390:297|388:300|387:304|376:353|457:374|481:323,1,243.749979543687,8|0,0:0|0:0,0:0:0:0:
403,155,6508,5,0,0:0:0:0:
403,155,6776,2,0,L|395:105,1,49.9999980926514
264,78,7044,5,0,0:0:0:0:
384,16,7178,1,0,0:0:0:0:
384,16,7312,1,0,0:0:0:0:
364,346,7580,5,0,0:0:0:0:
286,329,7847,1,0,0:0:0:0:
286,329,8115,6,0,B|250:387|127:381|113:299|237:229|287:246|371:324|302:388,1,374.999985694885,10|0,0:0|0:0,0:0:0:0:
286,329,8651,5,0,3:0:0:0:
479,326,8919,2,0,P|449:367|398:369,1,93.7500000000001,0|8,0:0|0:0,0:0:0:0:
383,162,9187,5,0,3:2:0:0:
383,162,9455,2,0,P|399:185|390:213,2,46.875,8|0|0,3:2|0:0|0:0,0:0:0:0:
126,350,9722,6,0,P|164:278|273:252,1,187.5,0|0,3:0|0:0,0:0:0:0:
338,276,10124,1,8,0:0:0:0:
260,249,10258,6,0,P|208:225|219:176,1,93.7500000000001,0|0,3:0|0:0,0:0:0:0:
113,162,10526,2,0,P|117:104|167:98,1,93.7500000000001,8|0,3:2|0:0,0:0:0:0:
289,128,10794,5,0,3:0:0:0:
407,56,11062,2,0,P|386:18|337:13,1,93.7500000000001,0|8,0:0|0:0,0:0:0:0:
475,161,11330,5,0,3:2:0:0:
475,161,11597,2,0,P|444:165|429:197,2,46.875,8|0|0,3:2|0:0|0:0,0:0:0:0:
289,139,11865,5,0,3:0:0:0:
273,214,11999,1,0,0:0:0:0:
346,191,12133,1,0,0:0:0:0:
289,145,12267,1,8,0:0:0:0:
290,377,12401,6,0,P|260:335|212:332,1,93.7500000000001,0|0,3:0|0:0,0:0:0:0:
147,262,12669,2,0,P|97:275|78:319,1,93.7500000000001,8|0,3:2|0:0,0:0:0:0:
142,384,12937,5,0,3:0:0:0:
169,177,13071,1,8,0:0:0:0:
156,181,13205,5,0,3:0:0:0:
45,202,13338,1,8,0:0:0:0:
0,68,13472,5,0,3:0:0:0:
93,37,13606,1,0,0:0:0:0:
93,37,13740,2,0,L|82:94,2,46.875,8|0|0,3:2|0:0|0:0,0:0:0:0:
1,78,14008,5,0,3:0:0:0:
221,42,14142,1,8,0:0:0:0:
223,27,14276,5,0,3:0:0:0:
193,171,14410,1,8,0:0:0:0:
211,271,14544,6,0,P|252:256|274:208,1,93.7500000000001,0|0,3:0|0:0,0:0:0:0:
402,243,14812,2,0,P|401:197|369:163,1,93.7500000000001,8|0,3:2|0:0,0:0:0:0:
0,58,15080,6,0,L|88:30,1,93.7499935626986,0|0,3:0|0:0,0:0:0:0:
96,20,16151,2,0,L|88:65,1,37.4999974250794
0,192,16553,6,0,L|178:135,1,187.5,8|4,0:0|0:0,0:0:0:0:
140,197,16955,6,0,B|113:206|78:187|83:165|84:166|91:139|65:115|19:130,1,137.499998950958
190,377,17222,6,0,B|149:414|72:377|100:286|137:251|225:278,1,234.374991059303,6|0,3:2|0:0,0:0:0:0:
309,273,17490,6,0,B|320:310|291:332|246:322,1,93.7500000000001,2|0,0:1|0:0,0:0:0:0:
488,263,17758,6,0,B|527:268|556:308|530:393|412:385|392:289,1,234.374991059303,10|0,0:0|0:0,0:0:0:0:
435,199,18026,2,0,L|448:116,1,78.1249970197678
505,31,18160,6,0,L|89:116,1,375,2|0,3:2|0:0,0:0:0:0:
157,11,18562,2,0,B|219:-19|275:15|260:66|255:68|250:71|260:130|346:153|378:86,1,281.25,2|0,3:2|0:0,0:0:0:0:
385,7,18830,5,8,0:0:0:0:
274,29,18963,2,0,L|385:7,1,112.499992275238,2|0,0:0|0:0,0:0:0:0:
505,239,19231,6,0,B|489:165|374:133|312:231|371:295|371:288|374:282|406:311|383:403|305:437|214:367|227:293,1,468.75,2|0,3:2|0:0,0:0:0:0:
266,250,19633,2,0,P|345:268|394:349,1,168.749988412858,2|0,3:2|0:0,0:0:0:0:
89,276,19901,6,0,B|102:323|45:371|-39:338|-35:250|23:212,1,234.374991059303,10|0,0:0|0:0,0:0:0:0:
90,267,20169,2,0,L|145:254,1,37.4999974250794,2|0,0:0|0:0,0:0:0:0:
242,68,20303,6,0,B|276:33|346:58|359:147|281:188|219:157,1,234.374991059303,2|0,3:2|0:0,0:0:0:0:
233,71,20571,2,0,L|194:29,1,37.4999974250794,2|0,0:2|0:0,0:0:0:0:
30,93,20705,6,0,B|-17:81|-30:7|39:-47|114:0|118:68,1,234.374991059303,2|0,3:2|0:0,0:0:0:0:
37,99,20973,2,0,L|20:153,1,37.4999974250794,8|0,0:0|0:0,0:0:0:0:
10,385,21106,6,0,P|91:274|435:158,1,468.75,2|0,3:2|0:0,0:0:0:0:
184,380,21508,6,0,B|213:388|254:323|177:187|93:190,1,234.374991059303,2|0,3:2|0:0,0:0:0:0:
67,70,21776,6,0,P|43:108|64:147,1,93.7500000000001,2|0,0:1|0:0,0:0:0:0:
344,74,22044,6,0,B|327:0|211:-51|138:19|184:72|228:39,1,234.374991059303,10|0,0:0|0:0,0:0:0:0:
361,61,22312,2,0,B|373:27|399:15|433:28,1,78.1249970197678
505,212,22446,6,0,B|525:368|326:460|248:368|264:293|340:282,1,375,2|0,3:2|0:0,0:0:0:0:
493,346,22847,2,0,P|460:303|389:294,1,93.7500000000001,2|0,3:2|0:0,0:0:0:0:
299,199,22981,6,0,P|226:222|186:287,1,156.249994039536,2|8,0:0|0:0,0:0:0:0:
344,74,23249,2,0,P|418:89|451:159,1,156.249994039536,2|0,0:0|0:0,0:0:0:0:
5,47,23517,6,0,B|17:-12|110:-38|159:40|112:91|112:86|110:81|84:104|102:178|165:205|238:149|228:90,1,375,2|0,3:2|0:0,0:0:0:0:
277,15,23919,2,0,L|-3:62,1,281.25,2|0,3:2|0:0,0:0:0:0:
47,275,24187,6,0,B|18:282|-2:333|18:367|18:367|67:393|109:365|111:320,1,234.374991059303,10|0,0:0|0:0,0:0:0:0:
158,327,24455,2,0,L|122:335,1,37.4999974250794,2|0,0:0|0:0,0:0:0:0:
375,167,24588,6,0,B|407:188|414:240|367:269|367:269|327:270|294:232|299:196,1,234.374991059303,2|0,3:2|0:0,0:0:0:0:
242,187,24856,2,0,L|278:194,1,37.4999974250794,2|0,0:0|0:0,0:0:0:0:
114,19,24990,6,0,B|148:2|197:21|199:76|199:76|179:111|130:121|100:93,1,234.374991059303,2|0,3:2|0:0,0:0:0:0:
50,123,25258,2,0,L|86:115,1,37.4999974250794,8|0,0:0|0:0,0:0:0:0:
512,59,25392,6,0,B|338:15|233:185|283:319|422:320|445:238|421:190,1,468.75,2|0,3:2|0:0,0:0:0:0:
509,384,25794,6,0,P|453:318|309:313,1,234.374991059303,6|0,3:2|0:0,0:0:0:0:
218,272,26062,6,0,P|243:333|311:328,1,140.625,2|0,0:1|0:0,0:0:0:0:
512,101,26330,6,0,P|430:131|376:264,1,234.374991059303,10|0,0:0|0:0,0:0:0:0:
383,256,26597,2,0,P|385:223|359:187,1,78.1249970197678
263,114,26731,6,0,B|192:109|170:7|251:-34|317:-5|324:50|324:50|321:88|359:120|410:109|430:49|384:16,1,375,2|0,3:2|0:0,0:0:0:0:
512,166,27133,2,0,B|458:117|389:155|404:206|409:208|414:211|404:270|332:292|289:233,1,281.25,2|0,3:2|0:0,0:0:0:0:
199,192,27401,5,8,0:0:0:0:
88,213,27535,2,0,L|199:191,1,112.499992275238,2|0,0:0|0:0,0:0:0:0:
0,24,27803,6,0,B|55:9|134:66|65:140|65:67|41:219|109:248|326:193|171:137|213:78|302:68|336:136,1,468.75,2|0,3:2|0:0,0:0:0:0:
160,64,28205,2,0,B|159:29|197:10|234:27|234:27|184:37|174:88,1,168.749988412858,2|0,3:2|0:0,0:0:0:0:
83,384,28472,6,0,B|119:350|82:284|46:302|41:307|35:314|-5:301|-34:260|4:214,1,234.374991059303,10|0,0:0|0:0,0:0:0:0:
11,210,28740,2,0,L|58:232,1,37.4999974250794,2|0,0:0|0:0,0:0:0:0:
252,296,28874,6,0,B|215:262|252:196|288:214|293:219|299:226|340:213|369:172|330:126,1,234.374991059303,2|0,3:2|0:0,0:0:0:0:
467,25,29142,6,0,L|0:87,1,468.75,2|0,0:0|0:0,0:0:0:0:
17,64,29544,5,8,0:0:0:0:
84,0,29678,5,0,3:0:0:0:
150,108,29812,5,0,0:0:0:0:
218,33,29946,5,0,0:0:0:0:
467,25,30080,6,0,L|460:64,3,37.4999974250794,2|2|2|2,3:1|0:1|0:1|0:1,0:0:0:0:
460,61,32222,6,0,B|435:51|435:51|375:59|375:59|345:109|345:109|358:173|358:173|420:204|420:204|485:174|485:174|500:116|500:116|466:61,1,468.749982118607,2|0,0:1|0:0,0:0:0:0:
422,126,33294,5,8,0:0:0:0:
500,266,33428,1,8,0:0:0:0:
482,270,33495,1,8,0:0:0:0:
469,272,33562,1,8,0:0:0:0:
256,227,33763,5,8,0:0:0:0:
305,384,33963,1,8,0:0:0:0:
356,316,34097,5,8,0:0:0:0:
62,353,34365,6,0,P|105:300|172:281,1,140.625,2|0,3:2|0:0,0:0:0:0:
62,354,34633,2,0,P|-14:324|1:295,1,140.625,2|0,0:0|0:0,0:0:0:0:
158,375,34901,1,10,0:0:0:0:
79,111,35035,6,0,L|106:224,1,109.374996870756
169,170,35303,1,2,3:2:0:0:
20,200,35571,2,0,P|61:249|106:244,1,109.374996870756,2|0,0:0|3:0,0:0:0:0:
252,204,35838,1,0,0:0:0:0:
252,204,35972,6,0,L|267:96,1,93.7500000000001,10|0,0:0|0:0,0:0:0:0:
188,50,36240,2,0,L|175:142,1,93.7500000000001
307,379,36508,6,0,P|343:313|319:233,1,140.625,2|0,3:2|0:0,0:0:0:0:
172,228,36776,1,2,0:0:0:0:
414,219,37044,6,0,P|431:197|459:182,2,46.875,10|0|0,0:0|0:0|0:0,0:0:0:0:
293,96,37312,6,0,P|276:74|248:59,1,46.875
258,52,37446,6,0,L|393:27,1,109.374996870756,2|0,3:2|0:0,0:0:0:0:
497,87,37713,2,0,L|389:106,1,109.374996870756,2|0,0:0|3:0,0:0:0:0:
466,4,37981,5,0,0:0:0:0:
414,219,38115,2,0,P|431:197|459:182,6,46.875,10|0|0|0|0|0|0,0:0|0:0|0:0|0:0|0:0|0:0|0:0,0:0:0:0:
242,240,38651,5,2,3:2:0:0:
463,290,38919,2,0,P|458:334|401:348,1,93.7500000000001,2|0,0:0|0:0,0:0:0:0:
221,377,39187,1,10,0:0:0:0:
317,299,39321,6,0,P|289:249|226:244,1,109.374996870756,0|2,0:0|3:2,0:0:0:0:
175,278,39588,1,2,3:2:0:0:
399,77,39856,6,0,P|373:32|299:25,1,109.374996870756,2|0,0:0|3:0,0:0:0:0:
148,100,40124,1,0,0:0:0:0:
148,100,40258,6,0,L|263:82,1,93.7500000000001,10|0,0:0|0:0,0:0:0:0:
312,151,40526,2,0,L|219:165,1,93.7500000000001
0,192,40794,6,0,P|9:246|69:247,1,93.7500000000001,2|0,3:2|0:0,0:0:0:0:
72,73,41062,2,0,P|89:30|132:16,1,93.7500000000001,2|0,0:0|0:0,0:0:0:0:
146,227,41330,6,0,L|139:174,2,46.875,10|0|0,0:0|0:0|0:0,0:0:0:0:
91,324,41597,6,0,L|98:370,1,46.875
100,384,41731,1,2,3:2:0:0:
381,245,41999,6,0,P|348:205|290:206,1,93.7500000000001,2|0,0:0|3:0,0:0:0:0:
218,275,42267,1,0,0:0:0:0:
146,227,42401,6,0,B|192:268|237:217|225:176|189:160|189:160|152:148|129:100|164:47|214:43|246:77|246:77|265:98|311:94|319:52,1,437.4999833107,10|0,0:0|0:0,0:0:0:0:
399,18,42937,6,0,B|444:15|444:15|381:36,1,93.7500000000001,2|0,3:2|0:0,0:0:0:0:
243,49,43205,2,0,P|263:109|349:117,1,140.625,2|0,0:0|0:0,0:0:0:0:
428,103,43472,1,10,0:0:0:0:
448,249,43606,6,0,P|415:202|335:196,1,109.374996870756
303,234,43874,1,2,3:2:0:0:
236,384,44142,2,0,P|281:348|337:336,1,109.374996870756,2|0,0:0|3:0,0:0:0:0:
484,362,44410,1,0,0:0:0:0:
484,362,44544,6,0,L|458:245,1,93.7500000000001,10|0,0:0|0:0,0:0:0:0:
368,189,44812,2,0,L|388:280,1,93.7500000000001
488,120,45080,6,0,P|412:113|395:43,1,140.625,2|0,3:2|0:0,0:0:0:0:
467,38,45347,1,2,0:0:0:0:
467,38,45615,6,0,P|482:18|512:3,2,46.875,10|0|0,0:0|0:0|0:0,0:0:0:0:
318,121,45883,6,0,P|303:101|273:86,1,46.875
269,95,46017,6,0,P|223:118|228:180,1,109.374996870756,2|0,3:2|0:0,0:0:0:0:
202,38,46285,2,0,P|164:3|108:28,1,109.374996870756,2|0,0:0|3:0,0:0:0:0:
260,237,46553,5,0,0:0:0:0:
349,51,46687,2,0,P|364:31|394:16,6,46.875,10|0|0|0|0|0|0,0:0|0:0|0:0|0:0|0:0|0:0|0:0,0:0:0:0:
356,178,47222,5,2,3:2:0:0:
98,255,47490,2,0,P|116:303|180:311,1,93.7500000000001,2|0,0:0|0:0,0:0:0:0:
245,299,47758,1,10,0:0:0:0:
253,220,47892,6,0,B|267:206|259:184|259:184|221:171|203:209|219:237,1,109.374996870756
245,309,48160,1,2,3:2:0:0:
75,339,48428,6,0,B|56:333|41:351|41:351|48:390|90:387|106:359,1,109.374996870756,2|0,0:0|3:0,0:0:0:0:
245,299,48696,1,0,0:0:0:0:
252,307,48830,6,0,L|158:325,1,93.7500000000001,10|0,0:0|0:0,0:0:0:0:
5,272,49097,2,0,L|97:254,1,93.7500000000001
144,92,49365,6,0,P|169:45|148:-15,1,93.7500000000001,2|0,3:2|0:0,0:0:0:0:
0,150,49633,2,0,P|52:142|101:182,1,93.7500000000001,2|0,0:0|0:0,0:0:0:0:
244,120,49901,6,0,L|305:132,2,46.875,10|0|0,0:0|0:0|0:0,0:0:0:0:
45,44,50169,6,0,L|-16:56,1,46.875
64,41,50303,1,2,3:2:0:0:
351,17,50571,6,0,P|399:31|408:76,1,93.7500000000001,2|0,0:0|3:0,0:0:0:0:
366,209,50838,1,0,0:0:0:0:
478,235,50972,6,0,B|458:224|433:236|432:241|432:241|396:323|248:303|189:153|384:32|459:165|433:237,1,437.4999833107,10|0,0:0|0:0,0:0:0:0:
474,315,51508,6,0,P|452:341|407:341,1,56.2499961376192
174,367,51776,2,0,L|371:302,1,187.499992847443
361,314,52044,6,0,L|378:258,1,49.9999980926514,10|0,0:0|0:0,0:0:0:0:
300,243,52178,1,0,0:0:0:0:
264,325,52312,1,2,0:0:0:0:
131,303,52446,6,0,P|103:260|57:249,1,99.9999961853028,2|0,3:2|0:0,0:0:0:0:
166,182,52713,2,0,P|194:139|240:128,1,99.9999961853028,2|0,0:0|3:0,0:0:0:0:
315,152,52981,1,2,0:0:0:0:
94,140,53115,6,0,L|-31:98,1,99.9999961853028,10|0,0:0|0:0,0:0:0:0:
149,47,53383,2,0,L|243:15,1,99.9999961853028,2|0,0:0|0:0,0:0:0:0:
31,0,53651,6,0,P|50:21|57:50,1,56.2499961376192,2|0,3:2|0:0,0:0:0:0:
1,215,53919,2,0,B|37:190|81:224|73:254|70:254|66:252|64:307|108:323|146:293,1,187.499992847443,2|0,0:0|0:0,0:0:0:0:
144,296,54187,6,0,P|118:313|105:337,1,49.9999980926514,10|0,0:0|0:0,0:0:0:0:
165,383,54321,1,0,0:0:0:0:
32,370,54455,1,2,0:0:0:0:
260,329,54588,6,0,P|279:278|332:260,1,99.9999961853028,2|0,3:2|0:0,0:0:0:0:
506,255,54856,2,0,P|469:222|421:224,1,99.9999961853028,2|0,0:0|3:0,0:0:0:0:
337,335,55124,1,2,0:0:0:0:
367,20,55258,6,0,B|327:-21|273:-8|231:56|259:121|333:113|334:107|335:103|335:93|409:77|460:140|443:204|375:243|317:229|305:164,1,437.4999833107,10|0,0:0|0:0,0:0:0:0:
195,74,55794,6,0,L|135:64,1,56.2499961376192,2|0,3:2|0:0,0:0:0:0:
310,182,56062,2,0,L|507:117,1,187.499992847443,2|0,0:0|0:0,0:0:0:0:
512,104,56330,6,0,P|493:130|493:154,1,49.9999980926514,10|0,0:0|0:0,0:0:0:0:
469,223,56463,1,0,0:0:0:0:
409,173,56597,1,2,0:0:0:0:
421,0,56731,6,0,P|412:52|355:64,1,99.9999961853028,2|0,3:2|0:0,0:0:0:0:
229,0,56999,2,0,P|265:44|270:94,1,99.9999961853028,2|0,0:0|3:0,0:0:0:0:
310,182,57267,1,2,0:0:0:0:
191,74,57401,6,0,L|66:32,1,99.9999961853028,10|0,0:0|0:0,0:0:0:0:
8,217,57669,2,0,L|133:175,1,99.9999961853028,2|0,0:0|0:0,0:0:0:0:
271,284,57937,5,2,3:2:0:0:
271,284,58205,2,0,B|245:267|205:290|212:317|215:317|218:315|220:363|182:377|149:351,1,168.749988412858,2|0,0:0|0:0,0:0:0:0:
90,269,58472,1,10,0:0:0:0:
0,299,58606,5,0,0:0:0:0:
8,217,58740,1,2,0:0:0:0:
1,38,58874,6,0,P|27:103|85:102,1,99.9999961853028,2|0,3:2|0:0,0:0:0:0:
102,185,59142,2,0,P|171:182|190:127,1,99.9999961853028,2|0,0:0|3:0,0:0:0:0:
206,82,59410,1,2,0:0:0:0:
433,122,59544,6,0,B|487:65|459:-13|364:-40|300:32|335:99|335:99|355:129|337:183|270:182|254:128,1,437.4999833107,10|0,0:0|0:0,0:0:0:0:
257,131,60080,6,0,L|238:65,1,56.2499961376192,2|0,3:2|0:0,0:0:0:0:
129,285,60347,2,0,P|198:307|283:388,1,187.499992847443,2|0,0:0|0:0,0:0:0:0:
294,374,60615,6,0,L|307:325,1,49.9999980926514,10|0,0:0|0:0,0:0:0:0:
264,258,60749,1,0,0:0:0:0:
351,242,60883,1,2,0:0:0:0:
481,328,61017,6,0,P|481:276|418:259,1,99.9999961853028,2|0,3:2|0:0,0:0:0:0:
296,185,61285,2,0,P|307:132|350:122,1,99.9999961853028,2|0,0:0|3:0,0:0:0:0:
451,148,61553,1,2,0:0:0:0:
451,148,61687,6,0,L|472:30,1,99.9999961853028,10|0,0:0|0:0,0:0:0:0:
289,44,61955,2,0,L|407:23,1,99.9999961853028,2|0,0:0|0:0,0:0:0:0:
443,253,62222,5,2,3:2:0:0:
364,241,62356,1,0,0:0:0:0:
307,293,62490,1,2,0:0:0:0:
322,367,62624,1,0,0:0:0:0:
209,355,62758,6,0,L|12:290,1,187.499992847443,10|0,0:0|0:0,0:0:0:0:
42,291,63026,6,0,L|25:235,1,49.9999980926514,2|0,0:0|0:0,0:0:0:0:
105,240,63160,6,0,P|135:203|191:203,1,99.9999961853028,2|0,3:2|0:0,0:0:0:0:
79,142,63428,2,0,P|49:105|-7:105,1,99.9999961853028,2|0,0:0|3:0,0:0:0:0:
129,31,63696,1,0,0:0:0:0:
30,296,63830,6,0,B|31:366|146:414|186:327|160:275|155:272|150:271|124:274|93:191|155:125|276:161|254:245,1,437.4999833107,10|0,0:0|0:0,0:0:0:0:
284,365,64365,6,0,L|222:345,1,56.2499961376192,2|0,3:2|0:0,0:0:0:0:
0,257,64633,2,0,L|194:194,1,187.499992847443,2|0,0:0|0:0,0:0:0:0:
198,183,64901,6,0,L|215:127,1,49.9999980926514,10|0,0:0|0:0,0:0:0:0:
137,112,65035,1,0,0:0:0:0:
101,194,65169,1,2,0:0:0:0:
65,77,65303,6,0,P|37:27|-10:29,1,99.9999961853028,2|0,3:2|0:0,0:0:0:0:
198,27,65571,2,0,P|253:11|284:46,1,99.9999961853028,2|0,0:0|3:0,0:0:0:0:
317,113,65838,1,2,0:0:0:0:
386,224,65972,6,0,L|405:125,1,99.9999961853028,10|0,0:0|0:0,0:0:0:0:
496,9,66240,2,0,L|397:28,1,99.9999961853028,2|0,0:0|0:0,0:0:0:0:
203,59,66508,5,2,3:2:0:0:
203,59,66776,2,0,B|203:96|203:96|338:64,1,164.062495306134,2|0,0:0|0:0,0:0:0:0:
499,27,67044,1,10,0:0:0:0:
481,102,67178,5,0,0:0:0:0:
404,125,67312,1,2,0:0:0:0:
267,181,67446,6,0,P|323:199|342:261,1,99.9999961853028,2|0,3:2|0:0,0:0:0:0:
469,229,67713,2,0,P|471:287|419:326,1,99.9999961853028,2|0,0:0|3:0,0:0:0:0:
354,350,67981,1,2,0:0:0:0:
268,281,68115,6,0,B|292:369|194:418|146:410|86:358|73:268|160:193|255:237|274:291,1,437.4999833107,10|0,0:0|0:0,0:0:0:0:
341,232,68651,6,0,L|365:25,1,199.999992370606,2|0,0:0|0:0,0:0:0:0:
288,13,69455,2,0,L|273:21,2,16.6666660308838,2|0|0,0:0|0:0|0:0,0:0:0:0:
365,20,69722,5,0,0:0:0:0:
444,33,69990,1,0,0:0:0:0:
474,105,70258,1,0,0:0:0:0:
430,169,70526,1,0,0:0:0:0:
420,172,70794,5,0,0:0:0:0:
346,161,71062,1,0,0:0:0:0:
275,211,71330,6,0,L|265:225,2,16.6666660308838
274,122,71597,2,0,L|267:106,2,16.6666660308838
365,252,71865,6,0,P|420:268|456:310,1,99.9999961853028
470,373,72267,1,0,0:0:0:0:
503,59,72401,6,0,B|495:201|360:214|340:153|363:103|394:98,1,262.499981975556,2|0,0:0|0:0,0:0:0:0:
419,23,72937,5,0,0:0:0:0:
340,17,73205,1,0,0:0:0:0:
296,80,73472,1,0,0:0:0:0:
207,42,73740,6,0,L|199:27,2,16.6666660308838
294,90,74008,5,0,0:0:0:0:
261,163,74276,1,0,0:0:0:0:
186,179,74544,1,0,0:0:0:0:
124,127,74812,1,0,0:0:0:0:
128,111,75080,5,0,0:0:0:0:
168,270,75347,1,0,0:0:0:0:
248,258,75615,6,0,L|256:243,2,16.6666660308838
199,351,75883,2,0,L|184:359,2,16.6666660308838
71,380,76151,6,0,P|25:339|17:255,1,124.999995231629
89,223,76553,1,8,0:0:0:0:
105,130,76687,6,0,B|67:143|29:107|48:73|49:78|60:47|20:14|-21:31,1,168.749988412858,4|0,0:0|0:0,0:0:0:0:
132,46,76955,2,0,L|259:16,1,112.499992275238
350,11,77222,6,0,L|308:219,1,174.999987983704,0|8,3:0|0:0,0:0:0:0:
301,263,77624,1,8,0:0:0:0:
300,342,77758,2,0,P|350:335|367:305,1,87.4999939918521,0|0,3:0|0:0,0:0:0:0:
466,215,78026,6,0,P|458:205|437:195,2,29.1666646639507,8|0|0,0:0|0:0|0:0,0:0:0:0:
315,182,78294,5,0,3:0:0:0:
333,106,78428,1,8,0:0:0:0:
407,91,78562,1,0,0:0:0:0:
418,94,78696,1,8,0:0:0:0:
463,380,78830,6,0,L|444:287,1,87.4999939918521,0|0,3:0|0:0,0:0:0:0:
380,381,79097,1,8,0:0:0:0:
295,357,79365,6,0,B|249:380|203:319|245:248|328:265,1,174.999987983704,0|8,3:0|0:0,0:0:0:0:
433,295,79767,1,8,0:0:0:0:
322,155,79901,6,0,L|341:62,1,87.4999939918521,0|0,3:0|0:0,0:0:0:0:
442,186,80169,2,0,L|450:228,2,29.1666646639507,8|0|0,0:0|0:0|0:0,0:0:0:0:
300,262,80437,5,0,3:0:0:0:
283,340,80571,1,8,0:0:0:0:
212,372,80705,1,0,0:0:0:0:
202,360,80839,1,8,0:0:0:0:
47,344,80972,6,0,P|65:295|120:288,1,87.4999939918521,0|0,3:0|0:0,0:0:0:0:
184,260,81240,1,8,0:0:0:0:
37,188,81508,6,0,L|6:26,1,149.999994277954,0|0,3:0|0:0,0:0:0:0:
6,30,81776,2,0,L|187:67,1,149.999994277954,0|0,3:0|0:0,0:0:0:0:
232,136,82044,6,0,L|413:173,1,149.999994277954,0|0,3:0|0:0,0:0:0:0:
390,155,82312,2,0,L|421:-7,1,149.999994277954,0|0,3:0|0:0,0:0:0:0:
309,11,82580,6,0,L|128:48,1,149.999994277954,0|0,3:0|0:0,0:0:0:0:
155,17,82847,2,0,L|126:164,1,149.999994277954,0|0,3:0|0:0,0:0:0:0:
23,282,83115,6,0,L|76:269,1,49.9999980926514,0|0,3:0|0:0,0:0:0:0:
85,342,83249,2,0,L|138:329,1,49.9999980926514,0|0,3:0|0:0,0:0:0:0:
176,223,83383,6,0,L|229:210,1,49.9999980926514,0|0,3:0|0:0,0:0:0:0:
260,277,83517,2,0,L|313:264,1,49.9999980926514,0|0,3:0|0:0,0:0:0:0:
478,238,83651,5,0,0:0:0:0:
442,232,83785,1,0,0:0:0:0:
402,226,83919,6,0,L|362:63,1,149.999989700318,0|0,3:0|0:0,0:0:0:0:
350,8,84120,1,8,0:0:0:0:
350,8,84187,1,8,0:0:0:0:
489,65,84455,5,8,0:0:0:0:
273,35,84588,1,8,0:0:0:0:
271,49,84856,5,8,0:0:0:0:
330,187,84990,1,8,0:0:0:0:
250,137,85124,1,8,0:0:0:0:
159,185,85258,6,0,B|195:148|251:177|240:216|237:219|233:221|215:258|241:291|298:294|320:249,1,224.999984550477,4|0,0:0|0:0,0:0:0:0:
424,296,85526,2,0,P|357:326|291:398,1,149.999994277954,2|0,0:0|0:0,0:0:0:0:
106,328,85794,6,0,B|95:378|35:399|-49:340|-29:263|13:234|66:242,1,234.374991059303,6|0,3:2|0:0,0:0:0:0:
191,309,86062,6,0,B|221:334|201:388|160:383,1,93.7500000000001,2|0,0:1|0:0,0:0:0:0:
30,133,86330,6,0,B|-19:122|-34:29|52:11|118:44|117:114,1,234.374991059303,10|0,0:0|0:0,0:0:0:0:
197,126,86597,2,0,P|186:168|153:186,1,78.1249970197678
106,328,86731,6,0,B|103:374|45:399|-14:365|-15:301|20:265|60:262|60:262|232:229,1,375,2|0,3:2|0:0,0:0:0:0:
381,174,87133,2,0,L|100:233,1,281.25,2|0,3:2|0:0,0:0:0:0:
0,118,87401,5,8,0:0:0:0:
110,139,87535,2,0,L|-5:117,1,112.499992275238,2|0,0:0|0:0,0:0:0:0:
154,69,87803,6,0,B|253:-7|358:97|299:159|292:162|284:167|280:283|414:314|480:190,1,468.75,2|0,3:2|0:0,0:0:0:0:
502,51,88205,2,0,B|460:36|424:68|435:100|438:100|440:101|453:135|413:177|346:145,1,187.5,2|0,3:2|0:0,0:0:0:0:
224,311,88472,6,0,B|216:329|216:329|139:334|111:245|166:187|224:200,1,234.374991059303,10|0,0:0|0:0,0:0:0:0:
225,206,88740,2,0,L|285:213,1,37.4999974250794,2|0,0:0|0:0,0:0:0:0:
478,285,88874,6,0,B|497:282|497:282|540:347|477:415|399:397|381:340,1,234.374991059303,2|0,3:2|0:0,0:0:0:0:
386,336,89142,2,0,L|362:280,1,37.4999974250794
312,70,89276,6,0,B|300:54|300:54|334:-15|425:5|448:81|408:125,1,234.374991059303,2|0,3:2|0:0,0:0:0:0:
402,124,89544,2,0,L|365:172,1,37.4999974250794,8|0,0:0|0:0,0:0:0:0:
512,207,89678,6,0,L|35:116,1,468.75,2|0,3:2|0:0,0:0:0:0:
20,208,90080,6,0,B|9:158|-46:178|-51:257|43:280|116:228|103:142,1,234.374991059303,2|0,3:2|0:0,0:0:0:0:
176,123,90347,6,0,B|176:84|149:60|98:89|133:113|152:96,1,93.7500000000001,2|0,0:1|0:0,0:0:0:0:
266,382,90615,6,0,B|327:365|330:286|268:209|186:244,1,234.374991059303,10|0,0:0|0:0,0:0:0:0:
179,313,90883,2,0,L|87:299,1,78.1249970197678
0,63,91017,6,0,B|-25:107|41:197|226:162|277:6,1,375,2|0,3:2|0:0,0:0:0:0:
241,130,91419,2,0,P|215:92|156:76,1,93.7500000000001,2|0,3:2|0:0,0:0:0:0:
10,143,91553,6,0,P|20:219|90:226,1,156.249994039536,2|8,0:0|0:0,0:0:0:0:
179,313,91821,2,0,P|255:316|279:250,1,156.249994039536,2|0,0:0|0:0,0:0:0:0:
400,134,92088,6,0,B|444:113|435:53|376:12|295:65|259:172|370:240|432:200|432:200|405:228|435:254,1,375,2|0,3:2|0:0,0:0:0:0:
508,207,92490,2,0,P|410:162|179:130,1,281.25,2|0,3:2|0:0,0:0:0:0:
162,279,92758,6,0,B|147:297|156:316|175:303|202:355|155:429|75:411|43:347|82:293,1,234.374991059303,10|0,0:0|0:0,0:0:0:0:
69,303,93026,2,0,L|21:316,1,37.4999974250794,2|0,0:0|0:0,0:0:0:0:
240,129,93160,6,0,B|263:123|268:103|245:101|257:44|341:17|390:83|375:152|310:168,1,234.374991059303,2|0,3:2|0:0,0:0:0:0:
335,181,93428,2,0,L|289:201,1,37.4999974250794,2|0,0:0|0:0,0:0:0:0:
140,120,93562,6,0,B|118:109|101:121|118:137|72:173|-9:140|-5:58|51:14|111:44,1,234.374991059303,2|0,3:2|0:0,0:0:0:0:
122,33,93830,2,0,L|137:0,1,37.4999974250794,8|0,0:0|0:0,0:0:0:0:
342,0,93963,6,0,B|433:6|464:117|423:275|302:348|199:292|240:201|351:178|363:348,1,468.75,2|0,3:2|0:0,0:0:0:0:
512,176,94365,6,0,P|444:99|291:85,1,234.374991059303,4|0,3:2|0:0,0:0:0:0:
230,82,94633,6,0,P|248:144|300:154,1,112.499992275238,2|0,0:1|0:0,0:0:0:0:
340,249,94901,6,0,P|239:284|166:390,1,234.374991059303,10|0,0:0|0:0,0:0:0:0:
288,352,95169,2,0,P|304:370|361:383,1,78.1249970197678
456,354,95303,6,0,B|502:385|562:332|533:261|483:232|427:278|428:284|429:289|429:294|357:335|304:260|324:180|400:162|448:203,1,375,2|0,3:2|0:0,0:0:0:0:
512,100,95705,2,0,B|500:120|470:122|458:104|458:104|449:18|376:-27|296:3,1,281.25,2|0,3:2|0:0,0:0:0:0:
216,59,95972,5,8,0:0:0:0:
281,110,96106,2,0,L|302:0,1,112.499992275238,2|0,0:0|0:0,0:0:0:0:
402,226,96374,6,0,B|364:195|296:229|305:277|311:269|458:370|164:420|205:311|231:316|209:257|149:237|76:331,1,375,2|0,3:2|0:0,0:0:0:0:
256,219,96776,2,0,B|257:184|219:165|182:182|182:182|232:192|242:243,1,168.749988412858,2|0,3:2|0:0,0:0:0:0:
94,174,97044,6,0,B|89:238|-10:241|-53:154|17:70|84:83,1,234.374991059303,10|0,0:0|0:0,0:0:0:0:
33,80,97312,2,0,P|18:93|3:110,1,37.4999974250794,2|0,0:0|0:0,0:0:0:0:
172,83,97446,6,0,B|119:46|165:-40|262:-34|300:68|255:119,1,234.374991059303,2|0,3:2|0:0,0:0:0:0:
283,77,97714,2,0,P|279:57|272:36,1,37.4999974250794,2|0,0:0|0:0,0:0:0:0:
235,221,97847,6,0,B|292:193|345:277|291:358|183:339|161:275,1,234.374991059303,2|0,3:2|0:0,0:0:0:0:
184,320,98115,2,0,P|202:326|224:330,1,37.4999974250794,8|0,0:0|0:0,0:0:0:0:
61,383,98249,6,0,P|170:158|396:28,1,468.75,2|0,3:2|0:0,0:0:0:0:
478,75,98651,6,0,B|518:107|505:180|405:221|346:154|377:114|421:142,1,234.374991059303,2|0,3:2|0:0,0:0:0:0:
348,41,98919,6,0,B|350:12|374:-7|398:7|406:28|379:41|358:22,1,93.7500000000001,2|0,0:1|0:0,0:0:0:0:
476,362,99187,6,0,B|459:272|368:217|297:270|312:327,1,234.374991059303,10|0,0:0|0:0,0:0:0:0:
249,346,99455,2,0,B|242:374|279:395|303:379,1,78.1249970197678
500,206,99588,6,0,L|135:107,1,375,2|0,3:2|0:0,0:0:0:0:
178,203,99990,1,2,3:2:0:0:
190,201,100124,2,0,B|215:238|264:224|262:178|260:177|257:175|225:157|238:119|273:102|303:124,1,187.5,2|8,0:2|0:0,0:0:0:0:
425,108,100392,2,0,P|438:36|375:0,1,156.249994039536,2|0,0:0|0:0,0:0:0:0:
81,33,100660,6,0,B|230:-4|382:118|377:207|323:229,1,375,2|0,3:2|0:0,0:0:0:0:
342,315,101062,2,0,B|328:358|278:384|245:356|246:291|282:289|295:325|284:333|334:316|338:299,1,187.5,2|0,3:2|0:0,0:0:0:0:
499,246,101330,6,0,P|443:307|221:367,1,281.25,10|0,0:0|0:0,0:0:0:0:
158,343,101597,2,0,P|160:312|176:289,1,46.875,2|0,0:0|0:0,0:0:0:0:
190,201,101731,6,0,B|168:163|62:162|126:220|-11:315|-129:151|-17:32|158:90|202:209,1,468.75,2|0,3:2|0:0,0:0:0:0:
254,125,102133,2,0,P|239:103|214:88,1,46.875,2|0,3:2|0:0,0:0:0:0:
85,13,102267,6,0,L|112:207,1,187.5,2|8,0:0|0:0,0:0:0:0:
124,302,102535,1,2,3:2:0:0:
47,287,102669,2,0,P|74:369|185:350,1,187.5
269,301,102937,6,0,B|258:249|313:211|335:237|337:238|340:245|393:263|430:226|420:175,1,234.374991059303,6|0,3:2|0:0,0:0:0:0:
350,155,103205,6,0,P|333:195|348:241,1,93.7500000000001,2|0,0:1|0:0,0:0:0:0:
505,76,103472,6,0,B|467:127|392:89|410:49|414:44|417:40|416:-4|363:-24|316:17,1,234.374991059303,10|0,0:0|0:0,0:0:0:0:
321,14,103740,2,0,P|306:56|329:86,1,78.1249970197678
269,301,103874,6,0,B|280:382|203:439|101:383|97:303|156:259|179:255|179:255|156:253|143:238|125:211|148:180,1,375,2|0,3:2|0:0,0:0:0:0:
0,253,104276,2,0,L|290:197,1,281.25,2|0,3:2|0:0,0:0:0:0:
392,170,104544,5,8,0:0:0:0:
457,264,104678,2,0,L|338:241,1,112.499992275238
132,383,104946,6,0,B|214:60|214:60|178:16|178:16|107:61,1,468.75,2|0,3:2|0:0,0:0:0:0:
40,161,105347,2,0,L|330:105,1,281.25,2|0,3:2|0:0,0:0:0:0:
449,108,105615,6,0,B|507:77|511:19|451:-33|385:-4|380:60,1,234.374991059303,10|0,0:0|0:0,0:0:0:0:
369,48,105883,2,0,P|353:31|336:31,1,37.4999974250794,2|0,0:0|0:0,0:0:0:0:
346,242,106017,6,0,B|343:307|392:340|467:314|474:242|422:206,1,234.374991059303,2|0,3:2|0:0,0:0:0:0:
437,202,106285,2,0,P|459:196|468:181,1,37.4999974250794,2|0,0:0|0:0,0:0:0:0:
257,182,106419,6,0,B|201:147|148:172|133:250|192:293|249:265,1,234.374991059303,2|0,3:2|0:0,0:0:0:0:
246,280,106687,2,0,P|239:302|247:317,1,37.4999974250794,8|0,0:0|0:0,0:0:0:0:
457,384,106821,6,0,P|297:219|89:82,1,468.75,2|0,3:2|0:0,0:0:0:0:
0,118,107222,6,0,B|38:152|103:122|87:76|83:75|79:74|61:48|71:-2|130:-13|174:36,1,234.374991059303,2|0,3:2|0:0,0:0:0:0:
240,56,107490,6,0,P|201:73|172:117,1,93.7500000000001,2|0,0:1|0:0,0:0:0:0:
0,247,107758,6,0,B|38:213|103:243|87:289|83:290|79:291|61:317|71:367|130:378|174:329,1,234.374991059303,10|0,0:2|0:0,0:0:0:0:
151,370,108026,2,0,L|167:287,1,78.1249970197678
0,118,108160,6,0,B|22:79|141:38|295:189|293:309,1,375,2|0,3:2|0:0,0:0:0:0:
136,192,108562,2,0,P|144:138|189:110,1,93.7500000000001,2|0,3:2|0:0,0:0:0:0:
301,22,108696,6,0,P|378:59|375:137,1,156.249994039536,2|8,0:0|0:0,0:0:0:0:
491,107,108963,2,0,P|482:192|408:215,1,156.249994039536,2|0,0:0|0:0,0:0:0:0:
220,232,109231,6,0,B|171:257|183:313|236:343|275:312|273:281|273:277|272:271|322:222|423:251|415:392|315:422|259:350,1,375,2|0,3:2|0:0,0:0:0:0:
444,361,109633,2,0,P|355:316|152:278,1,281.25,2|0,3:2|0:0,0:0:0:0:
18,286,109901,6,0,B|-11:293|-31:344|-11:378|-11:378|38:404|80:376|82:331,1,234.374991059303,10|0,0:0|0:0,0:0:0:0:
129,338,110169,2,0,L|93:346,1,37.4999974250794,2|0,0:0|0:0,0:0:0:0:
346,178,110303,6,0,B|378:199|385:251|338:280|338:280|298:281|265:243|270:207,1,234.374991059303,2|0,3:2|0:0,0:0:0:0:
213,198,110571,2,0,L|249:205,1,37.4999974250794,2|0,0:0|0:0,0:0:0:0:
85,30,110705,6,0,B|119:13|168:32|170:87|170:87|150:122|101:132|71:104,1,234.374991059303,2|0,3:2|0:0,0:0:0:0:
21,134,110972,2,0,L|57:126,1,37.4999974250794,8|0,0:0|0:0,0:0:0:0:
470,28,111106,6,0,P|258:171|109:375,1,468.75,2|0,3:2|0:0,0:0:0:0:
327,370,111508,6,0,B|368:407|445:370|417:279|380:244|292:271,1,234.374991059303,6|0,3:2|0:0,0:0:0:0:
208,266,111776,6,0,B|197:303|226:325|271:315,1,93.7500000000001,2|0,0:1|0:0,0:0:0:0:
440,186,112044,6,0,B|538:179|543:95|501:38|433:49|411:111,1,234.374991059303,10|0,0:0|0:0,0:0:0:0:
376,17,112312,2,0,P|341:45|356:95,1,78.1249970197678
491,283,112446,6,0,L|76:202,1,375,2|0,3:2|0:0,0:0:0:0:
239,121,112847,2,0,B|223:169|266:200|295:191|301:190|304:189|323:173|377:204|371:274|307:305|268:264,1,281.25,2|0,3:2|0:0,0:0:0:0:
48,200,113115,5,8,0:0:0:0:
0,130,113249,2,0,L|119:113,1,112.499992275238,2|0,0:0|0:0,0:0:0:0:
460,56,113517,6,0,B|448:-3|355:-29|306:49|353:100|353:95|355:90|381:113|363:187|300:214|227:158|237:99,1,375,2|0,3:2|0:0,0:0:0:0:
195,91,113919,2,0,L|475:138,1,281.25,2|0,3:2|0:0,0:0:0:0:
427,261,114187,6,0,B|448:284|465:270|512:312|492:372|427:396|357:362|382:266|438:273,1,234.374991059303,10|0,0:0|0:0,0:0:0:0:
415,254,114455,2,0,L|403:212,1,37.4999974250794,2|0,0:0|0:0,0:0:0:0:
339,118,114588,6,0,B|360:95|377:109|424:67|404:7|339:-17|269:17|294:113|350:106,1,234.374991059303,2|0,3:2|0:0,0:0:0:0:
327,125,114856,2,0,L|315:167,1,37.4999974250794,2|0,0:0|0:0,0:0:0:0:
235,257,114990,6,0,B|204:250|208:228|148:208|106:256|118:324|182:368|253:298|219:253,1,234.374991059303,2|0,3:2|0:0,0:0:0:0:
247,263,115258,2,0,L|289:252,1,37.4999974250794,8|0,0:0|0:0,0:0:0:0:
296,18,115392,6,0,B|511:5|599:211|490:311|405:266|399:197,1,468.75,2|0,3:2|0:0,0:0:0:0:
156,365,115794,6,0,B|127:373|86:308|163:172|247:175,1,234.374991059303,2|0,3:2|0:0,0:0:0:0:
286,97,116062,6,0,P|310:135|289:174,1,93.7500000000001,2|0,0:1|0:0,0:0:0:0:
26,179,116330,6,0,B|15:129|-40:149|-45:228|49:251|122:199|109:113,1,234.374991059303,10|0,0:0|0:0,0:0:0:0:
165,81,116597,2,0,B|168:52|138:30|106:45|128:73|142:59,1,78.1249970197678
156,365,116731,6,0,B|136:209|335:117|413:209|397:284|321:295,1,375,2|0,3:2|0:0,0:0:0:0:
293,382,117133,1,2,3:2:0:0:
231,333,117267,2,0,P|183:283|85:327,1,156.249994039536,2|8,0:0|0:0,0:0:0:0:
1,217,117535,2,0,P|29:153|136:161,1,156.249994039536,2|0,0:0|0:0,0:0:0:0:
264,10,117803,6,0,L|209:412,1,375,2|0,3:2|0:0,0:0:0:0:
298,276,118472,6,0,B|362:275|381:201|341:117|241:123|207:232|240:248|187:290|107:246|90:173|134:131|198:131,1,437.4999833107,2|0,3:2|0:0,0:0:0:0:
318,99,119008,6,0,B|331:47|331:47|279:32|279:32|263:84|263:84|316:102,1,218.74999165535,2|0,3:2|0:0,3:0:0:0:
186,316,119544,6,0,B|179:291|179:291|204:283|204:283|212:308|212:308|186:317,1,93.7499964237214,2|0,3:2|0:0,3:0:0:0:
215,384,120080,5,4,0:0:0:0:
