osu file format v14

[General]
AudioFilename: audio.mp3
AudioLeadIn: 0
PreviewTime: 83664
Countdown: 0
SampleSet: Soft
StackLeniency: 0.3
Mode: 0
LetterboxInBreaks: 0
WidescreenStoryboard: 1

[Editor]
Bookmarks: 80,8651,17222,30080,34365,51508,68651,85794,120080
DistanceSpacing: 1.5
BeatDivisor: 6
GridSize: 32
TimelineZoom: 5.299997

[Metadata]
Title:Constant Moderato
TitleUnicode:Constant Moderato
Artist:Mitsukiyo
ArtistUnicode:ミツキヨ
Creator:araran
Version:Pino's Lateran
Source:ブルーアーカイブ -Blue Archive-
Tags:Yostar nat games Blue Archive ブルアカ blueaka mobile rpg instrumental video game electronic Pino -[Pino]- Sunazuka Akira xidorn lushifer Celine
BeatmapID:3373417
BeatmapSetID:1640689

[Difficulty]
HPDrainRate:6.4
CircleSize:4.3
OverallDifficulty:9
ApproachRate:9.6
SliderMultiplier:3.59999990463257
SliderTickRate:1

[Events]
//Background and Video events
0,0,"bg.jpg",0,0
//Break Periods
//Storyboard Layer 0 (Background)
//Storyboard Layer 1 (Fail)
//Storyboard Layer 2 (Pass)
//Storyboard Layer 3 (Foreground)
//Storyboard Layer 4 (Overlay)
//Storyboard Sound Samples

[TimingPoints]
80,535.714285714286,4,2,1,50,1,0
80,-100,4,2,1,50,0,0
347,-333.333333333333,4,2,1,50,0,0
1687,-333.333333333333,4,2,2,50,0,0
2222,-333.333333333333,4,2,1,50,0,0
3830,-333.333333333333,4,2,2,50,0,0
4365,-333.333333333333,4,2,1,50,0,0
5972,-333.333333333333,4,2,2,50,0,0
6508,-333.333333333333,4,2,1,50,0,0
8115,-111.111111111111,4,2,2,50,0,0
8651,-111.111111111111,4,2,1,50,0,0
8919,-133.333333333333,4,2,1,50,0,0
14812,-100,4,2,1,50,0,0
15080,-100,4,2,1,65,0,0
15749,-100,4,2,1,50,0,0
16553,-100,4,2,1,70,0,0
16687,-100,4,2,2,80,0,0
16955,-200,4,2,1,70,0,0
17222,-83.3333333333333,4,2,7,80,0,1
17490,-200,4,2,7,80,0,1
17758,-66.6666666666667,4,2,7,80,0,1
18026,-200,4,2,7,80,0,1
18160,-80,4,2,7,80,0,1
18562,-100,4,2,7,80,0,1
18963,-133.333333333333,4,2,7,80,0,1
19231,-83.3333333333333,4,2,7,80,0,1
19901,-66.6666666666667,4,2,7,80,0,1
20303,-76.9230769230769,4,2,7,80,0,1
20571,-83.3333333333333,4,2,7,80,0,1
20705,-66.6666666666667,4,2,7,80,0,1
20972,-200,4,2,7,80,0,1
21106,-100,4,2,7,80,0,1
21508,-83.3333333333333,4,2,7,80,0,1
21776,-200,4,2,7,80,0,1
22044,-66.6666666666667,4,2,7,80,0,1
22312,-200,4,2,7,80,0,1
22446,-80,4,2,7,80,0,1
22847,-100,4,2,7,80,0,1
22981,-66.6666666666667,4,2,7,80,0,1
23249,-76.9230769230769,4,2,7,80,0,1
23517,-83.3333333333333,4,2,7,80,0,1
23919,-100,4,2,7,80,0,1
24187,-80,4,2,7,80,0,1
24455,-71.4285714285714,4,2,7,80,0,1
24588,-66.6666666666667,4,2,7,80,0,1
24856,-76.9230769230769,4,2,7,80,0,1
24990,-80,4,2,7,80,0,1
25392,-66.6666666666667,4,2,7,80,0,1
25794,-80,4,2,7,80,0,1
26062,-333.333333333333,4,2,7,80,0,1
26330,-66.6666666666667,4,2,7,80,0,1
26597,-200,4,2,7,80,0,1
26731,-80,4,2,7,80,0,1
27133,-100,4,2,7,80,0,1
27535,-133.333333333333,4,2,7,80,0,1
27803,-83.3333333333333,4,2,7,80,0,1
28472,-66.6666666666667,4,2,7,80,0,1
28874,-76.9230769230769,4,2,7,80,0,1
29142,-66.6666666666667,4,2,7,80,0,1
29812,-200,4,2,7,80,0,1
30080,-200,4,2,7,50,0,0
32222,-103.448275862069,4,2,1,50,0,0
33796,-87.719298245614,4,2,7,50,0,0
33983,-103.448275862069,4,2,1,50,0,0
34097,-103.448275862069,4,2,1,50,0,0
34365,-100,4,2,1,60,0,0
34633,-83.3333333333333,4,2,1,60,0,0
35169,-100,4,2,1,60,0,0
38383,-133.333333333333,4,2,1,60,0,0
38651,-66.6666666666667,4,2,1,60,0,0
38919,-83.3333333333333,4,2,1,60,0,0
39455,-100,4,2,1,60,0,0
42401,-83.3333333333333,4,2,1,60,0,0
42937,-66.6666666666667,4,2,1,60,0,0
43205,-83.3333333333333,4,2,1,60,0,0
43740,-100,4,2,1,60,0,0
47222,-66.6666666666667,4,2,1,60,0,0
47490,-83.3333333333333,4,2,1,60,0,0
48026,-100,4,2,1,60,0,0
50972,-66.6666666666667,4,2,1,60,0,0
51508,-50,4,2,1,60,0,0
51776,-66.6666666666667,4,2,1,60,0,0
52312,-100,4,2,1,60,0,0
55258,-83.3333333333333,4,2,1,60,0,0
55794,-66.6666666666667,4,2,1,60,0,0
56062,-83.3333333333333,4,2,1,60,0,0
56597,-100,4,2,1,60,0,0
59544,-83.3333333333333,4,2,1,60,0,0
60080,-66.6666666666667,4,2,1,60,0,0
60347,-83.3333333333333,4,2,1,60,0,0
60883,-100,4,2,1,60,0,0
63830,-83.3333333333333,4,2,1,60,0,0
64365,-66.6666666666667,4,2,1,60,0,0
64633,-83.3333333333333,4,2,1,60,0,0
65169,-100,4,2,1,60,0,0
68115,-64.7249190938511,4,2,1,60,0,0
68651,-200,4,2,2,50,0,0
69452,-200,4,2,1,50,0,0
69455,-200,4,2,1,50,0,0
72401,-133.333333333333,4,2,2,50,0,0
72937,-200,4,2,1,50,0,0
76687,-66.6666666666667,4,2,2,50,0,0
76955,-333.333333333333,4,2,1,50,0,0
77222,-100,4,2,1,50,0,0
81508,-142.857142857143,4,2,1,50,0,0
82044,-111.111111111111,4,2,1,50,0,0
82580,-90.9090909090908,4,2,1,50,0,0
83115,-100,4,2,1,50,0,0
83383,-133.333333333333,4,2,1,50,0,0
83919,-50,4,2,1,50,0,0
84187,-50,4,2,7,50,0,0
84455,-50,4,2,1,50,0,0
85258,-55.5555555555556,4,2,2,50,0,0
85392,-55.5555555555556,4,2,1,50,0,0
85526,-200,4,2,1,50,0,0
85794,-66.6666666666667,4,2,7,80,0,1
86062,-133.333333333333,4,2,7,80,0,1
86330,-55.5555555555556,4,2,7,80,0,1
86597,-133.333333333333,4,2,7,80,0,1
86731,-60.6060606060606,4,2,7,80,0,1
87133,-200,4,2,7,80,0,1
87267,-100,4,2,7,80,0,1
87535,-200,4,2,7,80,0,1
87803,-66.6666666666667,4,2,7,80,0,1
88472,-55.5555555555556,4,2,7,80,0,1
88740,-50,4,2,7,80,0,1
88874,-55.5555555555556,4,2,7,80,0,1
89142,-66.6666666666667,4,2,7,80,0,1
89276,-55.5555555555556,4,2,7,80,0,1
89544,-200,4,2,7,80,0,1
89678,-83.3333333333333,4,2,7,80,0,1
90080,-66.6666666666667,4,2,7,80,0,1
90347,-133.333333333333,4,2,7,80,0,1
90615,-55.5555555555556,4,2,7,80,0,1
90883,-133.333333333333,4,2,7,80,0,1
91017,-60.6060606060606,4,2,7,80,0,1
91419,-66.6666666666667,4,2,7,80,0,1
91553,-55.5555555555556,4,2,7,80,0,1
91821,-60.6060606060606,4,2,7,80,0,1
92088,-66.6666666666667,4,2,7,80,0,1
92490,-83.3333333333333,4,2,7,80,0,1
92758,-66.6666666666667,4,2,7,80,0,1
93026,-60.6060606060606,4,2,7,80,0,1
93160,-55.5555555555556,4,2,7,80,0,1
93428,-60.6060606060606,4,2,7,80,0,1
93562,-133.333333333333,4,2,7,80,0,1
93696,-333.333333333333,4,2,7,80,0,1
93830,-66.6666666666667,4,2,7,80,0,1
93963,-55.5555555555556,4,2,7,80,0,1
94365,-66.6666666666667,4,2,7,80,0,1
94633,-133.333333333333,4,2,7,80,0,1
94901,-55.5555555555556,4,2,7,80,0,1
95169,-133.333333333333,4,2,7,80,0,1
95303,-60.6060606060606,4,2,7,80,0,1
95705,-200,4,2,7,80,0,1
95838,-100,4,2,7,80,0,1
96106,-200,4,2,7,80,0,1
96374,-66.6666666666667,4,2,7,80,0,1
97044,-60.6060606060606,4,2,7,80,0,1
97312,-55.5555555555556,4,2,7,80,0,1
97446,-60.6060606060606,4,2,7,80,0,1
97713,-66.6666666666667,4,2,7,80,0,1
97847,-55.5555555555556,4,2,7,80,0,1
98115,-133.333333333333,4,2,7,80,0,1
98249,-83.3333333333333,4,2,7,80,0,1
98651,-66.6666666666667,4,2,7,80,0,1
98919,-133.333333333333,4,2,7,80,0,1
99187,-55.5555555555556,4,2,7,80,0,1
99455,-133.333333333333,4,2,7,80,0,1
99588,-60.6060606060606,4,2,7,80,0,1
99990,-66.6666666666667,4,2,7,80,0,1
100124,-55.5555555555556,4,2,7,80,0,1
100392,-60.6060606060606,4,2,7,80,0,1
100660,-66.6666666666667,4,2,7,80,0,1
101062,-44.4444444444445,4,2,7,80,0,1
101330,-50,4,2,7,80,0,1
101597,-55.5555555555556,4,2,7,80,0,1
102133,-60.6060606060606,4,2,7,80,0,1
102267,-66.6666666666667,4,2,7,80,0,1
102401,-133.333333333333,4,2,7,80,0,1
102535,-50,4,2,7,80,0,1
102803,-50,4,2,7,80,0,0
102937,-44.4444444444445,4,2,7,80,0,1
103205,-133.333333333333,4,2,7,80,0,1
103472,-45.4545454545455,4,2,7,80,0,1
103740,-133.333333333333,4,2,7,80,0,1
103874,-50,4,2,7,80,0,1
104276,-133.333333333333,4,2,7,80,0,1
104410,-55.5555555555556,4,2,7,80,0,1
104678,-100,4,2,7,80,0,1
104946,-55.5555555555556,4,2,7,80,0,1
105615,-50,4,2,7,80,0,1
105883,-45.4545454545455,4,2,7,80,0,1
106017,-50,4,2,7,80,0,1
106285,-55.5555555555556,4,2,7,80,0,1
106419,-50,4,2,7,80,0,1
106687,-200,4,2,7,80,0,1
106821,-66.6666666666667,4,2,7,80,0,1
107222,-55.5555555555556,4,2,7,80,0,1
107490,-133.333333333333,4,2,7,80,0,1
107758,-45.4545454545455,4,2,7,80,0,1
108026,-133.333333333333,4,2,7,80,0,1
108160,-50,4,2,7,80,0,1
108562,-55.5555555555556,4,2,7,80,0,1
108696,-45.4545454545455,4,2,7,80,0,1
108963,-50,4,2,7,80,0,1
109231,-55.5555555555556,4,2,7,80,0,1
109633,-66.6666666666667,4,2,7,80,0,1
109901,-55.5555555555556,4,2,7,80,0,1
110169,-50,4,2,7,80,0,1
110303,-45.4545454545455,4,2,7,80,0,1
110705,-100,4,2,7,80,0,1
110838,-250,4,2,7,80,0,1
110972,-45.4545454545455,4,2,7,80,0,1
111106,-50,4,2,7,80,0,1
111508,-55.5555555555556,4,2,7,80,0,1
111776,-133.333333333333,4,2,7,80,0,1
112044,-45.4545454545455,4,2,7,80,0,1
112312,-133.333333333333,4,2,7,80,0,1
112446,-50,4,2,7,80,0,1
112847,-133.333333333333,4,2,7,80,0,1
112981,-55.5555555555556,4,2,7,80,0,1
113249,-100,4,2,7,80,0,1
113517,-55.5555555555556,4,2,7,80,0,1
114187,-50,4,2,7,80,0,1
114455,-45.4545454545455,4,2,7,80,0,1
114588,-50,4,2,7,80,0,1
114856,-55.5555555555556,4,2,7,80,0,1
114990,-50,4,2,7,80,0,1
115258,-200,4,2,7,80,0,1
115392,-66.6666666666667,4,2,7,80,0,1
115794,-55.5555555555556,4,2,7,80,0,1
116062,-133.333333333333,4,2,7,80,0,1
116330,-45.4545454545455,4,2,7,80,0,1
116597,-133.333333333333,4,2,7,80,0,1
116731,-50,4,2,7,80,0,1
117133,-55.5555555555556,4,2,7,80,0,1
117267,-45.4545454545455,4,2,7,80,0,1
117535,-50,4,2,7,80,0,1
117803,-111.111111111111,4,2,7,80,0,1
117937,-111.111111111111,4,2,7,80,0,0
118472,-66.6666666666667,4,2,7,80,0,1
119008,-100,4,2,7,80,0,1
119544,-83.3333333333333,4,2,7,80,0,1
120080,-83.3333333333333,4,2,3,80,0,0

[Colours]
Combo1 : 255,255,166
Combo2 : 145,255,255

[HitObjects]
108,205,80,5,0,0:0:0:0:
108,205,347,2,0,L|103:246,1,26.9999992847443
42,334,615,5,0,0:0:0:0:
131,305,749,1,0,0:0:0:0:
201,367,883,1,0,0:0:0:0:
205,376,1419,5,0,0:0:0:0:
127,296,1687,2,0,P|127:263|151:239,1,53.9999985694886,8|0,0:0|0:0,0:0:0:0:
339,232,2222,5,0,0:0:0:0:
339,232,2490,2,0,L|300:240,1,26.9999992847443
311,367,2758,5,0,0:0:0:0:
381,305,2892,1,0,0:0:0:0:
470,334,3026,1,0,0:0:0:0:
466,342,3562,5,0,0:0:0:0:
372,301,3830,2,0,P|358:271|369:239,1,53.9999985694886,8|0,0:0|0:0,0:0:0:0:
377,102,4365,5,0,0:0:0:0:
377,102,4633,2,0,L|383:141,1,26.9999992847443
451,190,4901,5,0,0:0:0:0:
497,95,5035,1,0,0:0:0:0:
423,19,5169,1,0,0:0:0:0:
425,29,5705,5,0,0:0:0:0:
381,128,5972,2,0,P|351:113|323:117,1,53.9999985694886,8|0,0:0|0:0,0:0:0:0:
135,102,6508,5,0,0:0:0:0:
135,102,6776,2,0,L|129:141,1,26.9999992847443
61,190,7044,5,0,0:0:0:0:
15,95,7178,1,0,0:0:0:0:
89,19,7312,1,0,0:0:0:0:
203,52,7847,5,0,0:0:0:0:
143,139,8115,2,0,B|226:102|261:190|261:190|294:272|368:236,1,283.499992489815,10|0,0:0|0:0,0:0:0:0:
337,161,8651,5,0,3:0:0:0:
484,140,8919,2,0,L|400:152,1,67.4999982118609,0|8,0:0|0:0,0:0:0:0:
333,174,9187,5,0,3:2:0:0:
448,256,9455,6,0,L|451:229,2,16.8749995529652,8|0|0,3:2|0:0|0:0,0:0:0:0:
476,384,9722,6,0,P|417:332|337:334,1,134.999996423722,0|0,3:0|0:0,0:0:0:0:
317,246,10124,1,8,0:0:0:0:
235,352,10258,6,0,P|271:341|291:304,1,67.4999982118609,0|0,3:0|0:0,0:0:0:0:
316,235,10526,1,8,3:2:0:0:
214,264,10794,6,0,L|52:290,1,134.999996423722,0|0,3:0|0:0,0:0:0:0:
0,240,11196,1,8,0:0:0:0:
0,384,11330,6,0,L|11:307,1,67.4999982118609,0|0,3:2|0:0,0:0:0:0:
1,210,11597,2,0,L|6:235,2,16.8749995529652,8|0|0,3:2|0:0|0:0,0:0:0:0:
89,194,11865,5,0,3:0:0:0:
94,160,11999,1,0,0:0:0:0:
187,125,12133,5,0,0:0:0:0:
170,117,12267,1,8,0:0:0:0:
146,34,12401,6,0,L|68:49,1,67.4999982118609,0|0,3:0|0:0,0:0:0:0:
14,76,12669,2,0,L|92:61,1,67.4999982118609,8|0,3:2|0:0,0:0:0:0:
274,95,12937,5,0,3:0:0:0:
346,79,13071,1,8,0:0:0:0:
400,131,13205,1,0,3:0:0:0:
472,115,13338,1,8,0:0:0:0:
392,140,13472,6,0,L|386:217,1,67.4999982118609,0|0,3:0|0:0,0:0:0:0:
424,42,13740,2,0,L|419:16,2,16.8749995529652,8|0|0,3:2|0:0|0:0,0:0:0:0:
492,256,14008,5,0,3:0:0:0:
453,249,14142,1,8,0:0:0:0:
473,360,14276,5,0,3:0:0:0:
512,367,14410,1,8,0:0:0:0:
396,310,14544,6,0,P|364:293|316:300,1,67.4999982118609,0|0,3:0|0:0,0:0:0:0:
238,327,14812,2,0,P|198:357|136:345,1,89.9999976158143,8|0,3:2|0:0,0:0:0:0:
35,288,15080,5,0,3:0:0:0:
256,192,15146,12,8,16553,0:0:0:0:
31,33,16687,5,4,0:0:0:0:
8,98,16955,6,0,P|31:77|31:33,1,67.4999982118607
221,89,17222,6,0,P|142:97|60:192,1,161.999995708466,6|0,3:2|0:0,0:0:0:0:
11,181,17490,6,0,P|7:203|12:182,1,67.4999982118607,2|0,0:1|0:0,0:0:0:0:
169,384,17758,6,0,P|149:266|65:218,1,202.499994635582,10|0,0:0|0:0,0:0:0:0:
79,147,18026,6,0,L|75:129,2,11.2499997019768
356,265,18160,6,0,P|263:185|152:175,1,224.999994039536,2|0,3:2|0:0,0:0:0:0:
238,263,18562,6,0,P|283:336|290:390,1,134.999996423721,2|0,3:2|0:0,0:0:0:0:
411,176,18830,5,8,0:0:0:0:
427,304,18963,2,0,P|419:326|370:336,1,67.4999982118609,2|0,0:0|0:0,0:0:0:0:
511,380,19231,6,0,P|484:314|336:270,1,215.999994277954,2|0,3:2|0:0,0:0:0:0:
302,177,19633,2,0,P|378:158|418:90,1,161.999995708466,2|0,3:2|0:0,0:0:0:0:
512,16,19901,6,0,P|498:103|494:230,1,202.499994635582,10|0,0:0|0:0,0:0:0:0:
408,75,20169,2,0,P|388:44|410:-1,1,67.4999982118607,2|0,0:0|0:0,0:0:0:0:
390,185,20303,6,0,P|321:122|234:121,1,175.499995350838,2|0,3:2|0:0,0:0:0:0:
154,89,20571,2,0,P|150:110|161:90,1,53.9999985694886,2|0,0:2|0:0,0:0:0:0:
262,0,20705,6,0,P|194:56|52:71,1,202.499994635582,2|0,3:2|0:0,0:0:0:0:
10,50,20972,6,0,P|1:44|5:28,1,22.4999994039536,8|0,0:0|0:0,0:0:0:0:
117,214,21106,2,0,B|124:175|88:146|41:148|41:148|14:186|17:226|51:250,1,224.999994039536,2|0,3:2|0:0,0:0:0:0:
110,298,21508,6,0,P|189:303|258:359,1,161.999995708466,2|0,3:2|0:0,0:0:0:0:
340,337,21776,6,0,B|359:350|347:365|347:365|328:360|334:337,1,67.4999982118607,2|0,0:1|0:0,0:0:0:0:
258,84,22044,6,0,P|301:172|284:282,1,202.499994635582,10|0,0:0|0:0,0:0:0:0:
253,351,22312,6,0,L|241:362,2,11.2499997019768
496,165,22446,6,0,B|482:213|436:260|373:266|373:266|408:262|427:229,1,224.999994039536,2|0,3:2|0:0,0:0:0:0:
387,147,22847,6,0,P|388:164|381:148,1,44.9999988079071,2|0,3:2|0:0,0:0:0:0:
289,273,22981,6,0,P|303:200|281:114,1,134.999996423721,2|8,0:0|0:0,0:0:0:0:
374,266,23249,2,0,P|441:241|483:195,1,116.999996900559,2|0,0:0|0:0,0:0:0:0:
253,351,23517,6,0,P|189:303|53:325,1,215.999994277954,2|0,3:2|0:0,0:0:0:0:
0,221,23919,2,0,P|38:233|1:201,1,134.999996423721,2|0,3:2|0:0,0:0:0:0:
122,101,24187,6,0,P|120:170|206:216,1,168.749995529652,10|0,0:0|0:0,0:0:0:0:
256,159,24455,2,0,P|227:172|206:195,1,62.99999833107,2|0,0:0|0:0,0:0:0:0:
361,9,24588,6,0,B|288:-20|257:53|257:53|236:101|194:84,1,202.499994635582,2|0,3:2|0:0,0:0:0:0:
100,0,24856,2,0,P|132:13|154:45,1,58.4999984502793,2|0,0:0|0:0,0:0:0:0:
341,194,24990,6,0,P|339:114|358:9,1,168.749995529652,2|0,3:2|0:0,0:0:0:0:
438,0,25258,1,8,0:0:0:0:
512,234,25392,6,0,B|436:204|416:114|416:114|443:208|400:290,1,337.499991059303,2|0,3:2|0:0,0:0:0:0:
318,297,25794,6,0,B|382:264|420:326|420:326|436:352|462:363,1,168.749995529652,6|0,3:2|0:0,0:0:0:0:
467,364,26062,6,0,P|490:365|508:358,1,40.4999989271165,2|0,0:1|0:0,0:0:0:0:
243,229,26330,6,0,B|182:217|163:273|163:273|144:330|84:319,1,202.499994635582,10|0,0:0|0:0,0:0:0:0:
94,212,26597,6,0,L|91:198,2,11.2499997019768
0,57,26731,6,0,B|22:121|86:108|86:108|152:96|174:159,1,224.999994039536,2|0,3:2|0:0,0:0:0:0:
6,299,27133,6,0,B|32:268|6:239|6:239|-19:208|6:177,1,134.999996423721,2|0,3:2|0:0,0:0:0:0:
75,27,27401,5,8,0:0:0:0:
200,86,27535,2,0,P|178:110|137:116,1,67.4999982118609,2|0,0:0|0:0,0:0:0:0:
278,148,27803,6,0,B|278:91|335:43|403:54|403:54|347:67|340:121,1,269.999992847443,2|0,3:2|0:0,0:0:0:0:
470,209,28205,2,0,B|481:177|459:138|418:130|418:130|447:149|440:181,1,161.999995708466,2|0,3:2|0:0,0:0:0:0:
296,243,28472,6,0,B|342:238|364:188|364:188|337:257|385:313,1,202.499994635582,10|0,0:0|0:0,0:0:0:0:
483,358,28740,2,0,P|469:312|435:281,1,67.4999982118607,2|0,0:0|0:0,0:0:0:0:
214,247,28874,6,0,P|286:241|385:316,1,175.499995350838,2|0,3:2|0:0,0:0:0:0:
177,320,29142,6,0,B|162:362|120:365|93:345|83:306|115:274|115:274|158:233|132:170|64:165|39:216,1,337.499991059303,2|0,0:0|0:0,0:0:0:0:
0,311,29544,5,8,0:0:0:0:
133,96,29678,1,0,3:0:0:0:
214,247,29812,6,0,P|240:265|278:264,1,67.4999982118607
379,45,30080,5,2,3:1:0:0:
332,104,30615,5,2,0:1:0:0:
373,167,31151,5,2,0:1:0:0:
447,146,31687,5,2,0:1:0:0:
450,72,32222,6,0,B|501:107|501:107|446:146|446:146|421:207|421:207|372:166|372:166|304:161|304:161|332:103|332:103|311:33|311:33|379:45|379:45|435:6|435:6|450:72,1,652.499982714653,2|0,0:1|0:0,0:0:0:0:
503,201,33294,5,8,0:0:0:0:
433,303,33428,1,8,0:0:0:0:
415,311,33495,1,8,0:0:0:0:
395,311,33562,1,8,0:0:0:0:
276,282,33729,5,8,0:0:0:0:
346,240,33796,2,0,P|428:254|398:337,1,143.999991790772,8|8,0:0|0:0,0:0:0:0:
434,384,34097,1,8,0:0:0:0:
223,167,34365,6,0,P|264:256|268:307,1,134.999996423721,2|0,3:2|0:0,0:0:0:0:
196,316,34633,6,0,B|152:294|127:340|127:340|104:383|62:367,1,161.999995708466,2|0,0:0|0:0,0:0:0:0:
0,327,34901,1,10,0:0:0:0:
48,174,35169,6,0,L|43:144,2,22.4999994039536
69,294,35303,1,2,3:2:0:0:
151,92,35571,6,0,P|153:141|126:171,1,89.9999976158143,2|0,0:0|3:0,0:0:0:0:
50,185,35838,1,0,0:0:0:0:
0,50,35972,6,0,L|89:33,1,89.9999976158143,10|0,0:0|0:0,0:0:0:0:
237,152,36240,2,0,B|256:193|256:193|303:162,1,89.9999976158143
446,105,36508,5,2,3:2:0:0:
357,86,36776,2,0,P|394:115|440:110,1,89.9999976158143,2|0,0:0|0:0,0:0:0:0:
491,30,37044,5,10,0:0:0:0:
483,198,37312,6,0,L|487:225,2,22.4999994039536
434,112,37446,2,0,P|390:129|371:171,1,89.9999976158143,2|0,3:2|0:0,0:0:0:0:
412,337,37713,2,0,P|418:290|391:253,1,89.9999976158143,2|0,0:0|3:0,0:0:0:0:
305,231,37981,1,0,0:0:0:0:
483,198,38115,5,10,0:0:0:0:
312,230,38249,1,0,0:0:0:0:
180,255,38383,2,0,L|188:332,1,67.4999982118607
272,377,38651,6,0,B|273:309|273:309|248:392,1,134.999996423721,2|0,3:2|0:0,0:0:0:0:
193,313,38919,6,0,B|149:291|124:337|124:337|101:380|59:364,1,161.999995708466,2|0,0:0|0:0,0:0:0:0:
62,282,39187,1,10,0:0:0:0:
60,154,39455,6,0,L|63:121,2,22.4999994039536
49,286,39588,1,2,3:2:0:0:
132,178,39856,6,0,P|163:137|213:126,1,89.9999976158143,2|0,0:0|3:0,0:0:0:0:
284,145,40124,1,0,0:0:0:0:
73,22,40258,6,0,L|178:41,1,89.9999976158143,10|0,0:0|0:0,0:0:0:0:
284,58,40526,2,0,B|307:19|307:19|313:78,1,89.9999976158143
448,124,40794,6,0,P|436:158|393:134,1,89.9999976158143,2|0,3:2|0:0,0:0:0:0:
409,45,41062,2,0,L|497:28,1,89.9999976158143,2|0,0:0|0:0,0:0:0:0:
493,213,41330,1,10,0:0:0:0:
409,45,41597,6,0,L|413:7,2,22.4999994039536
497,222,41731,1,2,3:2:0:0:
367,327,41999,6,0,P|381:279|412:253,1,89.9999976158143,2|0,0:0|3:0,0:0:0:0:
501,231,42267,1,0,0:0:0:0:
484,328,42401,6,0,B|523:305|566:396|451:430|401:316|401:316|354:215|266:263,1,377.99998998642,10|0,0:0|0:0,0:0:0:0:
173,220,42937,6,0,B|200:280|200:280|184:209,1,134.999996423721,2|0,3:2|0:0,0:0:0:0:
186,384,43205,6,0,B|158:313|87:330|87:330|106:331|122:346,1,161.999995708466,2|0,0:0|0:0,0:0:0:0:
12,362,43472,1,10,0:0:0:0:
250,340,43740,6,0,L|279:336,2,22.4999994039536
1,364,43874,1,2,3:2:0:0:
60,258,44142,6,0,P|82:236|83:176,1,89.9999976158143,2|0,0:0|3:0,0:0:0:0:
87,331,44410,1,0,0:0:0:0:
87,99,44544,6,0,L|-8:120,1,89.9999976158143,10|0,0:0|0:0,0:0:0:0:
159,155,44812,2,0,P|181:177|241:178,1,89.9999976158143
310,135,45080,5,2,3:2:0:0:
345,48,45347,6,0,B|349:3|349:3|323:47,1,89.9999976158143,2|0,0:0|0:0,0:0:0:0:
316,147,45615,1,10,0:0:0:0:
483,130,45883,6,0,L|505:126,2,22.4999994039536
322,159,46017,1,2,3:2:0:0:
463,257,46285,6,0,P|444:211|395:196,1,89.9999976158143,2|0,0:0|3:0,0:0:0:0:
328,171,46553,1,0,0:0:0:0:
345,48,46687,5,10,0:0:0:0:
328,177,46821,1,0,0:0:0:0:
314,274,46955,2,0,L|326:365,1,89.9999976158143
407,322,47222,6,0,B|466:290|466:290|400:306,1,134.999996423721,2|0,3:2|0:0,0:0:0:0:
303,283,47490,6,0,B|262:254|199:280|190:333|190:333|198:341|207:346,1,161.999995708466,2|0,0:0|0:0,0:0:0:0:
116,361,47758,1,10,0:0:0:0:
100,239,48026,6,0,L|97:216,2,22.4999994039536
118,372,48160,1,2,3:2:0:0:
42,315,48428,6,0,P|7:271|-33:267,1,89.9999976158143,2|0,0:0|3:0,0:0:0:0:
120,383,48696,1,0,0:0:0:0:
98,217,48830,6,0,L|86:121,1,89.9999976158143,10|0,0:0|0:0,0:0:0:0:
194,6,49097,2,0,P|164:31|168:94,1,89.9999976158143
256,143,49365,5,2,3:2:0:0:
385,118,49633,2,0,P|411:128|385:117,1,89.9999976158143,2|0,0:0|0:0,0:0:0:0:
252,152,49901,5,10,0:0:0:0:
300,27,50169,6,0,P|303:6|298:-3,2,22.4999994039536
242,155,50303,1,2,3:2:0:0:
357,276,50571,5,2,0:0:0:0:
339,207,50705,1,0,3:0:0:0:
288,256,50838,1,0,0:0:0:0:
431,278,50972,6,0,B|456:335|546:308|587:130|359:117|243:255|235:332|283:440|370:398|389:347|312:338,1,472.499987483024,10|0,0:0|0:0,0:0:0:0:
227,324,51508,6,0,B|199:290|199:290|218:343,1,89.9999976158143
50,274,51776,6,0,B|77:313|125:318|125:318|52:311|14:374,1,202.499994635582
126,233,52044,5,10,0:0:0:0:
148,152,52178,1,0,0:0:0:0:
88,92,52312,2,0,L|98:69,2,22.4999994039536,2|0|0,0:0|0:0|0:0,0:0:0:0:
160,162,52446,6,0,P|203:166|242:134,1,89.9999976158143,2|0,3:2|0:0,0:0:0:0:
325,89,52713,2,0,L|310:-13,1,89.9999976158143,2|0,0:0|3:0,0:0:0:0:
367,170,52981,1,2,0:0:0:0:
469,35,53115,6,0,P|440:61|432:120,1,89.9999976158143,10|0,0:0|0:0,0:0:0:0:
437,220,53383,2,0,P|468:189|528:194,1,89.9999976158143,2|0,0:0|0:0,0:0:0:0:
408,329,53651,5,2,3:2:0:0:
403,319,53785,5,0,0:0:0:0:
331,257,53919,1,2,0:0:0:0:
248,282,54053,1,0,0:0:0:0:
335,266,54187,6,0,P|358:229|347:172,1,89.9999976158143,10|0,0:0|0:0,0:0:0:0:
313,343,54455,2,0,L|304:379,2,22.4999994039536,2|0|0,0:0|0:0|0:0,0:0:0:0:
252,290,54588,6,0,P|231:251|176:232,1,89.9999976158143,2|0,3:2|0:0,0:0:0:0:
138,156,54856,2,0,P|117:195|62:214,1,89.9999976158143,2|0,0:0|3:0,0:0:0:0:
0,241,55124,1,2,0:0:0:0:
59,366,55258,6,0,B|100:274|63:143|63:143|85:222|129:276,1,377.99998998642,10|0,0:0|0:0,0:0:0:0:
218,157,55794,6,0,B|246:134|246:134|239:99|239:99|211:122|211:122|219:161,1,134.999996423721,2|0,3:2|0:0,0:0:0:0:
134,78,56062,6,0,B|90:56|65:102|65:102|42:145|0:129,1,161.999995708466,2|0,0:0|0:0,0:0:0:0:
216,7,56330,5,10,0:0:0:0:
302,24,56463,1,0,0:0:0:0:
388,41,56597,2,0,L|392:15,2,22.4999994039536,2|0|0,0:0|0:0|0:0,0:0:0:0:
428,149,56731,6,0,P|458:92|493:78,1,89.9999976158143,2|0,3:2|0:0,0:0:0:0:
352,186,56999,2,0,P|317:131|323:94,1,89.9999976158143,2|0,0:0|3:0,0:0:0:0:
420,230,57267,1,2,0:0:0:0:
496,291,57401,6,0,P|474:258|417:248,1,89.9999976158143,10|0,0:0|0:0,0:0:0:0:
391,359,57669,2,0,P|430:379|472:368,1,89.9999976158143,2|0,0:0|0:0,0:0:0:0:
349,284,57937,5,2,3:2:0:0:
184,304,58205,2,0,L|280:292,1,89.9999976158143,2|0,0:0|0:0,0:0:0:0:
172,384,58472,5,10,0:0:0:0:
103,260,58606,1,0,0:0:0:0:
0,315,58740,2,0,L|5:341,2,22.4999994039536,2|0|0,0:0|0:0|0:0,0:0:0:0:
106,270,58874,6,0,P|134:218|115:179,1,89.9999976158143,2|0,3:2|0:0,0:0:0:0:
51,162,59142,2,0,P|6:201|11:244,1,89.9999976158143,2|0,0:0|3:0,0:0:0:0:
109,280,59410,1,2,0:0:0:0:
89,63,59544,6,0,B|100:115|167:123|194:69|194:69|230:-6|328:-3|360:96|287:143,1,377.99998998642,10|0,0:0|0:0,0:0:0:0:
385,196,60080,6,0,B|398:104|398:104|403:164,1,134.999996423721,2|0,3:2|0:0,0:0:0:0:
478,73,60347,6,0,B|521:53|495:5|495:5|446:31|470:71,1,161.999995708466,2|0,0:0|0:0,0:0:0:0:
512,166,60615,5,10,0:0:0:0:
383,208,60749,1,0,0:0:0:0:
453,274,60883,2,0,L|458:298,2,22.4999994039536,2|0|0,0:0|0:0|0:0,0:0:0:0:
353,384,61017,6,0,P|306:332|271:331,1,89.9999976158143,2|0,3:2|0:0,0:0:0:0:
299,232,61285,1,2,0:0:0:0:
368,302,61419,2,0,P|346:368|363:399,1,89.9999976158143,0|2,3:0|0:0,0:0:0:0:
168,263,61687,6,0,P|99:277|81:307,1,89.9999976158143,10|0,0:0|0:0,0:0:0:0:
209,349,61955,2,0,P|194:280|164:262,1,89.9999976158143,2|0,0:0|0:0,0:0:0:0:
0,203,62222,5,2,3:2:0:0:
5,213,62356,5,0,0:0:0:0:
63,153,62490,1,2,0:0:0:0:
40,73,62624,1,0,0:0:0:0:
68,163,62758,6,0,L|166:185,1,89.9999976158143,10|0,0:0|0:0,0:0:0:0:
37,63,63026,6,0,L|30:35,2,22.4999994039536,2|0|0,0:0|0:0|0:0,0:0:0:0:
125,87,63160,2,0,P|175:79|201:32,1,89.9999976158143,2|0,3:2|0:0,0:0:0:0:
290,81,63428,2,0,P|298:131|345:157,1,89.9999976158143,2|0,0:0|3:0,0:0:0:0:
266,0,63696,1,0,0:0:0:0:
470,43,63830,6,0,B|455:11|401:-1|380:48|393:76|393:76|445:192|445:192|457:219|438:264|390:255|374:229,1,377.99998998642,10|0,0:0|0:0,0:0:0:0:
414,328,64365,6,0,B|502:304|502:304|460:328,1,134.999996423721,2|0,3:2|0:0,0:0:0:0:
352,374,64633,6,0,B|305:393|285:348|285:348|266:303|220:320,1,161.999995708466,2|0,0:0|0:0,0:0:0:0:
103,194,64901,5,10,0:0:0:0:
198,207,65035,1,0,0:0:0:0:
293,220,65169,2,0,L|288:256,2,22.4999994039536,2|0|0,0:0|0:0|0:0,0:0:0:0:
191,196,65303,6,0,P|183:157|211:109,1,89.9999976158143,2|0,3:2|0:0,0:0:0:0:
288,210,65571,1,2,0:0:0:0:
139,264,65705,2,0,P|109:290|53:290,1,89.9999976158143,0|2,3:0|0:0,0:0:0:0:
0,213,65972,6,0,L|106:194,1,89.9999976158143,10|0,0:0|0:0,0:0:0:0:
146,384,66240,2,0,L|40:365,1,89.9999976158143,2|0,0:0|0:0,0:0:0:0:
21,61,66508,5,2,3:2:0:0:
88,197,66776,2,0,P|109:158|101:114,1,89.9999976158143,2|0,0:0|0:0,0:0:0:0:
143,8,67044,5,10,0:0:0:0:
205,114,67178,1,0,0:0:0:0:
299,138,67312,2,0,L|291:105,2,22.4999994039536,2|0|0,0:0|0:0|0:0,0:0:0:0:
365,98,67446,6,0,P|384:72|382:1,1,89.9999976158143,2|0,3:2|0:0,0:0:0:0:
454,125,67713,2,0,L|468:217,1,89.9999976158143,2|0,0:0|3:0,0:0:0:0:
481,301,67981,1,2,0:0:0:0:
273,347,68115,6,0,B|225:288|266:198|349:176|411:198|448:286|374:319|338:300|338:300|391:340|326:411|273:347,1,486.674987107516,10|0,0:0|0:0,0:0:0:0:
156,333,68651,6,0,P|174:249|141:153,1,179.999995231629,2|0,0:0|0:0,0:0:0:0:
61,207,69455,2,0,L|45:212,2,11.2499997019768,2|0|0,0:0|0:0|0:0,0:0:0:0:
137,204,69990,6,0,P|146:177|146:157,1,44.9999988079071
174,271,70258,1,0,0:0:0:0:
127,87,70526,1,0,0:0:0:0:
146,161,70794,6,0,P|174:190|227:196,1,89.9999976158143
282,98,71330,2,0,L|278:83,2,11.2499997019768
313,223,71597,2,0,L|308:242,2,11.2499997019768
446,106,71865,6,0,P|402:111|370:142,1,89.9999976158143
317,211,72267,1,0,0:0:0:0:
310,52,72401,6,0,B|362:42|349:-14|349:-14|255:15|285:108,1,236.249993741513,2|0,0:0|0:0,0:0:0:0:
345,142,72937,6,0,P|389:147|421:178,1,89.9999976158143
436,252,73338,1,0,0:0:0:0:
512,291,73472,5,0,0:0:0:0:
438,260,73606,1,0,0:0:0:0:
384,336,73740,2,0,L|388:350,2,11.2499997019768
306,292,74276,6,0,P|297:271|302:250,1,44.9999988079071
382,327,74544,1,0,0:0:0:0:
346,177,74812,1,0,0:0:0:0:
227,264,75080,6,0,P|263:263|307:294,1,89.9999976158143
317,376,75481,1,0,0:0:0:0:
167,205,75615,6,0,L|169:191,2,11.2499997019768
149,325,75883,2,0,L|151:339,2,11.2499997019768
88,272,76151,6,0,L|-5:287,1,89.9999976158143
66,299,76553,1,8,0:0:0:0:
81,187,76687,6,0,B|112:113|24:87|24:87|55:103|57:141,1,202.499994635582,4|0,0:0|0:0,0:0:0:0:
68,307,76955,6,0,L|76:348,1,40.4999989271165
166,215,77222,6,0,L|192:29,1,179.999995231629,0|8,3:0|0:0,0:0:0:0:
90,0,77624,1,8,0:0:0:0:
269,114,77758,2,0,L|368:101,1,89.9999976158143,0|0,3:0|0:0,0:0:0:0:
444,37,78026,6,0,L|433:-2,2,22.4999994039536,8|0|0,0:0|0:0|0:0,0:0:0:0:
512,175,78294,5,0,3:0:0:0:
448,54,78428,1,8,0:0:0:0:
370,115,78562,5,0,0:0:0:0:
452,71,78696,1,8,0:0:0:0:
438,231,78830,6,0,P|405:202|347:206,1,89.9999976158143,0|0,3:0|0:0,0:0:0:0:
473,301,79097,1,8,0:0:0:0:
295,239,79365,6,0,L|110:264,1,179.999995231629,0|8,3:0|0:0,0:0:0:0:
27,371,79767,1,8,0:0:0:0:
138,186,79901,6,0,L|110:94,1,89.9999976158143,0|0,3:0|0:0,0:0:0:0:
204,267,80169,2,0,L|199:295,2,22.4999994039536,8|0|0,0:0|0:0|0:0,0:0:0:0:
288,134,80437,5,0,3:0:0:0:
128,190,80571,1,8,0:0:0:0:
208,251,80705,5,0,0:0:0:0:
47,160,80838,1,8,0:0:0:0:
0,217,80972,6,0,P|48:152|19:97,1,134.999996423721,0|0,3:0|0:0,0:0:0:0:
59,2,81240,5,8,0:0:0:0:
66,38,81374,1,0,0:0:0:0:
155,158,81508,6,0,L|252:140,1,94.4999974966049,0|0,3:0|0:0,0:0:0:0:
261,161,81776,2,0,L|358:178,1,94.4999974966049,0|0,3:0|0:0,0:0:0:0:
444,143,82044,6,0,P|477:92|461:35,1,121.499996781349,0|0,3:0|0:0,0:0:0:0:
372,94,82312,2,0,P|354:35|300:11,1,121.499996781349,0|0,3:0|0:0,0:0:0:0:
341,182,82580,6,0,P|290:236|297:308,1,148.499996066094,0|0,3:0|0:0,0:0:0:0:
412,274,82847,2,0,P|427:347|490:382,1,148.499996066094,0|0,3:0|0:0,0:0:0:0:
482,150,83115,6,0,L|436:157,1,44.9999988079071,0|0,3:0|0:0,0:0:0:0:
330,173,83249,2,0,L|284:180,1,44.9999988079071,0|0,3:0|0:0,0:0:0:0:
204,267,83383,6,0,L|169:261,1,33.7499991059304,0|0,3:0|0:0,0:0:0:0:
89,248,83517,2,0,L|54:243,1,33.7499991059304,0|0,3:0|0:0,0:0:0:0:
0,182,83651,5,0,0:0:0:0:
4,160,83785,1,0,0:0:0:0:
102,236,83919,6,0,L|76:28,1,179.999995231629,0|0,3:0|0:0,0:0:0:0:
152,0,84120,5,8,0:0:0:0:
150,11,84187,1,8,0:0:0:0:
148,22,84455,5,8,0:0:0:0:
309,66,84588,1,8,0:0:0:0:
311,77,84856,5,8,0:0:0:0:
181,190,84990,1,8,0:0:0:0:
214,96,85124,1,8,0:0:0:0:
272,170,85258,6,0,B|338:140|374:207|374:207|410:273|473:245,1,242.999993562698,4|0,0:0|0:0,0:0:0:0:
445,169,85526,6,0,L|457:98,1,67.4999982118607,2|0,0:0|0:0,0:0:0:0:
311,77,85794,6,0,P|364:176|375:294,1,202.499994635582,6|0,3:2|0:0,0:0:0:0:
423,329,86062,6,0,P|437:359|419:329,1,101.249997317791,2|0,0:1|0:0,0:0:0:0:
88,283,86330,6,0,P|222:287|351:346,1,242.999993562698,10|0,0:0|0:0,0:0:0:0:
447,358,86597,6,0,L|468:339,2,16.8749995529652
129,89,86731,6,0,P|233:154|309:260,1,222.74999409914,2|0,3:2|0:0,0:0:0:0:
346,355,86999,1,0,0:0:0:0:
156,205,87133,6,0,P|168:209|180:221,1,22.4999994039536,2|0,3:2|0:0,0:0:0:0:
12,254,87267,2,0,P|15:273|-4:294,1,44.9999988079071,2|0,0:0|0:0,0:0:0:0:
41,134,87401,5,8,0:0:0:0:
112,312,87535,2,0,P|92:271|95:229,1,67.4999982118607
4,41,87803,6,0,B|80:7|120:75|120:75|163:148|232:117,1,269.999992847443,2|0,3:2|0:0,0:0:0:0:
511,83,88205,2,0,P|411:95|313:148,1,202.499994635582,2|0,3:2|0:0,0:0:0:0:
317,255,88472,6,0,P|322:142|360:12,1,242.999993562698,10|0,0:0|0:0,0:0:0:0:
425,75,88740,2,0,P|428:137|448:166,1,89.9999976158143,2|0,0:0|0:0,0:0:0:0:
462,342,88874,6,0,P|440:241|403:319,1,242.999993562698,2|0,3:2|0:0,0:0:0:0:
322,142,89142,6,0,P|338:179|376:200,1,67.4999982118607
320,266,89276,6,0,B|251:235|215:296|215:296|177:362|115:334,1,242.999993562698,2|0,3:2|0:0,0:0:0:0:
107,250,89544,6,0,P|121:250|134:255,1,22.4999994039536,8|0,0:0|0:0,0:0:0:0:
17,212,89678,2,0,B|72:186|112:123|112:123|74:188|88:261,1,269.999992847443,2|0,3:2|0:0,0:0:0:0:
184,193,90080,6,0,P|130:100|124:-10,1,202.499994635582,2|0,3:2|0:0,0:0:0:0:
36,63,90347,6,0,B|44:92|15:103|15:103|8:75|33:61,1,101.249997317791,2|0,0:1|0:0,0:0:0:0:
435,58,90615,6,0,P|305:58|188:-1,1,242.999993562698,10|0,0:0|0:0,0:0:0:0:
122,8,90883,2,0,L|126:35,2,16.8749995529652
423,191,91017,6,0,P|305:170|208:97,1,222.74999409914,2|0,3:2|0:0,0:0:0:0:
204,12,91285,1,0,0:0:0:0:
258,165,91419,6,0,P|266:210|245:235,1,67.4999982118607,2|0,3:2|0:0,0:0:0:0:
305,334,91553,6,0,B|299:273|355:227|355:227|333:245|327:280,1,161.999995708466,2|8,0:0|0:0,0:0:0:0:
484,369,91821,2,0,B|434:346|423:282|423:282|427:307|452:327,1,148.499996066094,2|0,0:0|0:0,0:0:0:0:
220,297,92088,6,0,B|142:254|101:336|101:336|67:406|0:370,1,269.999992847443,2|0,3:2|0:0,0:0:0:0:
188,124,92490,6,0,B|167:162|183:202|183:202|160:165|118:156,1,161.999995708466,2|0,3:2|0:0,0:0:0:0:
84,305,92758,2,0,P|41:190|-16:101,1,202.499994635582,10|0,0:0|0:0,0:0:0:0:
87,11,93026,6,0,P|90:60|53:75,1,74.2499980330468,2|0,0:0|0:0,0:0:0:0:
119,156,93160,6,0,P|179:110|292:100,1,161.999995708466,2|0,3:2|0:0,0:0:0:0:
483,169,93428,6,0,P|452:126|452:99,1,74.2499980330468,2|0,0:0|0:0,0:0:0:0:
345,119,93562,6,0,P|356:92|369:84,1,33.7499991059304,2|0,3:2|0:0,0:0:0:0:
321,13,93696,6,0,P|332:11|337:14,1,13.4999996423722
476,0,93830,6,0,P|441:25|397:18,1,67.4999982118607,8|0,0:0|0:0,0:0:0:0:
264,231,93963,6,0,B|271:174|319:137|374:142|374:142|306:248|342:359|473:343|436:293|374:300,1,404.999989271164,2|0,3:2|0:0,0:0:0:0:
493,288,94365,6,0,P|369:306|315:386,1,202.499994635582,4|0,3:2|0:0,0:0:0:0:
254,328,94633,6,0,B|256:301|219:300|219:300|220:337|248:334,1,101.249997317791,2|0,0:1|0:0,0:0:0:0:
290,11,94901,6,0,P|234:150|285:254,1,242.999993562698,10|0,0:0|0:0,0:0:0:0:
405,288,95169,6,0,L|412:310,2,16.8749995529652
505,96,95303,6,0,P|378:150|343:250,1,222.74999409914,2|0,3:2|0:0,0:0:0:0:
324,361,95571,1,0,0:0:0:0:
155,123,95705,6,0,P|140:124|126:133,1,22.4999994039536,2|0,3:2|0:0,0:0:0:0:
58,249,95838,2,0,P|71:267|71:290,1,44.9999988079071,2|0,0:0|0:0,0:0:0:0:
45,158,95972,5,8,0:0:0:0:
122,203,96106,2,0,P|154:211|179:235,1,67.4999982118607
23,150,96374,6,0,B|89:89|72:-3|72:-3|70:59|14:80,1,269.999992847443,2|0,3:2|0:0,0:0:0:0:
155,123,96776,2,0,B|193:67|263:70|263:70|217:77|207:122,1,202.499994635582,2|0,3:2|0:0,0:0:0:0:
278,226,97044,6,0,P|293:96|327:-1,1,222.74999409914,10|0,0:0|0:0,0:0:0:0:
380,90,97312,2,0,P|379:138|405:168,1,80.9999978542328,2|0,0:0|0:0,0:0:0:0:
512,94,97446,6,0,P|400:108|295:155,1,222.74999409914,2|0,3:2|0:0,0:0:0:0:
414,22,97713,2,0,P|421:-3|403:18,1,67.4999982118607,2|0,0:0|0:0,0:0:0:0:
360,238,97847,6,0,B|401:282|386:353|386:353|414:287|473:278,1,242.999993562698,2|0,3:2|0:0,0:0:0:0:
435,205,98115,6,0,P|446:185|454:177,1,33.7499991059304,8|0,0:0|0:0,0:0:0:0:
294,314,98249,6,0,B|265:365|136:387|142:232|219:222|281:271|246:332,1,269.999992847443,2|0,3:2|0:0,0:0:0:0:
94,384,98651,6,0,P|102:273|148:164,1,202.499994635582,2|0,3:2|0:0,0:0:0:0:
39,120,98919,6,0,P|47:153|37:120,1,101.249997317791,2|0,0:1|0:0,0:0:0:0:
365,24,99187,6,0,P|244:82|103:99,1,242.999993562698,10|0,0:0|0:0,0:0:0:0:
67,32,99455,2,0,L|62:8,2,16.8749995529652
385,325,99588,6,0,P|283:256|205:152,1,222.74999409914,2|0,3:2|0:0,0:0:0:0:
138,100,99856,1,0,0:0:0:0:
311,155,99990,6,0,P|342:160|368:198,1,67.4999982118607,2|0,3:2|0:0,0:0:0:0:
448,230,100124,6,0,P|456:148|478:70,1,161.999995708466,2|8,0:2|0:0,0:0:0:0:
302,145,100392,2,0,P|346:82|400:29,1,148.499996066094,2|0,0:0|0:0,0:0:0:0:
138,100,100660,6,0,P|301:145|361:240,1,269.999992847443,2|0,3:2|0:0,0:0:0:0:
427,335,101062,6,0,B|463:303|513:320|513:320|432:291|338:338|305:423,1,303.749991953373,2|0,3:2|0:0,0:0:0:0:
157,307,101330,6,0,B|159:233|243:220|243:220|302:285|250:340,1,269.999992847443,10|0,0:0|0:0,0:0:0:0:
427,335,101597,6,0,P|373:334|345:306,1,80.9999978542328,2|0,0:0|0:0,0:0:0:0:
119,148,101731,2,0,B|213:178|188:307|106:318|28:291|29:210|29:210|78:178|107:225,1,404.999976911546,2|0,3:2|0:0,0:0:0:0:
40,24,102133,6,0,P|42:72|14:107,1,74.2499980330468,2|0,3:2|0:0,0:0:0:0:
155,88,102267,2,0,P|125:120|84:124,1,67.4999982118607,2|0,0:0|0:0,0:0:0:0:
252,195,102401,6,0,L|244:147,1,33.7499991059304,8|0,0:0|0:0,0:0:0:0:
292,51,102535,6,0,B|343:35|343:35|449:267|449:267|517:243|517:243|493:153,1,449.999988079071,2|0,3:2|0:0,0:0:0:0:
495,0,102937,6,0,B|450:18|450:18|507:236|507:236|448:257,1,303.749991953373,6|0,3:2|0:0,0:0:0:0:
427,335,103205,6,0,B|413:360|413:360|438:375|438:375|452:350|452:350|440:343,1,101.249997317791,2|0,0:1|0:0,0:0:0:0:
370,283,103472,6,0,B|195:252|195:252|172:376,1,296.999992132187,10|0,0:0|0:0,0:0:0:0:
258,344,103740,6,0,L|262:365,2,16.8749995529652
104,126,103874,6,0,B|87:130|87:130|118:267|118:267|232:238,1,269.999992847443,2|0,3:2|0:0,0:0:0:0:
296,271,104142,1,0,0:0:0:0:
247,162,104276,6,0,L|208:157,1,33.7499991059304,2|0,3:2|0:0,0:0:0:0:
108,283,104410,2,0,L|5:309,1,80.9999978542328
24,79,104544,5,8,0:0:0:0:
181,381,104678,2,0,L|73:362,1,89.9999976158143
16,61,104946,6,0,L|0:385,1,323.999991416931,2|0,3:2|0:0,0:0:0:0:
104,126,105347,2,0,B|87:130|87:130|118:267|118:267|236:237,1,242.999993562698,2|0,3:2|0:0,0:0:0:0:
247,162,105615,6,0,B|265:157|265:157|231:5|231:5|100:38,1,269.999992847443,10|0,0:0|0:0,0:0:0:0:
179,106,105883,6,0,B|169:168|169:168|186:108,1,98.9999973773956,2|0,0:0|0:0,0:0:0:0:
338,198,106017,6,0,B|398:214|398:214|457:77|457:77|538:98,1,269.999992847443,2|0,3:2|0:0,0:0:0:0:
509,179,106285,2,0,B|526:201|526:201|503:210|503:210|501:176,1,80.9999978542328,2|0,0:0|0:0,0:0:0:0:
337,45,106419,6,0,B|356:42|356:42|413:293,1,269.999992847443,2|0,3:2|0:0,0:0:0:0:
415,299,106687,6,0,L|446:294,1,22.4999994039536,8|0,0:0|0:0,0:0:0:0:
512,335,106821,6,0,B|276:273|276:273|301:372,1,337.499991059303,2|0,3:2|0:0,0:0:0:0:
188,300,107222,6,0,B|200:347|200:347|277:327|277:327|246:201,1,242.999993562698,2|0,3:2|0:0,0:0:0:0:
180,186,107490,6,0,B|137:198|137:198|145:231|145:231|173:223,1,101.249997317791,2|0,0:1|0:0,0:0:0:0:
24,191,107758,6,0,B|-26:222|-26:222|26:304|26:304|160:221,1,296.999992132187,10|0,0:2|0:0,0:0:0:0:
250,216,108026,6,0,L|274:210,2,16.8749995529652
71,18,108160,6,0,B|30:-16|30:-16|-26:51|-26:51|83:144,1,269.999992847443,2|0,3:2|0:0,0:0:0:0:
145,120,108428,1,0,0:0:0:0:
223,118,108562,6,0,B|241:111|241:111|225:69|225:69|203:77,1,80.9999978542328,2|0,3:2|0:0,0:0:0:0:
351,0,108696,6,0,L|336:203,1,197.999994754791,2|8,0:0|0:0,0:0:0:0:
449,177,108963,2,0,L|521:367,1,179.999995231629,2|0,0:0|0:0,0:0:0:0:
508,134,109231,6,0,L|178:221,1,323.999991416931,2|0,3:2|0:0,0:0:0:0:
344,268,109633,6,0,B|350:319|350:319|374:160,1,202.499994635582,2|0,3:2|0:0,0:0:0:0:
261,186,109901,6,0,B|77:234|77:234|94:297,1,242.999993562698,10|0,0:0|0:0,0:0:0:0:
165,306,110169,2,0,B|173:340|173:340|173:283,1,89.9999976158143,2|0,0:0|0:0,0:0:0:0:
32,384,110303,6,0,B|269:322|269:322|249:245,1,296.999992132187,2|0,3:2|0:0,0:0:0:0:
128,100,110571,6,0,L|151:196,1,98.9999973773956,2|0,0:0|0:0,0:0:0:0:
191,185,110705,6,0,L|239:173,1,44.9999988079071,2|0,3:2|0:0,0:0:0:0:
251,171,110838,6,0,L|245:146,1,17.9999995231628
107,19,110972,6,0,L|10:42,1,98.9999973773956,8|0,0:0|0:0,0:0:0:0:
28,132,111106,6,0,B|10:165|10:165|290:13|290:13|319:127,1,449.999988079071,2|0,3:2|0:0,0:0:0:0:
446,7,111508,6,0,B|419:1|419:1|388:135|388:135|488:161,1,242.999993562698,6|0,3:2|0:0,0:0:0:0:
503,93,111776,6,0,B|527:78|527:78|513:52|513:52|488:67|488:67|495:79,1,101.249997317791,2|0,0:1|0:0,0:0:0:0:
441,335,112044,6,0,B|473:342|473:342|511:178|511:178|389:146,1,296.999992132187,10|0,0:0|0:0,0:0:0:0:
313,103,112312,6,0,L|296:107,2,16.8749995529652
262,186,112446,6,0,B|255:215|255:215|404:250|404:250|433:139,1,269.999992847443,2|0,3:2|0:0,0:0:0:0:
402,75,112713,1,0,0:0:0:0:
446,247,112847,6,0,L|480:255,1,33.7499991059304,2|0,3:2|0:0,0:0:0:0:
493,257,112981,6,0,L|514:166,1,80.9999978542328
398,60,113115,5,8,0:0:0:0:
360,270,113249,2,0,L|336:369,1,89.9999976158143,2|0,0:0|0:0,0:0:0:0:
208,321,113517,6,0,B|284:260|284:260|62:329,1,323.999991416931,2|0,3:2|0:0,0:0:0:0:
56,222,113919,2,0,B|-1:267|-1:267|165:216,1,242.999993562698,2|0,3:2|0:0,0:0:0:0:
162,116,114187,6,0,L|127:397,1,269.999992847443,10|0,0:0|0:0,0:0:0:0:
65,129,114455,2,0,L|38:14,1,98.9999973773956,2|0,0:0|0:0,0:0:0:0:
174,127,114588,6,0,L|444:195,1,269.999992847443,2|0,3:2|0:0,0:0:0:0:
335,81,114856,6,0,B|353:52|353:52|299:96,1,80.9999978542328,2|0,0:0|0:0,0:0:0:0:
280,263,114990,6,0,L|214:-19,1,269.999992847443,2|0,3:2|0:0,0:0:0:0:
148,41,115258,6,0,L|119:48,1,22.4999994039536,8|0,0:0|0:0,0:0:0:0:
208,321,115392,6,0,B|254:147|254:147|325:165|325:165|332:181|332:181|415:202,1,337.499991059303,2|0,3:2|0:0,0:0:0:0:
462,367,115794,6,0,B|526:301|526:301|357:347,1,242.999993562698,2|0,3:2|0:0,0:0:0:0:
372,333,116062,6,0,L|268:361,1,101.249997317791,2|0,0:1|0:0,0:0:0:0:
65,129,116330,6,0,B|129:137|129:137|110:294|110:294|188:305,1,296.999992132187,10|0,0:0|0:0,0:0:0:0:
227,192,116597,6,0,L|252:186,2,16.8749995529652
20,384,116731,6,0,L|53:108,1,269.999992847443,2|0,3:2|0:0,0:0:0:0:
19,19,116999,1,0,0:0:0:0:
199,101,117133,6,0,B|205:119|205:119|245:107|245:107|235:72,1,80.9999978542328,2|0,3:2|0:0,0:0:0:0:
491,57,117267,6,0,L|265:-11,1,197.999994754791,2|8,0:0|0:0,0:0:0:0:
466,196,117535,2,0,L|255:249,1,179.999995231629,2|0,0:0|0:0,0:0:0:0:
512,271,117803,6,0,L|386:392,1,161.999995708466,2|0,3:2|0:0,0:0:0:0:
206,320,118472,6,0,B|129:281|110:113|253:81|304:93|343:166|326:207|256:268|173:201,1,472.499987483024,2|0,3:2|0:0,0:0:0:0:
140,190,119008,6,0,B|56:158|-1:199|-18:266|20:320|93:340|136:259,1,314.99999165535,2|0,3:2|0:0,3:0:0:0:
140,71,119544,6,0,B|169:50|169:50|137:27|137:27|123:-7|123:-7|94:16|94:16|54:19|54:19|71:52|71:52|58:93|58:93|98:86|98:86|131:109|131:109|140:71,1,377.99998998642,2|0,3:2|0:0,3:0:0:0:
258,37,120080,5,4,0:0:0:0:
