osu file format v14

[General]
AudioFilename: audio.mp3
AudioLeadIn: 0
PreviewTime: 83664
Countdown: 0
SampleSet: Soft
StackLeniency: 0.3
Mode: 0
LetterboxInBreaks: 0
WidescreenStoryboard: 1

[Editor]
Bookmarks: 80,8651,17222,30080,34365,51508,68651,85794,120080
DistanceSpacing: 1.5
BeatDivisor: 4
GridSize: 32
TimelineZoom: 1.9

[Metadata]
Title:Constant Moderato
TitleUnicode:Constant Moderato
Artist:Mitsukiyo
ArtistUnicode:ミツキヨ
Creator:araran
Version:Normal
Source:ブルーアーカイブ -Blue Archive-
Tags:Yostar nat games Blue Archive ブルアカ blueaka mobile rpg instrumental video game electronic Pino -[Pino]- Sunazuka Akira xidorn lushifer Celine
BeatmapID:3360006
BeatmapSetID:1640689

[Difficulty]
HPDrainRate:4
CircleSize:3.2
OverallDifficulty:5
ApproachRate:5.5
SliderMultiplier:1.3
SliderTickRate:1

[Events]
//Background and Video events
0,0,"997d81e47ee3f8e6b9cd54aaec577d9f4b1a52e6_s2_n1.jpg",0,0
//Break Periods
2,69655,71812
//Storyboard Layer 0 (Background)
//Storyboard Layer 1 (Fail)
//Storyboard Layer 2 (Pass)
//Storyboard Layer 3 (Foreground)
//Storyboard Layer 4 (Overlay)
//Storyboard Sound Samples

[TimingPoints]
80,535.714285714286,4,2,1,50,1,0
80,-100,4,2,1,50,0,0
1687,-100,4,2,2,50,0,0
2222,-100,4,2,1,50,0,0
3830,-100,4,2,2,50,0,0
4365,-100,4,2,1,50,0,0
5972,-100,4,2,2,50,0,0
6508,-100,4,2,1,50,0,0
8115,-100,4,2,2,50,0,0
8651,-100,4,2,1,50,0,0
15080,-100,4,2,1,65,0,0
15749,-100,4,2,1,50,0,0
16553,-100,4,2,1,70,0,0
16687,-100,4,2,2,80,0,0
16955,-100,4,2,1,70,0,0
17222,-90.9090909090909,4,2,7,80,0,0
30080,-100,4,2,7,50,0,0
32222,-100,4,2,1,50,0,0
33830,-100,4,2,7,50,0,0
34008,-100,4,2,1,50,0,0
34365,-100,4,2,1,60,0,0
68651,-100,4,2,2,50,0,0
69452,-100,4,2,1,50,0,0
72401,-100,4,2,2,50,0,0
72937,-100,4,2,1,50,0,0
76687,-100,4,2,2,50,0,0
76955,-100,4,2,1,50,0,0
84187,-100,4,2,7,50,0,0
84455,-100,4,2,1,50,0,0
85258,-100,4,2,2,50,0,0
85392,-100,4,2,1,50,0,0
85794,-90.9090909090909,4,2,7,80,0,0
120080,-100,4,2,3,80,0,0

[Colours]
Combo1 : 255,155,55
Combo2 : 255,74,179
Combo3 : 255,191,226
Combo4 : 157,204,255

[HitObjects]
177,55,80,6,0,P|236:37|279:38,2,97.5
56,188,1687,1,8,0:0:0:0:
56,188,2222,6,0,P|42:127|25:95,2,97.5
121,356,3830,1,8,0:0:0:0:
121,356,4365,6,0,P|179:374|226:373,2,97.5
161,181,5972,1,8,0:0:0:0:
161,181,6508,6,0,P|100:194|65:213,2,97.5
339,160,8115,1,10,0:0:0:0:
339,160,8651,6,0,L|359:24,1,130,0|0,3:0|3:2,0:0:0:0:
422,23,9455,1,8,3:2:0:0:
486,15,9722,1,0,3:0:0:0:
492,140,10258,2,0,L|508:223,1,65,0|8,3:0|3:2,0:0:0:0:
510,268,10794,6,0,L|378:250,1,130,0|0,3:0|3:2,0:0:0:0:
343,197,11597,1,8,3:2:0:0:
278,208,11865,1,0,3:0:0:0:
244,333,12401,2,0,L|168:353,1,65,0|8,3:0|3:2,0:0:0:0:
118,366,12937,5,0,3:0:0:0:
14,287,13472,1,0,3:0:0:0:
24,157,14008,2,0,L|38:87,1,65,0|0,3:0|3:0,0:0:0:0:
48,29,14544,2,0,L|118:43,1,65,0|8,3:0|3:2,0:0:0:0:
175,53,15080,5,0,3:0:0:0:
256,194,16955,5,0,0:0:0:0:
256,194,17222,2,0,P|267:146|293:112,1,71.5000021820069,6|2,3:2|0:1,0:0:0:0:
332,60,17758,1,10,0:0:0:0:
208,24,18160,2,0,L|90:38,1,107.25000327301,2|2,3:2|3:2,0:0:0:0:
1,117,18963,1,2,0:0:0:0:
64,174,19231,2,0,P|87:223|78:282,1,107.25000327301,2|2,3:2|3:2,0:0:0:0:
60,358,19901,6,0,P|135:367|159:351,1,107.25000327301,10|2,0:0|3:2,0:0:0:0:
219,238,20705,1,2,3:2:0:0:
241,111,21106,1,2,3:2:0:0:
337,196,21508,6,0,P|349:245|336:290,1,71.5000021820069,2|2,3:2|0:1,0:0:0:0:
333,351,22044,1,10,0:0:0:0:
460,365,22446,2,0,L|441:229,1,107.25000327301,2|2,3:2|3:2,0:0:0:0:
506,145,23249,1,2,0:0:0:0:
423,120,23517,2,0,P|361:135|304:178,1,107.25000327301,2|2,3:2|3:2,0:0:0:0:
266,221,24187,6,0,P|201:228|147:201,1,107.25000327301,10|2,0:0|3:2,0:0:0:0:
50,157,24990,1,2,3:2:0:0:
23,30,25392,1,2,3:2:0:0:
141,79,25794,6,0,P|187:82|225:71,1,71.5000021820069,6|2,3:2|0:1,0:0:0:0:
290,42,26330,1,10,0:0:0:0:
412,0,26731,2,0,L|438:134,1,107.25000327301,2|2,3:2|3:2,0:0:0:0:
498,216,27535,1,2,0:0:0:0:
426,263,27803,2,0,P|359:291|301:281,1,107.25000327301,2|2,3:2|3:2,0:0:0:0:
258,236,28472,6,0,P|187:237|162:276,1,107.25000327301,10|2,0:0|3:2,0:0:0:0:
116,380,29276,1,2,3:2:0:0:
3,316,29678,1,0,3:0:0:0:
38,192,30080,6,0,L|14:57,2,130,2|2|2,3:1|0:1|0:1,0:0:0:0:
167,178,31687,1,2,0:1:0:0:
275,249,32222,6,0,B|391:315|391:315|209:361|209:361|133:315,1,390,2|8,0:1|0:0,0:0:0:0:
23,355,34365,5,2,3:2:0:0:
10,291,34633,1,2,0:0:0:0:
37,232,34901,2,0,P|74:167|66:123,1,97.5,10|2,0:0|3:2,0:0:0:0:
33,57,35705,2,0,P|63:38|110:35,1,65,0|10,3:0|0:0,0:0:0:0:
219,58,36508,5,2,3:2:0:0:
283,51,36776,1,2,0:0:0:0:
342,24,37044,2,0,P|387:27|434:67,1,97.5,10|2,0:0|3:2,0:0:0:0:
478,141,37847,1,0,3:0:0:0:
447,198,38115,2,0,P|397:220|378:215,1,65,10|0,0:0|0:0,0:0:0:0:
330,189,38651,5,2,3:2:0:0:
276,152,38919,1,2,0:0:0:0:
211,154,39187,2,0,P|157:177|110:171,1,97.5,10|2,0:0|3:2,0:0:0:0:
33,220,39990,2,0,P|43:261|62:280,1,65,0|10,3:0|0:0,0:0:0:0:
154,364,40794,5,2,3:2:0:0:
204,323,41062,1,2,0:0:0:0:
268,318,41330,2,0,P|332:318|372:350,1,97.5,10|2,0:0|3:2,0:0:0:0:
449,370,42133,1,0,3:0:0:0:
501,330,42401,2,0,P|508:295|491:255,1,65,10|0,0:0|0:0,0:0:0:0:
449,225,42937,5,2,3:2:0:0:
422,165,43205,1,2,0:0:0:0:
467,119,43472,2,0,P|490:59|484:22,1,97.5,10|2,0:0|3:2,0:0:0:0:
388,15,44276,2,0,P|354:32|321:32,1,65,0|10,3:0|0:0,0:0:0:0:
197,19,45080,5,2,3:2:0:0:
207,82,45347,1,2,0:0:0:0:
158,124,45615,2,0,P|132:194|148:236,1,97.5,10|2,0:0|3:2,0:0:0:0:
219,265,46419,1,0,3:0:0:0:
257,317,46687,2,0,P|248:357|214:374,1,65,10|0,0:0|0:0,0:0:0:0:
166,383,47222,5,2,3:2:0:0:
116,341,47490,1,2,0:0:0:0:
52,355,47758,2,0,P|28:319|32:254,1,97.5,10|2,0:0|3:2,0:0:0:0:
96,197,48562,2,0,P|110:146|98:121,1,65,0|10,3:0|0:0,0:0:0:0:
11,47,49365,5,2,3:2:0:0:
64,9,49633,1,2,0:0:0:0:
128,11,49901,2,0,P|186:18|234:53,1,97.5,10|2,0:0|3:2,0:0:0:0:
292,102,50705,1,0,3:0:0:0:
312,163,50972,2,0,P|378:212|435:193,1,130,10|0,0:0|0:0,0:0:0:0:
484,90,52044,6,0,P|436:71|380:68,1,97.5,10|2,0:0|3:2,0:0:0:0:
291,68,52847,1,0,3:0:0:0:
240,109,53115,1,10,0:0:0:0:
288,230,53651,6,0,P|333:213|374:223,1,65,2|2,3:2|0:0,0:0:0:0:
414,220,54187,2,0,P|433:262|452:335,1,97.5,10|2,0:0|3:2,0:0:0:0:
381,383,54990,1,0,3:0:0:0:
317,369,55258,2,0,L|230:348,1,65,10|0,0:0|0:0,0:0:0:0:
191,335,55794,5,2,3:2:0:0:
127,319,56062,1,2,0:0:0:0:
67,345,56330,2,0,P|32:307|42:240,1,97.5,10|2,0:0|3:2,0:0:0:0:
69,173,57133,1,0,3:0:0:0:
133,167,57401,1,10,0:0:0:0:
243,239,57937,6,0,P|287:266|323:252,1,65,2|2,3:2|0:0,0:0:0:0:
360,245,58472,2,0,P|353:186|338:126,1,97.5,10|2,0:0|3:2,0:0:0:0:
320,54,59276,1,0,3:0:0:0:
256,42,59544,2,0,L|180:29,1,65,10|0,0:0|0:0,0:0:0:0:
128,17,60080,5,2,3:2:0:0:
63,21,60347,1,2,0:0:0:0:
16,66,60615,2,0,P|26:146|48:182,1,97.5,10|2,0:0|3:2,0:0:0:0:
127,184,61419,1,0,3:0:0:0:
150,244,61687,1,10,0:0:0:0:
106,366,62222,6,0,P|140:347|186:358,1,65,2|2,3:2|0:0,0:0:0:0:
229,357,62758,2,0,P|305:338|344:319,1,97.5,10|2,0:0|3:2,0:0:0:0:
282,241,63562,1,0,3:0:0:0:
272,176,63830,2,0,L|257:100,1,65,10|0,0:0|0:0,0:0:0:0:
254,47,64365,5,2,3:2:0:0:
308,11,64633,1,2,0:0:0:0:
372,8,64901,2,0,P|438:19|489:44,1,97.5,10|2,0:0|3:2,0:0:0:0:
512,116,65705,1,0,3:0:0:0:
485,175,65972,1,10,0:0:0:0:
366,226,66508,6,0,P|337:250|308:247,1,65,2|2,3:2|0:0,0:0:0:0:
247,235,67044,2,0,P|234:186|229:122,1,97.5,10|2,0:0|3:2,0:0:0:0:
208,44,67847,1,0,3:0:0:0:
148,18,68115,2,0,P|78:15|15:51,1,130,10|2,0:0|0:0,0:0:0:0:
115,214,69455,5,2,0:0:0:0:
256,192,72937,12,0,76151,0:0:0:0:
365,35,77222,5,0,3:0:0:0:
494,50,77758,1,0,3:0:0:0:
413,151,78294,1,0,3:0:0:0:
425,214,78562,1,0,0:0:0:0:
438,277,78830,1,0,3:0:0:0:
342,365,79365,5,0,3:0:0:0:
319,236,79901,1,0,3:0:0:0:
216,315,80437,1,0,3:0:0:0:
151,305,80705,1,0,0:0:0:0:
86,295,80972,1,0,3:0:0:0:
3,194,81508,6,0,L|79:182,1,65,0|0,3:0|3:0,0:0:0:0:
117,142,82044,2,0,L|193:130,1,65,0|0,3:0|3:0,0:0:0:0:
246,127,82580,2,0,P|283:155|330:151,2,65,0|0|0,3:0|3:0|3:0,0:0:0:0:
234,63,83383,1,0,3:0:0:0:
358,26,83919,6,0,L|438:37,1,65,0|8,3:0|0:0,0:0:0:0:
464,84,84455,2,0,L|486:196,2,97.5,8|8|4,0:0|0:0|0:0,0:0:0:0:
422,34,85526,5,2,0:0:0:0:
422,34,85794,2,0,P|376:41|337:62,1,71.5000021820069,6|2,3:2|0:1,0:0:0:0:
273,81,86330,1,10,0:0:0:0:
150,41,86731,2,0,L|136:167,1,107.25000327301,2|2,3:2|3:2,0:0:0:0:
62,252,87535,1,2,0:0:0:0:
96,330,87803,2,0,P|138:363|207:359,1,107.25000327301,2|2,3:2|3:2,0:0:0:0:
264,322,88472,6,0,P|316:276|365:280,1,107.25000327301,10|2,0:0|3:2,0:0:0:0:
476,306,89276,1,2,3:2:0:0:
505,180,89678,1,2,3:2:0:0:
379,152,90080,6,0,P|362:116|370:86,1,71.5000021820069,2|2,3:2|0:1,0:0:0:0:
406,8,90615,1,10,0:0:0:0:
505,89,91017,2,0,L|481:214,1,107.25000327301,2|2,3:2|3:2,0:0:0:0:
460,321,91821,1,2,0:0:0:0:
382,285,92088,2,0,P|315:294|273:330,1,107.25000327301,2|2,3:2|3:2,0:0:0:0:
218,372,92758,6,0,P|151:363|109:327,1,107.25000327301,10|2,0:0|3:2,0:0:0:0:
8,275,93562,1,2,3:2:0:0:
32,148,93963,1,2,3:2:0:0:
146,207,94365,6,0,P|194:224|248:219,1,71.5000021820069,4|2,3:2|0:1,0:0:0:0:
298,208,94901,1,10,0:0:0:0:
322,103,95303,2,0,L|188:71,1,107.25000327301,2|2,3:2|3:2,0:0:0:0:
109,8,96106,1,2,0:0:0:0:
34,49,96374,2,0,P|9:103|27:173,1,107.25000327301,2|2,3:2|3:2,0:0:0:0:
42,230,97044,6,0,P|101:235|152:285,1,107.25000327301,10|2,0:0|3:2,0:0:0:0:
216,365,97847,1,2,3:2:0:0:
342,339,98249,1,2,3:2:0:0:
463,382,98651,6,0,P|493:329|488:297,1,71.5000021820069,2|2,3:2|0:1,0:0:0:0:
488,233,99187,1,10,0:0:0:0:
360,247,99588,2,0,L|337:118,1,107.25000327301,2|2,3:2|3:2,0:0:0:0:
305,17,100392,1,2,0:0:0:0:
389,0,100660,2,0,P|455:19|495:57,1,107.25000327301,2|2,3:2|3:2,0:0:0:0:
496,128,101330,5,10,0:0:0:0:
372,162,101731,2,0,P|319:157|273:130,1,107.25000327301,2|2,3:2|3:2,0:0:0:0:
182,38,102535,1,2,3:2:0:0:
56,9,102937,6,0,P|28:51|31:100,1,71.5000021820069,6|2,3:2|0:1,0:0:0:0:
36,156,103472,1,10,0:0:0:0:
96,244,103874,2,0,L|214:226,1,107.25000327301,2|2,3:2|3:2,0:0:0:0:
262,138,104678,1,0,0:0:0:0:
343,110,104946,2,0,P|382:113|462:146,1,107.25000327301,2|2,3:2|3:2,0:0:0:0:
502,199,105615,6,0,P|511:246|455:299,1,107.25000327301,10|2,0:0|3:2,0:0:0:0:
371,365,106419,1,2,3:2:0:0:
329,242,106821,1,2,3:2:0:0:
201,228,107222,6,0,P|157:244|137:268,1,71.5000021820069,2|2,3:2|0:1,0:0:0:0:
124,346,107758,1,10,0:2:0:0:
0,376,108160,2,0,L|18:244,1,107.25000327301,2|2,3:2|3:2,0:0:0:0:
43,144,108963,1,2,0:0:0:0:
128,142,109231,2,0,P|191:142|236:186,1,107.25000327301,2|2,3:2|3:2,0:0:0:0:
290,223,109901,6,0,P|321:168|306:107,1,107.25000327301,10|2,0:0|3:2,0:0:0:0:
269,5,110705,1,2,3:2:0:0:
141,16,111106,1,2,3:2:0:0:
34,87,111508,6,0,P|13:133|25:180,1,71.5000021820069,6|2,3:2|0:1,0:0:0:0:
50,231,112044,1,10,0:0:0:0:
171,188,112446,2,0,L|185:328,1,107.25000327301,2|2,3:2|3:2,0:0:0:0:
298,349,113249,1,2,0:0:0:0:
378,379,113517,2,0,P|448:366|490:335,1,107.25000327301,2|2,3:2|3:2,0:0:0:0:
509,266,114187,6,0,P|504:197|455:190,1,107.25000327301,10|2,0:0|3:2,0:0:0:0:
355,141,114990,1,2,3:2:0:0:
339,13,115392,1,2,3:2:0:0:
473,0,115794,6,0,P|503:41|496:78,1,71.5000021820069,2|2,3:2|0:1,0:0:0:0:
470,139,116330,1,10,0:0:0:0:
345,108,116731,2,0,L|212:91,1,107.25000327301,2|2,3:2|3:2,0:0:0:0:
128,27,117535,1,2,0:0:0:0:
43,41,117803,1,2,3:2:0:0:
43,41,118472,6,0,B|58:121|101:82|113:162,2,143.000004364014,2|2|2,3:2|3:2|3:2,0:0:0:0:
43,41,120080,1,4,0:0:0:0:
