osu file format v14

[General]
AudioFilename: audio.mp3
AudioLeadIn: 0
PreviewTime: 83664
Countdown: 0
SampleSet: Soft
StackLeniency: 0.3
Mode: 0
LetterboxInBreaks: 0
WidescreenStoryboard: 0

[Editor]
Bookmarks: 8655,17226,30084,34369,51516,68655,85798,120084
DistanceSpacing: 1.5
BeatDivisor: 6
GridSize: 32
TimelineZoom: 3.499999

[Metadata]
Title:Constant Moderato
TitleUnicode:Constant Moderato
Artist:Mitsukiyo
ArtistUnicode:ミツキヨ
Creator:araran
Version:Expert
Source:ブルーアーカイブ -Blue Archive-
Tags:Yostar nat games Blue Archive ブルアカ blueaka mobile rpg instrumental video game electronic Pino -[Pino]- Sunazuka Akira xidorn lushifer Celine
BeatmapID:3348710
BeatmapSetID:1640689

[Difficulty]
HPDrainRate:5
CircleSize:4
OverallDifficulty:8.4
ApproachRate:9.4
SliderMultiplier:2
SliderTickRate:1

[Events]
//Background and Video events
0,0,"997d81e47ee3f8e6b9cd54aaec577d9f4b1a52e6_s2_n1.jpg",0,0
//Break Periods
//Storyboard Layer 0 (Background)
//Storyboard Layer 1 (Fail)
//Storyboard Layer 2 (Pass)
//Storyboard Layer 3 (Foreground)
//Storyboard Layer 4 (Overlay)
//Storyboard Sound Samples

[TimingPoints]
80,535.714285714286,4,2,1,50,1,0
80,-100,4,2,1,50,0,0
883,-400,4,2,1,50,0,0
1687,-133.333333333333,4,2,2,50,0,0
2222,-100,4,2,1,50,0,0
3026,-400,4,2,1,50,0,0
3830,-133.333333333333,4,2,2,50,0,0
4365,-100,4,2,1,50,0,0
5169,-400,4,2,1,50,0,0
5972,-133.333333333333,4,2,2,50,0,0
6508,-100,4,2,1,50,0,0
7312,-400,4,2,1,50,0,0
8115,-66.6666666666667,4,2,2,50,0,0
8651,-100,4,2,1,50,0,0
10526,-66.6666666666667,4,2,1,50,0,0
10794,-100,4,2,1,50,0,0
12669,-66.6666666666667,4,2,1,50,0,0
12937,-100,4,2,1,50,0,0
13472,-71.4285714285714,4,2,1,50,0,0
14008,-55.5555555555556,4,2,1,50,0,0
14544,-45.4545454545455,4,2,1,50,0,0
15080,-400,4,2,1,65,0,0
15749,-66.6666666666667,4,2,1,50,0,0
16151,-200,4,2,1,50,0,0
16553,-33.3333333333333,4,2,1,70,0,0
16687,-33.3333333333333,4,2,2,80,0,0
16955,-200,4,2,1,70,0,0
17222,-35.7142857142857,4,2,7,80,0,1
17490,-151.515151515152,4,2,7,80,0,1
17758,-35.7142857142857,4,2,7,80,0,1
18562,-40,4,2,7,80,0,1
19231,-35.7142857142857,4,2,7,80,0,1
19633,-66.6666666666667,4,2,7,80,0,1
19901,-40,4,2,7,80,0,1
20169,-40,4,2,7,80,0,1
20303,-35.7142857142857,4,2,7,80,0,1
20571,-40,4,2,7,80,0,1
20705,-35.7142857142857,4,2,7,80,0,1
21508,-35.7142857142857,4,2,7,80,0,1
21776,-151.515151515152,4,2,7,80,0,1
22044,-35.7142857142857,4,2,7,80,0,1
22312,-35.7142857142857,4,2,7,80,0,1
22847,-40,4,2,7,80,0,1
22981,-200,4,2,7,80,0,1
23517,-35.7142857142857,4,2,7,80,0,1
23919,-66.6666666666667,4,2,7,80,0,1
24187,-40,4,2,7,80,0,1
24455,-35.7142857142857,4,2,7,80,0,1
26062,-151.515151515152,4,2,7,80,0,1
26330,-35.7142857142857,4,2,7,80,0,1
27133,-50,4,2,7,80,0,1
27803,-35.7142857142857,4,2,7,80,0,1
28205,-66.6666666666667,4,2,7,80,0,1
28472,-40,4,2,7,80,0,1
28874,-35.7142857142857,4,2,7,80,0,1
29544,-40,4,2,7,80,0,1
29678,-50,4,2,7,80,0,1
29812,-66.6666666666667,4,2,7,80,0,1
29946,-100,4,2,7,80,0,1
30080,-1000,4,2,7,50,0,0
32222,-200,4,2,1,50,0,0
33830,-66.6666666666667,4,2,7,50,0,0
34008,-200,4,2,1,50,0,0
34365,-66.6666666666667,4,2,1,60,0,0
34901,-50,4,2,1,60,0,0
35303,-66.6666666666667,4,2,1,60,0,0
37044,-50,4,2,1,60,0,0
37446,-66.6666666666667,4,2,1,60,0,0
39187,-50,4,2,1,60,0,0
39588,-66.6666666666667,4,2,1,60,0,0
41330,-50,4,2,1,60,0,0
41731,-66.6666666666667,4,2,1,60,0,0
43472,-50,4,2,1,60,0,0
43874,-66.6666666666667,4,2,1,60,0,0
45615,-50,4,2,1,60,0,0
46017,-66.6666666666667,4,2,1,60,0,0
47758,-50,4,2,1,60,0,0
48160,-66.6666666666667,4,2,1,60,0,0
49901,-50,4,2,1,60,0,0
50571,-66.6666666666667,4,2,1,60,0,0
50838,-50,4,2,1,60,0,0
50972,-100,4,2,1,60,0,0
51508,-50,4,2,1,60,0,0
53115,-66.6666666666667,4,2,1,60,0,0
68651,-80,4,2,2,50,0,0
69452,-454.545454545455,4,2,1,50,0,0
70794,-80,4,2,1,50,0,0
71597,-500,4,2,1,50,0,0
72937,-80,4,2,1,50,0,0
73606,-500,4,2,1,50,0,0
75080,-80,4,2,1,50,0,0
75883,-320,4,2,1,50,0,0
76687,-80,4,2,2,50,0,0
76955,-57.1428571428571,4,2,1,50,0,0
81508,-100,4,2,1,50,0,0
82044,-66.6666666666667,4,2,1,50,0,0
82580,-50,4,2,1,50,0,0
83919,-41.6666666666667,4,2,1,50,0,0
84187,-41.6666666666667,4,2,7,50,0,0
84455,-41.6666666666667,4,2,1,50,0,0
85258,-33.3333333333333,4,2,2,50,0,0
85392,-33.3333333333333,4,2,1,50,0,0
85794,-35.7142857142857,4,2,7,80,0,1
86062,-151.515151515152,4,2,7,80,0,1
86330,-35.7142857142857,4,2,7,80,0,1
87535,-40,4,2,7,80,0,1
87803,-35.7142857142857,4,2,7,80,0,1
88205,-66.6666666666667,4,2,7,80,0,1
88472,-40,4,2,7,80,0,1
88874,-35.7142857142857,4,2,7,80,0,1
89142,-40,4,2,7,80,0,1
89276,-35.7142857142857,4,2,7,80,0,1
90347,-151.515151515152,4,2,7,80,0,1
90615,-35.7142857142857,4,2,7,80,0,1
90883,-40,4,2,7,80,0,1
91017,-35.7142857142857,4,2,7,80,0,1
91419,-40,4,2,7,80,0,1
91553,-200,4,2,7,80,0,1
92088,-35.7142857142857,4,2,7,80,0,1
92490,-66.6666666666667,4,2,7,80,0,1
92758,-40,4,2,7,80,0,1
93160,-35.7142857142857,4,2,7,80,0,1
94633,-151.515151515152,4,2,7,80,0,1
94901,-35.7142857142857,4,2,7,80,0,1
95705,-66.6666666666667,4,2,7,80,0,1
95972,-40,4,2,7,80,0,1
96106,-40,4,2,7,80,0,1
96374,-35.7142857142857,4,2,7,80,0,1
96776,-66.6666666666667,4,2,7,80,0,1
97044,-40,4,2,7,80,0,1
97446,-35.7142857142857,4,2,7,80,0,1
98919,-151.515151515152,4,2,7,80,0,1
99187,-35.7142857142857,4,2,7,80,0,1
99455,-40,4,2,7,80,0,1
99588,-35.7142857142857,4,2,7,80,0,1
99990,-40,4,2,7,80,0,1
100124,-200,4,2,7,80,0,1
100660,-35.7142857142857,4,2,7,80,0,1
101062,-66.6666666666667,4,2,7,80,0,1
101330,-40,4,2,7,80,0,1
101731,-35.7142857142857,4,2,7,80,0,1
102669,-35.7142857142857,4,2,7,80,0,0
102937,-35.7142857142857,4,2,7,80,0,1
103205,-151.515151515152,4,2,7,80,0,1
103472,-35.7142857142857,4,2,7,80,0,1
104276,-40,4,2,7,80,0,1
104946,-35.7142857142857,4,2,7,80,0,1
105347,-66.6666666666667,4,2,7,80,0,1
105615,-40,4,2,7,80,0,1
106017,-35.7142857142857,4,2,7,80,0,1
107490,-151.515151515152,4,2,7,80,0,1
107758,-35.7142857142857,4,2,7,80,0,1
108696,-200,4,2,7,80,0,1
109231,-35.7142857142857,4,2,7,80,0,1
109633,-66.6666666666667,4,2,7,80,0,1
109901,-40,4,2,7,80,0,1
110303,-35.7142857142857,4,2,7,80,0,1
111776,-151.515151515152,4,2,7,80,0,1
112044,-35.7142857142857,4,2,7,80,0,1
112847,-40,4,2,7,80,0,1
113517,-35.7142857142857,4,2,7,80,0,1
113919,-66.6666666666667,4,2,7,80,0,1
114187,-40,4,2,7,80,0,1
114588,-35.7142857142857,4,2,7,80,0,1
116062,-151.515151515152,4,2,7,80,0,1
116330,-35.7142857142857,4,2,7,80,0,1
117133,-40,4,2,7,80,0,1
117267,-166.666666666667,4,2,7,80,0,1
117803,-35.7142857142857,4,2,7,80,0,1
118071,-35.7142857142857,4,2,7,80,0,0
118472,-40,4,2,7,80,0,1
119008,-80,4,2,7,80,0,1
119544,-160,4,2,7,80,0,1
120080,-160,4,2,3,80,0,0

[Colours]
Combo1 : 255,155,55
Combo2 : 255,74,179
Combo3 : 255,191,226
Combo4 : 157,204,255

[HitObjects]
56,216,80,6,0,P|77:164|144:138,1,100
260,248,481,2,0,P|255:198|223:161,1,100
178,97,883,2,0,L|182:72,2,25
53,48,1687,6,0,B|59:16|28:3|28:3|21:36|51:48,1,112.500004291535,8|0,0:0|0:0,0:0:0:0:
53,48,2222,6,0,P|84:99|77:141,1,100
267,163,2624,2,0,P|252:220|218:245,1,100
148,267,3026,2,0,L|118:275,2,25
305,82,3830,6,0,B|311:114|279:127|279:127|273:94|303:82,1,112.500004291535,8|0,0:0|0:0,0:0:0:0:
302,82,4365,6,0,P|323:134|390:160,1,100
506,50,4767,2,0,P|501:100|469:137,1,100
424,202,5169,2,0,L|429:226,2,25
510,333,5972,6,0,B|516:301|485:288|485:288|478:321|508:333,1,112.500004291535,8|0,0:0|0:0,0:0:0:0:
510,333,6508,2,0,P|434:305|403:323,1,100
391,130,6910,2,0,P|317:163|308:198,1,100
296,250,7312,2,0,L|307:305,1,50
512,106,8115,6,0,B|519:123|533:133|533:133|475:147|449:87|471:96|440:34|376:53,1,225.000008583069,10|0,0:0|0:0,0:0:0:0:
248,167,8651,6,0,P|277:153|294:124,1,50,0|0,3:0|0:0,0:0:0:0:
167,0,8919,1,0,0:0:0:0:
157,6,9053,1,8,0:0:0:0:
150,15,9187,2,0,P|149:75|161:90,1,50,0|0,3:2|0:0,0:0:0:0:
174,133,9455,2,0,L|171:150,2,12.5,8|0|0,3:2|0:0|0:0,0:0:0:0:
248,167,9722,2,0,P|159:186|96:230,1,150,0|8,3:0|0:0,0:0:0:0:
46,168,10258,6,0,P|14:136|10:112,1,50,0|0,3:0|0:0,0:0:0:0:
289,97,10526,2,0,P|243:84|216:56,1,75.0000028610231,8|0,3:2|0:0,0:0:0:0:
46,168,10794,6,0,P|30:196|32:229,1,50,0|0,3:0|0:0,0:0:0:0:
134,0,11062,1,0,0:0:0:0:
127,9,11196,1,8,0:0:0:0:
125,20,11330,2,0,P|154:72|172:79,1,50,0|0,3:2|0:0,0:0:0:0:
174,133,11597,2,0,L|171:150,2,12.5,8|0|0,3:2|0:0|0:0,0:0:0:0:
46,168,11865,2,0,P|136:177|177:232,1,150,0|8,3:0|0:0,0:0:0:0:
279,373,12401,6,0,P|303:353|312:325,1,50,0|0,3:0|0:0,0:0:0:0:
172,218,12669,2,0,P|147:237|132:300,1,75.0000028610231,8|0,3:2|0:0,0:0:0:0:
279,373,12937,6,0,L|266:304,1,50,0|8,3:0|0:0,0:0:0:0:
388,329,13205,2,0,L|375:260,1,50,0|8,3:0|0:0,0:0:0:0:
268,375,13472,6,0,L|261:305,1,69.9999978637696,0|0,3:0|0:0,0:0:0:0:
406,318,13740,2,0,L|399:248,1,69.9999978637696,8|0,3:2|0:0,0:0:0:0:
255,373,14008,6,0,L|253:281,1,89.9999972534181,0|8,3:0|0:0,0:0:0:0:
430,310,14276,2,0,L|428:187,1,89.9999972534181,0|8,3:0|0:0,0:0:0:0:
241,369,14544,6,0,L|248:254,1,110.000003356934,0|0,3:0|0:0,0:0:0:0:
466,305,14812,2,0,L|474:187,1,110.000003356934,8|0,3:2|0:0,0:0:0:0:
372,51,15080,6,0,L|378:1,1,50,0|0,3:0|0:0,0:0:0:0:
377,1,15749,2,0,P|310:2|290:26,1,75.0000028610231,8|0,0:0|0:0,0:0:0:0:
173,122,16151,6,0,P|175:143|181:121,1,62.5,8|0,0:0|0:0,0:0:0:0:
206,118,16553,6,0,P|169:161|169:102,1,150.000005722046,8|4,0:0|0:0,0:0:0:0:
169,101,16955,1,0,0:0:0:0:
169,101,17222,6,0,P|115:184|151:331,1,209.999993591309,6|0,3:2|0:0,0:0:0:0:
164,359,17490,2,0,P|185:344|197:323,1,49.499999848938,2|0,0:1|0:0,0:0:0:0:
40,179,17758,6,0,P|161:247|263:213,1,209.999993591309,10|0,0:0|0:0,0:0:0:0:
235,230,18026,2,0,P|219:181|195:174,1,69.9999978637696
367,0,18160,6,0,B|335:66|359:137|431:159|431:159|426:106|464:81,1,279.999991455078,2|0,3:2|0:0,0:0:0:0:
499,267,18562,6,0,L|458:79,1,187.5,2|0,3:2|0:0,0:0:0:0:
456,9,18830,2,0,P|502:20|522:60,1,62.5,8|0,0:0|0:0,0:0:0:0:
341,192,18963,2,0,P|417:140|509:147,1,187.5,2|0,0:0|0:0,0:0:0:0:
499,267,19231,2,0,B|414:238|414:238|402:192|402:192|265:144,1,279.999991455078,2|0,3:2|0:0,0:0:0:0:
0,53,19633,6,0,P|74:37|76:3,1,112.500004291535,2|0,3:2|0:0,0:0:0:0:
71,5,19901,2,0,P|34:116|60:201,1,187.5,10|0,0:0|0:0,0:0:0:0:
59,188,20169,2,0,P|81:170|91:126,1,62.5,2|0,0:0|0:0,0:0:0:0:
297,89,20303,6,0,B|341:100|341:100|168:142,1,209.999993591309,2|0,3:2|0:0,0:0:0:0:
173,141,20571,2,0,L|190:63,1,62.5,2|0,0:2|0:0,0:0:0:0:
346,21,20705,6,0,P|391:106|512:117,1,209.999993591309,2|0,3:2|0:0,0:0:0:0:
509,118,20972,1,8,0:0:0:0:
350,361,21106,6,0,B|256:416|155:374|127:275|187:215|264:233|279:317,1,349.999989318848,2|0,3:2|0:0,0:0:0:0:
269,288,21508,6,0,P|170:286|77:341,1,209.999993591309,2|0,3:2|0:0,0:0:0:0:
11,384,21776,2,0,P|-2:356|3:329,1,49.499999848938,2|0,0:1|0:0,0:0:0:0:
79,213,22044,6,0,P|178:190|215:89,1,209.999993591309,10|0,0:0|0:0,0:0:0:0:
202,91,22312,2,0,P|179:129|192:161,1,69.9999978637696
307,369,22446,2,0,B|286:368|265:377|265:377|293:288|378:253|451:298,1,279.999991455078,2|0,3:2|0:0,0:0:0:0:
254,240,22847,6,0,L|277:334,1,62.5,2|0,3:2|0:0,0:0:0:0:
430,182,22981,2,0,L|423:205,1,25,2|8,0:0|0:0,0:0:0:0:
278,138,23249,2,0,L|272:161,1,25,2|0,0:0|0:0,0:0:0:0:
512,343,23517,2,0,P|490:123|526:77,1,279.999991455078,2|0,3:2|0:0,0:0:0:0:
384,0,23919,6,0,P|389:39|339:83,1,112.500004291535,2|0,3:2|0:0,0:0:0:0:
330,78,24187,2,0,B|276:8|189:37|189:37|220:88,1,187.5,10|0,0:0|0:0,0:0:0:0:
210,71,24455,2,0,L|227:-19,1,69.9999978637696,2|0,0:0|0:0,0:0:0:0:
14,165,24588,6,0,B|-12:138|-12:138|165:200,1,209.999993591309,2|0,3:2|0:0,0:0:0:0:
161,198,24856,2,0,P|176:239|142:294,1,69.9999978637696,2|0,0:0|0:0,0:0:0:0:
38,74,24990,2,0,P|19:151|132:347,1,279.999991455078,2|8,3:2|0:0,0:0:0:0:
375,273,25392,6,0,B|405:386|405:386|290:357|290:357|369:268,1,349.999989318848,2|0,3:2|0:0,0:0:0:0:
248,279,25794,6,0,L|500:228,1,209.999993591309,6|0,3:2|0:0,0:0:0:0:
464,235,26062,2,0,L|480:179,1,49.499999848938,2|0,0:1|0:0,0:0:0:0:
355,131,26330,6,0,P|453:111|513:7,1,209.999993591309,10|0,0:0|0:0,0:0:0:0:
508,14,26597,2,0,P|471:-2|423:21,1,69.9999978637696
477,187,26731,2,0,B|413:58|274:68|274:68|292:124,1,279.999991455078,2|0,3:2|0:0,0:0:0:0:
477,187,27133,6,0,P|414:148|454:69,1,150,2|0,3:2|0:0,0:0:0:0:
443,4,27401,2,0,P|483:21|500:64,1,50,8|0,0:0|0:0,0:0:0:0:
477,187,27535,2,0,P|502:238|440:328,1,150,2|0,0:0|0:0,0:0:0:0:
386,384,27803,2,0,B|406:305|316:251|328:289|251:248|274:150,1,279.999991455078,2|0,3:2|0:0,0:0:0:0:
145,281,28205,6,0,P|212:317|256:298,1,112.500004291535,2|0,3:2|0:0,0:0:0:0:
139,384,28472,2,0,P|113:286|61:203,1,187.5,10|0,0:0|0:0,0:0:0:0:
63,205,28740,2,0,P|34:243|48:286,1,62.5,2|0,0:0|0:0,0:0:0:0:
273,151,28874,6,0,P|199:85|62:93,1,209.999993591309,2|0,3:2|0:0,0:0:0:0:
18,60,29142,2,0,B|-4:85|-4:85|221:21|221:21|105:-8,1,349.999989318848,2|0,0:0|0:0,0:0:0:0:
91,80,29544,6,0,P|99:112|87:153,1,62.5,8|0,0:0|0:0,0:0:0:0:
182,138,29678,2,0,P|172:169|142:199,1,50,0|0,3:0|0:0,0:0:0:0:
241,221,29812,2,0,P|220:241|183:250,1,37.5000014305115
256,316,29946,2,0,P|236:320|210:313,1,25
95,345,30080,6,0,L|90:326,3,20,2|2|2|2,3:1|0:1|0:1|0:1,0:0:0:0:
89,325,32222,2,0,B|172:337|172:337|174:342|174:342|260:354,1,175,2|0,0:1|0:0,0:0:0:0:
269,354,33294,5,8,0:0:0:0:
419,300,33428,1,8,0:0:0:0:
422,309,33495,1,8,0:0:0:0:
425,319,33562,1,8,0:0:0:0:
309,212,33740,5,8,0:0:0:0:
431,60,33830,2,0,L|456:190,1,100.000003814697,8|8,0:0|0:0,0:0:0:0:
454,178,34097,1,8,0:0:0:0:
454,178,34365,6,0,P|408:184|377:192,1,75.0000028610231,2|0,3:2|0:0,0:0:0:0:
278,80,34633,2,0,P|304:54|334:31,1,75.0000028610231,2|0,0:0|0:0,0:0:0:0:
267,196,34901,2,0,P|246:108|198:44,1,150,10|0,0:0|0:0,0:0:0:0:
204,56,35169,1,0,0:0:0:0:
344,34,35303,6,0,B|380:51|380:51|336:42,1,75.0000028610231,2|0,3:2|0:0,0:0:0:0:
129,160,35571,2,0,B|155:130|155:130|135:170,1,75.0000028610231,2|0,0:0|3:0,0:0:0:0:
204,56,35838,1,0,0:0:0:0:
105,233,35972,2,0,L|83:60,1,150.000005722046,10|0,0:0|0:0,0:0:0:0:
86,84,36508,6,0,L|106:2,1,75.0000028610231,2|0,3:2|0:0,0:0:0:0:
240,151,36776,2,0,L|220:233,1,75.0000028610231,2|0,0:0|0:0,0:0:0:0:
0,96,37044,2,0,P|68:105|161:154,1,150,10|0,0:0|0:0,0:0:0:0:
148,148,37312,1,0,0:0:0:0:
303,238,37446,6,0,B|320:272|320:272|312:230,1,75.0000028610231,2|0,3:2|0:0,0:0:0:0:
184,62,37713,2,0,B|166:27|166:27|175:70,1,75.0000028610231,2|0,0:0|3:0,0:0:0:0:
240,151,37981,1,0,0:0:0:0:
53,215,38115,2,0,L|92:223,6,37.5000014305115,10|0|0|0|0|0|0,0:0|0:0|0:0|0:0|0:0|0:0|0:0,0:0:0:0:
224,378,38651,6,0,P|231:338|249:286,1,75.0000028610231,2|0,3:2|0:0,0:0:0:0:
410,167,38919,2,0,P|399:202|392:239,1,75.0000028610231,2|0,0:0|0:0,0:0:0:0:
160,309,39187,2,0,P|233:284|317:268,1,150,10|0,0:0|0:0,0:0:0:0:
316,271,39455,1,0,0:0:0:0:
429,344,39588,6,0,P|409:329|430:343,1,75.0000028610231,2|0,3:2|0:0,0:0:0:0:
198,198,39856,2,0,P|177:213|195:195,1,75.0000028610231,2|0,0:0|3:0,0:0:0:0:
316,271,40124,1,0,0:0:0:0:
152,306,40258,2,0,P|135:210|109:148,1,150.000005722046,10|0,0:0|0:0,0:0:0:0:
115,161,40794,6,0,P|132:103|161:85,1,75.0000028610231,2|0,3:2|0:0,0:0:0:0:
298,202,41062,2,0,P|284:143|299:113,1,75.0000028610231,2|0,0:0|0:0,0:0:0:0:
388,25,41330,2,0,P|296:43|224:50,1,150,10|0,0:0|0:0,0:0:0:0:
232,46,41597,1,0,0:0:0:0:
295,154,41731,6,0,P|310:133|292:151,1,75.0000028610231,2|0,3:2|0:0,0:0:0:0:
129,17,41999,2,0,P|119:-6|127:17,1,75.0000028610231,2|0,0:0|3:0,0:0:0:0:
232,46,42267,1,0,0:0:0:0:
429,137,42401,2,0,L|422:96,6,37.5000014305115,10|0|0|0|0|0|0,0:0|0:0|0:0|0:0|0:0|0:0|0:0,0:0:0:0:
331,0,42937,6,0,P|349:72|369:86,1,75.0000028610231,2|0,3:2|0:0,0:0:0:0:
231,145,43205,2,0,P|282:198|306:200,1,75.0000028610231,2|0,0:0|0:0,0:0:0:0:
450,233,43472,2,0,P|466:163|506:81,1,150,10|0,0:0|0:0,0:0:0:0:
506,84,43740,1,0,0:0:0:0:
369,225,43874,6,0,B|338:252|338:252|378:231,1,75.0000028610231,2|0,3:2|0:0,0:0:0:0:
447,23,44142,2,0,B|429:58|429:58|438:15,1,75.0000028610231,2|0,0:0|3:0,0:0:0:0:
506,84,44410,1,0,0:0:0:0:
331,0,44544,2,0,L|364:175,1,150.000005722046,10|0,0:0|0:0,0:0:0:0:
358,147,45080,6,0,L|378:74,1,75.0000028610231,2|0,3:2|0:0,0:0:0:0:
247,17,45347,2,0,L|227:90,1,75.0000028610231,2|0,0:0|0:0,0:0:0:0:
452,176,45615,2,0,P|394:180|297:216,1,150,10|0,0:0|0:0,0:0:0:0:
299,216,45883,1,0,0:0:0:0:
480,103,46017,6,0,B|507:73|507:73|487:113,1,75.0000028610231,2|0,3:2|0:0,0:0:0:0:
353,275,46285,6,0,B|355:315|355:315|340:272,1,75.0000028610231,2|0,0:0|3:0,0:0:0:0:
299,216,46553,1,0,0:0:0:0:
476,338,46687,2,0,L|468:387,6,37.5000014305115,10|0|0|0|0|0|0,0:0|0:0|0:0|0:0|0:0|0:0|0:0,0:0:0:0:
353,275,47222,6,0,P|340:317|349:355,1,75.0000028610231,2|0,3:2|0:0,0:0:0:0:
446,214,47490,2,0,P|488:223|517:250,1,75.0000028610231,2|0,0:0|0:0,0:0:0:0:
349,356,47758,2,0,P|369:242|361:186,1,150,10|0,0:0|0:0,0:0:0:0:
359,201,48026,1,0,0:0:0:0:
276,313,48160,6,0,P|266:289|274:313,1,75.0000028610231,2|0,3:2|0:0,0:0:0:0:
469,214,48428,2,0,P|449:229|468:212,1,75.0000028610231,2|0,0:0|3:0,0:0:0:0:
359,201,48696,1,0,0:0:0:0:
236,384,48830,2,0,L|218:222,1,150.000005722046,10|0,0:0|0:0,0:0:0:0:
24,33,49365,6,0,P|10:67|23:101,1,75.0000028610231,2|0,3:2|0:0,0:0:0:0:
192,78,49633,2,0,P|186:114|157:137,1,75.0000028610231,2|0,0:0|0:0,0:0:0:0:
282,63,49901,2,0,P|208:49|138:21,1,150,10|0,0:0|0:0,0:0:0:0:
132,15,50169,1,0,0:0:0:0:
151,148,50303,6,0,P|124:168|150:146,1,100,2|0,3:2|0:0,0:0:0:0:
106,279,50571,2,0,P|81:275|106:277,1,75.0000028610231,2|0,0:0|3:0,0:0:0:0:
19,342,50838,2,0,P|12:333|19:341,1,50
247,318,50972,6,0,L|265:299,6,25,10|0|0|0|0|0|0,0:0|0:0|0:0|0:0|0:0|0:0|0:0,0:0:0:0:
252,328,51508,2,0,B|262:299|237:274|241:288|221:266|229:233,2,100
252,328,52044,6,0,P|172:325|143:278,1,100,10|0,0:0|0:0,0:0:0:0:
46,234,52312,5,2,0:0:0:0:
62,226,52446,1,2,3:2:0:0:
18,161,52580,1,0,0:0:0:0:
116,148,52713,1,2,0:0:0:0:
81,56,52847,5,0,3:0:0:0:
211,102,52981,1,2,0:0:0:0:
73,42,53115,2,0,P|28:30|-35:42,1,75.0000028610231,10|0,0:0|0:0,0:0:0:0:
218,117,53383,2,0,P|263:116|322:89,1,75.0000028610231,2|0,0:0|0:0,0:0:0:0:
430,0,53651,5,2,3:2:0:0:
368,136,53785,1,0,0:0:0:0:
413,1,53919,1,2,0:0:0:0:
384,131,54053,1,0,0:0:0:0:
484,100,54187,5,10,0:0:0:0:
487,109,54321,1,0,0:0:0:0:
489,119,54455,1,2,0:0:0:0:
492,128,54588,1,2,3:2:0:0:
400,214,54722,5,0,0:0:0:0:
454,221,54856,1,2,0:0:0:0:
246,132,54990,1,0,3:0:0:0:
371,109,55124,1,2,0:0:0:0:
176,209,55258,6,0,L|120:195,3,37.5000014305115,10|0|0|0,0:0|0:0|0:0|0:0,0:0:0:0:
158,188,55526,2,0,L|96:196,3,37.5000014305115
36,89,55794,6,0,P|82:97|113:136,1,75.0000028610231,2|0,3:2|0:0,0:0:0:0:
75,257,56062,2,0,P|41:273|4:268,1,75.0000028610231,2|0,0:0|0:0,0:0:0:0:
114,363,56330,5,10,0:0:0:0:
143,294,56463,1,0,0:0:0:0:
241,246,56597,1,2,0:0:0:0:
369,280,56731,1,2,3:2:0:0:
284,380,56865,5,0,0:0:0:0:
287,366,56999,1,2,0:0:0:0:
244,232,57133,5,0,3:0:0:0:
241,246,57267,1,2,0:0:0:0:
369,280,57401,2,0,P|380:231|363:196,1,75.0000028610231,10|0,0:0|0:0,0:0:0:0:
148,247,57669,2,0,P|157:295|188:320,1,75.0000028610231,2|0,0:0|0:0,0:0:0:0:
440,321,57937,6,0,P|441:363|399:389,1,75.0000028610231,2|0,3:2|0:0,0:0:0:0:
271,336,58205,2,0,P|269:293|311:267,1,75.0000028610231,2|0,0:0|0:0,0:0:0:0:
484,168,58472,5,10,0:0:0:0:
490,203,58606,1,0,0:0:0:0:
497,237,58740,1,2,0:0:0:0:
504,271,58874,1,2,3:2:0:0:
403,152,59008,5,0,0:0:0:0:
487,62,59142,1,2,0:0:0:0:
384,144,59276,1,0,3:0:0:0:
441,0,59410,1,2,0:0:0:0:
363,141,59544,6,0,L|356:181,3,37.5000014305115,10|0|0|0,0:0|0:0|0:0|0:0,0:0:0:0:
337,149,59812,2,0,L|350:187,3,37.5000014305115
88,83,60080,6,0,P|101:22|130:5,1,75.0000028610231,2|0,3:2|0:0,0:0:0:0:
240,133,60347,2,0,P|261:102|261:65,1,75.0000028610231,2|0,0:0|0:0,0:0:0:0:
5,64,60615,5,10,0:0:0:0:
76,92,60749,1,0,0:0:0:0:
129,175,60883,1,2,0:0:0:0:
109,294,61017,1,2,3:2:0:0:
6,219,61151,5,0,0:0:0:0:
10,206,61285,1,2,0:0:0:0:
14,193,61419,1,0,3:0:0:0:
18,180,61553,1,2,0:0:0:0:
129,175,61687,6,0,P|170:173|203:149,1,75.0000028610231,10|0,0:0|0:0,0:0:0:0:
255,294,61955,2,0,P|289:271|306:234,1,75.0000028610231,2|0,0:0|0:0,0:0:0:0:
412,122,62222,5,2,3:2:0:0:
255,96,62356,1,0,0:0:0:0:
401,103,62490,1,2,0:0:0:0:
268,110,62624,1,0,0:0:0:0:
319,23,62758,5,10,0:0:0:0:
322,32,62892,1,0,0:0:0:0:
324,42,63026,1,2,0:0:0:0:
327,51,63159,1,2,3:2:0:0:
401,103,63294,5,0,0:0:0:0:
414,51,63428,1,2,0:0:0:0:
306,234,63562,1,0,3:0:0:0:
268,110,63696,1,0,0:0:0:0:
408,277,63830,6,0,L|403:337,3,37.5000014305115,10|0|0|0,0:0|0:0|0:0|0:0,0:0:0:0:
418,286,64097,2,0,L|428:345,3,37.5000014305115
306,234,64365,6,0,P|287:265|286:302,1,75.0000028610231,2|0,3:2|0:0,0:0:0:0:
434,116,64633,2,0,P|433:153|451:185,1,75.0000028610231,2|0,0:0|0:0,0:0:0:0:
487,375,64901,5,10,0:0:0:0:
495,302,65035,1,0,0:0:0:0:
455,216,65169,1,2,0:0:0:0:
353,164,65303,1,2,3:2:0:0:
228,251,65437,5,0,0:0:0:0:
232,265,65571,1,2,0:0:0:0:
347,342,65705,5,0,3:0:0:0:
342,327,65839,1,2,0:0:0:0:
228,251,65972,6,0,P|204:216|206:168,1,75.0000028610231,10|0,0:0|0:0,0:0:0:0:
430,161,66240,2,0,P|434:197|419:231,1,75.0000028610231,2|0,0:0|0:0,0:0:0:0:
145,278,66508,6,0,P|145:240|164:209,1,75.0000028610231,2|0,3:2|0:0,0:0:0:0:
345,193,66776,2,0,P|329:159|333:122,1,75.0000028610231,2|0,0:0|0:0,0:0:0:0:
381,1,67044,6,0,P|401:52|379:89,1,75.0000028610231,10|0,0:0|0:0,0:0:0:0:
259,93,67312,1,2,0:0:0:0:
259,93,67446,2,0,P|239:42|261:5,1,75.0000028610231,2|0,3:2|0:0,0:0:0:0:
433,139,67714,5,2,0:0:0:0:
333,155,67848,1,0,3:0:0:0:
225,218,67982,1,2,0:0:0:0:
125,349,68115,6,0,L|118:309,3,37.5000014305115,10|0|0|0,0:0|0:0|0:0|0:0,0:0:0:0:
99,341,68383,2,0,L|112:303,3,37.5000014305115,2|0|0|0,0:0|0:0|0:0|0:0,0:0:0:0:
0,356,68651,6,0,P|113:260|224:282,1,250,2|0,0:0|0:0,0:0:0:0:
205,271,69455,2,0,P|191:292|132:294,1,88.0000026855469,2|0,0:0|0:0,0:0:0:0:
311,359,70794,6,0,P|370:288|352:114,1,250
366,136,71597,2,0,P|338:85|341:64,1,80
472,15,72937,6,0,P|415:77|244:82,1,250
257,88,73740,2,0,P|252:37|229:18,1,80
141,85,75080,6,0,P|251:127|340:224,1,250
339,222,75883,2,0,P|338:248|352:281,1,62.5
431,265,76553,5,8,0:0:0:0:
431,265,76687,2,0,P|431:238|417:205,1,62.5,4|0,0:0|0:0,0:0:0:0:
206,148,76955,2,0,P|221:185|293:210,1,87.500000834465
512,101,77222,5,0,3:0:0:0:
320,51,77490,1,8,0:0:0:0:
316,56,77624,1,8,0:0:0:0:
509,87,77758,1,0,3:0:0:0:
304,135,78026,1,8,0:0:0:0:
421,70,78294,5,0,3:0:0:0:
477,14,78428,1,8,0:0:0:0:
428,76,78562,1,0,0:0:0:0:
469,7,78696,1,8,0:0:0:0:
352,200,78830,1,0,3:0:0:0:
387,1,79097,1,8,0:0:0:0:
25,194,79365,5,0,3:0:0:0:
217,144,79633,1,8,0:0:0:0:
221,149,79767,1,8,0:0:0:0:
28,180,79901,1,0,3:0:0:0:
233,228,80169,1,8,0:0:0:0:
116,163,80437,5,0,3:0:0:0:
60,107,80571,1,8,0:0:0:0:
109,169,80705,1,0,0:0:0:0:
68,100,80839,1,8,0:0:0:0:
185,293,80973,1,0,3:0:0:0:
150,94,81240,1,8,0:0:0:0:
25,358,81508,6,0,L|39:301,1,50,0|0,3:0|0:0,0:0:0:0:
165,372,81776,2,0,L|179:315,1,50,0|0,3:0|0:0,0:0:0:0:
37,358,82044,6,0,L|50:272,1,75.0000028610231,0|0,3:0|0:0,0:0:0:0:
198,358,82312,2,0,L|209:282,1,75.0000028610231,0|0,3:0|0:0,0:0:0:0:
53,352,82580,6,0,L|60:242,1,100,0|0,3:0|0:0,0:0:0:0:
240,344,82847,2,0,L|247:223,1,100,0|0,3:0|0:0,0:0:0:0:
77,177,83115,6,0,L|75:95,1,50,0|0,3:0|0:0,0:0:0:0:
260,169,83249,2,0,L|258:87,1,50,0|0,3:0|0:0,0:0:0:0:
91,173,83383,6,0,L|82:91,1,50,0|0,3:0|0:0,0:0:0:0:
278,151,83517,2,0,L|269:69,1,50,0|0,3:0|0:0,0:0:0:0:
169,0,83651,5,0,0:0:0:0:
169,0,83785,1,0,0:0:0:0:
193,244,83919,6,0,L|176:94,1,119.999996337891,0|0,3:0|0:0,0:0:0:0:
177,107,84120,1,8,0:0:0:0:
175,89,84187,1,8,0:0:0:0:
266,122,84455,5,8,0:0:0:0:
52,108,84588,1,8,0:0:0:0:
49,118,84856,5,8,0:0:0:0:
280,99,84990,1,8,0:0:0:0:
85,226,85124,1,8,0:0:0:0:
281,72,85258,2,0,P|253:30|277:74,1,150.000005722046,4|0,0:0|0:0,0:0:0:0:
360,0,85526,5,2,0:0:0:0:
360,0,85794,6,0,P|319:87|366:226,1,209.999993591309,6|0,3:2|0:0,0:0:0:0:
404,244,86062,2,0,P|421:220|419:201,1,49.499999848938,2|0,0:1|0:0,0:0:0:0:
512,337,86330,6,0,P|454:284|316:291,1,209.999993591309,10|0,0:0|0:0,0:0:0:0:
319,294,86597,2,0,P|347:347|379:341,1,69.9999978637696
425,107,86731,2,0,B|453:160|453:160|407:214|341:173|361:168|300:123|235:189,1,279.999991455078,2|0,3:2|0:0,0:0:0:0:
220,349,87133,6,0,P|283:271|231:162,1,209.999993591309,2|0,3:2|0:0,0:0:0:0:
201,113,87401,2,0,P|181:133|174:191,1,69.9999978637696,8|0,0:0|0:0,0:0:0:0:
59,31,87535,2,0,P|39:120|85:199,1,187.5,2|0,0:0|0:0,0:0:0:0:
18,297,87803,2,0,B|103:268|103:268|115:222|115:222|252:174,1,279.999991455078,2|0,3:2|0:0,0:0:0:0:
495,27,88205,6,0,P|507:81|451:113,1,112.500004291535,2|0,3:2|0:0,0:0:0:0:
456,113,88472,2,0,P|402:84|261:60,1,187.5,10|0,0:0|0:0,0:0:0:0:
268,56,88740,2,0,P|293:8|334:17,1,62.5,2|0,0:0|0:0,0:0:0:0:
433,204,88874,6,0,B|434:217|443:230|443:230|331:193|350:73,1,209.999993591309,2|0,3:2|0:0,0:0:0:0:
351,83,89142,2,0,P|371:55|412:56,1,62.5
499,287,89276,6,0,B|520:254|520:254|318:313,1,209.999993591309,2|0,3:2|0:0,0:0:0:0:
346,306,89544,1,8,0:0:0:0:
19,279,89678,6,0,B|-33:259|-31:180|40:137|129:188|146:296|70:373,1,349.999989318848,2|0,3:2|0:0,0:0:0:0:
77,365,90080,6,0,P|77:245|172:137,1,209.999993591309,2|0,3:2|0:0,0:0:0:0:
201,182,90347,2,0,P|197:211|173:231,1,49.499999848938,2|0,0:1|0:0,0:0:0:0:
8,16,90615,6,0,P|132:20|181:93,1,209.999993591309,10|0,0:0|0:0,0:0:0:0:
172,94,90883,2,0,P|139:93|124:53,1,62.5
351,165,91017,2,0,B|361:150|378:142|378:142|303:97|195:139|177:250,1,279.999991455078,2|0,3:2|0:0,0:0:0:0:
416,284,91419,6,0,L|406:214,1,62.5,2|0,3:2|0:0,0:0:0:0:
192,330,91553,2,0,L|198:305,1,25,2|8,0:0|0:0,0:0:0:0:
348,360,91821,2,0,L|354:335,1,25,2|0,0:0|0:0,0:0:0:0:
88,384,92088,2,0,P|166:177|143:123,1,279.999991455078,2|0,3:2|0:0,0:0:0:0:
34,0,92490,6,0,P|22:56|71:99,1,112.500004291535,2|0,3:2|0:0,0:0:0:0:
70,101,92758,2,0,B|104:19|195:24|195:24|178:82,1,187.5,10|0,0:0|0:0,0:0:0:0:
189,64,93026,2,0,L|274:40,1,62.5,2|0,0:0|0:0,0:0:0:0:
451,98,93160,6,0,B|479:73|479:73|297:119,1,209.999993591309,2|0,3:2|0:0,0:0:0:0:
299,120,93428,2,0,P|302:172|352:217,1,69.9999978637696,2|0,0:0|0:0,0:0:0:0:
421,0,93562,2,0,P|449:111|351:261,1,279.999991455078,2|8,3:2|0:0,0:0:0:0:
108,328,93963,6,0,B|38:247|38:247|74:187|74:187|134:220|134:220|117:327,1,349.999989318848,2|0,3:2|0:0,0:0:0:0:
0,338,94365,6,0,L|217:381,1,209.999993591309,4|0,3:2|0:0,0:0:0:0:
218,381,94633,2,0,L|204:324,1,49.499999848938,2|0,0:1|0:0,0:0:0:0:
233,138,94901,6,0,P|333:149|374:286,1,209.999993591309,10|0,0:0|0:0,0:0:0:0:
372,247,95169,2,0,P|314:243|308:184,1,69.9999978637696
206,332,95303,2,0,B|186:253|276:199|264:237|341:196|318:98,1,279.999991455078,2|0,3:2|0:0,0:0:0:0:
96,0,95705,6,0,P|133:48|190:48,1,112.500004291535,2|0,3:2|0:0,0:0:0:0:
185,40,95972,2,0,P|148:56|138:94,1,62.5,8|0,0:0|0:0,0:0:0:0:
335,166,96106,2,0,P|330:73|210:-4,1,187.5,2|0,0:0|0:0,0:0:0:0:
413,64,96374,2,0,B|407:46|414:24|414:24|331:1|246:54|229:149,1,279.999991455078,2|0,3:2|0:0,0:0:0:0:
373,235,96776,6,0,P|400:318|448:339,1,112.500004291535,2|0,3:2|0:0,0:0:0:0:
427,334,97044,2,0,P|479:229|485:149,1,187.5,10|0,0:0|0:0,0:0:0:0:
481,148,97312,2,0,P|450:175|452:207,1,62.5,2|0,0:0|0:0,0:0:0:0:
494,384,97446,6,0,P|406:347|293:355,1,209.999993591309,2|0,3:2|0:0,0:0:0:0:
282,357,97713,2,0,P|272:313|286:280,1,69.9999978637696,2|0,0:0|0:0,0:0:0:0:
51,328,97847,6,0,B|18:359|18:359|195:305,1,209.999993591309,2|0,3:2|0:0,0:0:0:0:
189,306,98115,1,8,0:0:0:0:
476,71,98249,6,0,B|518:117|482:175|482:175|395:167|347:79|401:-5,1,349.999989318848,2|0,3:2|0:0,0:0:0:0:
398,0,98651,6,0,P|417:131|355:197,1,209.999993591309,2|0,3:2|0:0,0:0:0:0:
294,179,98919,2,0,P|293:154|308:134,1,49.499999848938,2|0,0:1|0:0,0:0:0:0:
502,0,99187,6,0,P|430:55|292:42,1,209.999993591309,10|0,0:0|0:0,0:0:0:0:
305,46,99455,2,0,P|276:52|243:83,1,62.5
74,128,99588,2,0,B|113:137|125:188|125:188|185:142|183:67|130:16,1,279.999991455078,2|0,3:2|0:0,0:0:0:0:
32,267,99990,6,0,L|52:159,1,62.5,2|0,3:2|0:0,0:0:0:0:
242,327,100124,2,0,L|236:298,1,25,2|8,0:2|0:0,0:0:0:0:
90,360,100392,2,0,L|84:331,1,25,2|0,0:0|0:0,0:0:0:0:
0,90,100660,2,0,P|134:179|272:144,1,279.999991455078,2|0,3:2|0:0,0:0:0:0:
178,279,101062,6,0,P|163:319|211:375,1,112.500004291535,2|0,3:2|0:0,0:0:0:0:
90,360,101330,2,0,P|138:317|168:174,1,187.5,10|0,0:0|0:0,0:0:0:0:
165,193,101597,2,0,P|147:156|151:113,1,62.5,2|0,0:0|0:0,0:0:0:0:
459,27,101731,6,0,B|380:7|326:97|364:85|323:161|225:139,1,279.999991455078,2|0,3:2|0:0,0:0:0:0:
311,0,102133,2,0,P|338:14|328:66,1,69.9999978637696,2|0,3:2|0:0,0:0:0:0:
145,135,102267,2,0,P|148:58|201:4,1,139.999995727539,2|8,0:0|0:0,0:0:0:0:
496,96,102535,6,0,P|503:237|357:383,1,349.999989318848,2|0,3:2|0:0,0:0:0:0:
136,384,102937,6,0,B|158:349|197:351|197:351|249:278|180:206,1,209.999993591309,6|0,3:2|0:0,0:0:0:0:
178,148,103205,2,0,P|148:156|131:183,1,49.499999848938,2|0,0:1|0:0,0:0:0:0:
302,332,103472,6,0,P|197:258|107:254,1,209.999993591309,10|0,0:0|0:0,0:0:0:0:
105,254,103740,2,0,P|85:281|102:345,1,69.9999978637696
255,101,103874,2,0,B|264:120|281:132|281:132|211:153|175:81|203:90|161:16|84:44,1,279.999991455078,2|0,3:2|0:0,0:0:0:0:
23,206,104276,6,0,P|77:153|80:37,1,187.5,2|0,3:2|0:0,0:0:0:0:
21,0,104544,2,0,P|6:31|26:84,1,62.5,8|0,0:0|0:0,0:0:0:0:
173,126,104678,2,0,P|47:164|18:222,1,187.5
165,384,104946,2,0,B|138:307|223:245|214:284|287:236|256:141,1,279.999991455078,2|0,3:2|0:0,0:0:0:0:
0,282,105347,6,0,P|69:330|96:314,1,112.500004291535,2|0,3:2|0:0,0:0:0:0:
90,311,105615,2,0,P|157:275|283:270,1,187.5,10|0,0:0|0:0,0:0:0:0:
276,274,105883,2,0,P|277:320|221:350,1,62.5,2|0,0:0|0:0,0:0:0:0:
432,151,106017,6,0,B|430:138|437:123|437:123|333:179|373:294,1,209.999993591309,2|0,3:2|0:0,0:0:0:0:
370,286,106285,2,0,P|407:291|429:264,1,69.9999978637696,2|0,0:0|0:0,0:0:0:0:
512,93,106419,2,0,P|430:108|322:31,1,209.999993591309,2|0,3:2|0:0,0:0:0:0:
320,31,106687,1,8,0:0:0:0:
433,376,106821,6,0,B|501:292|475:186|382:143|314:192|316:278|400:300,1,349.999989318848,2|0,3:2|0:0,0:0:0:0:
370,286,107222,6,0,P|372:197|442:86,1,209.999993591309,2|0,3:2|0:0,0:0:0:0:
512,93,107490,2,0,P|508:130|490:148,1,49.499999848938,2|0,0:1|0:0,0:0:0:0:
483,267,107758,6,0,P|423:186|322:188,1,209.999993591309,10|0,0:2|0:0,0:0:0:0:
312,196,108026,2,0,P|354:217|385:201,1,69.9999978637696
168,22,108160,2,0,B|173:4|171:-12|171:-12|250:21|278:134|197:212,1,279.999991455078,2|0,3:2|0:0,0:0:0:0:
15,314,108562,6,0,L|-7:411,1,69.9999978637696,2|0,3:2|0:0,0:0:0:0:
200,196,108696,2,0,L|208:229,1,25,2|8,0:0|0:0,0:0:0:0:
59,228,108963,2,0,L|67:261,1,25,2|0,0:0|0:0,0:0:0:0:
12,17,109231,2,0,B|43:94|137:129|214:104|214:104|189:16,1,279.999991455078,2|0,3:2|0:0,0:0:0:0:
0,178,109633,6,0,P|56:184|85:127,1,112.500004291535,2|0,3:2|0:0,0:0:0:0:
73,134,109901,2,0,P|24:258|27:314,1,187.5,10|0,0:0|0:0,0:0:0:0:
32,318,110169,2,0,P|73:288|75:249,1,62.5,2|0,0:0|0:0,0:0:0:0:
285,259,110303,6,0,B|329:265|329:265|166:303,1,209.999993591309,2|0,3:2|0:0,0:0:0:0:
156,305,110571,2,0,L|176:227,1,69.9999978637696,2|0,0:0|0:0,0:0:0:0:
374,384,110705,2,0,P|273:291|270:145,1,279.999991455078,2|8,3:2|0:0,0:0:0:0:
512,123,111106,6,0,B|519:46|519:46|449:21|449:21|404:78|404:78|448:140|448:140|506:124,1,349.999989318848,2|0,3:2|0:0,0:0:0:0:
512,253,111508,2,0,P|425:173|305:212,1,209.999993591309,6|0,3:2|0:0,0:0:0:0:
266,155,111776,2,0,P|258:194|268:206,1,49.499999848938,2|0,0:1|0:0,0:0:0:0:
436,148,112044,6,0,P|364:220|367:322,1,209.999993591309,10|0,0:0|0:0,0:0:0:0:
377,332,112312,2,0,P|424:319|439:278,1,69.9999978637696
512,121,112446,2,0,B|497:172|497:172|424:185|390:112|427:120|393:54|322:60,1,279.999991455078,2|0,3:2|0:0,0:0:0:0:
162,4,112847,6,0,P|265:4|329:78,1,187.5,2|0,3:2|0:0,0:0:0:0:
327,139,113115,2,0,P|281:134|260:90,1,62.5,8|0,0:0|0:0,0:0:0:0:
208,276,113249,2,0,P|160:232|148:94,1,187.5,2|0,0:0|0:0,0:0:0:0:
9,68,113517,2,0,B|6:87|-9:105|-9:105|70:143|173:86|160:-10,1,279.999991455078,2|0,3:2|0:0,0:0:0:0:
107,193,113919,6,0,P|56:212|33:267,1,112.500004291535,2|0,3:2|0:0,0:0:0:0:
41,277,114187,2,0,P|156:302|259:375,1,187.5,10|0,0:0|0:0,0:0:0:0:
220,347,114455,2,0,P|184:380|134:358,1,62.5,2|0,0:0|0:0,0:0:0:0:
422,185,114588,6,0,B|423:169|432:156|432:156|317:186|329:320,1,209.999993591309,2|0,3:2|0:0,0:0:0:0:
318,296,114856,2,0,P|289:291|261:252,1,69.9999978637696,2|0,0:0|0:0,0:0:0:0:
459,71,114990,6,0,P|438:166|520:261,1,209.999993591309,2|0,3:2|0:0,0:0:0:0:
512,246,115258,1,8,0:0:0:0:
96,200,115392,6,0,B|47:162|71:99|71:99|159:91|221:169|182:262,1,349.999989318848,2|0,3:2|0:0,0:0:0:0:
184,256,115794,2,0,P|142:141|198:52,1,209.999993591309,2|0,3:2|0:0,0:0:0:0:
257,66,116062,2,0,P|261:87|244:112,1,49.499999848938,2|0,0:1|0:0,0:0:0:0:
94,34,116330,6,0,P|95:145|-10:189,1,209.999993591309,10|0,0:0|0:0,0:0:0:0:
6,185,116597,2,0,P|5:128|47:97,1,69.9999978637696
329,14,116731,2,0,P|290:107|126:153,1,279.999991455078,2|0,3:2|0:0,0:0:0:0:
458,56,117133,6,0,L|398:73,1,62.5,2|0,3:2|0:0,0:0:0:0:
364,206,117267,2,0,L|356:235,1,29.9999990844727,2|8,0:0|0:0,0:0:0:0:
512,240,117535,2,0,L|504:269,1,29.9999990844727,2|0,0:0|0:0,0:0:0:0:
398,74,117803,2,0,L|437:361,1,279.999991455078,2|0,3:2|0:0,0:0:0:0:
435,351,118472,6,0,B|452:244|326:183|349:236|240:186|259:54,1,375,2|0,3:2|0:0,0:0:0:0:
150,275,119008,6,0,B|184:233|145:175|141:204|106:155|148:102,1,187.5,2|0,3:2|0:0,3:0:0:0:
15,177,119544,6,0,B|40:167|37:132|29:144|26:114|57:101,1,93.75,2|0,3:2|0:0,3:0:0:0:
56,101,120080,5,4,0:0:0:0:
