osu file format v14

[General]
AudioFilename: audio.mp3
AudioLeadIn: 0
PreviewTime: 83664
Countdown: 0
SampleSet: Soft
StackLeniency: 0.3
Mode: 0
LetterboxInBreaks: 0
WidescreenStoryboard: 1

[Editor]
Bookmarks: 80,8651,17222,30080,34365,51508,68651,85794,120080
DistanceSpacing: 1.5
BeatDivisor: 8
GridSize: 32
TimelineZoom: 1.8

[Metadata]
Title:Constant Moderato
TitleUnicode:Constant Moderato
Artist:Mitsukiyo
ArtistUnicode:ミツキヨ
Creator:araran
Version:Easy
Source:ブルーアーカイブ -Blue Archive-
Tags:Yostar nat games Blue Archive ブルアカ blueaka mobile rpg instrumental video game electronic Pino -[Pino]- Sunazuka Akira xidorn lushifer Celine
BeatmapID:3372095
BeatmapSetID:1640689

[Difficulty]
HPDrainRate:2.5
CircleSize:3
OverallDifficulty:2.5
ApproachRate:4
SliderMultiplier:1
SliderTickRate:1

[Events]
//Background and Video events
0,0,"997d81e47ee3f8e6b9cd54aaec577d9f4b1a52e6_s2_n1.jpg",0,0
//Break Periods
2,30280,33045
2,73137,75902
//Storyboard Layer 0 (Background)
//Storyboard Layer 1 (Fail)
//Storyboard Layer 2 (Pass)
//Storyboard Layer 3 (Foreground)
//Storyboard Layer 4 (Overlay)
//Storyboard Sound Samples

[TimingPoints]
80,535.714285714286,4,2,1,50,1,0
80,-100,4,2,1,50,0,0
1687,-100,4,2,2,50,0,0
2222,-100,4,2,1,50,0,0
3830,-100,4,2,2,50,0,0
4365,-100,4,2,1,50,0,0
5972,-100,4,2,2,50,0,0
6508,-100,4,2,1,50,0,0
8115,-100,4,2,2,50,0,0
8651,-100,4,2,1,50,0,0
15080,-100,4,2,1,65,0,0
15749,-100,4,2,1,50,0,0
16553,-100,4,2,1,70,0,0
16687,-100,4,2,2,80,0,0
16955,-100,4,2,1,70,0,0
17222,-100,4,2,7,80,0,0
30080,-100,4,2,7,50,0,0
32222,-100,4,2,1,50,0,0
33830,-100,4,2,7,50,0,0
34008,-100,4,2,1,50,0,0
34365,-100,4,2,1,60,0,0
68651,-100,4,2,2,50,0,0
69452,-100,4,2,1,50,0,0
72401,-100,4,2,2,50,0,0
72937,-100,4,2,1,50,0,0
76687,-100,4,2,2,50,0,0
76955,-100,4,2,1,50,0,0
84187,-100,4,2,7,50,0,0
84455,-100,4,2,1,50,0,0
85258,-100,4,2,2,50,0,0
85392,-100,4,2,1,50,0,0
85794,-100,4,2,7,80,0,0
120080,-100,4,2,3,80,0,0

[Colours]
Combo1 : 255,155,55
Combo2 : 255,74,179
Combo3 : 255,191,226
Combo4 : 157,204,255

[HitObjects]
43,44,80,6,0,P|98:45|150:68,1,100
138,61,1687,1,8,0:0:0:0:
201,138,2222,6,0,P|256:136|308:113,1,100
296,120,3829,1,8,0:0:0:0:
389,85,4365,6,0,L|407:197,1,100
404,183,5972,1,8,0:0:0:0:
487,238,6508,6,0,L|469:350,1,100
472,336,8115,1,10,0:0:0:0:
371,336,8651,6,0,P|307:318|264:328,1,100,0|0,3:0|3:2,0:0:0:0:
179,354,9722,1,0,3:0:0:0:
105,286,10258,1,0,3:0:0:0:
5,281,10794,6,0,P|5:222|41:178,1,100,0|0,3:0|3:2,0:0:0:0:
115,143,11865,1,0,3:0:0:0:
212,166,12401,1,0,3:0:0:0:
288,230,12937,6,0,P|338:258|395:250,1,100,0|0,3:0|3:0,0:0:0:0:
470,215,14008,2,0,L|451:104,1,100,0|0,3:0|3:0,0:0:0:0:
439,17,15080,1,0,3:0:0:0:
223,1,17222,6,0,P|230:68|261:111,1,100,6|10,3:2|0:0,0:0:0:0:
315,139,18160,2,0,L|303:278,1,125,2|8,3:2|0:0,0:0:0:0:
295,348,19231,1,2,3:2:0:0:
157,351,19901,6,0,P|131:365|65:367,2,75,10|2|2,0:0|3:2|3:2,0:0:0:0:
228,309,21106,1,2,3:2:0:0:
287,250,21508,6,0,P|285:196|248:149,1,100,2|10,3:2|0:0,0:0:0:0:
218,87,22446,2,0,L|79:64,1,125,2|8,3:2|0:0,0:0:0:0:
13,54,23517,1,2,3:2:0:0:
61,182,24187,6,0,P|27:194|-5:234,2,75,10|2|2,0:0|3:2|3:2,0:0:0:0:
143,185,25392,1,2,3:2:0:0:
195,249,25794,6,0,P|259:256|307:227,1,100,6|10,3:2|0:0,0:0:0:0:
363,203,26731,2,0,L|385:60,1,125,2|8,3:2|0:0,0:0:0:0:
408,1,27803,1,2,3:2:0:0:
286,64,28472,6,0,P|245:48|201:49,2,75,10|2|2,0:0|3:2|3:2,0:0:0:0:
333,131,29678,1,0,3:0:0:0:
346,212,30080,1,2,3:1:0:0:
437,33,34365,5,2,3:2:0:0:
327,22,34901,1,10,0:0:0:0:
278,88,35303,2,0,P|256:181|260:222,1,125,2|10,3:2|0:0,0:0:0:0:
271,319,36508,5,2,3:2:0:0:
372,361,37044,1,10,0:0:0:0:
437,310,37446,2,0,L|515:324,2,75,2|0|0,3:2|3:0|3:0,0:0:0:0:
389,242,38651,5,2,3:2:0:0:
285,205,39187,1,10,0:0:0:0:
233,269,39588,2,0,P|173:286|101:287,1,125,2|10,3:2|0:0,0:0:0:0:
8,246,40794,5,2,3:2:0:0:
27,137,41330,1,10,0:0:0:0:
84,77,41731,2,0,L|67:-2,2,75,2|0|0,3:2|3:0|3:0,0:0:0:0:
158,114,42937,5,2,3:2:0:0:
265,90,43472,1,10,0:0:0:0:
325,33,43874,2,0,P|404:38|457:64,1,125,2|10,3:2|0:0,0:0:0:0:
494,155,45080,5,2,3:2:0:0:
384,167,45615,1,10,0:0:0:0:
306,137,46017,2,0,L|288:58,2,75,2|0|0,3:2|3:0|3:0,0:0:0:0:
316,218,47222,5,2,3:2:0:0:
292,325,47758,1,10,0:0:0:0:
218,288,48160,2,0,P|151:286|92:317,1,125,2|10,3:2|0:0,0:0:0:0:
6,368,49365,5,2,3:2:0:0:
9,258,49901,1,10,0:0:0:0:
78,213,50303,2,0,L|164:229,2,75,2|0|0,3:2|3:0|3:0,0:0:0:0:
14,160,51508,5,0,0:0:0:0:
34,51,52044,1,10,0:0:0:0:
112,25,52446,2,0,P|185:29|219:73,1,125,2|10,3:2|0:0,0:0:0:0:
235,173,53651,6,0,L|247:289,1,100,2|10,3:2|0:0,0:0:0:0:
282,346,54588,1,2,3:2:0:0:
363,361,54990,2,0,L|443:373,1,75,0|0,3:0|3:0,0:0:0:0:
495,313,55794,5,2,3:2:0:0:
510,203,56330,1,10,0:0:0:0:
429,219,56731,2,0,P|356:215|322:171,1,125,2|10,3:2|0:0,0:0:0:0:
291,73,57937,6,0,L|401:60,1,100,2|10,3:2|0:0,0:0:0:0:
464,24,58874,1,2,3:2:0:0:
503,96,59276,2,0,L|496:174,1,75,0|0,3:0|3:0,0:0:0:0:
429,219,60080,5,2,3:2:0:0:
321,196,60615,1,10,0:0:0:0:
256,145,61017,2,0,P|183:149|149:193,1,125,2|10,3:2|0:0,0:0:0:0:
42,200,62222,6,0,L|56:314,1,100,2|10,3:2|0:0,0:0:0:0:
124,342,63160,1,2,3:2:0:0:
205,353,63562,2,0,L|219:267,1,75,0|0,3:0|3:0,0:0:0:0:
228,197,64365,5,2,3:2:0:0:
327,243,64901,1,10,0:0:0:0:
359,318,65303,2,0,P|432:314|466:270,1,125,2|10,3:2|0:0,0:0:0:0:
491,171,66508,6,0,L|474:57,1,100,2|10,3:2|0:0,0:0:0:0:
409,22,67446,1,2,3:2:0:0:
351,80,67847,2,0,L|257:65,1,75,0|0,3:0|3:0,0:0:0:0:
195,52,68651,5,2,0:0:0:0:
256,192,68785,12,0,72937,0:0:0:0:
240,336,77222,5,0,3:0:0:0:
132,357,77758,1,0,3:0:0:0:
27,321,78294,2,0,L|18:221,1,100,0|0,3:0|3:0,0:0:0:0:
128,208,79365,5,0,3:0:0:0:
236,229,79901,1,0,3:0:0:0:
341,193,80437,2,0,L|349:93,1,100,0|0,3:0|3:0,0:0:0:0:
282,6,81508,6,0,P|228:18|187:56,1,100,0|0,3:0|3:0,0:0:0:0:
116,124,82580,2,0,P|62:111|21:73,1,100,0|0,3:0|3:0,0:0:0:0:
173,3,83919,5,0,3:0:0:0:
476,17,85794,6,0,P|502:58|495:120,1,100,6|10,3:2|0:0,0:0:0:0:
444,168,86731,2,0,L|309:189,1,125,2|8,3:2|0:0,0:0:0:0:
246,150,87803,1,2,3:2:0:0:
205,281,88472,6,0,P|216:308|201:353,2,75,10|2|2,0:0|3:2|3:2,0:0:0:0:
162,209,89678,1,2,3:2:0:0:
81,191,90080,6,0,P|52:131|56:86,1,100,2|10,3:2|0:0,0:0:0:0:
79,20,91017,2,0,L|223:40,1,125,2|8,3:2|0:0,0:0:0:0:
284,47,92088,1,2,3:2:0:0:
421,39,92758,6,0,P|455:22|499:27,2,75,10|2|2,0:0|3:2|3:2,0:0:0:0:
375,107,93963,1,2,3:2:0:0:
293,121,94365,6,0,P|266:162|273:224,1,100,4|10,3:2|0:0,0:0:0:0:
334,261,95303,2,0,L|469:278,1,125,2|8,3:2|0:0,0:0:0:0:
508,341,96374,1,2,3:2:0:0:
371,356,97044,6,0,P|346:371|295:371,2,75,10|2|2,0:0|3:2|3:2,0:0:0:0:
389,275,98249,1,2,3:2:0:0:
317,233,98651,6,0,P|255:233|211:259,1,100,2|10,3:2|0:0,0:0:0:0:
140,237,99588,2,0,L|122:376,1,125,2|8,3:2|0:0,0:0:0:0:
43,380,100660,1,2,3:2:0:0:
0,249,101330,5,10,0:0:0:0:
73,212,101731,2,0,P|78:172|42:136,1,75,2|2,3:2|3:2,0:0:0:0:
24,69,102535,1,2,3:2:0:0:
94,26,102937,6,0,P|152:27|201:54,1,100,6|10,3:2|0:0,0:0:0:0:
241,108,103874,2,0,L|375:93,1,125,2|8,3:2|0:0,0:0:0:0:
425,37,104946,1,2,3:2:0:0:
484,160,105615,6,0,P|505:189|509:230,2,75,10|2|2,0:0|3:2|3:2,0:0:0:0:
402,170,106820,1,2,3:2:0:0:
320,184,107222,6,0,P|295:232|304:287,1,100,2|10,3:2|0:2,0:0:0:0:
333,351,108160,2,0,L|466:372,1,125,2|8,3:2|0:0,0:0:0:0:
509,306,109231,1,2,3:2:0:0:
459,177,109901,6,0,P|483:159|530:151,2,75,10|2|2,0:0|3:2|3:2,0:0:0:0:
403,238,111106,1,2,3:2:0:0:
338,288,111508,6,0,P|280:287|233:254,1,100,6|10,3:2|0:0,0:0:0:0:
193,201,112446,2,0,L|50:183,1,125,2|8,3:2|0:0,0:0:0:0:
2,136,113517,1,2,3:2:0:0:
81,23,114187,6,0,P|113:4|150:6,2,75,10|2|2,0:0|3:2|3:2,0:0:0:0:
92,104,115392,1,2,3:2:0:0:
33,161,115794,6,0,P|10:208|18:266,1,100,2|10,3:2|0:0,0:0:0:0:
50,328,116731,2,0,L|175:312,1,125,2|8,3:2|0:0,0:0:0:0:
256,303,117803,1,2,3:2:0:0:
375,235,118472,6,0,P|409:269|456:257,2,100,2|2|2,3:2|3:2|3:2,0:0:0:0:
358,126,120080,1,4,0:0:0:0:
