osu file format v14

[General]
AudioFilename: audio.mp3
AudioLeadIn: 0
PreviewTime: 83664
Countdown: 0
SampleSet: Soft
StackLeniency: 0.5
Mode: 0
LetterboxInBreaks: 0
WidescreenStoryboard: 1

[Editor]
Bookmarks: 80,8651,17222,30080,34365,51508,60080,68651,85794,98115,120080
DistanceSpacing: 1.5
BeatDivisor: 4
GridSize: 32
TimelineZoom: 2.8

[Metadata]
Title:Constant Moderato
TitleUnicode:Constant Moderato
Artist:Mitsukiyo
ArtistUnicode:ミツキヨ
Creator:araran
Version:Celine's Insane
Source:ブルーアーカイブ -Blue Archive-
Tags:Yostar nat games Blue Archive ブルアカ blueaka mobile rpg instrumental video game electronic Pino -[Pino]- Sunazuka Akira xidorn lushifer Celine
BeatmapID:3478653
BeatmapSetID:1640689

[Difficulty]
HPDrainRate:4.6
CircleSize:5
OverallDifficulty:8
ApproachRate:9
SliderMultiplier:2
SliderTickRate:1

[Events]
//Background and Video events
0,0,"celineAzusa.jpg",0,0
//Break Periods
2,68851,72337
//Storyboard Layer 0 (Background)
//Storyboard Layer 1 (Fail)
//Storyboard Layer 2 (Pass)
//Storyboard Layer 3 (Foreground)
//Storyboard Layer 4 (Overlay)
//Storyboard Sound Samples

[TimingPoints]
80,535.714285714286,4,2,1,50,1,0
1419,-66.6666666666667,4,2,1,50,0,0
1687,-66.6666666666667,4,2,2,50,0,0
2222,-100,4,2,1,50,0,0
3562,-66.6666666666667,4,2,1,50,0,0
3830,-66.6666666666667,4,2,2,50,0,0
4365,-80,4,2,1,50,0,0
5972,-66.6666666666667,4,2,2,50,0,0
6508,-57.1428571428571,4,2,1,50,0,0
7580,-80,4,2,1,50,0,0
8115,-80,4,2,2,50,0,0
8651,-80,4,2,1,50,0,0
8919,-100,4,2,1,50,0,0
9990,-80,4,2,1,50,0,0
11062,-66.6666666666667,4,2,1,50,0,0
12669,-57.1428571428571,4,2,1,50,0,0
13472,-100,4,2,1,50,0,0
15080,-100,4,2,1,65,0,0
15749,-100,4,2,1,50,0,0
16553,-100,4,2,1,70,0,0
16687,-100,4,2,2,80,0,0
16955,-133.333333333333,4,2,1,70,0,0
17222,-57.1428571428571,4,2,7,80,0,0
19231,-50,4,2,7,80,0,0
20303,-66.6666666666667,4,2,7,80,0,0
20705,-44.4444444444445,4,2,7,80,0,0
21106,-133.333333333333,4,2,7,80,0,0
21508,-68.9655172413793,4,2,7,80,0,0
22446,-57.1428571428571,4,2,7,80,0,0
23517,-50,4,2,7,80,0,0
24990,-66.6666666666667,4,2,7,80,0,0
25794,-57.1428571428571,4,2,7,80,0,0
27803,-50,4,2,7,80,0,0
28874,-66.6666666666667,4,2,7,80,0,0
29142,-80,4,2,7,80,0,0
30080,-400,4,2,7,50,0,0
32222,-400,4,2,1,50,0,0
33428,-100,4,2,1,50,0,0
33830,-100,4,2,7,50,0,0
33963,-100,4,2,1,50,0,0
34097,-200,4,2,1,50,0,0
34365,-200,4,2,1,60,0,0
34633,-57.1428571428571,4,2,1,60,0,0
35303,-66.6666666666667,4,2,1,60,0,0
36776,-57.1428571428571,4,2,1,60,0,0
37446,-66.6666666666667,4,2,1,60,0,0
38919,-57.1428571428571,4,2,1,60,0,0
39588,-66.6666666666667,4,2,1,60,0,0
43205,-57.1428571428571,4,2,1,60,0,0
43874,-66.6666666666667,4,2,1,60,0,0
45347,-57.1428571428571,4,2,1,60,0,0
46017,-66.6666666666667,4,2,1,60,0,0
47490,-57.1428571428571,4,2,1,60,0,0
48160,-66.6666666666667,4,2,1,60,0,0
50571,-50,4,2,1,60,0,0
51240,-100,4,2,1,60,0,0
52044,-57.1428571428571,4,2,1,60,0,0
56062,-100,4,2,1,60,0,0
56330,-57.1428571428571,4,2,1,60,0,0
60347,-100,4,2,1,60,0,0
60615,-57.1428571428571,4,2,1,60,0,0
64633,-100,4,2,1,60,0,0
64901,-57.1428571428571,4,2,1,60,0,0
68651,-57.1428571428571,4,2,2,50,0,0
69452,-57.1428571428571,4,2,1,50,0,0
72401,-57.1428571428571,4,2,2,50,0,0
72937,-57.1428571428571,4,2,1,50,0,0
76419,-100,4,2,1,50,0,0
76687,-200,4,2,2,50,0,0
76955,-200,4,2,1,50,0,0
77222,-66.6666666666667,4,2,1,50,0,0
81508,-100,4,2,1,50,0,0
81776,-80,4,2,1,50,0,0
82044,-66.6666666666667,4,2,1,50,0,0
82312,-57.1428571428571,4,2,1,50,0,0
84187,-57.1428571428571,4,2,7,50,0,0
84455,-57.1428571428571,4,2,1,50,0,0
85258,-57.1428571428571,4,2,2,50,0,0
85392,-57.1428571428571,4,2,1,50,0,0
85526,-100,4,2,1,50,0,0
85794,-57.1428571428571,4,2,7,80,0,0
87803,-50,4,2,7,80,0,0
88874,-66.6666666666667,4,2,7,80,0,0
89276,-44.4444444444445,4,2,7,80,0,0
89678,-133.333333333333,4,2,7,80,0,0
90080,-57.1428571428571,4,2,7,80,0,0
92088,-50,4,2,7,80,0,0
93562,-66.6666666666667,4,2,7,80,0,0
94365,-57.1428571428571,4,2,7,80,0,0
96374,-50,4,2,7,80,0,0
97446,-66.6666666666667,4,2,7,80,0,0
97847,-50,4,2,7,80,0,0
98249,-133.333333333333,4,2,7,80,0,0
98651,-57.1428571428571,4,2,7,80,0,0
100660,-50,4,2,7,80,0,0
102535,-66.6666666666667,4,2,7,80,0,0
102937,-57.1428571428571,4,2,7,80,0,0
104946,-50,4,2,7,80,0,0
106017,-66.6666666666667,4,2,7,80,0,0
106419,-44.4444444444445,4,2,7,80,0,0
106821,-133.333333333333,4,2,7,80,0,0
107222,-57.1428571428571,4,2,7,80,0,0
109231,-50,4,2,7,80,0,0
110705,-66.6666666666667,4,2,7,80,0,0
111508,-57.1428571428571,4,2,7,80,0,0
113517,-50,4,2,7,80,0,0
114588,-66.6666666666667,4,2,7,80,0,0
114990,-50,4,2,7,80,0,0
115392,-133.333333333333,4,2,7,80,0,0
115794,-57.1428571428571,4,2,7,80,0,0
117803,-50,4,2,7,80,0,0
118472,-133.333333333333,4,2,7,80,0,0
119008,-200,4,2,7,80,0,0
120080,-200,4,2,3,80,0,0

[Colours]
Combo1 : 174,94,255
Combo2 : 255,255,128
Combo3 : 255,136,255
Combo4 : 255,171,87

[HitObjects]
116,182,80,6,0,B|46:192|46:192|4:138|4:138|28:75|28:75|97:64|97:64|140:117|140:117|116:182,1,400
43,199,1419,2,0,B|30:217|30:217|52:343,2,150.000005722046,0|8|0,0:0|0:0|0:0,0:0:0:0:
145,368,2222,6,0,B|61:354|61:354|47:271|47:271|123:232|123:232|182:291|182:291|145:367,1,400
191,288,3562,6,0,B|199:268|199:268|180:163|180:163|190:144,2,150.000005722046,0|8|0,0:0|0:0|0:0,0:0:0:0:
191,288,4365,6,0,B|182:338|182:338|232:347|232:347|241:296|241:296|191:288,2,187.5
191,288,5437,1,0,0:0:0:0:
305,272,5705,1,0,0:0:0:0:
190,167,5972,6,0,B|187:182|187:182|392:218,1,150.000005722046,8|0,0:0|0:0,0:0:0:0:
475,41,6508,6,0,B|380:57|380:57|441:127|441:127|475:41,2,262.500002503395
374,52,7580,6,0,P|324:71|283:127,1,125
483,259,8115,2,0,P|390:263|301:291,1,187.5,10|0,0:0|0:0,0:0:0:0:
300,291,8651,1,0,3:0:0:0:
364,356,8919,2,0,L|372:306,2,50,0|8|0,0:0|0:0|3:2,0:0:0:0:
288,384,9455,2,0,L|293:352,2,25,8|0|0,3:2|0:0|0:0,0:0:0:0:
288,384,9722,1,0,3:0:0:0:
471,320,9990,6,0,L|483:253,1,62.5,0|8,0:0|0:0,0:0:0:0:
439,198,10258,2,0,L|372:185,2,62.5,0|0|8,3:0|0:0|3:2,0:0:0:0:
439,198,10794,1,0,3:0:0:0:
512,110,11062,6,0,L|498:25,2,75.0000028610231,0|8|0,0:0|0:0|3:2,0:0:0:0:
358,23,11597,6,0,L|315:30,2,37.5000014305115,8|0|0,3:2|0:0|0:0,0:0:0:0:
358,23,11865,2,0,L|373:112,1,75.0000028610231,0|0,3:0|0:0,0:0:0:0:
442,124,12133,2,0,L|428:50,1,75.0000028610231,0|8,0:0|0:0,0:0:0:0:
311,146,12401,2,0,L|222:162,1,75.0000028610231,0|0,3:0|0:0,0:0:0:0:
170,175,12602,1,0,0:0:0:0:
170,175,12669,2,0,L|154:264,1,87.500000834465,8|0,3:2|0:0,0:0:0:0:
224,335,12937,5,0,3:0:0:0:
229,366,13071,1,8,0:0:0:0:
291,343,13205,1,0,3:0:0:0:
297,375,13338,1,8,0:0:0:0:
229,366,13472,2,0,L|165:377,1,50,0|0,3:0|0:0,0:0:0:0:
291,343,13740,2,0,L|354:331,1,50,8|0,3:2|0:0,0:0:0:0:
387,267,14008,5,0,3:0:0:0:
356,262,14142,1,8,0:0:0:0:
440,224,14276,5,0,3:0:0:0:
471,229,14410,1,8,0:0:0:0:
458,146,14544,5,0,3:0:0:0:
387,158,14678,1,0,0:0:0:0:
317,170,14812,1,8,3:2:0:0:
247,182,14946,1,0,0:0:0:0:
202,245,15080,6,0,B|186:335|186:335|184:344|176:389|248:402|256:356|258:347|258:347|274:257,1,300,0|0,3:0|0:0,0:0:0:0:
170,334,16151,6,0,B|174:361|147:366|147:366|37:385,1,150,0|8,0:0|0:0,0:0:0:0:
22,202,16687,1,4,0:0:0:0:
22,202,16955,2,0,L|13:250,1,37.5000014305115
0,134,17222,6,0,B|28:114|28:114|218:148|218:148|238:176,1,262.500002503395,6|0,3:2|0:0,0:0:0:0:
214,0,17758,5,10,0:0:0:0:
238,176,17892,1,0,0:0:0:0:
266,49,18160,6,0,B|321:39|321:39|351:48|351:48|376:29|376:29|432:19,1,175.00000166893,2|0,3:2|0:0,0:0:0:0:
437,22,18562,2,0,B|429:65|429:65|473:73,1,87.500000834465,2|0,3:2|0:0,0:0:0:0:
409,143,18830,1,8,0:0:0:0:
409,143,18963,2,0,L|424:232,1,87.500000834465,2|0,0:0|0:0,0:0:0:0:
486,378,19231,6,0,B|485:379|492:343|492:343|383:324|383:324|382:333|382:333|274:314|274:314|280:278|280:278,1,300,2|2,3:2|3:2,0:0:0:0:
484,165,19901,6,0,L|503:275,1,100,10|0,0:0|0:0,0:0:0:0:
386,349,20169,1,2,0:0:0:0:
386,349,20303,2,0,L|287:366,1,75.0000028610231,2|0,3:2|0:0,0:0:0:0:
200,313,20571,5,2,0:2:0:0:
127,328,20705,2,0,B|166:320|166:320|225:187|225:187|264:180|264:180,1,225.000008583069,2|8,3:2|0:0,0:0:0:0:
136,98,21106,2,0,L|150:178,1,75.0000028610231,2|0,3:2|0:0,0:0:0:0:
184,21,21508,6,0,B|181:5|181:5|-2:37|-2:37|0:53,1,217.500006637573,2|0,3:2|0:0,0:0:0:0:
136,98,22044,1,10,0:0:0:0:
0,53,22178,1,0,0:0:0:0:
0,53,22312,1,0,0:0:0:0:
61,94,22446,2,0,B|35:238|35:238|11:255,1,175.00000166893,2|0,3:2|0:0,0:0:0:0:
60,330,22847,5,2,3:2:0:0:
60,330,22981,2,0,L|43:234,1,87.500000834465,2|8,0:0|0:0,0:0:0:0:
109,233,23249,2,0,L|125:319,1,87.500000834465,2|0,0:0|0:0,0:0:0:0:
201,360,23517,6,0,B|207:323|207:323|428:362|428:362|435:325,1,300,2|2,3:2|3:2,0:0:0:0:
364,160,24187,1,10,0:0:0:0:
435,324,24321,1,0,0:0:0:0:
435,324,24455,1,2,0:0:0:0:
448,257,24588,1,2,3:2:0:0:
201,360,24856,5,2,0:0:0:0:
258,323,24990,2,0,L|362:341,1,75.0000028610231,2|0,3:2|0:0,0:0:0:0:
454,122,25258,5,8,0:0:0:0:
463,188,25392,1,2,3:2:0:0:
463,188,25526,2,0,B|502:195|502:195|508:159,1,75.0000028610231
511,81,25794,6,0,B|464:89|464:89|452:107|452:107|328:128|328:128|310:116|310:116|264:124,1,262.500002503395,6|0,3:2|0:0,0:0:0:0:
89,100,26330,5,10,0:0:0:0:
265,124,26463,1,0,0:0:0:0:
166,30,26731,6,0,B|156:85|156:85|165:115|165:115|146:140|146:140|136:196,1,175.00000166893,2|0,3:2|0:0,0:0:0:0:
80,226,27133,2,0,B|87:269|87:269|131:261,1,87.500000834465,2|0,3:2|0:0,0:0:0:0:
195,334,27401,1,8,0:0:0:0:
195,334,27535,2,0,L|210:245,1,87.500000834465,2|0,0:0|0:0,0:0:0:0:
432,349,27803,6,0,B|430:348|466:342|466:342|447:233|447:233|438:235|438:235|419:127|419:127|455:121|455:121,1,300,2|2,3:2|3:2,0:0:0:0:
147,141,28472,6,0,L|257:160,1,100,10|0,0:0|0:0,0:0:0:0:
432,244,28740,1,2,0:0:0:0:
432,244,28874,2,0,L|333:261,1,75.0000028610231,2|0,3:2|0:0,0:0:0:0:
153,15,29142,6,0,B|198:80|198:80|253:89|253:89|286:67|286:67|369:81|369:81|375:89|375:89|479:108,1,375,2|0,0:0|0:0,0:0:0:0:
479,108,30080,2,0,L|469:56,1,50,2|2,3:1|0:1,0:0:0:0:
408,73,31151,2,0,L|416:122,1,50,2|2,0:1|0:1,0:0:0:0:
479,108,32222,1,2,0:1:0:0:
256,192,32356,12,8,33294,0:0:0:0:
256,192,33428,6,0,L|248:149,2,25,8|8|8,0:0|0:0|0:0,0:0:0:0:
280,95,33696,2,0,L|291:31,1,50,8|8,0:0|0:0,0:0:0:0:
365,23,33963,1,8,0:0:0:0:
365,23,34097,2,0,L|400:30,1,25,8|0,0:0|0:0,0:0:0:0:
341,303,34365,5,2,3:2:0:0:
341,303,34633,2,0,P|404:246|487:263,2,175.00000166893,2|10|0,0:0|0:0|0:0,0:0:0:0:
283,258,35303,2,0,P|268:291|270:328,1,75.0000028610231,2|0,3:2|0:0,0:0:0:0:
400,351,35571,2,0,P|414:317|412:280,1,75.0000028610231,2|0,0:0|3:0,0:0:0:0:
341,303,35838,1,0,0:0:0:0:
270,328,35972,2,0,P|198:306|124:302,1,150.000005722046,10|0,0:0|0:0,0:0:0:0:
57,145,36508,5,2,3:2:0:0:
57,145,36776,2,0,P|74:63|18:0,2,175.00000166893,2|10|0,0:0|0:0|0:0,0:0:0:0:
67,222,37446,2,0,P|30:219|0:198,1,75.0000028610231,2|0,3:2|0:0,0:0:0:0:
56,144,37713,2,0,P|32:115|26:79,1,75.0000028610231,2|0,0:0|3:0,0:0:0:0:
108,82,37981,1,0,0:0:0:0:
214,100,38115,5,10,0:0:0:0:
214,100,38249,2,0,B|293:85|257:37|337:23,1,150.000005722046
367,125,38651,5,2,3:2:0:0:
367,125,38919,2,0,P|430:181|513:164,2,175.00000166893,2|10|0,0:0|0:0|0:0,0:0:0:0:
309,170,39588,2,0,P|294:136|296:99,1,75.0000028610231,2|0,3:2|0:0,0:0:0:0:
426,77,39856,2,0,P|440:110|438:147,1,75.0000028610231,2|0,0:0|3:0,0:0:0:0:
367,125,40124,1,0,0:0:0:0:
309,170,40258,1,10,0:0:0:0:
240,148,40392,1,0,0:0:0:0:
182,193,40526,1,0,0:0:0:0:
113,171,40660,1,0,0:0:0:0:
58,232,40794,6,0,P|59:267|45:301,1,75.0000028610231,2|0,3:2|0:0,0:0:0:0:
136,286,41062,2,0,P|171:284|205:298,1,75.0000028610231,2|0,0:0|0:0,0:0:0:0:
51,238,41330,6,0,P|49:273|32:306,1,75.0000028610231,10|0,0:0|0:0,0:0:0:0:
267,252,41597,1,0,0:0:0:0:
267,252,41731,2,0,P|280:284|279:322,1,75.0000028610231,2|0,3:2|0:0,0:0:0:0:
339,384,41999,6,0,L|420:369,1,75.0000028610231,2|0,0:0|3:0,0:0:0:0:
486,357,42267,2,0,L|404:371,1,75.0000028610231,0|10,0:0|0:0,0:0:0:0:
394,298,42535,1,0,0:0:0:0:
394,298,42669,2,0,L|379:216,1,75.0000028610231
349,48,42937,5,2,3:2:0:0:
349,48,43205,2,0,P|412:105|495:88,1,175.00000166893,2|10,0:0|0:0,0:0:0:0:
407,0,43740,1,0,0:0:0:0:
407,0,43874,2,0,P|422:34|419:71,1,75.0000028610231,2|0,3:2|0:0,0:0:0:0:
291,93,44142,2,0,P|275:59|278:22,1,75.0000028610231,2|0,0:0|3:0,0:0:0:0:
349,48,44410,1,0,0:0:0:0:
291,93,44544,2,0,P|219:71|145:67,1,150.000005722046,10|0,0:0|0:0,0:0:0:0:
57,239,45080,5,2,3:2:0:0:
57,239,45347,2,0,P|74:321|18:384,2,175.00000166893,2|10|0,0:0|0:0|0:0,0:0:0:0:
67,161,46017,2,0,P|30:164|0:186,1,75.0000028610231,2|0,3:2|0:0,0:0:0:0:
56,239,46285,2,0,P|32:268|26:305,1,75.0000028610231,2|0,0:0|3:0,0:0:0:0:
108,302,46553,1,0,0:0:0:0:
214,284,46687,5,10,0:0:0:0:
214,284,46821,2,0,B|293:299|257:347|337:361,1,150.000005722046
367,259,47222,5,2,3:2:0:0:
367,259,47490,2,0,P|430:203|513:220,1,175.00000166893,2|10,0:0|0:0,0:0:0:0:
423,311,48026,1,0,0:0:0:0:
422,310,48160,2,0,P|439:277|439:239,1,75.0000028610231,2|0,3:2|0:0,0:0:0:0:
314,207,48428,2,0,P|296:239|294:276,1,75.0000028610231,2|0,0:0|3:0,0:0:0:0:
367,258,48696,5,0,0:0:0:0:
294,276,48830,1,10,0:0:0:0:
238,226,48963,1,0,0:0:0:0:
165,246,49097,1,0,0:0:0:0:
109,196,49231,1,0,0:0:0:0:
26,246,49365,6,0,P|27:210|13:176,1,75.0000028610231,2|0,3:2|0:0,0:0:0:0:
35,102,49633,2,0,P|70:103|104:89,1,75.0000028610231,2|0,0:0|0:0,0:0:0:0:
19,240,49901,6,0,P|17:204|0:171,1,75.0000028610231,10|0,0:0|0:0,0:0:0:0:
165,140,50169,1,0,0:0:0:0:
165,140,50303,2,0,P|178:107|177:70,1,75.0000028610231,2|0,3:2|0:0,0:0:0:0:
466,148,50571,6,0,L|368:166,1,100,2|0,0:0|3:0,0:0:0:0:
297,106,50838,5,0,0:0:0:0:
283,184,50972,1,10,0:0:0:0:
269,263,51106,1,0,0:0:0:0:
255,342,51240,2,0,L|243:278,1,50
493,384,51508,5,0,0:0:0:0:
493,384,51776,2,0,L|429:372,1,50
434,234,52044,6,0,P|355:269|269:263,1,175.00000166893,10|2,0:0|0:0,0:0:0:0:
255,342,52446,1,2,3:2:0:0:
255,342,52580,2,0,P|172:318|110:258,1,175.00000166893,0|0,0:0|3:0,0:0:0:0:
43,220,52981,1,2,0:0:0:0:
27,77,53115,2,0,P|51:40|90:116,1,175.00000166893,10|2,0:0|0:0,0:0:0:0:
48,302,53651,6,0,P|33:247|57:204,1,87.500000834465,2|0,3:2|0:0,0:0:0:0:
109,257,53919,2,0,P|148:217|198:215,1,87.500000834465,2|0,0:0|0:0,0:0:0:0:
164,74,54187,6,0,L|258:89,2,87.500000834465,10|0|2,0:0|0:0|0:0,0:0:0:0:
322,48,54588,6,0,L|508:17,1,175.00000166893,2|2,3:2|0:0,0:0:0:0:
494,19,54990,1,0,3:0:0:0:
438,71,55124,1,2,0:0:0:0:
468,174,55258,6,0,P|453:228|477:271,1,87.500000834465,10|0,0:0|0:0,0:0:0:0:
512,349,55526,2,0,P|457:334|414:358,1,87.500000834465
260,384,55794,1,2,3:2:0:0:
260,384,56062,2,0,L|248:320,1,50,2|0,0:0|0:0,0:0:0:0:
188,124,56330,6,0,P|267:159|353:153,1,175.00000166893,10|2,0:0|0:0,0:0:0:0:
340,265,56731,1,2,3:2:0:0:
340,265,56865,2,0,P|423:241|485:181,1,175.00000166893,0|0,0:0|3:0,0:0:0:0:
485,180,57267,1,2,0:0:0:0:
425,131,57401,5,10,0:0:0:0:
353,152,57535,1,0,0:0:0:0:
425,131,57669,1,2,0:0:0:0:
353,152,57803,1,0,0:0:0:0:
278,136,57937,6,0,P|296:97|334:76,1,87.500000834465,2|0,3:2|0:0,0:0:0:0:
97,111,58205,2,0,P|73:75|32:80,1,87.500000834465,2|0,0:0|0:0,0:0:0:0:
193,224,58472,6,0,L|178:130,2,87.500000834465,10|0|2,0:0|0:0|0:0,0:0:0:0:
139,372,58874,2,0,L|110:199,1,175.00000166893,2|2,3:2|0:0,0:0:0:0:
110,199,59276,1,0,3:0:0:0:
93,276,59410,1,2,0:0:0:0:
270,363,59544,5,10,0:0:0:0:
270,363,59678,1,0,0:0:0:0:
286,297,59812,2,0,P|243:302|211:331,1,87.500000834465
471,223,60080,5,2,3:2:0:0:
471,223,60347,2,0,L|459:159,1,50,2|0,0:0|0:0,0:0:0:0:
429,102,60615,5,10,0:0:0:0:
512,117,60749,2,0,P|472:99|429:102,1,87.500000834465,0|2,0:0|0:0,0:0:0:0:
448,19,61017,1,2,3:2:0:0:
448,19,61151,2,0,P|365:43|303:103,1,175.00000166893,0|0,0:0|3:0,0:0:0:0:
267,174,61553,1,2,0:0:0:0:
379,230,61687,2,0,P|361:189|310:257,1,175.00000166893,10|2,0:0|0:0,0:0:0:0:
116,297,62222,5,2,3:2:0:0:
116,297,62356,1,0,0:0:0:0:
181,323,62490,2,0,P|142:363|92:365,1,87.500000834465,2|0,0:0|0:0,0:0:0:0:
0,195,62758,6,0,L|94:210,2,87.500000834465,10|0|2,0:0|0:0|0:0,0:0:0:0:
10,119,63160,6,0,L|196:150,1,175.00000166893,2|2,3:2|0:0,0:0:0:0:
182,148,63562,1,0,3:0:0:0:
129,116,63696,1,0,0:0:0:0:
107,47,63830,6,0,P|162:51|195:88,1,87.500000834465,10|0,0:0|0:0,0:0:0:0:
343,65,64097,2,0,P|296:96|287:145,1,87.500000834465
254,356,64365,1,2,3:2:0:0:
254,356,64633,2,0,L|242:292,1,50,2|0,0:0|0:0,0:0:0:0:
86,187,64901,6,0,P|165:222|251:216,1,175.00000166893,10|2,0:0|0:0,0:0:0:0:
316,281,65303,1,2,3:2:0:0:
316,281,65437,2,0,P|399:257|461:197,1,175.00000166893,0|0,0:0|3:0,0:0:0:0:
461,196,65838,1,2,0:0:0:0:
408,146,65972,5,10,0:0:0:0:
433,262,66106,1,0,0:0:0:0:
408,146,66240,1,2,0:0:0:0:
433,262,66374,1,0,0:0:0:0:
386,368,66508,6,0,P|421:343|464:344,1,87.500000834465,2|0,3:2|0:0,0:0:0:0:
316,281,66776,2,0,P|292:245|251:250,1,87.500000834465,2|0,0:0|0:0,0:0:0:0:
322,26,67044,6,0,L|337:120,2,87.500000834465,10|0|2,0:0|0:0|0:0,0:0:0:0:
257,92,67446,2,0,L|84:63,1,175.00000166893,2|2,3:2|0:0,0:0:0:0:
84,63,67847,1,0,3:0:0:0:
25,89,67981,1,2,0:0:0:0:
160,178,68115,5,10,0:0:0:0:
160,178,68249,1,0,0:0:0:0:
146,241,68383,2,0,P|202:226|227:184,1,87.500000834465
266,384,68651,1,2,0:0:0:0:
256,192,72937,5,0,0:0:0:0:
256,192,73071,12,0,76285,0:0:0:0:
256,192,76419,6,0,L|244:128,1,50,0|8,0:0|0:0,0:0:0:0:
256,192,76687,2,0,L|261:223,1,25,4|0,0:0|0:0,0:0:0:0:
287,81,76955,1,0,0:0:0:0:
123,0,77222,6,0,B|43:14|79:62|0:76,1,150.000005722046,0|8,3:0|0:0,0:0:0:0:
0,7,77624,1,8,0:0:0:0:
121,70,77758,2,0,P|151:137|146:212,1,150.000005722046,0|8,3:0|0:0,0:0:0:0:
146,211,78294,6,0,P|110:245|87:246,1,75.0000028610231,0|8,3:0|0:0,0:0:0:0:
74,307,78562,2,0,P|31:281|24:259,1,75.0000028610231,0|8,0:0|0:0,0:0:0:0:
106,384,78830,2,0,P|173:353|248:358,1,150.000005722046,0|8,3:0|0:0,0:0:0:0:
256,193,79365,6,0,B|335:207|299:255|379:269,1,150.000005722046,0|8,3:0|0:0,0:0:0:0:
379,201,79767,1,8,0:0:0:0:
406,60,79901,2,0,P|375:127|380:202,1,150.000005722046,0|8,3:0|0:0,0:0:0:0:
402,345,80437,6,0,P|445:331|446:308,1,75.0000028610231,0|8,3:0|0:0,0:0:0:0:
506,187,80705,5,0,0:0:0:0:
506,187,80838,1,8,0:0:0:0:
506,187,80972,2,0,P|460:188|451:167,1,75.0000028610231,0|0,3:0|0:0,0:0:0:0:
406,60,81240,5,8,0:0:0:0:
406,60,81374,1,0,0:0:0:0:
406,60,81508,2,0,L|342:71,1,50,0|0,3:0|0:0,0:0:0:0:
295,79,81776,2,0,L|369:65,1,62.5,0|0,3:0|0:0,0:0:0:0:
479,46,82044,2,0,L|404:59,1,75.0000028610231,0|0,3:0|0:0,0:0:0:0:
208,94,82312,2,0,L|297:78,1,87.500000834465,0|0,3:0|0:0,0:0:0:0:
506,187,82580,6,0,L|419:171,1,87.500000834465,0|0,3:0|0:0,0:0:0:0:
104,0,82847,2,0,L|190:15,1,87.500000834465,0|0,3:0|0:0,0:0:0:0:
167,215,83115,5,0,3:0:0:0:
101,239,83249,1,0,3:0:0:0:
34,218,83383,1,0,3:0:0:0:
0,156,83517,1,0,3:0:0:0:
17,94,83651,5,0,0:0:0:0:
17,94,83785,1,0,0:0:0:0:
89,139,83919,6,0,L|107:246,1,87.500000834465,0|0,3:0|0:0,0:0:0:0:
67,314,84187,1,8,0:0:0:0:
67,314,84321,2,0,L|3:325,2,43.7500004172325,0|0|8,0:0|0:0|0:0,0:0:0:0:
124,366,84588,1,8,0:0:0:0:
124,366,84722,2,0,L|213:350,2,87.500000834465,0|8|8,0:0|0:0|0:0,0:0:0:0:
67,314,85124,1,8,0:0:0:0:
101,239,85258,6,0,L|123:112,1,87.500000834465,4|0,0:0|0:0,0:0:0:0:
116,152,85526,2,0,L|56:163,1,50,2|0,0:0|0:0,0:0:0:0:
0,85,85794,6,0,B|28:65|28:65|218:99|218:99|238:127,1,262.500002503395,6|0,3:2|0:0,0:0:0:0:
158,0,86330,5,10,0:0:0:0:
238,127,86463,2,0,B|262:162|262:162|298:137,1,87.500000834465
496,6,86731,6,0,B|440:16|440:16|415:35|415:35|385:26|385:26|330:36,1,175.00000166893,2|0,3:2|0:0,0:0:0:0:
280,72,87133,2,0,B|288:28|288:28|331:36,1,87.500000834465,2|2,3:2|0:0,0:0:0:0:
495,79,87401,1,8,0:0:0:0:
495,79,87535,2,0,L|511:167,1,87.500000834465
486,328,87803,6,0,B|485:328|481:304|481:304|409:317|409:317|411:323|411:323|339:336|339:336|335:312|335:312,1,200,2|0,3:2|0:0,0:0:0:0:
484,242,88205,2,0,B|499:244|499:244|477:370|477:370,1,100,2|0,3:2|0:0,0:0:0:0:
364,157,88472,6,0,L|346:58,1,100,10|0,0:0|0:0,0:0:0:0:
291,140,88740,1,2,0:0:0:0:
291,140,88874,2,0,L|308:239,1,75.0000028610231,2|0,3:2|0:0,0:0:0:0:
155,318,89142,5,0,0:0:0:0:
146,384,89276,2,0,B|107:376|107:376|48:243|48:243|9:236|9:236,1,225.000008583069,2|8,3:2|0:0,0:0:0:0:
8,235,89678,2,0,L|88:221,1,75.0000028610231,2|0,3:2|0:0,0:0:0:0:
230,59,90080,6,0,B|233:40|233:40|11:0|11:0|7:19,1,262.500002503395,2|0,3:2|0:0,0:0:0:0:
193,0,90615,1,10,0:0:0:0:
7,19,90749,1,0,0:0:0:0:
7,19,90883,1,0,0:0:0:0:
58,76,91017,2,0,B|32:220|32:220|8:237,1,175.00000166893,2|0,3:2|0:0,0:0:0:0:
97,365,91419,5,2,3:2:0:0:
97,365,91553,2,0,L|1:382,1,87.500000834465,2|8,0:0|0:0,0:0:0:0:
0,316,91821,2,0,L|86:300,1,87.500000834465,2|0,0:0|0:0,0:0:0:0:
328,175,92088,6,0,B|303:171|303:171|277:318|277:318|253:313,1,200,2|0,3:2|0:0,0:0:0:0:
380,265,92490,2,0,B|355:260|355:260|359:235|359:235|384:240|384:240|380:265,1,100,2|0,3:2|0:0,0:0:0:0:
157,237,92758,5,10,0:0:0:0:
328,175,92892,1,0,0:0:0:0:
328,175,93026,1,2,0:0:0:0:
260,164,93160,1,2,3:2:0:0:
235,23,93428,5,2,0:0:0:0:
235,23,93562,2,0,L|339:41,1,75.0000028610231,2|0,3:2|0:0,0:0:0:0:
455,34,93830,5,8,0:0:0:0:
465,102,93963,1,2,3:2:0:0:
465,102,94097,2,0,B|504:109|504:109|510:73,1,75.0000028610231
509,0,94365,6,0,B|462:8|462:8|450:26|450:26|326:47|326:47|308:35|308:35|262:43,1,262.500002503395,4|0,3:2|0:0,0:0:0:0:
33,21,94901,5,10,0:0:0:0:
262,42,95035,2,0,L|148:61,1,87.500000834465
80,174,95303,6,0,B|90:118|90:118|109:93|109:93|100:63|100:63|110:8,1,175.00000166893,2|0,3:2|0:0,0:0:0:0:
117,95,95705,2,0,B|160:86|160:86|168:130,1,87.500000834465,2|2,3:2|0:0,0:0:0:0:
100,249,95972,1,8,0:0:0:0:
100,249,96106,2,0,L|11:234,1,87.500000834465
182,363,96374,6,0,B|180:361|204:366|204:366|217:294|217:294|211:293|211:293|224:221|224:221|248:225|248:225,1,200,2|0,3:2|0:0,0:0:0:0:
346,322,96776,2,0,B|293:332|293:332|283:279,1,100,2|0,3:2|0:0,0:0:0:0:
117,95,97044,6,0,L|227:114,1,100,10|0,0:0|0:0,0:0:0:0:
322,212,97312,1,2,0:0:0:0:
322,212,97446,2,0,L|223:229,1,75.0000028610231,2|0,3:2|0:0,0:0:0:0:
182,363,97713,5,2,0:0:0:0:
198,295,97847,2,0,L|350:321,1,150,2|0,3:2|0:0,0:0:0:0:
345,320,98115,1,8,0:0:0:0:
395,368,98249,2,0,L|475:354,1,75.0000028610231,2|0,3:2|0:0,0:0:0:0:
512,187,98651,6,0,B|515:168|515:168|293:128|293:128|289:147,1,262.500002503395,2|0,3:2|0:0,0:0:0:0:
475,128,99187,1,10,0:0:0:0:
289,147,99321,1,0,0:0:0:0:
289,147,99455,1,0,0:0:0:0:
320,23,99588,2,0,B|175:47|175:47|151:31,1,175.00000166893,2|0,3:2|0:0,0:0:0:0:
24,97,99990,5,2,3:2:0:0:
24,97,100124,2,0,L|7:1,1,87.500000834465,2|8,0:2|0:0,0:0:0:0:
73,0,100392,2,0,L|89:86,1,87.500000834465,2|0,0:0|0:0,0:0:0:0:
7,226,100660,6,0,B|11:201|11:201|158:226|158:226|162:202,1,200,2|0,3:2|0:0,0:0:0:0:
55,337,101062,6,0,L|72:238,1,100,2|0,3:2|0:0,0:0:0:0:
320,23,101330,2,0,L|302:121,1,100,10|0,0:0|0:0,0:0:0:0:
344,191,101597,1,2,0:0:0:0:
344,191,101731,2,0,L|442:208,2,100,2|0|0,3:2|0:0|0:0,0:0:0:0:
285,227,102133,5,2,3:2:0:0:
285,227,102267,1,2,0:0:0:0:
136,208,102401,1,8,0:0:0:0:
85,248,102535,2,0,P|130:271|199:205,1,150.000005722046,2|0,3:2|0:0,0:0:0:0:
0,82,102937,6,0,B|1:82|6:50|6:50|100:67|100:67|97:75|97:75|191:92|191:92|196:61|196:61,1,262.500002503395,6|0,3:2|0:0,0:0:0:0:
93,86,103472,5,10,0:0:0:0:
242,136,103606,2,0,B|251:129|251:129|266:42,1,87.500000834465
465,0,103874,6,0,B|474:56|474:56|465:86|465:86|484:111|484:111|493:166,1,175.00000166893,2|0,3:2|0:0,0:0:0:0:
416,122,104276,2,0,B|424:78|424:78|467:86,1,87.500000834465,2|0,3:2|0:0,0:0:0:0:
509,238,104544,1,8,0:0:0:0:
509,238,104678,2,0,L|493:326,1,87.500000834465
236,274,104946,6,0,B|231:245|231:245|372:220|372:220|377:249,1,200,2|0,3:2|0:0,0:0:0:0:
331,343,105347,2,0,B|316:346|316:346|293:220|293:220,1,100,2|0,3:2|0:0,0:0:0:0:
0,94,105615,6,0,L|99:76,1,100,10|0,0:0|0:0,0:0:0:0:
142,134,105883,1,2,0:0:0:0:
142,134,106017,2,0,L|43:151,1,75.0000028610231,2|0,3:2|0:0,0:0:0:0:
328,139,106285,5,2,0:0:0:0:
343,203,106419,2,0,B|415:190|415:190|438:111|438:111|510:99|510:99,1,225.000008583069,2|8,3:2|0:0,0:0:0:0:
507,99,106821,2,0,L|484:176,1,75.0000028610231,2|0,3:2|0:0,0:0:0:0:
239,52,107222,6,0,B|220:55|220:55|258:277|258:277|277:275,1,262.500002503395,2|0,3:2|0:0,0:0:0:0:
258,153,107758,1,10,0:2:0:0:
142,134,107892,1,0,0:0:0:0:
142,134,108026,1,0,0:0:0:0:
84,172,108160,2,0,B|101:196|101:196|245:222,1,175.00000166893,2|0,3:2|0:0,0:0:0:0:
97,365,108562,5,2,3:2:0:0:
97,365,108696,2,0,L|1:382,1,87.500000834465,2|8,0:0|0:0,0:0:0:0:
0,316,108963,2,0,L|86:300,1,87.500000834465,2|0,0:0|0:0,0:0:0:0:
391,148,109231,6,0,B|366:144|366:144|340:291|340:291|316:286,1,200,2|0,3:2|0:0,0:0:0:0:
442,240,109633,2,0,B|417:235|417:235|421:210|421:210|446:215|446:215|442:240,1,100,2|0,3:2|0:0,0:0:0:0:
505,171,109901,5,10,0:0:0:0:
283,226,110035,1,0,0:0:0:0:
283,226,110169,1,2,0:0:0:0:
293,159,110303,1,2,3:2:0:0:
112,180,110571,5,2,0:0:0:0:
112,180,110705,2,0,L|130:76,1,75.0000028610231,2|0,3:2|0:0,0:0:0:0:
375,33,110972,5,8,0:0:0:0:
385,101,111106,1,2,3:2:0:0:
385,101,111240,2,0,B|424:108|424:108|430:72,1,75.0000028610231
429,5,111508,6,0,B|382:13|382:13|370:31|370:31|246:52|246:52|228:40|228:40|182:48,1,262.500002503395,6|0,3:2|0:0,0:0:0:0:
21,74,112044,5,10,0:0:0:0:
182,47,112178,2,0,L|68:66,1,87.500000834465
52,297,112446,6,0,B|62:241|62:241|81:216|81:216|72:186|72:186|82:131,1,175.00000166893,2|0,3:2|0:0,0:0:0:0:
89,218,112847,2,0,B|132:209|132:209|140:253,1,87.500000834465,2|0,3:2|0:0,0:0:0:0:
86,374,113115,1,8,0:0:0:0:
86,374,113249,2,0,L|-3:359,1,87.500000834465,2|0,0:0|0:0,0:0:0:0:
177,310,113517,6,0,B|175:308|199:313|199:313|212:241|212:241|206:240|206:240|219:168|219:168|243:172|243:172,1,200,2|0,3:2|0:0,0:0:0:0:
252,375,113919,2,0,B|198:366|198:366|207:313,1,100,2|0,3:2|0:0,0:0:0:0:
166,75,114187,6,0,L|276:94,1,100,10|0,0:0|0:0,0:0:0:0:
279,27,114455,1,2,0:0:0:0:
279,27,114588,2,0,L|180:10,1,75.0000028610231,2|0,3:2|0:0,0:0:0:0:
374,294,114856,5,2,0:0:0:0:
365,224,114990,2,0,L|516:196,1,150,2|0,3:2|0:0,0:0:0:0:
446,180,115258,1,8,0:0:0:0:
374,294,115392,2,0,L|454:280,1,75.0000028610231,2|0,3:2|0:0,0:0:0:0:
512,94,115794,6,0,B|515:75|515:75|293:35|293:35|289:54,1,262.500002503395,2|0,3:2|0:0,0:0:0:0:
475,35,116330,1,10,0:0:0:0:
289,54,116463,1,0,0:0:0:0:
289,54,116597,1,0,0:0:0:0:
226,0,116731,2,0,B|81:24|81:24|57:8,1,175.00000166893,2|0,3:2|0:0,0:0:0:0:
15,192,117133,5,2,3:2:0:0:
15,192,117267,2,0,L|-2:96,1,87.500000834465,2|8,0:0|0:0,0:0:0:0:
64,95,117535,2,0,L|80:181,1,87.500000834465,2|0,0:0|0:0,0:0:0:0:
0,291,117803,6,0,B|4:266|4:266|151:291|151:291|155:267,1,200,2|0,3:2|0:0,0:0:0:0:
493,269,118472,6,0,L|515:395,1,112.500004291535,2|0,3:2|0:0,0:0:0:0:
434,311,119008,6,0,L|447:386,1,75,2|0,3:2|0:0,3:0:0:0:
380,384,119544,5,2,3:2:0:0:
380,384,120080,5,4,0:0:0:0:
