osu file format v14

[General]
AudioFilename: audio.mp3
AudioLeadIn: 0
PreviewTime: 16953
Countdown: 0
SampleSet: Soft
StackLeniency: 0.7
Mode: 3
LetterboxInBreaks: 0
SpecialStyle: 0
WidescreenStoryboard: 1

[Editor]
DistanceSpacing: 1
BeatDivisor: 4
GridSize: 32
TimelineZoom: 1.9

[Metadata]
Title:Constant Moderato
TitleUnicode:Constant Moderato
Artist:Mitsukiyo
ArtistUnicode:ミツキヨ
Creator:_Rokii
Version:Paran's Blue Archive
Source:ブルーアーカイブ -Blue Archive-
Tags:blue archive ブルアカ blueaka opening theme op ost original sound track soundtrack yostar nat games instrumental video game electronic paran
BeatmapID:3579698
BeatmapSetID:1585962

[Difficulty]
HPDrainRate:8.2
CircleSize:4
OverallDifficulty:8.2
ApproachRate:5
SliderMultiplier:1.4
SliderTickRate:1

[Events]
//Background and Video events
0,0,"BG2.png",0,0
//Break Periods
//Storyboard Layer 0 (Background)
//Storyboard Layer 1 (Fail)
//Storyboard Layer 2 (Pass)
//Storyboard Layer 3 (Foreground)
//Storyboard Layer 4 (Overlay)
//Storyboard Sound Samples

[TimingPoints]
78,535.714285714286,4,2,1,50,1,0
17220,-100,4,2,1,50,0,1
30078,-100,4,2,1,50,0,0
85792,-100,4,2,1,50,0,1
120078,-100,4,2,1,50,0,0

[HitObjects]
64,192,78,5,0,0:0:0:0:
64,192,345,1,0,0:0:0:0:
192,192,479,128,0,613:0:0:0:0:
448,192,613,128,0,747:0:0:0:0:
320,192,747,128,0,881:0:0:0:0:
192,192,881,128,0,1015:0:0:0:0:
64,192,1149,1,0,0:0:0:0:
192,192,1417,1,0,0:0:0:0:
320,192,1685,1,0,0:0:0:0:
448,192,1685,1,0,0:0:0:0:
64,192,1953,1,0,0:0:0:0:
448,192,2220,1,0,0:0:0:0:
448,192,2488,1,0,0:0:0:0:
320,192,2622,128,0,2756:0:0:0:0:
64,192,2756,128,0,2890:0:0:0:0:
192,192,2890,128,0,3024:0:0:0:0:
320,192,3024,128,0,3158:0:0:0:0:
448,192,3292,1,0,0:0:0:0:
320,192,3560,1,0,0:0:0:0:
64,192,3828,1,0,0:0:0:0:
192,192,3828,1,0,0:0:0:0:
448,192,4095,1,0,0:0:0:0:
64,192,4363,1,0,0:0:0:0:
64,192,4631,1,0,0:0:0:0:
192,192,4765,128,0,4899:0:0:0:0:
448,192,4899,128,0,5033:0:0:0:0:
320,192,5033,128,0,5167:0:0:0:0:
192,192,5167,128,0,5301:0:0:0:0:
64,192,5435,1,0,0:0:0:0:
192,192,5703,1,0,0:0:0:0:
320,192,5970,1,0,0:0:0:0:
448,192,5970,1,0,0:0:0:0:
64,192,6238,1,0,0:0:0:0:
192,192,6506,1,0,0:0:0:0:
192,192,6774,1,0,0:0:0:0:
448,192,6908,128,0,7042:0:0:0:0:
64,192,7042,128,0,7176:0:0:0:0:
320,192,7176,128,0,7310:0:0:0:0:
448,192,7310,128,0,7444:0:0:0:0:
192,192,7578,1,0,0:0:0:0:
448,192,7845,1,0,0:0:0:0:
64,192,8113,1,0,0:0:0:0:
320,192,8113,1,0,0:0:0:0:
192,192,8381,1,0,0:0:0:0:
320,192,8649,1,0,0:0:0:0:
448,192,8649,1,0,0:0:0:0:
64,192,8917,1,0,0:0:0:0:
320,192,9051,1,0,0:0:0:0:
448,192,9051,1,0,0:0:0:0:
64,192,9185,1,0,0:0:0:0:
192,192,9185,1,0,0:0:0:0:
64,192,9453,1,0,0:0:0:0:
448,192,9453,1,0,0:0:0:0:
192,192,9519,1,0,0:0:0:0:
320,192,9586,1,0,0:0:0:0:
64,192,9720,1,0,0:0:0:0:
192,192,9720,1,0,0:0:0:0:
320,192,9854,1,0,0:0:0:0:
448,192,9988,1,0,0:0:0:0:
64,192,10122,1,0,0:0:0:0:
192,192,10122,1,0,0:0:0:0:
320,192,10256,1,0,0:0:0:0:
448,192,10256,1,0,0:0:0:0:
64,192,10390,1,0,0:0:0:0:
192,192,10524,1,0,0:0:0:0:
320,192,10524,1,0,0:0:0:0:
448,192,10658,1,0,0:0:0:0:
64,192,10792,1,0,0:0:0:0:
192,192,10792,1,0,0:0:0:0:
448,192,11060,1,0,0:0:0:0:
64,192,11194,1,0,0:0:0:0:
192,192,11194,1,0,0:0:0:0:
320,192,11328,1,0,0:0:0:0:
448,192,11328,1,0,0:0:0:0:
64,192,11595,1,0,0:0:0:0:
448,192,11595,1,0,0:0:0:0:
320,192,11662,1,0,0:0:0:0:
192,192,11729,1,0,0:0:0:0:
320,192,11863,1,0,0:0:0:0:
448,192,11863,1,0,0:0:0:0:
192,192,11997,1,0,0:0:0:0:
64,192,12131,1,0,0:0:0:0:
320,192,12265,1,0,0:0:0:0:
448,192,12265,1,0,0:0:0:0:
64,192,12399,1,0,0:0:0:0:
192,192,12399,1,0,0:0:0:0:
448,192,12533,1,0,0:0:0:0:
192,192,12667,1,0,0:0:0:0:
320,192,12667,1,0,0:0:0:0:
64,192,12801,1,0,0:0:0:0:
320,192,12935,1,0,0:0:0:0:
448,192,12935,1,0,0:0:0:0:
192,192,13069,1,0,0:0:0:0:
64,192,13203,1,0,0:0:0:0:
320,192,13203,1,0,0:0:0:0:
448,192,13336,1,0,0:0:0:0:
64,192,13470,1,0,0:0:0:0:
192,192,13470,1,0,0:0:0:0:
320,192,13604,1,0,0:0:0:0:
64,192,13738,1,0,0:0:0:0:
448,192,13738,1,0,0:0:0:0:
320,192,13805,1,0,0:0:0:0:
192,192,13872,1,0,0:0:0:0:
320,192,14006,1,0,0:0:0:0:
448,192,14006,1,0,0:0:0:0:
64,192,14140,1,0,0:0:0:0:
192,192,14274,1,0,0:0:0:0:
448,192,14274,1,0,0:0:0:0:
320,192,14408,1,0,0:0:0:0:
64,192,14542,1,0,0:0:0:0:
192,192,14542,1,0,0:0:0:0:
448,192,14676,1,0,0:0:0:0:
192,192,14810,1,0,0:0:0:0:
320,192,14810,1,0,0:0:0:0:
64,192,14944,1,0,0:0:0:0:
320,192,15078,1,0,0:0:0:0:
448,192,15078,128,0,16149:0:0:0:0:
192,192,15345,1,0,0:0:0:0:
64,192,15479,128,0,15613:0:0:0:0:
320,192,15613,128,0,15747:0:0:0:0:
192,192,15747,128,0,15881:0:0:0:0:
64,192,15881,128,0,16015:0:0:0:0:
320,192,16015,128,0,16149:0:0:0:0:
64,192,16149,1,0,0:0:0:0:
192,192,16149,1,0,0:0:0:0:
320,192,16350,1,0,0:0:0:0:
64,192,16417,1,0,0:0:0:0:
192,192,16484,1,0,0:0:0:0:
448,192,16551,1,0,0:0:0:0:
320,192,16618,1,0,0:0:0:0:
64,192,16685,1,0,0:0:0:0:
192,192,16685,1,0,0:0:0:0:
448,192,16685,1,0,0:0:0:0:
320,192,16953,128,0,17086:0:0:0:0:
64,192,17220,128,2,17354:0:0:0:0:
192,192,17220,1,0,0:0:0:50:soft-hitfinish.wav
448,192,17220,128,0,17622:0:0:0:0:
192,192,17488,128,0,17622:0:0:0:0:
64,192,17756,1,8,0:0:0:0:
192,192,17756,1,0,0:0:0:0:
320,192,17756,128,0,17890:0:0:0:0:
64,192,17890,128,0,18158:0:0:0:0:
448,192,17890,1,0,0:0:0:0:
192,192,18158,1,2,0:0:0:0:
320,192,18158,128,0,18426:0:0:0:0:
448,192,18158,128,0,18426:0:0:0:0:
64,192,18560,128,2,18828:0:0:0:0:
192,192,18560,128,0,18828:0:0:0:0:
448,192,18560,1,0,0:0:0:0:
320,192,18828,1,0,0:0:0:0:
448,192,18828,1,0,0:0:0:0:
320,192,18961,128,0,19095:0:0:0:0:
64,192,19229,128,2,19497:0:0:0:0:
192,192,19229,128,0,19497:0:0:0:0:
448,192,19229,1,0,0:0:0:0:
192,192,19631,128,2,19765:0:0:0:0:
320,192,19631,128,0,19765:0:0:0:0:
448,192,19631,1,0,0:0:0:0:
64,192,19899,1,8,0:0:0:0:
320,192,19899,128,0,20033:0:0:0:0:
448,192,19899,128,0,20033:0:0:0:0:
192,192,20033,128,0,20167:0:0:0:0:
320,192,20167,128,0,20301:0:0:0:0:
64,192,20301,128,2,20569:0:0:0:0:
192,192,20301,1,0,0:0:0:0:
448,192,20301,128,0,20569:0:0:0:0:
320,192,20569,128,0,20703:0:0:0:0:
64,192,20703,128,2,20970:0:0:0:0:
192,192,20703,128,0,20970:0:0:0:0:
448,192,20703,1,0,0:0:0:0:
320,192,20970,1,0,0:0:0:0:
448,192,21037,1,0,0:0:0:0:
64,192,21104,1,2,0:0:0:0:
192,192,21171,1,0,0:0:0:0:
320,192,21238,1,0,0:0:0:0:
448,192,21305,1,0,0:0:0:0:
64,192,21372,1,0,0:0:0:0:
192,192,21439,1,0,0:0:0:0:
64,192,21506,128,2,21908:0:0:0:0:
320,192,21506,1,0,0:0:0:0:
448,192,21506,128,0,21640:0:0:0:0:
320,192,21774,128,0,21908:0:0:0:0:
192,192,22042,128,8,22176:0:0:0:0:
320,192,22042,1,0,0:0:0:0:
448,192,22042,1,0,0:0:0:0:
64,192,22176,1,0,0:0:0:0:
448,192,22176,128,0,22444:0:0:0:0:
192,192,22310,1,0,0:0:0:0:
64,192,22444,128,2,22711:0:0:0:0:
192,192,22444,128,0,22711:0:0:0:0:
320,192,22444,1,0,0:0:0:0:
320,192,22711,1,0,0:0:0:0:
64,192,22845,1,2,0:0:0:0:
320,192,22845,128,0,23113:0:0:0:0:
448,192,22845,1,0,0:0:0:0:
64,192,22979,128,0,23113:0:0:0:0:
192,192,23113,1,0,0:0:0:0:
448,192,23113,1,0,0:0:0:0:
192,192,23247,128,0,23381:0:0:0:0:
64,192,23515,1,2,0:0:0:0:
320,192,23515,128,0,23783:0:0:0:0:
448,192,23515,128,0,23783:0:0:0:0:
64,192,23917,1,2,0:0:0:0:
192,192,23917,128,0,24051:0:0:0:0:
320,192,23917,128,0,24051:0:0:0:0:
64,192,24185,128,8,24319:0:0:0:0:
192,192,24185,128,0,24319:0:0:0:0:
448,192,24185,1,0,0:0:0:0:
320,192,24319,128,0,24453:0:0:0:0:
192,192,24453,128,0,24586:0:0:0:0:
64,192,24586,128,2,24854:0:0:0:0:
320,192,24586,1,0,0:0:0:0:
448,192,24586,128,0,24854:0:0:0:0:
192,192,24854,128,0,24988:0:0:0:0:
64,192,24988,1,2,0:0:0:0:
320,192,24988,128,0,25256:0:0:0:0:
448,192,24988,128,0,25256:0:0:0:0:
192,192,25256,1,0,0:0:0:0:
64,192,25323,1,0,0:0:0:0:
448,192,25390,1,2,0:0:0:0:
320,192,25457,1,0,0:0:0:0:
192,192,25524,1,0,0:0:0:0:
64,192,25591,1,0,0:0:0:0:
448,192,25658,1,0,0:0:0:0:
320,192,25725,1,0,0:0:0:0:
64,192,25792,128,2,25926:0:0:0:0:
192,192,25792,1,0,0:0:0:0:
448,192,25792,128,0,26194:0:0:0:0:
192,192,26060,128,0,26194:0:0:0:0:
64,192,26328,1,8,0:0:0:0:
192,192,26328,1,0,0:0:0:0:
320,192,26328,128,0,26461:0:0:0:0:
64,192,26461,128,0,26729:0:0:0:0:
448,192,26461,1,0,0:0:0:0:
192,192,26729,1,2,0:0:0:0:
320,192,26729,128,0,26997:0:0:0:0:
448,192,26729,128,0,26997:0:0:0:0:
64,192,27131,128,2,27399:0:0:0:0:
192,192,27131,128,0,27399:0:0:0:0:
448,192,27131,1,0,0:0:0:0:
320,192,27399,1,0,0:0:0:0:
448,192,27399,1,0,0:0:0:0:
320,192,27533,128,0,27667:0:0:0:0:
64,192,27801,128,2,28069:0:0:0:0:
192,192,27801,128,0,28069:0:0:0:0:
448,192,27801,1,0,0:0:0:0:
192,192,28203,128,2,28336:0:0:0:0:
320,192,28203,128,0,28336:0:0:0:0:
448,192,28203,1,0,0:0:0:0:
64,192,28470,1,8,0:0:0:0:
320,192,28470,128,0,28604:0:0:0:0:
448,192,28470,128,0,28604:0:0:0:0:
192,192,28604,128,0,28738:0:0:0:0:
320,192,28738,128,0,28872:0:0:0:0:
64,192,28872,128,2,29140:0:0:0:0:
192,192,28872,1,0,0:0:0:0:
448,192,28872,128,0,29140:0:0:0:0:
320,192,29140,128,0,29274:0:0:0:0:
64,192,29274,128,2,29542:0:0:0:0:
192,192,29274,128,0,29542:0:0:0:0:
448,192,29274,1,0,0:0:0:0:
320,192,29542,1,0,0:0:0:0:
448,192,29609,1,0,0:0:0:0:
64,192,29676,1,2,0:0:0:0:
192,192,29743,1,0,0:0:0:0:
320,192,29810,1,0,0:0:0:0:
448,192,29877,1,0,0:0:0:0:
64,192,29944,1,0,0:0:0:0:
192,192,30011,1,0,0:0:0:0:
320,192,30078,1,2,0:0:0:0:
448,192,30078,1,0,0:0:0:0:
192,192,30613,1,0,0:0:0:0:
320,192,30613,1,0,0:0:0:0:
64,192,31149,1,0,0:0:0:0:
192,192,31149,1,0,0:0:0:0:
448,192,31417,1,0,0:0:0:0:
192,192,31551,1,0,0:0:0:0:
448,192,31685,1,0,0:0:0:0:
64,192,31819,1,0,0:0:0:0:
448,192,32220,128,0,32287:0:0:0:0:
320,192,32287,128,0,32354:0:0:0:0:
192,192,32354,128,0,32421:0:0:0:0:
64,192,32421,128,0,32488:0:0:0:0:
448,192,32488,128,0,32555:0:0:0:0:
320,192,32555,128,0,32622:0:0:0:0:
192,192,32622,128,0,32689:0:0:0:0:
64,192,32756,128,0,32823:0:0:0:0:
192,192,32823,128,0,32890:0:0:0:0:
320,192,32890,128,0,32957:0:0:0:0:
448,192,32957,128,0,33024:0:0:0:0:
64,192,33024,128,0,33091:0:0:0:0:
192,192,33091,128,0,33158:0:0:0:0:
320,192,33158,128,0,33225:0:0:0:0:
64,192,33292,1,0,0:0:0:0:
448,192,33292,1,0,0:0:0:0:
192,192,33359,1,0,0:0:0:0:
448,192,33426,1,0,0:0:0:0:
320,192,33493,1,0,0:0:0:0:
64,192,33560,1,0,0:0:0:0:
192,192,33560,1,0,0:0:0:0:
448,192,33627,1,0,0:0:0:0:
320,192,33694,1,0,0:0:0:0:
64,192,33828,1,0,0:0:0:0:
448,192,33828,1,0,0:0:0:0:
192,192,33961,1,0,0:0:0:0:
448,192,33961,1,0,0:0:0:0:
64,192,34095,1,0,0:0:0:0:
320,192,34095,1,0,0:0:0:0:
64,192,34363,1,2,0:0:0:0:
192,192,34363,128,0,34497:0:0:0:50:soft-hitfinish.wav
448,192,34363,1,0,0:0:0:0:
320,192,34631,128,0,34765:0:0:0:0:
448,192,34631,1,0,0:0:0:0:
64,192,34899,1,8,0:0:0:0:
192,192,34899,1,0,0:0:0:0:
448,192,34899,128,0,35033:0:0:0:0:
320,192,35033,1,0,0:0:0:0:
64,192,35167,128,0,35301:0:0:0:0:
192,192,35301,1,2,0:0:0:0:
320,192,35301,1,0,0:0:0:0:
448,192,35301,128,0,35435:0:0:0:0:
320,192,35569,128,0,35703:0:0:0:0:
64,192,35703,1,2,0:0:0:0:
192,192,35703,1,0,0:0:0:0:
448,192,35703,1,0,0:0:0:0:
192,192,35836,128,0,35970:0:0:0:0:
320,192,35970,1,0,0:0:0:0:
448,192,35970,128,0,36104:0:0:0:0:
192,192,36104,1,0,0:0:0:0:
64,192,36238,128,0,36372:0:0:0:0:
64,192,36506,1,2,0:0:0:0:
320,192,36506,128,0,36640:0:0:0:0:
448,192,36506,1,0,0:0:0:0:
64,192,36774,1,0,0:0:0:50:rim.wav
192,192,36774,128,0,36908:0:0:0:0:
64,192,37042,128,8,37176:0:0:0:0:
320,192,37042,1,0,0:0:0:0:
448,192,37042,1,0,0:0:0:0:
192,192,37176,1,0,0:0:0:0:
448,192,37310,128,0,37444:0:0:0:0:
64,192,37444,128,2,37578:0:0:0:0:
192,192,37444,1,0,0:0:0:0:
320,192,37444,1,0,0:0:0:0:
192,192,37711,128,0,37845:0:0:0:0:
64,192,37845,1,2,0:0:0:0:
320,192,37845,1,0,0:0:0:0:
448,192,37845,1,0,0:0:0:0:
320,192,37979,128,0,38113:0:0:0:0:
64,192,38113,1,8,0:0:0:0:
192,192,38113,1,0,0:0:0:0:
448,192,38180,1,0,0:0:0:0:
320,192,38247,1,2,0:0:0:0:
192,192,38314,1,0,0:0:0:0:
64,192,38381,1,0,0:0:0:0:
448,192,38448,1,0,0:0:0:0:
320,192,38515,1,0,0:0:0:0:
192,192,38582,1,0,0:0:0:0:
64,192,38649,1,2,0:0:0:0:
320,192,38649,128,0,38783:0:0:0:0:
448,192,38649,1,0,0:0:0:0:
64,192,38917,1,0,0:0:0:0:
192,192,38917,128,0,39051:0:0:0:0:
64,192,39185,128,8,39319:0:0:0:0:
320,192,39185,1,0,0:0:0:0:
448,192,39185,1,0,0:0:0:0:
192,192,39319,1,0,0:0:0:0:
448,192,39453,128,0,39586:0:0:0:0:
64,192,39586,128,2,39720:0:0:0:0:
192,192,39586,1,0,0:0:0:0:
320,192,39586,1,0,0:0:0:0:
192,192,39854,128,0,39988:0:0:0:0:
64,192,39988,1,2,0:0:0:0:
320,192,39988,1,0,0:0:0:0:
448,192,39988,1,0,0:0:0:0:
320,192,40122,128,0,40256:0:0:0:0:
64,192,40256,128,0,40390:0:0:0:0:
192,192,40256,1,0,0:0:0:0:
320,192,40390,1,0,0:0:0:0:
448,192,40524,128,0,40658:0:0:0:0:
64,192,40792,1,2,0:0:0:0:
192,192,40792,128,0,40926:0:0:0:0:
448,192,40792,1,0,0:0:0:0:
64,192,41060,1,0,0:0:0:50:rim.wav
320,192,41060,128,0,41194:0:0:0:0:
64,192,41328,1,8,0:0:0:0:
192,192,41328,128,0,41461:0:0:0:0:
448,192,41328,1,0,0:0:0:0:
320,192,41595,128,0,41729:0:0:0:0:
64,192,41729,128,2,41863:0:0:0:0:
192,192,41729,1,0,0:0:0:0:
448,192,41729,1,0,0:0:0:0:
448,192,41997,128,0,42131:0:0:0:0:
64,192,42131,1,2,0:0:0:0:
192,192,42131,1,0,0:0:0:0:
320,192,42131,1,0,0:0:0:0:
320,192,42265,128,0,42399:0:0:0:0:
64,192,42399,1,8,0:0:0:0:
192,192,42399,1,0,0:0:0:0:
448,192,42466,1,0,0:0:0:0:
320,192,42533,1,2,0:0:0:0:
192,192,42600,1,0,0:0:0:0:
64,192,42667,1,0,0:0:0:0:
448,192,42734,1,0,0:0:0:0:
320,192,42801,1,0,0:0:0:0:
192,192,42868,1,0,0:0:0:0:
64,192,42935,1,2,0:0:0:0:
320,192,42935,128,0,43069:0:0:0:0:
448,192,42935,1,0,0:0:0:0:
64,192,43203,1,0,0:0:0:0:
192,192,43203,128,0,43336:0:0:0:0:
64,192,43470,128,8,43604:0:0:0:0:
320,192,43470,1,0,0:0:0:0:
448,192,43470,1,0,0:0:0:0:
192,192,43604,1,0,0:0:0:0:
448,192,43738,128,0,43872:0:0:0:0:
64,192,43872,128,2,44006:0:0:0:0:
192,192,43872,1,0,0:0:0:0:
320,192,43872,1,0,0:0:0:0:
192,192,44140,128,0,44274:0:0:0:0:
64,192,44274,1,2,0:0:0:0:
320,192,44274,1,0,0:0:0:0:
448,192,44274,1,0,0:0:0:0:
320,192,44408,128,0,44542:0:0:0:0:
64,192,44542,128,0,44676:0:0:0:0:
192,192,44542,1,0,0:0:0:0:
320,192,44676,1,0,0:0:0:0:
448,192,44810,128,0,44944:0:0:0:0:
64,192,45078,1,2,0:0:0:0:
192,192,45078,128,0,45211:0:0:0:0:
448,192,45078,1,0,0:0:0:0:
320,192,45345,128,0,45479:0:0:0:50:rim.wav
448,192,45345,1,0,0:0:0:0:
64,192,45613,1,8,0:0:0:0:
192,192,45613,1,0,0:0:0:0:
448,192,45613,128,0,45747:0:0:0:0:
320,192,45747,1,0,0:0:0:0:
64,192,45881,128,0,46015:0:0:0:0:
192,192,46015,1,2,0:0:0:0:
320,192,46015,1,0,0:0:0:0:
448,192,46015,128,0,46149:0:0:0:0:
320,192,46283,128,0,46417:0:0:0:0:
64,192,46417,1,2,0:0:0:0:
192,192,46417,1,0,0:0:0:0:
448,192,46417,1,0,0:0:0:0:
192,192,46551,128,0,46685:0:0:0:0:
320,192,46685,1,8,0:0:0:0:
448,192,46685,1,0,0:0:0:0:
64,192,46752,1,0,0:0:0:0:
192,192,46819,1,2,0:0:0:0:
320,192,46886,1,0,0:0:0:0:
448,192,46953,1,0,0:0:0:0:
64,192,47019,1,0,0:0:0:0:
192,192,47086,1,0,0:0:0:0:
320,192,47153,1,0,0:0:0:0:
64,192,47220,1,2,0:0:0:0:
192,192,47220,128,0,47354:0:0:0:0:
448,192,47220,1,0,0:0:0:0:
320,192,47488,128,0,47622:0:0:0:0:
448,192,47488,1,0,0:0:0:0:
64,192,47756,1,8,0:0:0:0:
192,192,47756,1,0,0:0:0:0:
448,192,47756,128,0,47890:0:0:0:0:
320,192,47890,1,0,0:0:0:0:
64,192,48024,128,0,48158:0:0:0:0:
192,192,48158,1,2,0:0:0:0:
320,192,48158,1,0,0:0:0:0:
448,192,48158,128,0,48292:0:0:0:0:
320,192,48426,128,0,48560:0:0:0:0:
64,192,48560,1,2,0:0:0:0:
192,192,48560,1,0,0:0:0:0:
448,192,48560,1,0,0:0:0:0:
192,192,48694,128,0,48828:0:0:0:0:
320,192,48828,1,0,0:0:0:0:
448,192,48828,128,0,48961:0:0:0:0:
192,192,48961,1,0,0:0:0:0:
64,192,49095,128,0,49229:0:0:0:0:
64,192,49363,1,2,0:0:0:0:
320,192,49363,128,0,49497:0:0:0:0:
448,192,49363,1,0,0:0:0:0:
192,192,49631,128,0,49765:0:0:0:50:rim.wav
448,192,49631,1,0,0:0:0:0:
64,192,49899,1,8,0:0:0:0:
320,192,49899,128,0,50033:0:0:0:0:
448,192,49899,1,0,0:0:0:0:
192,192,50167,128,0,50301:0:0:0:0:
64,192,50301,1,2,0:0:0:0:
320,192,50301,1,0,0:0:0:0:
448,192,50301,128,0,50435:0:0:0:0:
320,192,50569,128,0,50703:0:0:0:0:
64,192,50703,1,2,0:0:0:0:
192,192,50703,1,0,0:0:0:0:
448,192,50703,1,0,0:0:0:0:
192,192,50836,128,0,50970:0:0:0:0:
320,192,50970,1,8,0:0:0:0:
448,192,50970,1,0,0:0:0:0:
64,192,51037,1,0,0:0:0:0:
192,192,51104,1,0,0:0:0:0:
320,192,51171,1,0,0:0:0:0:
448,192,51238,1,0,0:0:0:0:
64,192,51305,1,0,0:0:0:0:
192,192,51372,1,0,0:0:0:0:
320,192,51439,1,0,0:0:0:0:
64,192,51506,1,0,0:0:0:0:
192,192,51506,1,0,0:0:0:0:
448,192,51506,1,0,0:0:0:0:
192,192,51774,1,0,0:0:0:0:
320,192,51774,1,0,0:0:0:0:
64,192,51908,1,0,0:0:0:0:
192,192,52042,1,8,0:0:0:0:
320,192,52042,1,0,0:0:0:0:
448,192,52042,1,0,0:0:0:0:
64,192,52176,1,0,0:0:0:0:
192,192,52310,1,0,0:0:0:0:
64,192,52444,1,2,0:0:0:0:
320,192,52444,1,0,0:0:0:0:
448,192,52444,1,0,0:0:0:0:
192,192,52578,1,0,0:0:0:0:
320,192,52711,1,0,0:0:0:0:
64,192,52845,1,2,0:0:0:0:
192,192,52845,1,0,0:0:0:0:
448,192,52845,1,0,0:0:0:0:
320,192,52979,1,0,0:0:0:0:
448,192,53113,1,0,0:0:0:0:
192,192,53247,1,0,0:0:0:0:
320,192,53381,1,0,0:0:0:0:
64,192,53515,1,0,0:0:0:0:
192,192,53649,1,2,0:0:0:0:
320,192,53649,1,0,0:0:0:0:
448,192,53649,1,0,0:0:0:0:
64,192,53783,1,0,0:0:0:0:
192,192,53917,1,0,0:0:0:50:rim.wav
320,192,53917,1,0,0:0:0:0:
448,192,54051,1,0,0:0:0:0:
64,192,54185,1,8,0:0:0:0:
192,192,54185,1,0,0:0:0:0:
320,192,54185,1,0,0:0:0:0:
448,192,54319,1,0,0:0:0:0:
320,192,54453,1,0,0:0:0:0:
64,192,54586,1,2,0:0:0:0:
192,192,54586,1,0,0:0:0:0:
448,192,54586,1,0,0:0:0:0:
320,192,54720,1,0,0:0:0:0:
192,192,54854,1,0,0:0:0:0:
64,192,54988,1,2,0:0:0:0:
320,192,54988,1,0,0:0:0:0:
448,192,54988,1,0,0:0:0:0:
192,192,55122,1,0,0:0:0:0:
64,192,55256,1,8,0:0:0:0:
448,192,55256,1,0,0:0:0:0:
320,192,55323,1,0,0:0:0:0:
192,192,55390,1,2,0:0:0:0:
64,192,55457,1,0,0:0:0:0:
448,192,55524,1,0,0:0:0:0:
320,192,55591,1,0,0:0:0:0:
192,192,55658,1,0,0:0:0:0:
64,192,55725,1,0,0:0:0:0:
192,192,55792,1,2,0:0:0:0:
320,192,55792,1,0,0:0:0:0:
448,192,55792,1,0,0:0:0:0:
192,192,56060,1,0,0:0:0:0:
320,192,56060,1,0,0:0:0:0:
64,192,56328,1,8,0:0:0:0:
192,192,56328,1,0,0:0:0:0:
320,192,56328,1,0,0:0:0:0:
448,192,56461,1,0,0:0:0:0:
320,192,56595,1,0,0:0:0:0:
64,192,56729,1,2,0:0:0:0:
192,192,56729,1,0,0:0:0:0:
448,192,56729,1,0,0:0:0:0:
320,192,56863,1,0,0:0:0:0:
192,192,56997,1,0,0:0:0:0:
64,192,57131,1,2,0:0:0:0:
320,192,57131,1,0,0:0:0:0:
448,192,57131,1,0,0:0:0:0:
192,192,57265,1,0,0:0:0:0:
64,192,57399,1,0,0:0:0:0:
320,192,57533,1,0,0:0:0:0:
192,192,57667,1,0,0:0:0:0:
448,192,57801,1,0,0:0:0:0:
64,192,57935,1,2,0:0:0:0:
192,192,57935,1,0,0:0:0:0:
320,192,57935,1,0,0:0:0:0:
448,192,58069,1,0,0:0:0:0:
192,192,58203,1,0,0:0:0:50:rim.wav
320,192,58203,1,0,0:0:0:0:
64,192,58336,1,0,0:0:0:0:
192,192,58470,1,8,0:0:0:0:
320,192,58470,1,0,0:0:0:0:
448,192,58470,1,0,0:0:0:0:
64,192,58604,1,0,0:0:0:0:
192,192,58738,1,0,0:0:0:0:
64,192,58872,1,2,0:0:0:0:
320,192,58872,1,0,0:0:0:0:
448,192,58872,1,0,0:0:0:0:
192,192,59006,1,0,0:0:0:0:
320,192,59140,1,0,0:0:0:0:
64,192,59274,1,2,0:0:0:0:
192,192,59274,1,0,0:0:0:0:
448,192,59274,1,0,0:0:0:0:
320,192,59408,1,0,0:0:0:0:
64,192,59542,1,8,0:0:0:0:
448,192,59542,1,0,0:0:0:0:
192,192,59609,1,0,0:0:0:0:
320,192,59676,1,2,0:0:0:0:
448,192,59743,1,0,0:0:0:0:
64,192,59810,1,0,0:0:0:0:
192,192,59877,1,0,0:0:0:0:
320,192,59944,1,0,0:0:0:0:
448,192,60011,1,0,0:0:0:0:
64,192,60078,1,2,0:0:0:0:
192,192,60078,1,0,0:0:0:0:
320,192,60078,1,0,0:0:0:0:
192,192,60345,1,0,0:0:0:0:
320,192,60345,1,0,0:0:0:0:
192,192,60613,1,8,0:0:0:0:
320,192,60613,1,0,0:0:0:0:
448,192,60613,1,0,0:0:0:0:
64,192,60747,1,0,0:0:0:0:
192,192,60881,1,0,0:0:0:0:
64,192,61015,1,2,0:0:0:0:
320,192,61015,1,0,0:0:0:0:
448,192,61015,1,0,0:0:0:0:
192,192,61149,1,0,0:0:0:0:
320,192,61283,1,0,0:0:0:0:
64,192,61417,1,2,0:0:0:0:
192,192,61417,1,0,0:0:0:0:
448,192,61417,1,0,0:0:0:0:
320,192,61551,1,0,0:0:0:0:
448,192,61685,1,0,0:0:0:0:
192,192,61819,1,0,0:0:0:0:
320,192,61953,1,0,0:0:0:0:
64,192,62086,1,0,0:0:0:0:
192,192,62220,1,2,0:0:0:0:
320,192,62220,1,0,0:0:0:0:
448,192,62220,1,0,0:0:0:0:
64,192,62354,1,0,0:0:0:0:
192,192,62488,1,0,0:0:0:50:rim.wav
320,192,62488,1,0,0:0:0:0:
448,192,62622,1,0,0:0:0:0:
64,192,62756,1,8,0:0:0:0:
192,192,62756,1,0,0:0:0:0:
320,192,62756,1,0,0:0:0:0:
448,192,62890,1,0,0:0:0:0:
320,192,63024,1,0,0:0:0:0:
64,192,63158,1,2,0:0:0:0:
192,192,63158,1,0,0:0:0:0:
448,192,63158,1,0,0:0:0:0:
320,192,63292,1,0,0:0:0:0:
192,192,63426,1,0,0:0:0:0:
64,192,63560,1,2,0:0:0:0:
320,192,63560,1,0,0:0:0:0:
448,192,63560,1,0,0:0:0:0:
192,192,63694,1,0,0:0:0:0:
64,192,63828,1,8,0:0:0:0:
448,192,63828,1,0,0:0:0:0:
320,192,63894,1,0,0:0:0:0:
192,192,63961,1,2,0:0:0:0:
64,192,64028,1,0,0:0:0:0:
448,192,64095,1,0,0:0:0:0:
320,192,64162,1,0,0:0:0:0:
192,192,64229,1,0,0:0:0:0:
64,192,64296,1,0,0:0:0:0:
192,192,64363,1,2,0:0:0:0:
320,192,64363,1,0,0:0:0:0:
448,192,64363,1,0,0:0:0:0:
192,192,64631,1,0,0:0:0:0:
320,192,64631,1,0,0:0:0:0:
64,192,64899,1,8,0:0:0:0:
192,192,64899,1,0,0:0:0:0:
320,192,64899,1,0,0:0:0:0:
448,192,65033,1,0,0:0:0:0:
320,192,65167,1,0,0:0:0:0:
64,192,65301,1,2,0:0:0:0:
192,192,65301,1,0,0:0:0:0:
448,192,65301,1,0,0:0:0:0:
320,192,65435,1,0,0:0:0:0:
192,192,65569,1,0,0:0:0:0:
64,192,65703,1,2,0:0:0:0:
320,192,65703,1,0,0:0:0:0:
448,192,65703,1,0,0:0:0:0:
192,192,65836,1,0,0:0:0:0:
64,192,65970,1,0,0:0:0:0:
320,192,66104,1,0,0:0:0:0:
192,192,66238,1,0,0:0:0:0:
448,192,66372,1,0,0:0:0:0:
64,192,66506,1,2,0:0:0:0:
192,192,66506,1,0,0:0:0:0:
320,192,66506,1,0,0:0:0:0:
448,192,66640,1,0,0:0:0:0:
192,192,66774,1,0,0:0:0:50:rim.wav
320,192,66774,1,0,0:0:0:0:
64,192,66908,1,0,0:0:0:0:
192,192,67042,1,8,0:0:0:0:
320,192,67042,1,0,0:0:0:0:
448,192,67042,1,0,0:0:0:0:
64,192,67176,1,0,0:0:0:0:
192,192,67310,1,0,0:0:0:0:
64,192,67444,1,2,0:0:0:0:
320,192,67444,1,0,0:0:0:0:
448,192,67444,1,0,0:0:0:0:
192,192,67578,1,0,0:0:0:0:
320,192,67711,1,0,0:0:0:0:
64,192,67845,1,2,0:0:0:0:
192,192,67845,1,0,0:0:0:0:
448,192,67845,1,0,0:0:0:0:
320,192,67979,1,0,0:0:0:0:
64,192,68113,1,8,0:0:0:0:
448,192,68113,1,0,0:0:0:0:
192,192,68180,1,0,0:0:0:0:
320,192,68247,1,2,0:0:0:0:
448,192,68314,1,0,0:0:0:0:
64,192,68381,1,0,0:0:0:0:
192,192,68448,1,0,0:0:0:0:
320,192,68515,1,0,0:0:0:0:
448,192,68582,1,0,0:0:0:0:
64,192,68649,128,0,69453:0:0:0:0:
192,192,68649,1,0,0:0:0:0:
320,192,68917,1,0,0:0:0:0:
448,192,69185,1,0,0:0:0:0:
192,192,69453,1,0,0:0:0:0:
320,192,69519,1,0,0:0:0:0:
448,192,69586,1,0,0:0:0:0:
64,192,69720,1,0,0:0:0:0:
448,192,69988,1,0,0:0:0:0:
320,192,70122,1,0,0:0:0:0:
64,192,70256,1,0,0:0:0:0:
192,192,70524,1,0,0:0:0:0:
320,192,70792,1,0,0:0:0:0:
448,192,70792,128,0,71595:0:0:0:0:
192,192,71060,1,0,0:0:0:0:
64,192,71328,1,0,0:0:0:0:
192,192,71394,1,0,0:0:0:0:
320,192,71461,1,0,0:0:0:0:
64,192,71595,1,0,0:0:0:0:
192,192,71662,1,0,0:0:0:0:
320,192,71729,1,0,0:0:0:0:
448,192,71863,1,0,0:0:0:0:
64,192,72131,1,0,0:0:0:0:
320,192,72198,1,0,0:0:0:0:
192,192,72265,1,0,0:0:0:0:
448,192,72332,1,0,0:0:0:0:
64,192,72399,1,0,0:0:0:0:
320,192,72399,1,0,0:0:0:0:
192,192,72533,1,0,0:0:0:0:
448,192,72667,1,0,0:0:0:0:
64,192,72935,128,0,73738:0:0:0:0:
192,192,72935,1,0,0:0:0:0:
320,192,73203,1,0,0:0:0:0:
448,192,73470,1,0,0:0:0:0:
192,192,73738,1,0,0:0:0:0:
320,192,73805,1,0,0:0:0:0:
448,192,73872,1,0,0:0:0:0:
64,192,74006,1,0,0:0:0:0:
448,192,74274,1,0,0:0:0:0:
320,192,74408,1,0,0:0:0:0:
64,192,74542,1,0,0:0:0:0:
192,192,74810,1,0,0:0:0:0:
320,192,75078,1,0,0:0:0:0:
448,192,75078,128,0,75881:0:0:0:0:
192,192,75345,1,0,0:0:0:0:
64,192,75613,1,0,0:0:0:0:
192,192,75680,1,0,0:0:0:0:
320,192,75747,1,0,0:0:0:0:
64,192,75881,1,0,0:0:0:0:
192,192,75948,1,0,0:0:0:0:
320,192,76015,1,0,0:0:0:0:
448,192,76149,1,0,0:0:0:0:
192,192,76417,1,0,0:0:0:0:
64,192,76551,1,0,0:0:0:0:
320,192,76551,1,0,0:0:0:0:
64,192,76685,1,0,0:0:0:0:
192,192,76685,1,0,0:0:0:0:
448,192,76685,1,0,0:0:0:0:
192,192,76953,1,0,0:0:0:0:
320,192,76953,1,0,0:0:0:0:
64,192,77220,1,2,0:0:0:0:
320,192,77220,1,0,0:0:0:30:snare.wav
448,192,77220,1,0,0:0:0:0:
192,192,77488,1,0,0:0:0:0:
320,192,77622,1,0,0:0:0:0:
448,192,77622,1,0,0:0:0:0:
64,192,77756,1,2,0:0:0:0:
192,192,77756,1,0,0:0:0:30:snare.wav
448,192,77756,1,0,0:0:0:0:
192,192,78024,1,0,0:0:0:0:
320,192,78024,1,0,0:0:0:0:
64,192,78292,1,2,0:0:0:0:
320,192,78292,1,0,0:0:0:30:snare.wav
448,192,78292,1,0,0:0:0:0:
64,192,78426,1,0,0:0:0:0:
192,192,78426,1,0,0:0:0:0:
320,192,78560,1,0,0:0:0:0:
448,192,78694,1,0,0:0:0:0:
64,192,78828,1,2,0:0:0:0:
192,192,78828,1,0,0:0:0:30:snare.wav
320,192,78828,1,0,0:0:0:0:
448,192,78961,1,0,0:0:0:0:
64,192,79095,1,0,0:0:0:0:
320,192,79095,1,0,0:0:0:0:
192,192,79229,1,0,0:0:0:0:
64,192,79363,1,2,0:0:0:0:
320,192,79363,1,0,0:0:0:30:snare.wav
448,192,79363,1,0,0:0:0:0:
320,192,79631,1,0,0:0:0:0:
64,192,79765,1,0,0:0:0:0:
192,192,79765,1,0,0:0:0:0:
64,192,79899,1,2,0:0:0:0:
320,192,79899,1,0,0:0:0:30:snare.wav
448,192,79899,1,0,0:0:0:0:
192,192,80167,1,0,0:0:0:0:
320,192,80167,1,0,0:0:0:0:
64,192,80435,1,2,0:0:0:0:
192,192,80435,1,0,0:0:0:30:snare.wav
448,192,80435,1,0,0:0:0:0:
320,192,80569,1,0,0:0:0:0:
448,192,80569,1,0,0:0:0:0:
192,192,80703,1,0,0:0:0:0:
64,192,80836,1,0,0:0:0:0:
192,192,80970,1,2,0:0:0:0:
320,192,80970,1,0,0:0:0:30:snare.wav
448,192,80970,1,0,0:0:0:0:
64,192,81104,1,0,0:0:0:0:
192,192,81238,1,0,0:0:0:0:
448,192,81238,1,0,0:0:0:0:
320,192,81372,1,0,0:0:0:0:
64,192,81506,1,2,0:0:0:0:
192,192,81506,1,0,0:0:0:30:snare.wav
448,192,81640,1,0,0:0:0:0:
64,192,81774,1,2,0:0:0:0:
192,192,81774,1,0,0:0:0:30:snare.wav
320,192,81908,1,0,0:0:0:0:
64,192,82042,1,2,0:0:0:0:
448,192,82042,1,0,0:0:0:30:snare.wav
192,192,82176,1,0,0:0:0:0:
320,192,82310,1,2,0:0:0:0:
448,192,82310,1,0,0:0:0:30:snare.wav
64,192,82444,1,0,0:0:0:0:
320,192,82578,1,2,0:0:0:0:
448,192,82578,1,0,0:0:0:30:snare.wav
192,192,82711,1,0,0:0:0:0:
64,192,82845,1,2,0:0:0:0:
448,192,82845,1,0,0:0:0:30:snare.wav
320,192,82979,1,0,0:0:0:0:
64,192,83113,1,2,0:0:0:0:
192,192,83113,1,0,0:0:0:30:snare.wav
320,192,83247,1,2,0:0:0:0:
448,192,83247,1,0,0:0:0:0:
64,192,83381,1,2,0:0:0:0:
192,192,83381,1,0,0:0:0:30:snare.wav
320,192,83515,1,2,0:0:0:0:
448,192,83515,1,0,0:0:0:0:
192,192,83649,1,0,0:0:0:0:
192,192,83783,1,0,0:0:0:0:
64,192,83917,1,2,0:0:0:0:
320,192,83917,1,0,0:0:0:50:soft-hitfinish.wav
448,192,83917,1,0,0:0:0:0:
320,192,84051,1,0,0:0:0:0:
64,192,84185,1,0,0:0:0:0:
192,192,84185,1,0,0:0:0:0:
448,192,84319,1,0,0:0:0:0:
320,192,84363,1,0,0:0:0:0:
64,192,84453,1,0,0:0:0:0:
192,192,84453,1,0,0:0:0:0:
320,192,84586,1,0,0:0:0:0:
448,192,84586,1,0,0:0:0:0:
64,192,84720,1,0,0:0:0:0:
320,192,84854,1,0,0:0:0:0:
448,192,84854,1,0,0:0:0:0:
64,192,84988,1,0,0:0:0:0:
192,192,84988,1,0,0:0:0:0:
192,192,85122,1,0,0:0:0:0:
448,192,85122,1,0,0:0:0:0:
64,192,85256,1,0,0:0:0:0:
448,192,85256,1,0,0:0:0:0:
64,192,85390,1,0,0:0:0:0:
320,192,85390,1,0,0:0:0:0:
320,192,85524,1,0,0:0:0:0:
448,192,85524,1,0,0:0:0:0:
64,192,85658,1,0,0:0:0:0:
192,192,85658,1,0,0:0:0:0:
64,192,85792,128,2,86194:0:0:0:0:
320,192,85792,1,0,0:0:0:50:soft-hitfinish.wav
448,192,85792,128,0,85926:0:0:0:0:
320,192,86060,128,0,86194:0:0:0:0:
192,192,86328,128,8,86461:0:0:0:0:
320,192,86328,1,0,0:0:0:0:
448,192,86328,1,0,0:0:0:0:
64,192,86461,1,0,0:0:0:0:
448,192,86461,128,0,86729:0:0:0:0:
64,192,86729,128,2,86997:0:0:0:0:
192,192,86729,128,0,86997:0:0:0:0:
320,192,86729,1,0,0:0:0:0:
64,192,87131,1,2,0:0:0:0:
320,192,87131,128,0,87399:0:0:0:0:
448,192,87131,128,0,87399:0:0:0:0:
64,192,87399,1,0,0:0:0:0:
192,192,87399,1,0,0:0:0:0:
192,192,87533,128,0,87667:0:0:0:0:
64,192,87801,1,2,0:0:0:0:
320,192,87801,128,0,88069:0:0:0:0:
448,192,87801,128,0,88069:0:0:0:0:
64,192,88203,1,2,0:0:0:0:
192,192,88203,128,0,88336:0:0:0:0:
320,192,88203,128,0,88336:0:0:0:0:
64,192,88470,128,8,88604:0:0:0:0:
192,192,88470,128,0,88604:0:0:0:0:
448,192,88470,1,0,0:0:0:0:
320,192,88604,128,0,88738:0:0:0:0:
192,192,88738,128,0,88872:0:0:0:0:
64,192,88872,128,2,89140:0:0:0:0:
320,192,88872,1,0,0:0:0:0:
448,192,88872,128,0,89140:0:0:0:0:
192,192,89140,128,0,89274:0:0:0:0:
64,192,89274,1,2,0:0:0:0:
320,192,89274,128,0,89542:0:0:0:0:
448,192,89274,128,0,89542:0:0:0:0:
192,192,89542,1,0,0:0:0:0:
64,192,89609,1,0,0:0:0:0:
448,192,89676,1,2,0:0:0:0:
320,192,89743,1,0,0:0:0:0:
192,192,89810,1,0,0:0:0:0:
64,192,89877,1,0,0:0:0:0:
448,192,89944,1,0,0:0:0:0:
320,192,90011,1,0,0:0:0:0:
64,192,90078,128,2,90211:0:0:0:0:
192,192,90078,1,0,0:0:0:0:
448,192,90078,128,0,90479:0:0:0:0:
192,192,90345,128,0,90479:0:0:0:0:
64,192,90613,1,8,0:0:0:0:
192,192,90613,1,0,0:0:0:0:
320,192,90613,128,0,90747:0:0:0:0:
64,192,90747,128,0,91015:0:0:0:0:
448,192,90747,1,0,0:0:0:0:
320,192,90881,1,0,0:0:0:0:
192,192,91015,1,2,0:0:0:0:
320,192,91015,128,0,91283:0:0:0:0:
448,192,91015,128,0,91283:0:0:0:0:
192,192,91283,1,0,0:0:0:0:
64,192,91417,1,2,0:0:0:0:
192,192,91417,128,0,91685:0:0:0:0:
448,192,91417,1,0,0:0:0:0:
448,192,91551,128,0,91685:0:0:0:0:
64,192,91685,1,0,0:0:0:0:
320,192,91685,1,0,0:0:0:0:
320,192,91819,128,0,91953:0:0:0:0:
64,192,92086,128,2,92354:0:0:0:0:
192,192,92086,128,0,92354:0:0:0:0:
448,192,92086,1,0,0:0:0:0:
192,192,92488,128,2,92622:0:0:0:0:
320,192,92488,128,0,92622:0:0:0:0:
448,192,92488,1,0,0:0:0:0:
64,192,92756,1,8,0:0:0:0:
320,192,92756,128,0,92890:0:0:0:0:
448,192,92756,128,0,92890:0:0:0:0:
192,192,92890,128,0,93024:0:0:0:0:
320,192,93024,128,0,93158:0:0:0:0:
64,192,93158,128,2,93426:0:0:0:0:
192,192,93158,1,0,0:0:0:0:
448,192,93158,128,0,93426:0:0:0:0:
320,192,93426,128,0,93560:0:0:0:0:
64,192,93560,128,2,93828:0:0:0:0:
192,192,93560,128,0,93828:0:0:0:0:
448,192,93560,1,0,0:0:0:0:
320,192,93828,1,0,0:0:0:0:
448,192,93894,1,0,0:0:0:0:
64,192,93961,1,2,0:0:0:0:
192,192,94028,1,0,0:0:0:0:
320,192,94095,1,0,0:0:0:0:
448,192,94162,1,0,0:0:0:0:
64,192,94229,1,0,0:0:0:0:
192,192,94296,1,0,0:0:0:0:
64,192,94363,128,2,94765:0:0:0:0:
320,192,94363,1,0,0:0:0:50:soft-hitfinish.wav
448,192,94363,128,0,94497:0:0:0:0:
320,192,94631,128,0,94765:0:0:0:0:
192,192,94899,128,8,95033:0:0:0:0:
320,192,94899,1,0,0:0:0:0:
448,192,94899,1,0,0:0:0:0:
64,192,95033,1,0,0:0:0:0:
448,192,95033,128,0,95301:0:0:0:0:
64,192,95301,128,2,95569:0:0:0:0:
192,192,95301,128,0,95569:0:0:0:0:
320,192,95301,1,0,0:0:0:0:
64,192,95703,1,2,0:0:0:0:
320,192,95703,128,0,95970:0:0:0:0:
448,192,95703,128,0,95970:0:0:0:0:
64,192,95970,1,0,0:0:0:0:
192,192,95970,1,0,0:0:0:0:
192,192,96104,128,0,96238:0:0:0:0:
64,192,96372,1,2,0:0:0:0:
320,192,96372,128,0,96640:0:0:0:0:
448,192,96372,128,0,96640:0:0:0:0:
64,192,96774,1,2,0:0:0:0:
192,192,96774,128,0,96908:0:0:0:0:
320,192,96774,128,0,96908:0:0:0:0:
64,192,97042,128,8,97176:0:0:0:0:
192,192,97042,128,0,97176:0:0:0:0:
448,192,97042,1,0,0:0:0:0:
320,192,97176,128,0,97310:0:0:0:0:
192,192,97310,128,0,97444:0:0:0:0:
64,192,97444,128,2,97711:0:0:0:0:
320,192,97444,1,0,0:0:0:0:
448,192,97444,128,0,97711:0:0:0:0:
192,192,97711,128,0,97845:0:0:0:0:
64,192,97845,1,2,0:0:0:0:
320,192,97845,128,0,98113:0:0:0:0:
448,192,97845,128,0,98113:0:0:0:0:
192,192,98113,1,0,0:0:0:0:
64,192,98180,1,0,0:0:0:0:
448,192,98247,1,2,0:0:0:0:
320,192,98314,1,0,0:0:0:0:
192,192,98381,1,0,0:0:0:0:
64,192,98448,1,0,0:0:0:0:
448,192,98515,1,0,0:0:0:0:
320,192,98582,1,0,0:0:0:0:
64,192,98649,128,2,98783:0:0:0:0:
192,192,98649,1,0,0:0:0:0:
448,192,98649,128,0,99051:0:0:0:0:
192,192,98917,128,0,99051:0:0:0:0:
64,192,99185,1,8,0:0:0:0:
192,192,99185,1,0,0:0:0:0:
320,192,99185,128,0,99319:0:0:0:0:
64,192,99319,128,0,99586:0:0:0:0:
448,192,99319,1,0,0:0:0:0:
320,192,99453,1,0,0:0:0:0:
192,192,99586,1,2,0:0:0:0:
320,192,99586,128,0,99854:0:0:0:0:
448,192,99586,128,0,99854:0:0:0:0:
192,192,99854,1,0,0:0:0:0:
64,192,99988,1,2,0:0:0:0:
192,192,99988,128,0,100256:0:0:0:0:
448,192,99988,1,0,0:0:0:0:
448,192,100122,128,0,100256:0:0:0:0:
64,192,100256,1,0,0:0:0:0:
320,192,100256,1,0,0:0:0:0:
320,192,100390,128,0,100524:0:0:0:0:
64,192,100658,128,2,100926:0:0:0:0:
192,192,100658,128,0,100926:0:0:0:0:
448,192,100658,1,0,0:0:0:0:
64,192,101060,1,2,0:0:0:0:
320,192,101060,128,0,101194:0:0:0:0:
448,192,101060,128,0,101194:0:0:0:0:
192,192,101328,128,8,101461:0:0:0:0:
320,192,101328,128,0,101461:0:0:0:0:
448,192,101328,1,0,0:0:0:0:
64,192,101461,1,0,0:0:0:0:
64,192,101595,128,0,101729:0:0:0:0:
192,192,101595,128,0,101729:0:0:0:0:
320,192,101729,128,2,101997:0:0:0:0:
448,192,101729,128,0,101997:0:0:0:0:
192,192,101997,1,0,0:0:0:0:
64,192,102131,128,2,102265:0:0:0:0:
320,192,102131,1,0,0:0:0:0:
448,192,102131,1,0,0:0:0:0:
192,192,102265,128,0,102399:0:0:0:0:
320,192,102399,1,0,0:0:0:0:
448,192,102399,1,0,0:0:0:0:
64,192,102533,128,2,102801:0:0:0:0:
192,192,102533,128,0,102801:0:0:0:0:
320,192,102533,1,0,0:0:0:0:
448,192,102667,1,0,0:0:0:0:
64,192,102935,128,2,103069:0:0:0:0:
192,192,102935,1,0,0:0:0:50:soft-hitfinish.wav
448,192,102935,128,0,103336:0:0:0:0:
192,192,103203,128,0,103336:0:0:0:0:
64,192,103470,1,8,0:0:0:0:
192,192,103470,1,0,0:0:0:0:
320,192,103470,128,0,103604:0:0:0:0:
64,192,103604,128,0,103872:0:0:0:0:
448,192,103604,1,0,0:0:0:0:
192,192,103872,1,2,0:0:0:0:
320,192,103872,128,0,104140:0:0:0:0:
448,192,103872,128,0,104140:0:0:0:0:
64,192,104274,128,2,104542:0:0:0:0:
192,192,104274,128,0,104542:0:0:0:0:
448,192,104274,1,0,0:0:0:0:
320,192,104542,1,0,0:0:0:0:
448,192,104542,1,0,0:0:0:0:
320,192,104676,128,0,104810:0:0:0:0:
64,192,104944,128,2,105211:0:0:0:0:
192,192,104944,128,0,105211:0:0:0:0:
448,192,104944,1,0,0:0:0:0:
192,192,105345,128,2,105479:0:0:0:0:
320,192,105345,128,0,105479:0:0:0:0:
448,192,105345,1,0,0:0:0:0:
64,192,105613,1,8,0:0:0:0:
320,192,105613,128,0,105747:0:0:0:0:
448,192,105613,128,0,105747:0:0:0:0:
192,192,105747,128,0,105881:0:0:0:0:
320,192,105881,128,0,106015:0:0:0:0:
64,192,106015,128,2,106283:0:0:0:0:
192,192,106015,1,0,0:0:0:0:
448,192,106015,128,0,106283:0:0:0:0:
320,192,106283,128,0,106417:0:0:0:0:
64,192,106417,128,2,106685:0:0:0:0:
192,192,106417,128,0,106685:0:0:0:0:
448,192,106417,1,0,0:0:0:0:
320,192,106685,1,0,0:0:0:0:
448,192,106752,1,0,0:0:0:0:
64,192,106819,1,2,0:0:0:0:
192,192,106886,1,0,0:0:0:0:
320,192,106953,1,0,0:0:0:0:
448,192,107019,1,0,0:0:0:0:
64,192,107086,1,0,0:0:0:0:
192,192,107153,1,0,0:0:0:0:
64,192,107220,128,2,107622:0:0:0:0:
320,192,107220,1,0,0:0:0:0:
448,192,107220,128,0,107354:0:0:0:0:
320,192,107488,128,0,107622:0:0:0:0:
192,192,107756,128,8,107890:0:0:0:0:
320,192,107756,1,0,0:0:0:0:
448,192,107756,1,0,0:0:0:0:
64,192,107890,1,0,0:0:0:0:
448,192,107890,128,0,108158:0:0:0:0:
192,192,108024,1,0,0:0:0:0:
64,192,108158,128,2,108426:0:0:0:0:
192,192,108158,128,0,108426:0:0:0:0:
320,192,108158,1,0,0:0:0:0:
320,192,108426,1,0,0:0:0:0:
64,192,108560,1,2,0:0:0:0:
320,192,108560,128,0,108828:0:0:0:0:
448,192,108560,1,0,0:0:0:0:
64,192,108694,128,0,108828:0:0:0:0:
192,192,108828,1,0,0:0:0:0:
448,192,108828,1,0,0:0:0:0:
192,192,108961,128,0,109095:0:0:0:0:
64,192,109229,1,2,0:0:0:0:
320,192,109229,128,0,109497:0:0:0:0:
448,192,109229,128,0,109497:0:0:0:0:
64,192,109631,1,2,0:0:0:0:
192,192,109631,128,0,109765:0:0:0:0:
320,192,109631,128,0,109765:0:0:0:0:
64,192,109899,128,8,110033:0:0:0:0:
192,192,109899,128,0,110033:0:0:0:0:
448,192,109899,1,0,0:0:0:0:
320,192,110033,128,0,110167:0:0:0:0:
192,192,110167,128,0,110301:0:0:0:0:
64,192,110301,128,2,110569:0:0:0:0:
320,192,110301,1,0,0:0:0:0:
448,192,110301,128,0,110569:0:0:0:0:
192,192,110569,128,0,110703:0:0:0:0:
64,192,110703,1,2,0:0:0:0:
320,192,110703,128,0,110970:0:0:0:0:
448,192,110703,128,0,110970:0:0:0:0:
192,192,110970,1,0,0:0:0:0:
64,192,111037,1,0,0:0:0:0:
448,192,111104,1,2,0:0:0:0:
320,192,111171,1,0,0:0:0:0:
192,192,111238,1,0,0:0:0:0:
64,192,111305,1,0,0:0:0:0:
448,192,111372,1,0,0:0:0:0:
320,192,111439,1,0,0:0:0:0:
64,192,111506,128,2,111640:0:0:0:0:
192,192,111506,1,0,0:0:0:50:soft-hitfinish.wav
448,192,111506,128,0,111908:0:0:0:0:
192,192,111774,128,0,111908:0:0:0:0:
64,192,112042,1,8,0:0:0:0:
192,192,112042,1,0,0:0:0:0:
320,192,112042,128,0,112176:0:0:0:0:
64,192,112176,128,0,112444:0:0:0:0:
448,192,112176,1,0,0:0:0:0:
320,192,112310,1,0,0:0:0:0:
192,192,112444,1,2,0:0:0:0:
320,192,112444,128,0,112711:0:0:0:0:
448,192,112444,128,0,112711:0:0:0:0:
192,192,112711,1,0,0:0:0:0:
64,192,112845,1,2,0:0:0:0:
192,192,112845,128,0,113113:0:0:0:0:
448,192,112845,1,0,0:0:0:0:
448,192,112979,128,0,113113:0:0:0:0:
64,192,113113,1,0,0:0:0:0:
320,192,113113,1,0,0:0:0:0:
320,192,113247,128,0,113381:0:0:0:0:
64,192,113515,128,2,113783:0:0:0:0:
192,192,113515,128,0,113783:0:0:0:0:
448,192,113515,1,0,0:0:0:0:
192,192,113917,128,2,114051:0:0:0:0:
320,192,113917,128,0,114051:0:0:0:0:
448,192,113917,1,0,0:0:0:0:
64,192,114185,1,8,0:0:0:0:
320,192,114185,128,0,114319:0:0:0:0:
448,192,114185,128,0,114319:0:0:0:0:
192,192,114319,128,0,114453:0:0:0:0:
320,192,114453,128,0,114586:0:0:0:0:
64,192,114586,128,2,114854:0:0:0:0:
192,192,114586,1,0,0:0:0:0:
448,192,114586,128,0,114854:0:0:0:0:
320,192,114854,128,0,114988:0:0:0:0:
64,192,114988,128,2,115256:0:0:0:0:
192,192,114988,128,0,115256:0:0:0:0:
448,192,114988,1,0,0:0:0:0:
320,192,115256,1,0,0:0:0:0:
448,192,115323,1,0,0:0:0:0:
64,192,115390,1,2,0:0:0:0:
192,192,115457,1,0,0:0:0:0:
320,192,115524,1,0,0:0:0:0:
448,192,115591,1,0,0:0:0:0:
64,192,115658,1,0,0:0:0:0:
192,192,115725,1,0,0:0:0:0:
64,192,115792,128,2,116194:0:0:0:0:
320,192,115792,1,0,0:0:0:0:
448,192,115792,128,0,115926:0:0:0:0:
320,192,116060,128,0,116194:0:0:0:0:
192,192,116328,128,8,116461:0:0:0:0:
320,192,116328,1,0,0:0:0:0:
448,192,116328,1,0,0:0:0:0:
64,192,116461,1,0,0:0:0:0:
448,192,116461,128,0,116729:0:0:0:0:
192,192,116595,1,0,0:0:0:0:
64,192,116729,128,2,116997:0:0:0:0:
192,192,116729,128,0,116997:0:0:0:0:
320,192,116729,1,0,0:0:0:0:
320,192,116997,1,0,0:0:0:0:
64,192,117131,1,2,0:0:0:0:
320,192,117131,128,0,117399:0:0:0:0:
448,192,117131,1,0,0:0:0:0:
64,192,117265,128,0,117399:0:0:0:0:
192,192,117399,1,0,0:0:0:0:
448,192,117399,1,0,0:0:0:0:
192,192,117533,128,0,117667:0:0:0:0:
64,192,117801,1,2,0:0:0:0:
320,192,117801,128,0,118069:0:0:0:0:
448,192,117801,128,0,118069:0:0:0:0:
192,192,118203,1,0,0:0:0:0:
64,192,118470,128,2,119006:0:0:0:0:
192,192,118470,1,0,0:0:0:50:soft-hitfinish.wav
320,192,118470,128,0,118872:0:0:0:0:
448,192,118470,128,0,118872:0:0:0:0:
192,192,119006,128,2,119542:0:0:0:0:
320,192,119006,1,0,0:0:0:0:
448,192,119006,128,0,119408:0:0:0:0:
64,192,119542,1,2,0:0:0:0:
320,192,119542,128,0,120078:0:0:0:0:
448,192,119542,1,0,0:0:0:0:
64,192,120078,1,0,0:0:0:0:
448,192,120078,1,0,0:0:0:0:
192,192,120345,1,0,0:0:0:0:
448,192,120479,1,0,0:0:0:0:
64,192,120613,1,0,0:0:0:0:
320,192,120881,1,0,0:0:0:0:
192,192,121149,1,0,0:0:0:0:
448,192,121283,1,0,0:0:0:0:
64,192,121417,1,0,0:0:0:0:
320,192,121685,1,0,0:0:0:0:
448,192,121685,1,0,0:0:0:0:
192,192,121953,1,0,0:0:0:0:
320,192,121953,1,0,0:0:0:0:
64,192,122220,1,0,0:0:0:0:
192,192,122220,1,0,0:0:0:0:
320,192,122488,1,0,0:0:0:0:
64,192,122622,1,0,0:0:0:0:
448,192,122756,1,0,0:0:0:0:
192,192,123024,1,0,0:0:0:0:
320,192,123292,1,0,0:0:0:0:
64,192,123426,1,0,0:0:0:0:
448,192,123560,1,0,0:0:0:0:
64,192,123828,1,0,0:0:0:0:
192,192,123828,1,0,0:0:0:0:
192,192,124095,1,0,0:0:0:0:
320,192,124095,1,0,0:0:0:0:
320,192,124363,1,0,0:0:0:0:
448,192,124363,1,0,0:0:0:0:
192,192,124631,1,0,0:0:0:0:
448,192,124765,1,0,0:0:0:0:
64,192,124899,1,0,0:0:0:0:
320,192,125167,1,0,0:0:0:0:
192,192,125435,1,0,0:0:0:0:
448,192,125569,1,0,0:0:0:0:
64,192,125703,1,0,0:0:0:0:
320,192,125970,1,0,0:0:0:0:
448,192,125970,1,0,0:0:0:0:
192,192,126238,1,0,0:0:0:0:
320,192,126238,1,0,0:0:0:0:
64,192,126506,1,0,0:0:0:0:
192,192,126506,1,0,0:0:0:0:
320,192,126774,1,0,0:0:0:0:
64,192,126908,1,0,0:0:0:0:
448,192,127042,1,0,0:0:0:0:
192,192,127310,1,0,0:0:0:0:
320,192,127578,1,0,0:0:0:0:
64,192,127711,1,0,0:0:0:0:
448,192,127845,1,0,0:0:0:0:
64,192,128113,1,0,0:0:0:0:
192,192,128113,1,0,0:0:0:0:
192,192,128381,1,0,0:0:0:0:
320,192,128381,1,0,0:0:0:0:
320,192,128649,1,0,0:0:0:0:
448,192,128649,1,0,0:0:0:0:
192,192,128917,1,0,0:0:0:0:
448,192,129051,1,0,0:0:0:0:
64,192,129185,1,0,0:0:0:0:
320,192,129453,1,0,0:0:0:0:
192,192,129720,1,0,0:0:0:0:
448,192,129854,1,0,0:0:0:0:
64,192,129988,1,0,0:0:0:0:
320,192,130256,1,0,0:0:0:0:
448,192,130256,1,0,0:0:0:0:
192,192,130524,1,0,0:0:0:0:
320,192,130524,1,0,0:0:0:0:
64,192,130792,1,0,0:0:0:0:
192,192,130792,1,0,0:0:0:0:
320,192,131060,1,0,0:0:0:0:
64,192,131194,1,0,0:0:0:0:
448,192,131328,1,0,0:0:0:0:
192,192,131595,1,0,0:0:0:0:
320,192,131863,1,0,0:0:0:0:
64,192,131997,1,0,0:0:0:0:
448,192,132131,1,0,0:0:0:0:
64,192,132399,1,0,0:0:0:0:
192,192,132399,1,0,0:0:0:0:
192,192,132667,1,0,0:0:0:0:
320,192,132667,1,0,0:0:0:0:
320,192,132935,1,0,0:0:0:0:
448,192,132935,1,0,0:0:0:0:
192,192,133203,1,0,0:0:0:0:
448,192,133336,1,0,0:0:0:0:
64,192,133470,1,0,0:0:0:0:
320,192,133738,1,0,0:0:0:0:
192,192,134006,1,0,0:0:0:0:
448,192,134140,1,0,0:0:0:0:
64,192,134274,1,0,0:0:0:0:
320,192,134542,1,0,0:0:0:0:
448,192,134542,1,0,0:0:0:0:
192,192,134810,1,0,0:0:0:0:
320,192,134810,1,0,0:0:0:0:
64,192,135078,1,0,0:0:0:0:
448,192,135078,128,0,136685:0:0:0:0:
