osu file format v14

[General]
AudioFilename: audio.mp3
AudioLeadIn: 0
PreviewTime: 16953
Countdown: 0
SampleSet: Soft
StackLeniency: 0.7
Mode: 3
LetterboxInBreaks: 0
SpecialStyle: 0
WidescreenStoryboard: 1

[Editor]
DistanceSpacing: 1
BeatDivisor: 4
GridSize: 32
TimelineZoom: 1.5

[Metadata]
Title:Constant Moderato
TitleUnicode:Constant Moderato
Artist:Mitsukiyo
ArtistUnicode:ミツキヨ
Creator:_Rokii
Version:Normal
Source:ブルーアーカイブ -Blue Archive-
Tags:blue archive ブルアカ blueaka opening theme op ost original sound track soundtrack yostar nat games instrumental video game electronic paran
BeatmapID:3659065
BeatmapSetID:1585962

[Difficulty]
HPDrainRate:7.5
CircleSize:4
OverallDifficulty:7
ApproachRate:5
SliderMultiplier:1.4
SliderTickRate:1

[Events]
//Background and Video events
0,0,"BG.jpg",0,0
//Break Periods
//Storyboard Layer 0 (Background)
//Storyboard Layer 1 (Fail)
//Storyboard Layer 2 (Pass)
//Storyboard Layer 3 (Foreground)
//Storyboard Layer 4 (Overlay)
//Storyboard Sound Samples
Sample,77756,0,"snare.wav",30
Sample,78292,0,"snare.wav",30
Sample,78828,0,"snare.wav",30
Sample,79899,0,"snare.wav",30
Sample,80435,0,"snare.wav",30
Sample,80970,0,"snare.wav",30
Sample,81774,0,"snare.wav",30
Sample,82310,0,"snare.wav",30
Sample,82845,0,"snare.wav",30
Sample,83113,0,"snare.wav",30
Sample,83381,0,"snare.wav",30

[TimingPoints]
78,535.714285714286,4,2,1,50,1,0
17220,-100.0,4,2,1,50,0,1
30078,-100.0,4,2,1,50,0,0
85792,-100.0,4,2,1,50,0,1
120078,-100.0,4,2,1,50,0,0

[HitObjects]
448,192,78,1,0,0:0:0:0:
192,192,479,128,0,881:0:0:0:0:
320,192,881,128,0,1149:0:0:0:0:
192,192,1149,1,0,0:0:0:0:
448,192,1685,1,0,0:0:0:0:
64,192,2220,1,0,0:0:0:0:
448,192,2622,128,0,3024:0:0:0:0:
192,192,3024,128,0,3292:0:0:0:0:
320,192,3292,1,0,0:0:0:0:
64,192,3828,1,0,0:0:0:0:
320,192,4363,1,0,0:0:0:0:
64,192,4765,128,0,5167:0:0:0:0:
448,192,5167,128,0,5435:0:0:0:0:
192,192,5435,1,0,0:0:0:0:
320,192,5970,1,0,0:0:0:0:
64,192,6506,1,0,0:0:0:0:
448,192,6908,128,0,7310:0:0:0:0:
192,192,7310,128,0,7578:0:0:0:0:
64,192,7578,1,0,0:0:0:0:
320,192,8113,1,0,0:0:0:0:
192,192,8649,1,0,0:0:0:0:
448,192,8917,1,0,0:0:0:0:
320,192,9185,1,0,0:0:0:0:
64,192,9453,1,0,0:0:0:0:
192,192,9720,1,0,0:0:0:0:
448,192,9988,1,0,0:0:0:0:
64,192,10256,1,0,0:0:0:0:
192,192,10390,1,0,0:0:0:0:
320,192,10524,1,0,0:0:0:0:
448,192,10792,1,0,0:0:0:0:
64,192,11060,1,0,0:0:0:0:
320,192,11328,1,0,0:0:0:0:
192,192,11595,1,0,0:0:0:0:
448,192,11863,1,0,0:0:0:0:
64,192,12131,1,0,0:0:0:0:
192,192,12399,1,0,0:0:0:0:
320,192,12533,1,0,0:0:0:0:
448,192,12667,1,0,0:0:0:0:
192,192,12935,1,0,0:0:0:0:
64,192,13203,1,0,0:0:0:0:
320,192,13470,1,0,0:0:0:0:
448,192,13738,1,0,0:0:0:0:
192,192,14006,1,0,0:0:0:0:
448,192,14274,1,0,0:0:0:0:
320,192,14542,1,0,0:0:0:0:
192,192,14676,1,0,0:0:0:0:
64,192,14810,1,0,0:0:0:0:
192,192,15078,1,0,0:0:0:0:
448,192,15078,1,0,0:0:0:0:
320,192,15479,128,0,15881:0:0:0:0:
192,192,15881,128,0,16149:0:0:0:0:
64,192,16149,1,0,0:0:0:0:
448,192,16149,1,0,0:0:0:0:
320,192,16417,1,0,0:0:0:0:
192,192,16551,1,0,0:0:0:0:
64,192,16685,1,0,0:0:0:0:
448,192,16953,1,0,0:0:0:0:
192,192,17220,1,2,0:0:0:0:
320,192,17220,1,0,0:0:0:50:soft-hitfinish.wav
64,192,17488,1,0,0:0:0:0:
192,192,17756,1,8,0:0:0:0:
448,192,17756,1,0,0:0:0:0:
320,192,18158,1,2,0:0:0:0:
320,192,18426,1,0,0:0:0:0:
64,192,18560,1,2,0:0:0:0:
320,192,18828,1,0,0:0:0:0:
192,192,18961,1,0,0:0:0:0:
448,192,19229,1,2,0:0:0:0:
320,192,19631,1,2,0:0:0:0:
64,192,19899,1,8,0:0:0:0:
448,192,19899,1,0,0:0:0:0:
192,192,20167,1,0,0:0:0:0:
320,192,20301,1,2,0:0:0:0:
448,192,20569,1,0,0:0:0:0:
192,192,20703,1,2,0:0:0:0:
64,192,20970,1,0,0:0:0:0:
320,192,21104,1,2,0:0:0:0:
192,192,21506,1,2,0:0:0:0:
448,192,21774,1,0,0:0:0:0:
64,192,22042,1,8,0:0:0:0:
320,192,22042,1,0,0:0:0:0:
192,192,22444,1,2,0:0:0:0:
448,192,22845,1,2,0:0:0:0:
64,192,22979,1,0,0:0:0:0:
320,192,23247,1,0,0:0:0:0:
192,192,23515,1,2,0:0:0:0:
64,192,23917,1,2,0:0:0:0:
192,192,24185,1,8,0:0:0:0:
448,192,24185,1,0,0:0:0:0:
320,192,24453,1,0,0:0:0:0:
64,192,24586,1,2,0:0:0:0:
192,192,24854,1,0,0:0:0:0:
448,192,24988,1,2,0:0:0:0:
64,192,25256,1,0,0:0:0:0:
320,192,25390,1,2,0:0:0:0:
448,192,25792,1,2,0:0:0:0:
64,192,26060,1,0,0:0:0:0:
192,192,26328,1,8,0:0:0:0:
320,192,26328,1,0,0:0:0:0:
448,192,26729,1,2,0:0:0:0:
64,192,27131,1,2,0:0:0:0:
320,192,27399,1,0,0:0:0:0:
192,192,27533,1,0,0:0:0:0:
448,192,27801,1,2,0:0:0:0:
320,192,28203,1,2,0:0:0:0:
64,192,28470,1,8,0:0:0:0:
192,192,28470,1,0,0:0:0:0:
320,192,28738,1,0,0:0:0:0:
448,192,28872,1,2,0:0:0:0:
64,192,29140,1,0,0:0:0:0:
192,192,29274,1,2,0:0:0:0:
320,192,29542,128,0,30078:0:0:0:0:
64,192,30078,1,2,0:0:0:0:
448,192,30078,1,0,0:0:0:0:
320,192,30613,1,0,0:0:0:0:
64,192,31149,1,0,0:0:0:0:
320,192,31417,128,0,31953:0:0:0:0:
64,192,32220,128,0,32488:0:0:0:0:
448,192,32488,128,0,32756:0:0:0:0:
192,192,32756,128,0,33024:0:0:0:0:
320,192,33024,128,0,33292:0:0:0:0:
64,192,33292,1,0,0:0:0:0:
192,192,33560,1,0,0:0:0:0:
320,192,33828,1,0,0:0:0:0:
448,192,33828,1,0,0:0:0:0:
64,192,34095,1,0,0:0:0:0:
192,192,34363,1,2,0:0:0:0:
448,192,34363,1,0,0:0:0:50:soft-hitfinish.wav
320,192,34631,1,0,0:0:0:0:
64,192,34899,1,8,0:0:0:0:
192,192,34899,1,0,0:0:0:0:
320,192,35167,1,0,0:0:0:0:
448,192,35301,1,2,0:0:0:0:
64,192,35569,1,0,0:0:0:0:
192,192,35703,1,2,0:0:0:0:
448,192,35970,1,0,0:0:0:0:
320,192,36238,1,0,0:0:0:0:
64,192,36506,1,2,0:0:0:0:
192,192,36774,1,0,0:0:0:50:rim.wav
64,192,37042,1,8,0:0:0:0:
448,192,37042,1,0,0:0:0:0:
192,192,37310,1,0,0:0:0:0:
320,192,37444,1,2,0:0:0:0:
64,192,37711,1,0,0:0:0:0:
192,192,37845,1,2,0:0:0:0:
448,192,38113,1,8,0:0:0:0:
192,192,38381,1,0,0:0:0:0:
320,192,38649,1,2,0:0:0:0:
64,192,38917,1,0,0:0:0:0:
192,192,39185,1,8,0:0:0:0:
448,192,39185,1,0,0:0:0:0:
64,192,39453,1,0,0:0:0:0:
320,192,39586,1,2,0:0:0:0:
448,192,39854,1,0,0:0:0:0:
192,192,39988,1,2,0:0:0:0:
64,192,40256,1,0,0:0:0:0:
320,192,40524,1,0,0:0:0:0:
448,192,40792,1,2,0:0:0:0:
64,192,41060,1,0,0:0:0:50:rim.wav
192,192,41328,1,8,0:0:0:0:
448,192,41328,1,0,0:0:0:0:
320,192,41595,1,0,0:0:0:0:
64,192,41729,1,2,0:0:0:0:
448,192,41997,1,0,0:0:0:0:
192,192,42131,1,2,0:0:0:0:
320,192,42399,1,8,0:0:0:0:
64,192,42667,1,0,0:0:0:0:
448,192,42935,1,2,0:0:0:0:
192,192,43203,1,0,0:0:0:0:
320,192,43470,1,8,0:0:0:0:
448,192,43470,1,0,0:0:0:0:
64,192,43738,1,0,0:0:0:0:
320,192,43872,1,2,0:0:0:0:
448,192,44140,1,0,0:0:0:0:
192,192,44274,1,2,0:0:0:0:
320,192,44542,1,0,0:0:0:0:
192,192,44810,1,0,0:0:0:0:
64,192,45078,1,2,0:0:0:0:
320,192,45345,1,0,0:0:0:50:rim.wav
64,192,45613,1,8,0:0:0:0:
192,192,45613,1,0,0:0:0:0:
448,192,45881,1,0,0:0:0:0:
320,192,46015,1,2,0:0:0:0:
64,192,46283,1,0,0:0:0:0:
192,192,46417,1,2,0:0:0:0:
448,192,46685,1,8,0:0:0:0:
192,192,46953,1,0,0:0:0:0:
64,192,47220,1,2,0:0:0:0:
320,192,47488,1,0,0:0:0:0:
64,192,47756,1,8,0:0:0:0:
192,192,47756,1,0,0:0:0:0:
448,192,48024,1,0,0:0:0:0:
320,192,48158,1,2,0:0:0:0:
64,192,48426,1,0,0:0:0:0:
192,192,48560,1,2,0:0:0:0:
448,192,48828,1,0,0:0:0:0:
320,192,49095,1,0,0:0:0:0:
64,192,49363,1,2,0:0:0:0:
192,192,49631,1,0,0:0:0:50:rim.wav
320,192,49899,1,8,0:0:0:0:
448,192,49899,1,0,0:0:0:0:
64,192,50167,1,0,0:0:0:0:
192,192,50301,1,2,0:0:0:0:
448,192,50569,1,0,0:0:0:0:
320,192,50703,1,2,0:0:0:0:
64,192,50970,1,8,0:0:0:0:
192,192,51104,1,0,0:0:0:0:
320,192,51238,1,0,0:0:0:0:
64,192,51506,1,0,0:0:0:0:
192,192,51774,1,0,0:0:0:0:
320,192,52042,1,8,0:0:0:0:
448,192,52042,1,0,0:0:0:0:
64,192,52310,1,0,0:0:0:0:
192,192,52444,1,2,0:0:0:0:
448,192,52711,1,0,0:0:0:0:
320,192,52845,1,2,0:0:0:0:
64,192,53113,1,0,0:0:0:0:
192,192,53381,1,0,0:0:0:0:
448,192,53649,1,2,0:0:0:0:
64,192,53917,1,0,0:0:0:50:rim.wav
192,192,54185,1,8,0:0:0:0:
448,192,54185,1,0,0:0:0:0:
320,192,54453,1,0,0:0:0:0:
64,192,54586,1,2,0:0:0:0:
192,192,54854,1,0,0:0:0:0:
448,192,54988,1,2,0:0:0:0:
64,192,55256,1,8,0:0:0:0:
320,192,55256,1,0,0:0:0:0:
192,192,55524,1,0,0:0:0:0:
448,192,55792,1,2,0:0:0:0:
320,192,56060,1,0,0:0:0:0:
64,192,56328,1,8,0:0:0:0:
192,192,56328,1,0,0:0:0:0:
320,192,56595,1,0,0:0:0:0:
64,192,56729,1,2,0:0:0:0:
192,192,56997,1,0,0:0:0:0:
448,192,57131,1,2,0:0:0:0:
64,192,57399,1,0,0:0:0:0:
192,192,57667,1,0,0:0:0:0:
448,192,57935,1,2,0:0:0:0:
64,192,58203,1,0,0:0:0:50:rim.wav
192,192,58470,1,8,0:0:0:0:
320,192,58470,1,0,0:0:0:0:
448,192,58738,1,0,0:0:0:0:
64,192,58872,1,2,0:0:0:0:
192,192,59140,1,0,0:0:0:0:
320,192,59274,1,2,0:0:0:0:
64,192,59542,1,8,0:0:0:0:
192,192,59676,1,2,0:0:0:0:
320,192,59810,1,0,0:0:0:0:
64,192,60078,1,2,0:0:0:0:
192,192,60345,1,0,0:0:0:0:
320,192,60613,1,8,0:0:0:0:
448,192,60613,1,0,0:0:0:0:
64,192,60881,1,0,0:0:0:0:
192,192,61015,1,2,0:0:0:0:
448,192,61283,1,0,0:0:0:0:
320,192,61417,1,2,0:0:0:0:
64,192,61685,1,0,0:0:0:0:
192,192,61953,1,0,0:0:0:0:
320,192,62220,1,2,0:0:0:0:
64,192,62488,1,0,0:0:0:50:rim.wav
192,192,62756,1,8,0:0:0:0:
448,192,62756,1,0,0:0:0:0:
320,192,63024,1,0,0:0:0:0:
64,192,63158,1,2,0:0:0:0:
192,192,63426,1,0,0:0:0:0:
448,192,63560,1,2,0:0:0:0:
64,192,63828,1,8,0:0:0:0:
192,192,63961,1,2,0:0:0:0:
320,192,64095,1,0,0:0:0:0:
64,192,64363,1,2,0:0:0:0:
448,192,64363,1,0,0:0:0:0:
192,192,64631,1,0,0:0:0:0:
320,192,64899,1,8,0:0:0:0:
448,192,64899,1,0,0:0:0:0:
64,192,65167,1,0,0:0:0:0:
192,192,65301,1,2,0:0:0:0:
448,192,65569,1,0,0:0:0:0:
320,192,65703,1,2,0:0:0:0:
64,192,65970,1,0,0:0:0:0:
192,192,66238,1,0,0:0:0:0:
320,192,66506,1,2,0:0:0:0:
448,192,66506,1,0,0:0:0:0:
64,192,66774,1,0,0:0:0:50:rim.wav
192,192,67042,1,8,0:0:0:0:
448,192,67042,1,0,0:0:0:0:
320,192,67310,1,0,0:0:0:0:
192,192,67444,1,2,0:0:0:0:
64,192,67711,1,0,0:0:0:0:
448,192,67845,1,2,0:0:0:0:
64,192,68113,1,8,0:0:0:0:
192,192,68247,1,2,0:0:0:0:
320,192,68381,1,0,0:0:0:0:
64,192,68649,1,0,0:0:0:0:
448,192,68649,1,0,0:0:0:0:
64,192,69453,1,0,0:0:0:0:
192,192,69453,1,0,0:0:0:0:
64,192,70792,1,0,0:0:0:0:
320,192,70792,1,0,0:0:0:0:
192,192,71595,1,0,0:0:0:0:
448,192,71595,1,0,0:0:0:0:
192,192,72935,1,0,0:0:0:0:
448,192,72935,1,0,0:0:0:0:
64,192,73738,1,0,0:0:0:0:
320,192,73738,1,0,0:0:0:0:
64,192,75078,1,0,0:0:0:0:
192,192,75078,1,0,0:0:0:0:
320,192,75881,1,0,0:0:0:0:
448,192,75881,1,0,0:0:0:0:
320,192,76417,1,0,0:0:0:0:
192,192,76551,1,0,0:0:0:0:
64,192,76685,1,0,0:0:0:0:
320,192,76953,1,0,0:0:0:0:
64,192,77220,1,2,0:0:0:0:
192,192,77220,1,0,0:0:0:30:snare.wav
448,192,77488,1,0,0:0:0:0:
320,192,77622,1,0,0:0:0:0:
192,192,77756,1,2,0:0:0:0:
64,192,78024,1,0,0:0:0:0:
320,192,78292,1,2,0:0:0:0:
192,192,78426,1,0,0:0:0:0:
448,192,78560,1,0,0:0:0:0:
320,192,78694,1,0,0:0:0:0:
192,192,78828,1,2,0:0:0:0:
448,192,79095,1,0,0:0:0:0:
192,192,79363,1,2,0:0:0:0:
320,192,79363,1,0,0:0:0:30:snare.wav
64,192,79631,1,0,0:0:0:0:
192,192,79765,1,0,0:0:0:0:
320,192,79899,1,2,0:0:0:0:
64,192,80167,1,0,0:0:0:0:
320,192,80435,1,2,0:0:0:0:
192,192,80569,1,0,0:0:0:0:
448,192,80703,1,0,0:0:0:0:
320,192,80836,1,0,0:0:0:0:
192,192,80970,1,2,0:0:0:0:
64,192,81238,1,0,0:0:0:0:
320,192,81506,1,2,0:0:0:0:
448,192,81506,1,0,0:0:0:30:snare.wav
320,192,81774,1,2,0:0:0:0:
64,192,82042,1,2,0:0:0:0:
192,192,82042,1,0,0:0:0:30:snare.wav
192,192,82310,1,2,0:0:0:0:
64,192,82578,1,2,0:0:0:0:
448,192,82578,1,0,0:0:0:30:snare.wav
448,192,82845,1,2,0:0:0:0:
64,192,83113,1,2,0:0:0:0:
192,192,83247,1,2,0:0:0:0:
320,192,83381,1,2,0:0:0:0:
64,192,83515,1,2,0:0:0:0:
192,192,83649,1,0,0:0:0:0:
64,192,83917,1,2,0:0:0:0:
320,192,83917,1,0,0:0:0:50:soft-hitfinish.wav
448,192,84185,1,0,0:0:0:0:
64,192,84453,1,0,0:0:0:0:
320,192,84586,1,0,0:0:0:0:
448,192,84854,1,0,0:0:0:0:
320,192,84988,1,0,0:0:0:0:
192,192,85122,1,0,0:0:0:0:
64,192,85256,1,0,0:0:0:0:
448,192,85524,128,0,85792:0:0:0:0:
64,192,85792,1,2,0:0:0:0:
320,192,85792,1,0,0:0:0:50:soft-hitfinish.wav
192,192,86060,1,0,0:0:0:0:
320,192,86328,128,8,86595:0:0:0:0:
448,192,86328,1,0,0:0:0:0:
64,192,86729,128,2,86997:0:0:0:0:
448,192,87131,128,2,87399:0:0:0:0:
192,192,87399,1,0,0:0:0:0:
64,192,87533,1,0,0:0:0:0:
320,192,87801,128,2,88069:0:0:0:0:
192,192,88203,128,2,88470:0:0:0:0:
64,192,88470,1,8,0:0:0:0:
448,192,88738,1,0,0:0:0:0:
320,192,88872,1,2,0:0:0:0:
192,192,89140,1,0,0:0:0:0:
64,192,89274,1,2,0:0:0:0:
448,192,89542,1,0,0:0:0:0:
320,192,89676,1,2,0:0:0:0:
192,192,90078,1,2,0:0:0:0:
448,192,90345,1,0,0:0:0:0:
64,192,90613,128,8,90881:0:0:0:0:
320,192,90613,1,0,0:0:0:0:
448,192,91015,128,2,91283:0:0:0:0:
320,192,91417,1,2,0:0:0:0:
192,192,91551,1,0,0:0:0:0:
64,192,91819,1,0,0:0:0:0:
320,192,92086,1,2,0:0:0:0:
448,192,92488,1,2,0:0:0:0:
64,192,92756,1,8,0:0:0:0:
192,192,92756,1,0,0:0:0:0:
320,192,93024,1,0,0:0:0:0:
448,192,93158,1,2,0:0:0:0:
64,192,93426,1,0,0:0:0:0:
192,192,93560,1,2,0:0:0:0:
448,192,93828,1,0,0:0:0:0:
320,192,93961,1,2,0:0:0:0:
64,192,94363,1,2,0:0:0:0:
448,192,94363,1,0,0:0:0:50:soft-hitfinish.wav
192,192,94631,1,0,0:0:0:0:
320,192,94899,128,8,95167:0:0:0:0:
448,192,94899,1,0,0:0:0:0:
64,192,95301,128,2,95569:0:0:0:0:
448,192,95703,128,2,95970:0:0:0:0:
192,192,95970,1,0,0:0:0:0:
64,192,96104,1,0,0:0:0:0:
320,192,96372,128,2,96640:0:0:0:0:
192,192,96774,128,2,97042:0:0:0:0:
448,192,97042,1,8,0:0:0:0:
192,192,97310,1,0,0:0:0:0:
64,192,97444,1,2,0:0:0:0:
320,192,97711,1,0,0:0:0:0:
448,192,97845,1,2,0:0:0:0:
64,192,98113,1,0,0:0:0:0:
192,192,98247,1,2,0:0:0:0:
448,192,98649,1,2,0:0:0:0:
320,192,98917,1,0,0:0:0:0:
64,192,99185,1,8,0:0:0:0:
192,192,99185,1,0,0:0:0:0:
448,192,99586,128,2,99854:0:0:0:0:
192,192,99988,1,2,0:0:0:0:
320,192,100122,1,0,0:0:0:0:
64,192,100390,1,0,0:0:0:0:
320,192,100658,1,2,0:0:0:0:
192,192,101060,1,2,0:0:0:0:
64,192,101328,1,8,0:0:0:0:
448,192,101328,1,0,0:0:0:0:
192,192,101595,1,0,0:0:0:0:
320,192,101729,1,2,0:0:0:0:
64,192,102131,1,2,0:0:0:0:
192,192,102265,1,0,0:0:0:0:
448,192,102399,1,0,0:0:0:0:
320,192,102533,1,2,0:0:0:0:
64,192,102935,1,2,0:0:0:0:
448,192,102935,1,0,0:0:0:50:soft-hitfinish.wav
320,192,103203,1,0,0:0:0:0:
64,192,103470,128,8,103738:0:0:0:0:
192,192,103470,1,0,0:0:0:0:
448,192,103872,128,2,104140:0:0:0:0:
192,192,104274,128,2,104542:0:0:0:0:
320,192,104542,1,0,0:0:0:0:
448,192,104676,1,0,0:0:0:0:
64,192,104944,128,2,105211:0:0:0:0:
192,192,105345,128,2,105613:0:0:0:0:
448,192,105613,1,8,0:0:0:0:
192,192,105881,1,0,0:0:0:0:
320,192,106015,1,2,0:0:0:0:
448,192,106283,1,0,0:0:0:0:
64,192,106417,1,2,0:0:0:0:
320,192,106685,1,0,0:0:0:0:
192,192,106819,1,2,0:0:0:0:
448,192,107220,1,2,0:0:0:0:
320,192,107488,1,0,0:0:0:0:
64,192,107756,128,8,108024:0:0:0:0:
192,192,107756,1,0,0:0:0:0:
448,192,108158,128,2,108426:0:0:0:0:
192,192,108560,1,2,0:0:0:0:
64,192,108694,1,0,0:0:0:0:
448,192,108961,1,0,0:0:0:0:
320,192,109229,1,2,0:0:0:0:
64,192,109631,1,2,0:0:0:0:
192,192,109899,1,8,0:0:0:0:
320,192,109899,1,0,0:0:0:0:
448,192,110167,1,0,0:0:0:0:
192,192,110301,1,2,0:0:0:0:
320,192,110569,1,0,0:0:0:0:
64,192,110703,1,2,0:0:0:0:
192,192,110970,1,0,0:0:0:0:
448,192,111104,1,2,0:0:0:0:
64,192,111506,1,2,0:0:0:0:
192,192,111506,1,0,0:0:0:50:soft-hitfinish.wav
320,192,111774,1,0,0:0:0:0:
192,192,112042,1,8,0:0:0:0:
448,192,112042,128,0,112310:0:0:0:0:
64,192,112444,128,2,112711:0:0:0:0:
320,192,112845,128,2,113113:0:0:0:0:
192,192,113113,1,0,0:0:0:0:
64,192,113247,1,0,0:0:0:0:
448,192,113515,128,2,113783:0:0:0:0:
64,192,113917,128,2,114185:0:0:0:0:
448,192,114185,1,8,0:0:0:0:
192,192,114453,1,0,0:0:0:0:
320,192,114586,1,2,0:0:0:0:
64,192,114854,1,0,0:0:0:0:
448,192,114988,1,2,0:0:0:0:
320,192,115256,1,0,0:0:0:0:
192,192,115390,1,2,0:0:0:0:
448,192,115792,1,2,0:0:0:0:
320,192,116060,1,0,0:0:0:0:
64,192,116328,1,8,0:0:0:0:
192,192,116328,128,0,116595:0:0:0:0:
448,192,116729,128,2,116997:0:0:0:0:
320,192,117131,1,2,0:0:0:0:
64,192,117265,1,0,0:0:0:0:
192,192,117533,1,0,0:0:0:0:
448,192,117801,1,2,0:0:0:0:
64,192,118470,128,2,119006:0:0:0:0:
192,192,118470,1,0,0:0:0:50:soft-hitfinish.wav
320,192,119006,128,2,119542:0:0:0:0:
448,192,119542,128,2,120078:0:0:0:0:
192,192,120078,1,0,0:0:0:0:
320,192,120345,1,0,0:0:0:0:
64,192,120613,1,0,0:0:0:0:
448,192,120881,1,0,0:0:0:0:
192,192,121149,1,0,0:0:0:0:
320,192,121417,1,0,0:0:0:0:
64,192,121685,1,0,0:0:0:0:
320,192,122220,1,0,0:0:0:0:
192,192,122488,1,0,0:0:0:0:
448,192,122756,1,0,0:0:0:0:
64,192,123024,1,0,0:0:0:0:
320,192,123292,1,0,0:0:0:0:
192,192,123560,1,0,0:0:0:0:
448,192,123828,1,0,0:0:0:0:
192,192,124363,1,0,0:0:0:0:
448,192,124631,1,0,0:0:0:0:
64,192,124899,1,0,0:0:0:0:
320,192,125167,1,0,0:0:0:0:
192,192,125435,1,0,0:0:0:0:
448,192,125703,1,0,0:0:0:0:
64,192,125970,1,0,0:0:0:0:
320,192,126506,1,0,0:0:0:0:
192,192,126774,1,0,0:0:0:0:
448,192,127042,1,0,0:0:0:0:
64,192,127310,1,0,0:0:0:0:
320,192,127578,1,0,0:0:0:0:
192,192,127845,1,0,0:0:0:0:
64,192,128113,1,0,0:0:0:0:
320,192,128649,1,0,0:0:0:0:
192,192,128917,1,0,0:0:0:0:
64,192,129185,1,0,0:0:0:0:
448,192,129453,1,0,0:0:0:0:
320,192,129720,1,0,0:0:0:0:
64,192,129988,1,0,0:0:0:0:
192,192,130256,1,0,0:0:0:0:
320,192,130792,1,0,0:0:0:0:
192,192,131060,1,0,0:0:0:0:
448,192,131328,1,0,0:0:0:0:
64,192,131595,1,0,0:0:0:0:
320,192,131863,1,0,0:0:0:0:
192,192,132131,1,0,0:0:0:0:
448,192,132399,1,0,0:0:0:0:
64,192,132935,1,0,0:0:0:0:
192,192,133203,1,0,0:0:0:0:
448,192,133470,1,0,0:0:0:0:
320,192,133738,1,0,0:0:0:0:
64,192,134006,1,0,0:0:0:0:
192,192,134274,1,0,0:0:0:0:
320,192,134542,1,0,0:0:0:0:
448,192,134810,1,0,0:0:0:0:
64,192,135078,128,0,136685:0:0:0:0:
