osu file format v14

[General]
AudioFilename: audio.ogg
AudioLeadIn: 0
PreviewTime: 68460
Countdown: 0
SampleSet: Normal
StackLeniency: 0.7
Mode: 1
LetterboxInBreaks: 0
WidescreenStoryboard: 0

[Editor]
DistanceSpacing: 1
BeatDivisor: 4
GridSize: 32
TimelineZoom: 2.699999

[Metadata]
Title:Bunny Bunny Carrot Carrot
TitleUnicode:Bunny Bunny Carrot Carrot
Artist:Mitsukiyo
ArtistUnicode:ミツキヨ
Creator:komasy
Version:Inner Inner Oni Oni
Source:ブルーアーカイブ -Blue Archive-
Tags:Instrumental Future Bass Electronic Video Game Original Sound Track OST Vol.2 Searching for the unknown truth ブルアカ BuruAka Buru Aka Yoster NAT Games 船上のバニーチェイサー Bunny Chaser Aboard Theme 94
BeatmapID:4294234
BeatmapSetID:2055099

[Difficulty]
HPDrainRate:6
CircleSize:7
OverallDifficulty:6
ApproachRate:10
SliderMultiplier:1.4
SliderTickRate:1

[Events]
//Background and Video events
0,0,"110020211_p0.jpg",0,0
//Break Periods
//Storyboard Layer 0 (Background)
//Storyboard Layer 1 (Fail)
//Storyboard Layer 2 (Pass)
//Storyboard Layer 3 (Foreground)
//Storyboard Layer 4 (Overlay)
//Storyboard Sound Samples

[TimingPoints]
784,352.941176470588,4,1,0,50,1,0
784,-111.111111111111,4,1,0,50,0,0
11350,-111.111111111111,4,1,0,50,0,0
11526,-108.116385911179,4,1,0,50,0,0
11703,-105.263157894737,4,1,0,50,0,0
11747,-104.577099688935,4,1,0,50,0,0
11879,-102.571553101845,4,1,0,50,0,0
11923,-101.920023098022,4,1,0,50,0,0
12056,-100,4,1,0,80,0,0
17703,-100,4,1,0,80,0,0
17761,-99.319887429644,4,1,0,80,0,0
17820,-98.63747525329,4,1,0,80,0,0
17879,-97.964376590331,4,1,0,80,0,0
17967,-96.977329974811,4,1,0,80,0,0
18056,-95.99909327893,4,1,0,80,0,0
18232,-94.121569063229,4,1,0,80,0,0
18320,-93.210080334544,4,1,0,80,0,0
18408,-92.316076294278,4,1,0,80,0,0
18585,-90.568862275449,4,1,0,80,0,0
18644,-90.001062586335,4,1,0,80,0,0
18703,-89.440337909187,4,1,0,80,0,0
18761,-88.895885810243,4,1,0,80,0,0
18850,-88.073203701778,4,1,0,80,0,0
18938,-87.274600721278,4,1,0,80,0,0
19026,-86.490350250179,4,1,0,80,0,0
19114,-85.720068818945,4,1,0,80,0,0
19291,-84.211572877312,4,1,0,80,0,0
19379,-83.48117484723,4,1,0,80,0,0
19467,-82.763337893297,4,1,0,80,0,0
19644,-81.356257804246,4,1,0,80,0,0
19820,-80.00377821857,4,1,0,80,0,0
19908,-79.344262295082,4,1,0,80,0,0
19997,-78.688219992568,4,1,0,80,0,0
20085,-78.050129008478,4,1,0,80,0,0
20173,-77.422303473492,4,1,0,80,0,0
20261,-76.804497642365,4,1,0,80,0,0
20350,-76.189619501664,4,1,0,80,0,0
20526,-75.002213760737,4,1,0,80,0,0
20585,-74.612403100775,4,1,0,80,0,0
20644,-74.226623433529,4,1,0,80,0,0
20703,-73.84481255449,4,1,0,80,0,0
20791,-73.282574839938,4,1,0,80,0,0
20879,-72.728833934398,4,1,0,80,0,0
20967,-72.18339867053,4,1,0,80,0,0
21056,-71.640023682652,4,1,0,80,0,0
21144,-71.110737973302,4,1,0,80,0,0
21232,-70.589215767981,4,1,0,80,0,0
21291,-70.243821529275,4,1,0,80,0,0
21350,-69.901790872328,4,1,0,80,0,0
21408,-69.568788501027,4,1,0,80,0,0
21497,-69.063926940639,4,1,0,80,0,0
21585,-68.57189119171,4,1,0,80,0,0
21673,-68.086816720257,4,1,0,80,0,0
21761,-67.608556832695,4,1,0,80,0,0
21850,-67.131647776809,4,1,0,80,0,0
21938,-66.666666666667,4,1,0,70,0,0
22114,-69.758250444635,4,1,0,70,0,0
22291,-73.170731707317,4,1,0,70,0,0
22467,-76.911903551456,4,1,0,70,0,0
22556,-78.953254305524,4,1,0,70,0,0
22644,-81.081081081081,4,1,0,70,0,0
22732,-83.32677630026,4,1,0,70,0,0
22820,-85.700412721534,4,1,0,70,0,0
22908,-88.213244481466,4,1,0,70,0,0
22997,-90.9090909090909,4,1,0,70,0,0
23328,-86.95652173913,4,1,0,90,0,0
23372,-86.95652173913,4,1,0,90,0,1
34313,-86.95652173913,4,1,0,90,0,0
34666,-86.95652173913,4,1,0,90,0,1
44879,-86.95652173913,4,1,0,90,0,1
45056,-88.883293465945,4,1,0,90,0,1
45144,-89.890501655208,4,1,0,90,0,1
45232,-90.909090909091,4,1,0,90,0,1
45320,-91.95102891378,4,1,0,90,0,1
45408,-93.017127799736,4,1,0,90,0,1
45497,-94.120783895481,4,1,0,90,0,1
45585,-95.238095238095,4,1,0,90,0,1
45673,-96.382252559727,4,1,0,90,0,1
45761,-97.554235180323,4,1,0,90,0,1
45938,-100,4,1,0,60,0,1
45960,-100,4,1,0,60,0,0
46114,-104.46624936559,4,1,0,60,0,0
46291,-109.379151536622,4,1,0,60,0,0
46467,-114.744959583759,4,1,0,60,0,0
46644,-120.699765441751,4,1,0,60,0,0
46820,-127.267106347898,4,1,0,60,0,0
46997,-134.634252698136,4,1,0,60,0,0
47173,-142.857142857143,4,1,0,60,0,0
47350,-100,4,1,0,60,0,0
47526,-104.425511773755,4,1,0,60,0,0
47703,-109.289617486339,4,1,0,60,0,0
47879,-114.597367182301,4,1,0,60,0,0
48056,-120.481927710843,4,1,0,60,0,0
48232,-114.621100037394,4,1,0,60,0,0
48408,-109.304020217368,4,1,0,60,0,0
48585,-104.432067310541,4,1,0,60,0,0
48761,-100,4,1,0,60,0,0
48937,-104.46624936559,4,1,0,60,0,0
49114,-109.379151536622,4,1,0,60,0,0
49290,-114.744959583759,4,1,0,60,0,0
49467,-120.699765441751,4,1,0,60,0,0
49643,-127.267106347898,4,1,0,60,0,0
49820,-134.634252698136,4,1,0,60,0,0
49996,-142.857142857143,4,1,0,60,0,0
50173,-100,4,1,0,60,0,0
50349,-104.425511773755,4,1,0,60,0,0
50526,-109.289617486339,4,1,0,60,0,0
50702,-114.597367182301,4,1,0,60,0,0
50879,-120.481927710843,4,1,0,60,0,0
51055,-114.621100037394,4,1,0,60,0,0
51231,-109.304020217368,4,1,0,60,0,0
51408,-104.432067310541,4,1,0,60,0,0
51585,-100,4,1,0,60,0,0
51761,-104.46624936559,4,1,0,60,0,0
51938,-109.379151536622,4,1,0,60,0,0
52114,-114.744959583759,4,1,0,60,0,0
52291,-120.699765441751,4,1,0,60,0,0
52467,-127.267106347898,4,1,0,60,0,0
52644,-134.634252698136,4,1,0,60,0,0
52820,-142.857142857143,4,1,0,60,0,0
52997,-100,4,1,0,60,0,0
53173,-104.425511773755,4,1,0,60,0,0
53350,-109.289617486339,4,1,0,60,0,0
53526,-114.597367182301,4,1,0,60,0,0
53703,-120.481927710843,4,1,0,60,0,0
53879,-114.621100037394,4,1,0,60,0,0
54055,-109.304020217368,4,1,0,60,0,0
54232,-104.432067310541,4,1,0,60,0,0
54408,-100,4,1,0,60,0,0
54584,-104.46624936559,4,1,0,60,0,0
54761,-109.379151536622,4,1,0,60,0,0
54937,-114.744959583759,4,1,0,60,0,0
55114,-120.699765441751,4,1,0,60,0,0
55290,-127.267106347898,4,1,0,60,0,0
55467,-134.634252698136,4,1,0,60,0,0
55643,-142.857142857143,4,1,0,60,0,0
55820,-100,4,1,0,60,0,0
55996,-104.425511773755,4,1,0,60,0,0
56173,-109.289617486339,4,1,0,60,0,0
56349,-114.597367182301,4,1,0,60,0,0
56526,-120.481927710843,4,1,0,60,0,0
56614,-117.482610576763,4,1,0,60,0,0
56703,-114.597367182301,4,1,0,60,0,0
56791,-111.880576200815,4,1,0,60,0,0
56879,-109.289617486339,4,1,0,60,0,0
57056,-104.425511773755,4,1,0,60,0,0
57232,-100,4,1,0,70,0,0
62879,-100,4,1,0,70,0,0
63144,-96.966227819118,4,1,0,70,0,0
63232,-95.99909327893,4,1,0,70,0,0
63408,-94.111111111111,4,1,0,70,0,0
63585,-92.306015693112,4,1,0,70,0,0
63673,-91.429188255613,4,1,0,70,0,0
63850,-89.715072555873,4,1,0,70,0,0
63938,-88.88655682653,4,1,0,70,0,0
64114,-87.274600721278,4,1,0,70,0,0
64291,-85.711394454564,4,1,0,70,0,0
64467,-84.211572877312,4,1,0,70,0,0
64556,-83.472947669262,4,1,0,70,0,0
64644,-82.755251587689,4,1,0,70,0,0
64820,-81.356257804246,4,1,0,70,0,0
64997,-79.99622213827,4,1,0,70,0,0
65085,-79.336830273511,4,1,0,70,0,0
65261,-78.050129008478,4,1,0,70,0,0
65350,-77.415227127319,4,1,0,70,0,0
65526,-76.189619501664,4,1,0,70,0,0
65703,-74.995572870551,4,1,0,70,0,0
65791,-74.415744157442,4,1,0,70,0,0
65879,-73.84481255449,4,1,0,70,0,0
65967,-73.282574839938,4,1,0,70,0,0
66056,-72.722589508028,4,1,0,70,0,0
66144,-72.177247550064,4,1,0,70,0,0
66232,-71.640023682652,4,1,0,70,0,0
66320,-71.110737973302,4,1,0,70,0,0
66408,-70.583333333333,4,1,0,70,0,0
66497,-70.069490403706,4,1,0,70,0,0
66585,-69.563074901445,4,1,0,70,0,0
66673,-69.063926940639,4,1,0,70,0,0
66761,-68.57189119171,4,1,0,70,0,0
66850,-68.081343943413,4,1,0,70,0,0
66938,-67.603160667252,4,1,0,70,0,0
67026,-67.131647776809,4,1,0,70,0,0
67114,-66.666666666667,4,1,0,70,0,0
67291,-69.776635698755,4,1,0,70,0,0
67467,-73.170731707317,4,1,0,70,0,0
67644,-76.934253541591,4,1,0,70,0,0
67732,-78.953254305524,4,1,0,70,0,0
67820,-81.081081081081,4,1,0,70,0,0
67908,-83.32677630026,4,1,0,70,0,0
67997,-85.728163199223,4,1,0,70,0,0
68085,-88.242646446129,4,1,0,70,0,0
68173,-90.909090909091,4,1,0,70,0,0
68460,-83.333333333333,4,1,0,90,0,0
68548,-83.333333333333,4,1,0,90,0,1
79489,-83.333333333333,4,1,0,90,0,0
79798,-80,4,1,0,90,0,0
79842,-80,4,1,0,90,0,1
88225,-80,4,1,0,60,0,1
89019,-80,4,1,0,40,0,1
89725,-80,4,1,0,20,0,1
91048,-80,4,1,0,50,0,1
91136,-111.111111111111,4,1,0,50,0,0
112048,-111.111111111111,4,1,0,20,0,0
113019,-111.111111111111,4,1,0,10,0,0
113725,-111.111111111111,4,1,0,5,0,0

[HitObjects]
160,288,784,5,4,0:0:0:0:
352,96,1136,5,8,0:0:0:0:
160,96,1489,5,0,0:0:0:0:
352,96,1666,5,8,0:0:0:0:
352,96,1842,5,8,0:0:0:0:
160,96,2019,5,0,0:0:0:0:
352,96,2372,5,8,0:0:0:0:
352,96,2460,5,8,0:0:0:0:
352,96,2548,5,8,0:0:0:0:
352,96,2725,5,8,0:0:0:0:
160,96,2901,5,0,0:0:0:0:
160,96,3254,5,0,0:0:0:0:
352,96,3431,5,8,0:0:0:0:
160,96,3607,5,0,0:0:0:0:
352,96,3960,5,8,0:0:0:0:
160,96,4313,5,0,0:0:0:0:
352,96,4489,5,8,0:0:0:0:
160,96,4842,5,0,0:0:0:0:
352,96,5195,5,8,0:0:0:0:
160,96,5372,5,0,0:0:0:0:
160,96,5548,5,0,0:0:0:0:
352,96,5725,5,8,0:0:0:0:
160,96,6078,5,0,0:0:0:0:
352,96,6431,5,8,0:0:0:0:
352,96,6519,5,8,0:0:0:0:
352,96,6607,5,8,0:0:0:0:
160,96,6783,5,0,0:0:0:0:
160,96,7136,5,0,0:0:0:0:
352,96,7313,5,8,0:0:0:0:
352,96,7401,5,8,0:0:0:0:
352,96,7489,5,8,0:0:0:0:
160,96,7666,5,0,0:0:0:0:
352,96,8019,5,8,0:0:0:0:
160,96,8195,5,0,0:0:0:0:
160,96,8372,5,0,0:0:0:0:
352,96,8548,5,8,0:0:0:0:
352,96,8901,5,8,0:0:0:0:
160,96,9078,5,0,0:0:0:0:
352,96,9254,5,8,0:0:0:0:
160,96,9607,5,0,0:0:0:0:
352,96,9960,5,8,0:0:0:0:
352,96,10136,5,8,0:0:0:0:
160,96,10313,5,0,0:0:0:0:
352,96,10489,5,8,0:0:0:0:
352,96,10842,5,8,0:0:0:0:
352,96,10931,5,8,0:0:0:0:
352,96,11019,5,8,0:0:0:0:
352,96,11195,5,8,0:0:0:0:
160,96,11372,5,0,0:0:0:0:
160,96,11548,5,0,0:0:0:0:
352,96,11725,5,8,0:0:0:0:
352,96,11769,5,8,0:0:0:0:
352,96,11901,5,8,0:0:0:0:
352,96,11945,5,8,0:0:0:0:
160,96,12078,5,0,0:0:0:0:
352,96,12136,5,8,0:0:0:0:
352,96,12195,5,8,0:0:0:0:
352,96,12254,5,8,0:0:0:0:
352,96,12342,5,8,0:0:0:0:
160,96,12431,5,0,0:0:0:0:
352,96,12607,5,8,0:0:0:0:
160,96,12783,5,0,0:0:0:0:
352,96,12960,5,8,0:0:0:0:
352,96,13019,5,8,0:0:0:0:
352,96,13078,5,8,0:0:0:0:
160,96,13136,5,0,0:0:0:0:
352,96,13313,5,8,0:0:0:0:
352,96,13401,5,8,0:0:0:0:
160,96,13489,5,0,0:0:0:0:
160,96,13666,5,0,0:0:0:0:
352,96,13754,5,8,0:0:0:0:
160,96,13842,5,0,0:0:0:0:
160,96,13931,5,0,0:0:0:0:
352,96,14019,5,8,0:0:0:0:
352,96,14107,5,8,0:0:0:0:
160,96,14195,5,0,0:0:0:0:
352,96,14372,5,8,0:0:0:0:
160,96,14548,5,0,0:0:0:0:
352,96,14636,5,8,0:0:0:0:
352,96,14813,5,8,0:0:0:0:
160,96,14901,5,0,0:0:0:0:
352,96,14989,5,8,0:0:0:0:
352,96,15078,5,8,0:0:0:0:
352,96,15166,5,8,0:0:0:0:
160,96,15254,5,0,0:0:0:0:
160,96,15342,5,0,0:0:0:0:
352,96,15431,5,8,0:0:0:0:
352,96,15519,5,8,0:0:0:0:
160,96,15607,5,0,0:0:0:0:
160,96,15695,5,0,0:0:0:0:
160,96,15783,5,0,0:0:0:0:
352,96,15872,5,8,0:0:0:0:
160,96,15960,5,0,0:0:0:0:
160,96,16048,5,0,0:0:0:0:
352,96,16136,5,8,0:0:0:0:
160,96,16225,5,0,0:0:0:0:
352,96,16313,5,8,0:0:0:0:
352,96,16401,5,8,0:0:0:0:
160,96,16489,5,0,0:0:0:0:
352,96,16578,5,8,0:0:0:0:
160,96,16666,5,0,0:0:0:0:
160,96,16754,5,0,0:0:0:0:
352,96,16842,5,8,0:0:0:0:
160,96,16931,5,0,0:0:0:0:
352,96,17019,5,8,0:0:0:0:
160,96,17107,5,0,0:0:0:0:
160,96,17195,5,0,0:0:0:0:
352,96,17283,5,8,0:0:0:0:
160,96,17372,5,0,0:0:0:0:
352,96,17548,5,8,0:0:0:0:
160,96,17725,5,0,0:0:0:0:
352,96,17783,5,8,0:0:0:0:
352,96,17842,5,8,0:0:0:0:
160,96,17901,5,0,0:0:0:0:
160,96,17989,5,0,0:0:0:0:
352,96,18078,5,8,0:0:0:0:
160,96,18254,5,0,0:0:0:0:
352,96,18342,5,8,0:0:0:0:
160,96,18431,5,0,0:0:0:0:
160,96,18607,5,0,0:0:0:0:
352,96,18666,5,8,0:0:0:0:
352,96,18725,5,8,0:0:0:0:
160,96,18783,5,0,0:0:0:0:
160,96,18872,5,0,0:0:0:0:
352,96,18960,5,8,0:0:0:0:
352,96,19048,5,8,0:0:0:0:
160,96,19136,5,0,0:0:0:0:
160,96,19313,5,0,0:0:0:0:
352,96,19401,5,8,0:0:0:0:
160,96,19489,5,0,0:0:0:0:
352,96,19666,5,8,0:0:0:0:
160,96,19842,5,0,0:0:0:0:
160,96,19931,5,0,0:0:0:0:
352,96,20019,5,8,0:0:0:0:
160,96,20107,5,0,0:0:0:0:
352,96,20195,5,8,0:0:0:0:
352,96,20283,5,8,0:0:0:0:
160,96,20372,5,0,0:0:0:0:
160,96,20548,5,0,0:0:0:0:
160,96,20607,5,0,0:0:0:0:
160,96,20666,5,0,0:0:0:0:
352,96,20725,5,8,0:0:0:0:
160,96,20813,5,0,0:0:0:0:
352,96,20901,5,8,0:0:0:0:
352,96,20989,5,8,0:0:0:0:
160,96,21078,5,0,0:0:0:0:
160,96,21166,5,0,0:0:0:0:
352,96,21254,5,8,0:0:0:0:
160,96,21313,5,0,0:0:0:0:
160,96,21372,5,0,0:0:0:0:
352,96,21431,5,8,0:0:0:0:
160,96,21519,5,0,0:0:0:0:
352,96,21607,5,8,0:0:0:0:
352,96,21695,5,8,0:0:0:0:
160,96,21783,5,0,0:0:0:0:
160,96,21872,5,0,0:0:0:0:
352,96,21960,5,8,0:0:0:0:
160,96,22136,5,0,0:0:0:0:
352,96,22313,5,8,0:0:0:0:
160,96,22489,5,0,0:0:0:0:
160,96,22578,5,0,0:0:0:0:
352,96,22666,5,8,0:0:0:0:
160,96,22754,5,0,0:0:0:0:
160,96,22842,5,0,0:0:0:0:
160,96,22931,5,0,0:0:0:0:
352,288,23019,5,12,0:0:0:0:
160,288,23372,5,4,0:0:0:0:
160,96,23548,5,0,0:0:0:0:
160,96,23636,5,0,0:0:0:0:
352,96,23725,5,8,0:0:0:0:
352,96,23901,5,8,0:0:0:0:
160,96,24078,5,0,0:0:0:0:
352,96,24254,5,8,0:0:0:0:
352,96,24342,5,8,0:0:0:0:
160,96,24431,5,0,0:0:0:0:
352,96,24607,5,8,0:0:0:0:
160,96,24783,5,0,0:0:0:0:
160,96,24872,5,0,0:0:0:0:
352,96,24960,5,8,0:0:0:0:
352,96,25048,5,8,0:0:0:0:
160,96,25136,5,0,0:0:0:0:
352,96,25313,5,8,0:0:0:0:
160,96,25489,5,0,0:0:0:0:
352,96,25578,5,8,0:0:0:0:
352,96,25754,5,8,0:0:0:0:
160,96,25842,5,0,0:0:0:0:
352,96,26019,5,8,0:0:0:0:
160,96,26195,5,0,0:0:0:0:
352,96,26372,5,8,0:0:0:0:
352,96,26460,5,8,0:0:0:0:
160,96,26548,5,0,0:0:0:0:
352,96,26725,5,8,0:0:0:0:
160,96,26901,5,0,0:0:0:0:
160,96,26989,5,0,0:0:0:0:
352,96,27078,5,8,0:0:0:0:
160,96,27254,5,0,0:0:0:0:
352,96,27431,5,8,0:0:0:0:
352,96,27519,5,8,0:0:0:0:
160,96,27607,5,0,0:0:0:0:
160,96,27695,5,0,0:0:0:0:
352,96,27783,5,8,0:0:0:0:
160,96,27960,5,0,0:0:0:0:
352,96,28136,5,8,0:0:0:0:
352,96,28225,5,8,0:0:0:0:
160,96,28313,5,0,0:0:0:0:
352,96,28489,5,8,0:0:0:0:
352,96,28578,5,8,0:0:0:0:
352,96,28666,5,8,0:0:0:0:
352,96,28842,5,8,0:0:0:0:
160,96,29019,5,0,0:0:0:0:
160,96,29195,5,0,0:0:0:0:
160,96,29283,5,0,0:0:0:0:
352,96,29372,5,8,0:0:0:0:
352,96,29548,5,8,0:0:0:0:
160,96,29725,5,0,0:0:0:0:
352,96,29901,5,8,0:0:0:0:
352,96,29989,5,8,0:0:0:0:
160,96,30078,5,0,0:0:0:0:
352,96,30254,5,8,0:0:0:0:
160,96,30430,5,0,0:0:0:0:
160,96,30519,5,0,0:0:0:0:
352,96,30607,5,8,0:0:0:0:
352,96,30695,5,8,0:0:0:0:
160,96,30783,5,0,0:0:0:0:
352,96,30960,5,8,0:0:0:0:
160,96,31136,5,0,0:0:0:0:
352,96,31225,5,8,0:0:0:0:
352,96,31401,5,8,0:0:0:0:
160,96,31489,5,0,0:0:0:0:
352,96,31666,5,8,0:0:0:0:
160,96,31842,5,0,0:0:0:0:
352,96,32019,5,8,0:0:0:0:
352,96,32107,5,8,0:0:0:0:
160,96,32195,5,0,0:0:0:0:
352,96,32372,5,8,0:0:0:0:
160,96,32548,5,0,0:0:0:0:
160,96,32636,5,0,0:0:0:0:
352,96,32725,5,8,0:0:0:0:
160,96,32901,5,0,0:0:0:0:
352,96,33078,5,8,0:0:0:0:
352,96,33166,5,8,0:0:0:0:
160,96,33254,5,0,0:0:0:0:
160,96,33342,5,0,0:0:0:0:
352,96,33430,5,8,0:0:0:0:
160,96,33607,5,0,0:0:0:0:
352,96,33783,5,8,0:0:0:0:
352,96,33872,5,8,0:0:0:0:
160,96,33960,5,0,0:0:0:0:
160,96,34048,5,0,0:0:0:0:
160,96,34136,5,0,0:0:0:0:
160,96,34225,5,0,0:0:0:0:
352,96,34313,5,8,0:0:0:0:
160,96,34489,5,0,0:0:0:0:
160,288,34666,5,4,0:0:0:0:
160,96,34842,5,0,0:0:0:0:
160,96,34930,5,0,0:0:0:0:
352,96,35019,5,8,0:0:0:0:
160,96,35107,5,0,0:0:0:0:
352,96,35195,5,8,0:0:0:0:
160,96,35372,5,0,0:0:0:0:
352,96,35548,5,8,0:0:0:0:
352,96,35636,5,8,0:0:0:0:
160,96,35725,5,0,0:0:0:0:
160,96,35901,5,0,0:0:0:0:
352,96,35989,5,8,0:0:0:0:
160,96,36077,5,0,0:0:0:0:
160,96,36166,5,0,0:0:0:0:
352,96,36254,5,8,0:0:0:0:
352,96,36342,5,8,0:0:0:0:
160,96,36430,5,0,0:0:0:0:
352,96,36607,5,8,0:0:0:0:
160,96,36783,5,0,0:0:0:0:
352,96,36872,5,8,0:0:0:0:
352,96,37048,5,8,0:0:0:0:
160,96,37136,5,0,0:0:0:0:
352,96,37313,5,8,0:0:0:0:
160,96,37489,5,0,0:0:0:0:
160,96,37578,5,0,0:0:0:0:
352,96,37666,5,8,0:0:0:0:
352,96,37754,5,8,0:0:0:0:
160,96,37842,5,0,0:0:0:0:
352,96,38019,5,8,0:0:0:0:
160,96,38195,5,0,0:0:0:0:
160,96,38283,5,0,0:0:0:0:
352,96,38372,5,8,0:0:0:0:
160,96,38548,5,0,0:0:0:0:
352,96,38725,5,8,0:0:0:0:
352,96,38813,5,8,0:0:0:0:
160,96,38901,5,0,0:0:0:0:
160,96,38989,5,0,0:0:0:0:
352,96,39077,5,8,0:0:0:0:
160,96,39254,5,0,0:0:0:0:
352,96,39431,5,8,0:0:0:0:
352,96,39519,5,8,0:0:0:0:
160,96,39607,5,0,0:0:0:0:
160,96,39695,5,0,0:0:0:0:
352,96,39783,5,8,0:0:0:0:
352,96,39872,5,8,0:0:0:0:
352,96,39960,5,8,0:0:0:0:
352,96,40136,5,8,0:0:0:0:
352,96,40225,5,8,0:0:0:0:
160,96,40313,5,0,0:0:0:0:
160,96,40489,5,0,0:0:0:0:
160,96,40577,5,0,0:0:0:0:
352,96,40666,5,8,0:0:0:0:
160,96,40754,5,0,0:0:0:0:
352,96,40842,5,8,0:0:0:0:
160,96,41019,5,0,0:0:0:0:
352,96,41195,5,8,0:0:0:0:
352,96,41283,5,8,0:0:0:0:
160,96,41372,5,0,0:0:0:0:
160,96,41548,5,0,0:0:0:0:
352,96,41636,5,8,0:0:0:0:
160,96,41724,5,0,0:0:0:0:
160,96,41813,5,0,0:0:0:0:
352,96,41901,5,8,0:0:0:0:
352,96,41989,5,8,0:0:0:0:
160,96,42077,5,0,0:0:0:0:
352,96,42254,5,8,0:0:0:0:
160,96,42430,5,0,0:0:0:0:
352,96,42519,5,8,0:0:0:0:
352,96,42695,5,8,0:0:0:0:
160,96,42783,5,0,0:0:0:0:
352,96,42960,5,8,0:0:0:0:
160,96,43136,5,0,0:0:0:0:
160,96,43225,5,0,0:0:0:0:
352,96,43313,5,8,0:0:0:0:
352,96,43401,5,8,0:0:0:0:
160,96,43489,5,0,0:0:0:0:
352,96,43666,5,8,0:0:0:0:
160,96,43842,5,0,0:0:0:0:
160,96,43930,5,0,0:0:0:0:
352,96,44019,5,8,0:0:0:0:
160,96,44195,5,0,0:0:0:0:
352,96,44372,5,8,0:0:0:0:
352,96,44460,5,8,0:0:0:0:
160,96,44548,5,0,0:0:0:0:
160,96,44636,5,0,0:0:0:0:
352,96,44724,5,8,0:0:0:0:
352,96,44901,5,8,0:0:0:0:
352,96,45077,5,8,0:0:0:0:
160,96,45166,5,0,0:0:0:0:
352,96,45254,5,8,0:0:0:0:
160,96,45342,5,0,0:0:0:0:
352,96,45430,5,8,0:0:0:0:
160,96,45519,5,0,0:0:0:0:
352,96,45607,5,8,0:0:0:0:
352,96,45695,5,8,0:0:0:0:
160,96,45783,5,0,0:0:0:0:
352,288,45960,5,12,0:0:0:0:
352,96,46136,5,8,0:0:0:0:
160,96,46313,5,0,0:0:0:0:
352,96,46489,5,8,0:0:0:0:
160,96,46666,5,0,0:0:0:0:
160,96,46842,5,0,0:0:0:0:
160,96,47019,5,0,0:0:0:0:
160,96,47195,5,0,0:0:0:0:
352,96,47372,5,8,0:0:0:0:
352,96,47548,5,8,0:0:0:0:
160,96,47725,5,0,0:0:0:0:
352,96,47901,5,8,0:0:0:0:
160,96,48078,5,0,0:0:0:0:
160,96,48254,5,0,0:0:0:0:
352,96,48431,5,8,0:0:0:0:
160,96,48607,5,0,0:0:0:0:
352,96,48783,5,8,0:0:0:0:
352,96,48960,5,8,0:0:0:0:
160,96,49136,5,0,0:0:0:0:
352,96,49313,5,8,0:0:0:0:
160,96,49489,5,0,0:0:0:0:
160,96,49666,5,0,0:0:0:0:
160,96,49842,5,0,0:0:0:0:
160,96,50019,5,0,0:0:0:0:
352,96,50195,5,8,0:0:0:0:
352,96,50372,5,8,0:0:0:0:
160,96,50548,5,0,0:0:0:0:
352,96,50725,5,8,0:0:0:0:
160,96,50901,5,0,0:0:0:0:
352,96,51078,5,8,0:0:0:0:
352,96,51254,5,8,0:0:0:0:
160,96,51431,5,0,0:0:0:0:
352,96,51607,5,8,0:0:0:0:
352,96,51783,5,8,0:0:0:0:
160,96,51960,5,0,0:0:0:0:
352,96,52136,5,8,0:0:0:0:
160,96,52313,5,0,0:0:0:0:
160,96,52489,5,0,0:0:0:0:
160,96,52666,5,0,0:0:0:0:
160,96,52842,5,0,0:0:0:0:
352,96,53019,5,8,0:0:0:0:
352,96,53195,5,8,0:0:0:0:
160,96,53372,5,0,0:0:0:0:
352,96,53548,5,8,0:0:0:0:
160,96,53725,5,0,0:0:0:0:
160,96,53901,5,0,0:0:0:0:
352,96,54078,5,8,0:0:0:0:
160,96,54254,5,0,0:0:0:0:
352,96,54430,5,8,0:0:0:0:
352,96,54607,5,8,0:0:0:0:
160,96,54783,5,0,0:0:0:0:
352,96,54960,5,8,0:0:0:0:
160,96,55136,5,0,0:0:0:0:
160,96,55313,5,0,0:0:0:0:
160,96,55489,5,0,0:0:0:0:
160,96,55666,5,0,0:0:0:0:
352,96,55842,5,8,0:0:0:0:
352,96,56019,5,8,0:0:0:0:
160,96,56195,5,0,0:0:0:0:
352,96,56372,5,8,0:0:0:0:
160,96,56548,5,0,0:0:0:0:
160,96,56636,5,0,0:0:0:0:
160,96,56725,5,0,0:0:0:0:
160,96,56813,5,0,0:0:0:0:
352,96,56901,5,8,0:0:0:0:
352,96,57078,5,8,0:0:0:0:
160,288,57254,5,4,0:0:0:0:
352,96,57519,5,8,0:0:0:0:
160,96,57607,5,0,0:0:0:0:
352,96,57783,5,8,0:0:0:0:
160,96,57960,5,0,0:0:0:0:
160,96,58048,5,0,0:0:0:0:
352,96,58136,5,8,0:0:0:0:
160,96,58313,5,0,0:0:0:0:
352,96,58489,5,8,0:0:0:0:
352,96,58578,5,8,0:0:0:0:
160,96,58666,5,0,0:0:0:0:
160,96,58842,5,0,0:0:0:0:
352,96,58931,5,8,0:0:0:0:
160,96,59019,5,0,0:0:0:0:
352,96,59195,5,8,0:0:0:0:
160,96,59372,5,0,0:0:0:0:
352,96,59548,5,8,0:0:0:0:
352,96,59636,5,8,0:0:0:0:
160,96,59725,5,0,0:0:0:0:
160,96,59813,5,0,0:0:0:0:
352,96,59901,5,8,0:0:0:0:
352,96,59945,5,8,0:0:0:0:
160,96,60078,5,0,0:0:0:0:
352,96,60342,5,8,0:0:0:0:
160,96,60431,5,0,0:0:0:0:
352,96,60607,5,8,0:0:0:0:
160,96,60783,5,0,0:0:0:0:
160,96,60872,5,0,0:0:0:0:
352,96,60960,5,8,0:0:0:0:
160,96,61136,5,0,0:0:0:0:
352,96,61313,5,8,0:0:0:0:
352,96,61401,5,8,0:0:0:0:
160,96,61489,5,0,0:0:0:0:
160,96,61666,5,0,0:0:0:0:
352,96,61754,5,8,0:0:0:0:
160,96,61842,5,0,0:0:0:0:
352,96,62019,5,8,0:0:0:0:
160,96,62195,5,0,0:0:0:0:
352,96,62283,5,8,0:0:0:0:
352,96,62372,5,8,0:0:0:0:
352,96,62460,5,8,0:0:0:0:
160,96,62548,5,0,0:0:0:0:
352,96,62725,5,8,0:0:0:0:
160,96,62901,5,0,0:0:0:0:
352,96,63166,5,8,0:0:0:0:
160,96,63254,5,0,0:0:0:0:
352,96,63431,5,8,0:0:0:0:
160,96,63607,5,0,0:0:0:0:
160,96,63695,5,0,0:0:0:0:
352,96,63872,5,8,0:0:0:0:
160,96,63960,5,0,0:0:0:0:
352,96,64136,5,8,0:0:0:0:
160,96,64313,5,0,0:0:0:0:
160,96,64489,5,0,0:0:0:0:
352,96,64578,5,8,0:0:0:0:
160,96,64666,5,0,0:0:0:0:
352,96,64842,5,8,0:0:0:0:
160,96,65019,5,0,0:0:0:0:
352,96,65107,5,8,0:0:0:0:
352,96,65283,5,8,0:0:0:0:
160,96,65372,5,0,0:0:0:0:
352,96,65548,5,8,0:0:0:0:
160,96,65725,5,0,0:0:0:0:
160,96,65813,5,0,0:0:0:0:
160,96,65901,5,0,0:0:0:0:
352,96,65989,5,8,0:0:0:0:
160,96,66078,5,0,0:0:0:0:
160,96,66166,5,0,0:0:0:0:
352,96,66254,5,8,0:0:0:0:
352,96,66342,5,8,0:0:0:0:
160,96,66431,5,0,0:0:0:0:
352,96,66519,5,8,0:0:0:0:
352,96,66607,5,8,0:0:0:0:
352,96,66695,5,8,0:0:0:0:
160,96,66783,5,0,0:0:0:0:
160,96,66872,5,0,0:0:0:0:
160,96,66960,5,0,0:0:0:0:
160,96,67048,5,0,0:0:0:0:
352,96,67136,5,8,0:0:0:0:
160,96,67313,5,0,0:0:0:0:
352,96,67489,5,8,0:0:0:0:
160,96,67666,5,0,0:0:0:0:
160,96,67754,5,0,0:0:0:0:
352,96,67842,5,8,0:0:0:0:
160,96,67931,5,0,0:0:0:0:
160,96,68019,5,0,0:0:0:0:
160,96,68107,5,0,0:0:0:0:
352,288,68195,5,12,0:0:0:0:
160,288,68548,5,4,0:0:0:0:
160,288,68901,5,4,0:0:0:0:
352,96,69078,5,8,0:0:0:0:
352,96,69166,5,8,0:0:0:0:
160,96,69254,5,0,0:0:0:0:
160,96,69519,5,0,0:0:0:0:
352,96,69607,5,8,0:0:0:0:
160,96,69783,5,0,0:0:0:0:
160,96,69960,5,0,0:0:0:0:
160,96,70048,5,0,0:0:0:0:
352,96,70136,5,8,0:0:0:0:
160,96,70313,5,0,0:0:0:0:
352,96,70489,5,8,0:0:0:0:
352,96,70578,5,8,0:0:0:0:
160,96,70666,5,0,0:0:0:0:
352,96,70842,5,8,0:0:0:0:
160,96,70931,5,0,0:0:0:0:
352,96,71107,5,8,0:0:0:0:
160,96,71195,5,0,0:0:0:0:
160,96,71372,5,0,0:0:0:0:
352,96,71460,5,8,0:0:0:0:
352,96,71548,5,8,0:0:0:0:
160,96,71725,5,0,0:0:0:0:
352,96,71901,5,8,0:0:0:0:
352,96,71989,5,8,0:0:0:0:
160,96,72078,5,0,0:0:0:0:
352,96,72254,5,8,0:0:0:0:
160,96,72342,5,0,0:0:0:0:
352,96,72431,5,8,0:0:0:0:
352,96,72519,5,8,0:0:0:0:
160,96,72607,5,0,0:0:0:0:
160,96,72783,5,0,0:0:0:0:
160,96,72872,5,0,0:0:0:0:
352,96,72960,5,8,0:0:0:0:
160,96,73136,5,0,0:0:0:0:
352,96,73313,5,8,0:0:0:0:
352,96,73401,5,8,0:0:0:0:
160,96,73489,5,0,0:0:0:0:
352,96,73666,5,8,0:0:0:0:
160,96,73754,5,0,0:0:0:0:
352,96,73842,5,8,0:0:0:0:
160,96,74019,5,0,0:0:0:0:
160,288,74195,5,4,0:0:0:0:
160,288,74548,5,4,0:0:0:0:
352,96,74725,5,8,0:0:0:0:
352,96,74813,5,8,0:0:0:0:
160,96,74901,5,0,0:0:0:0:
352,96,75078,5,8,0:0:0:0:
160,96,75166,5,0,0:0:0:0:
352,96,75254,5,8,0:0:0:0:
160,96,75430,5,0,0:0:0:0:
160,96,75607,5,0,0:0:0:0:
160,96,75695,5,0,0:0:0:0:
352,96,75783,5,8,0:0:0:0:
160,96,75960,5,0,0:0:0:0:
352,96,76136,5,8,0:0:0:0:
352,96,76225,5,8,0:0:0:0:
160,96,76313,5,0,0:0:0:0:
352,96,76489,5,8,0:0:0:0:
160,96,76578,5,0,0:0:0:0:
352,96,76754,5,8,0:0:0:0:
160,96,76842,5,0,0:0:0:0:
160,96,77019,5,0,0:0:0:0:
352,96,77107,5,8,0:0:0:0:
352,96,77195,5,8,0:0:0:0:
160,96,77372,5,0,0:0:0:0:
352,96,77548,5,8,0:0:0:0:
352,96,77636,5,8,0:0:0:0:
160,96,77725,5,0,0:0:0:0:
352,96,77901,5,8,0:0:0:0:
160,96,77989,5,0,0:0:0:0:
352,96,78078,5,8,0:0:0:0:
352,96,78166,5,8,0:0:0:0:
160,96,78254,5,0,0:0:0:0:
160,96,78430,5,0,0:0:0:0:
160,96,78519,5,0,0:0:0:0:
352,96,78607,5,8,0:0:0:0:
160,96,78783,5,0,0:0:0:0:
352,96,78960,5,8,0:0:0:0:
352,96,79048,5,8,0:0:0:0:
160,96,79136,5,0,0:0:0:0:
352,96,79225,5,8,0:0:0:0:
352,96,79313,5,8,0:0:0:0:
160,96,79401,5,0,0:0:0:0:
352,96,79489,5,8,0:0:0:0:
352,96,79533,5,8,0:0:0:0:
352,96,79666,5,8,0:0:0:0:
352,96,79710,5,8,0:0:0:0:
160,288,79842,5,4,0:0:0:0:
352,96,80107,5,8,0:0:0:0:
352,96,80151,5,8,0:0:0:0:
160,96,80195,5,0,0:0:0:0:
352,96,80372,5,8,0:0:0:0:
352,96,80460,5,8,0:0:0:0:
160,96,80548,5,0,0:0:0:0:
352,96,80725,5,8,0:0:0:0:
160,96,80813,5,0,0:0:0:0:
352,96,80901,5,8,0:0:0:0:
160,96,81078,5,0,0:0:0:0:
160,96,81254,5,0,0:0:0:0:
352,96,81342,5,8,0:0:0:0:
352,96,81431,5,8,0:0:0:0:
160,96,81607,5,0,0:0:0:0:
352,96,81783,5,8,0:0:0:0:
352,96,81872,5,8,0:0:0:0:
160,96,81960,5,0,0:0:0:0:
352,96,82136,5,8,0:0:0:0:
160,96,82225,5,0,0:0:0:0:
352,96,82313,5,8,0:0:0:0:
352,96,82401,5,8,0:0:0:0:
160,96,82489,5,0,0:0:0:0:
160,96,82666,5,0,0:0:0:0:
352,96,82754,5,8,0:0:0:0:
352,96,82931,5,8,0:0:0:0:
352,96,82975,5,8,0:0:0:0:
160,96,83019,5,0,0:0:0:0:
352,96,83195,5,8,0:0:0:0:
160,96,83372,5,0,0:0:0:0:
160,96,83460,5,0,0:0:0:0:
352,96,83548,5,8,0:0:0:0:
160,96,83636,5,0,0:0:0:0:
352,96,83725,5,8,0:0:0:0:
352,96,83813,5,8,0:0:0:0:
160,96,83901,5,0,0:0:0:0:
160,96,84078,5,0,0:0:0:0:
352,96,84166,5,8,0:0:0:0:
352,96,84254,5,8,0:0:0:0:
352,96,84342,5,8,0:0:0:0:
160,96,84431,5,0,0:0:0:0:
352,96,84607,5,8,0:0:0:0:
160,96,84783,5,0,0:0:0:0:
352,96,84872,5,8,0:0:0:0:
352,96,84960,5,8,0:0:0:0:
160,96,85048,5,0,0:0:0:0:
352,96,85136,5,8,0:0:0:0:
352,96,85225,5,8,0:0:0:0:
160,96,85313,5,0,0:0:0:0:
160,288,85489,5,4,0:0:0:0:
352,96,85754,5,8,0:0:0:0:
352,96,85798,5,8,0:0:0:0:
160,96,85842,5,0,0:0:0:0:
352,96,86019,5,8,0:0:0:0:
352,96,86107,5,8,0:0:0:0:
160,96,86195,5,0,0:0:0:0:
352,96,86372,5,8,0:0:0:0:
160,96,86460,5,0,0:0:0:0:
352,96,86548,5,8,0:0:0:0:
160,96,86725,5,0,0:0:0:0:
160,96,86901,5,0,0:0:0:0:
352,96,86989,5,8,0:0:0:0:
352,96,87078,5,8,0:0:0:0:
160,96,87254,5,0,0:0:0:0:
352,96,87430,5,8,0:0:0:0:
352,96,87519,5,8,0:0:0:0:
160,96,87607,5,0,0:0:0:0:
160,96,87695,5,0,0:0:0:0:
352,96,87783,5,8,0:0:0:0:
160,96,87872,5,0,0:0:0:0:
352,96,87960,5,8,0:0:0:0:
352,96,88048,5,8,0:0:0:0:
160,96,88136,5,0,0:0:0:0:
256,192,88313,12,0,90960,0:0:0:0:
352,96,91136,5,8,0:0:0:0:
352,96,91225,5,8,0:0:0:0:
352,96,91313,5,8,0:0:0:0:
160,96,91488,5,0,0:0:0:0:
160,96,91842,5,0,0:0:0:0:
352,96,92018,5,8,0:0:0:0:
352,96,92194,5,8,0:0:0:0:
160,96,92371,5,0,0:0:0:0:
352,96,92724,5,8,0:0:0:0:
352,96,92812,5,8,0:0:0:0:
352,96,92900,5,8,0:0:0:0:
352,96,93077,5,8,0:0:0:0:
160,96,93253,5,0,0:0:0:0:
160,96,93606,5,0,0:0:0:0:
352,96,93783,5,8,0:0:0:0:
160,96,93959,5,0,0:0:0:0:
352,96,94312,5,8,0:0:0:0:
160,96,94665,5,0,0:0:0:0:
352,96,94841,5,8,0:0:0:0:
160,96,95194,5,0,0:0:0:0:
352,96,95547,5,8,0:0:0:0:
160,96,95724,5,0,0:0:0:0:
160,96,95900,5,0,0:0:0:0:
352,96,96077,5,8,0:0:0:0:
160,96,96430,5,0,0:0:0:0:
352,96,96783,5,8,0:0:0:0:
352,96,96871,5,8,0:0:0:0:
352,96,96959,5,8,0:0:0:0:
160,96,97135,5,0,0:0:0:0:
160,96,97488,5,0,0:0:0:0:
352,96,97665,5,8,0:0:0:0:
352,96,97753,5,8,0:0:0:0:
352,96,97841,5,8,0:0:0:0:
160,96,98018,5,0,0:0:0:0:
352,96,98371,5,8,0:0:0:0:
160,96,98547,5,0,0:0:0:0:
160,96,98724,5,0,0:0:0:0:
352,96,98900,5,8,0:0:0:0:
352,96,99253,5,8,0:0:0:0:
160,96,99430,5,0,0:0:0:0:
352,96,99606,5,8,0:0:0:0:
160,96,99959,5,0,0:0:0:0:
352,96,100312,5,8,0:0:0:0:
352,96,100488,5,8,0:0:0:0:
160,96,100665,5,0,0:0:0:0:
352,96,100841,5,8,0:0:0:0:
352,96,101194,5,8,0:0:0:0:
352,96,101283,5,8,0:0:0:0:
352,96,101371,5,8,0:0:0:0:
352,96,101547,5,8,0:0:0:0:
160,96,101724,5,0,0:0:0:0:
160,96,101900,5,0,0:0:0:0:
352,96,102078,5,8,0:0:0:0:
352,96,102166,5,8,0:0:0:0:
160,96,102254,5,0,0:0:0:0:
160,96,102342,5,0,0:0:0:0:
352,96,102431,5,8,0:0:0:0:
352,96,102489,5,8,0:0:0:0:
352,96,102548,5,8,0:0:0:0:
352,96,102607,5,8,0:0:0:0:
160,96,102783,5,0,0:0:0:0:
160,96,103136,5,0,0:0:0:0:
352,96,103313,5,8,0:0:0:0:
352,96,103372,5,8,0:0:0:0:
352,96,103431,5,8,0:0:0:0:
352,96,103489,5,8,0:0:0:0:
160,96,103666,5,0,0:0:0:0:
352,96,104019,5,8,0:0:0:0:
160,96,104195,5,0,0:0:0:0:
160,96,104283,5,0,0:0:0:0:
352,96,104372,5,8,0:0:0:0:
352,96,104460,5,8,0:0:0:0:
160,96,104548,5,0,0:0:0:0:
352,96,104725,5,8,0:0:0:0:
160,96,104901,5,0,0:0:0:0:
352,96,105166,5,8,0:0:0:0:
160,96,105254,5,0,0:0:0:0:
352,96,105342,5,8,0:0:0:0:
352,96,105431,5,8,0:0:0:0:
352,96,105519,5,8,0:0:0:0:
160,96,105607,5,0,0:0:0:0:
160,96,105695,5,0,0:0:0:0:
352,96,105784,5,8,0:0:0:0:
352,96,105872,5,8,0:0:0:0:
160,96,105960,5,0,0:0:0:0:
160,96,106048,5,0,0:0:0:0:
160,96,106136,5,0,0:0:0:0:
352,96,106225,5,8,0:0:0:0:
160,96,106313,5,0,0:0:0:0:
160,96,106401,5,0,0:0:0:0:
352,96,106489,5,8,0:0:0:0:
160,96,106578,5,0,0:0:0:0:
352,96,106666,5,8,0:0:0:0:
352,96,106754,5,8,0:0:0:0:
160,96,106842,5,0,0:0:0:0:
352,96,106931,5,8,0:0:0:0:
160,96,107019,5,0,0:0:0:0:
160,96,107107,5,0,0:0:0:0:
352,96,107195,5,8,0:0:0:0:
160,96,107284,5,0,0:0:0:0:
352,96,107372,5,8,0:0:0:0:
352,96,107636,5,8,0:0:0:0:
160,96,107725,5,0,0:0:0:0:
352,96,107901,5,8,0:0:0:0:
352,96,108078,5,8,0:0:0:0:
352,96,108136,5,8,0:0:0:0:
352,96,108195,5,8,0:0:0:0:
352,96,108254,5,8,0:0:0:0:
160,96,108430,5,0,0:0:0:0:
160,96,108783,5,0,0:0:0:0:
352,96,108960,5,8,0:0:0:0:
352,96,109019,5,8,0:0:0:0:
352,96,109078,5,8,0:0:0:0:
352,96,109136,5,8,0:0:0:0:
160,96,109313,5,0,0:0:0:0:
160,96,109666,5,0,0:0:0:0:
352,96,109842,5,8,0:0:0:0:
352,96,110019,5,8,0:0:0:0:
160,96,110195,5,0,0:0:0:0:
352,96,110372,5,8,0:0:0:0:
160,96,110548,5,0,0:0:0:0:
160,96,110725,5,0,0:0:0:0:
352,96,110901,5,8,0:0:0:0:
352,96,111254,5,8,0:0:0:0:
160,96,111607,5,0,0:0:0:0:
352,96,111783,5,8,0:0:0:0:
352,96,111960,5,8,0:0:0:0:
256,192,112136,12,0,115136,0:0:0:0:
