osu file format v14

[General]
AudioFilename: audio.ogg
AudioLeadIn: 0
PreviewTime: 68460
Countdown: 0
SampleSet: Normal
StackLeniency: 0.7
Mode: 1
LetterboxInBreaks: 0
WidescreenStoryboard: 0

[Editor]
DistanceSpacing: 1
BeatDivisor: 4
GridSize: 32
TimelineZoom: 1.399999

[Metadata]
Title:Bunny Bunny Carrot Carrot
TitleUnicode:Bunny Bunny Carrot Carrot
Artist:Mitsukiyo
ArtistUnicode:ミツキヨ
Creator:komasy
Version:Futsuu
Source:ブルーアーカイブ -Blue Archive-
Tags:Instrumental Future Bass Electronic Video Game Original Sound Track OST Vol.2 Searching for the unknown truth ブルアカ BuruAka Buru Aka Yoster NAT Games 船上のバニーチェイサー Bunny Chaser Aboard Theme 94
BeatmapID:4294233
BeatmapSetID:2055099

[Difficulty]
HPDrainRate:7
CircleSize:7
OverallDifficulty:4
ApproachRate:10
SliderMultiplier:1.4
SliderTickRate:1

[Events]
//Background and Video events
0,0,"110020211_p0.jpg",0,0
//Break Periods
//Storyboard Layer 0 (Background)
//Storyboard Layer 1 (Fail)
//Storyboard Layer 2 (Pass)
//Storyboard Layer 3 (Foreground)
//Storyboard Layer 4 (Overlay)
//Storyboard Sound Samples

[TimingPoints]
784,352.941176470588,4,1,0,50,1,0
784,-105.263157894737,4,1,0,50,0,0
12056,-100,4,1,0,80,0,0
23350,-95.2380952380952,4,1,0,90,0,0
23372,-95.2380952380952,4,1,0,90,0,1
33960,-95.2380952380952,4,1,0,90,0,0
34666,-95.2380952380952,4,1,0,90,0,1
45872,-105.263157894737,4,1,0,60,0,1
45960,-105.263157894737,4,1,0,60,0,0
57232,-100,4,1,0,70,0,0
68526,-95.2380952380952,4,1,0,90,0,0
68548,-95.2380952380952,4,1,0,90,0,1
79136,-95.2380952380952,4,1,0,90,0,0
79798,-95.2380952380952,4,1,0,90,0,0
79842,-95.2380952380952,4,1,0,90,0,1
88225,-95.2380952380952,4,1,0,60,0,1
89019,-95.2380952380952,4,1,0,40,0,1
89725,-95.2380952380952,4,1,0,20,0,1
91048,-105.263157894737,4,1,0,50,0,1
91136,-105.263157894737,4,1,0,50,0,0
112048,-105.263157894737,4,1,0,20,0,0
113019,-105.263157894737,4,1,0,10,0,0
113725,-105.263157894737,4,1,0,5,0,0

[HitObjects]
160,288,784,5,4,0:0:0:0:
160,96,1136,5,0,0:0:0:0:
160,96,1666,5,0,0:0:0:0:
352,96,2019,5,8,0:0:0:0:
352,96,2372,5,8,0:0:0:0:
160,96,2901,5,8,0:0:0:0:
352,96,3254,5,8,0:0:0:0:
160,96,3607,5,0,0:0:0:0:
352,96,3960,5,8,0:0:0:0:
352,96,4489,5,8,0:0:0:0:
160,96,4842,5,0,0:0:0:0:
352,96,5195,5,8,0:0:0:0:
160,96,5372,5,0,0:0:0:0:
352,96,5725,5,8,0:0:0:0:
352,96,6431,5,8,0:0:0:0:
160,96,6783,5,0,0:0:0:0:
352,96,7313,5,8,0:0:0:0:
160,96,7666,5,0,0:0:0:0:
352,96,8019,5,8,0:0:0:0:
352,96,8548,5,8,0:0:0:0:
352,96,8901,5,8,0:0:0:0:
352,96,9254,5,0,0:0:0:0:
160,96,9607,5,0,0:0:0:0:
160,96,10136,5,0,0:0:0:0:
352,96,10489,5,8,0:0:0:0:
352,96,10842,5,8,0:0:0:0:
352,96,11019,5,8,0:0:0:0:
160,96,11372,5,0,0:0:0:0:
160,288,12078,5,4,0:0:0:0:
160,96,12431,5,0,0:0:0:0:
352,96,12960,5,8,0:0:0:0:
160,96,13313,5,0,0:0:0:0:
352,96,13666,5,8,0:0:0:0:
160,96,13842,5,0,0:0:0:0:
352,96,14195,5,8,0:0:0:0:
352,96,14548,5,8,0:0:0:0:
160,96,14901,5,0,0:0:0:0:
160,96,15078,5,0,0:0:0:0:
352,96,15254,5,8,0:0:0:0:
160,96,15607,5,0,0:0:0:0:
160,96,15960,5,0,0:0:0:0:
352,96,16313,5,8,0:0:0:0:
352,96,16489,5,8,0:0:0:0:
160,96,16666,5,0,0:0:0:0:
352,96,17019,5,8,0:0:0:0:
352,96,17725,5,8,0:0:0:0:
160,96,18078,5,0,0:0:0:0:
352,96,18607,5,8,0:0:0:0:
160,96,18960,5,0,0:0:0:0:
160,96,19313,5,0,0:0:0:0:
352,96,19489,5,8,0:0:0:0:
352,96,19842,5,8,0:0:0:0:
160,96,20195,5,0,0:0:0:0:
352,96,20548,5,8,0:0:0:0:
352,96,20725,5,8,0:0:0:0:
160,96,20901,5,0,0:0:0:0:
352,96,21254,5,8,0:0:0:0:
352,96,21431,5,8,0:0:0:0:
160,96,21607,5,0,0:0:0:0:
160,96,21783,5,0,0:0:0:0:
352,96,21960,5,8,0:0:0:0:
352,96,22313,5,8,0:0:0:0:
352,96,22666,5,8,0:0:0:0:
160,288,23372,5,4,0:0:0:0:
352,96,23725,5,8,0:0:0:0:
160,96,24078,5,0,0:0:0:0:
352,96,24254,5,8,0:0:0:0:
160,96,24607,5,0,0:0:0:0:
352,96,24960,5,8,0:0:0:0:
160,96,25136,5,0,0:0:0:0:
352,96,25489,5,8,0:0:0:0:
160,96,26195,5,0,0:0:0:0:
352,96,26548,5,8,0:0:0:0:
160,96,26725,5,0,0:0:0:0:
352,96,27078,5,8,0:0:0:0:
160,96,27431,5,0,0:0:0:0:
352,96,27607,5,8,0:0:0:0:
352,96,27960,5,8,0:0:0:0:
160,96,28313,5,0,0:0:0:0:
352,96,28666,5,8,0:0:0:0:
352,96,28842,5,8,0:0:0:0:
160,96,29019,5,0,0:0:0:0:
352,96,29372,5,8,0:0:0:0:
160,96,29725,5,0,0:0:0:0:
352,96,29901,5,8,0:0:0:0:
160,96,30254,5,0,0:0:0:0:
352,96,30607,5,8,0:0:0:0:
160,96,30783,5,0,0:0:0:0:
352,96,31136,5,8,0:0:0:0:
160,96,31842,5,0,0:0:0:0:
352,96,32195,5,8,0:0:0:0:
160,96,32372,5,0,0:0:0:0:
352,96,32725,5,8,0:0:0:0:
160,96,33078,5,0,0:0:0:0:
352,96,33254,5,8,0:0:0:0:
160,96,33607,5,0,0:0:0:0:
352,96,33960,5,8,0:0:0:0:
352,96,34136,5,8,0:0:0:0:
352,96,34313,5,8,0:0:0:0:
160,288,34666,5,4,0:0:0:0:
352,96,35019,5,8,0:0:0:0:
160,96,35372,5,0,0:0:0:0:
352,96,35548,5,8,0:0:0:0:
160,96,35901,5,0,0:0:0:0:
352,96,36254,5,8,0:0:0:0:
160,96,36430,5,0,0:0:0:0:
160,96,36607,5,0,0:0:0:0:
352,96,36783,5,8,0:0:0:0:
160,96,37489,5,0,0:0:0:0:
352,96,37842,5,8,0:0:0:0:
160,96,38019,5,0,0:0:0:0:
352,96,38372,5,8,0:0:0:0:
160,96,38725,5,0,0:0:0:0:
352,96,38901,5,8,0:0:0:0:
352,96,39254,5,8,0:0:0:0:
160,96,39607,5,0,0:0:0:0:
352,96,39960,5,8,0:0:0:0:
352,96,40136,5,8,0:0:0:0:
160,96,40313,5,0,0:0:0:0:
352,96,40666,5,8,0:0:0:0:
160,96,41019,5,0,0:0:0:0:
352,96,41195,5,8,0:0:0:0:
160,96,41548,5,0,0:0:0:0:
352,96,41901,5,8,0:0:0:0:
160,96,42077,5,0,0:0:0:0:
160,96,42254,5,0,0:0:0:0:
352,96,42430,5,8,0:0:0:0:
160,96,43136,5,0,0:0:0:0:
352,96,43489,5,8,0:0:0:0:
160,96,43666,5,0,0:0:0:0:
352,96,44019,5,8,0:0:0:0:
160,96,44372,5,0,0:0:0:0:
352,96,44548,5,8,0:0:0:0:
202,168,44901,2,0,L|250:168,8,36.749998878479
352,288,45960,5,12,0:0:0:0:
160,96,46666,5,0,0:0:0:0:
160,96,47019,5,0,0:0:0:0:
352,96,47372,5,8,0:0:0:0:
160,96,48078,5,0,0:0:0:0:
160,96,48431,5,0,0:0:0:0:
160,96,48607,5,0,0:0:0:0:
352,96,48783,5,8,0:0:0:0:
160,96,49489,5,0,0:0:0:0:
160,96,49842,5,0,0:0:0:0:
352,96,50195,5,8,0:0:0:0:
160,96,50901,5,0,0:0:0:0:
160,96,51254,5,0,0:0:0:0:
160,96,51431,5,0,0:0:0:0:
352,96,51607,5,8,0:0:0:0:
160,96,52313,5,0,0:0:0:0:
160,96,52666,5,0,0:0:0:0:
352,96,53019,5,8,0:0:0:0:
160,96,53725,5,0,0:0:0:0:
160,96,54078,5,0,0:0:0:0:
160,96,54254,5,0,0:0:0:0:
352,96,54430,5,8,0:0:0:0:
160,96,55136,5,0,0:0:0:0:
160,96,55489,5,0,0:0:0:0:
352,96,55842,5,8,0:0:0:0:
160,96,56548,5,0,0:0:0:0:
160,96,56725,5,0,0:0:0:0:
352,96,56901,5,8,0:0:0:0:
160,288,57254,5,4,0:0:0:0:
352,96,57607,5,8,0:0:0:0:
160,96,57960,5,0,0:0:0:0:
352,96,58489,5,8,0:0:0:0:
160,96,58666,5,0,0:0:0:0:
352,96,59019,5,8,0:0:0:0:
160,96,59372,5,0,0:0:0:0:
160,96,60078,5,0,0:0:0:0:
352,96,60431,5,8,0:0:0:0:
160,96,60783,5,0,0:0:0:0:
352,96,61313,5,8,0:0:0:0:
160,96,61489,5,0,0:0:0:0:
352,96,61842,5,8,0:0:0:0:
160,96,62195,5,0,0:0:0:0:
352,96,62548,5,8,0:0:0:0:
352,96,62725,5,8,0:0:0:0:
160,96,62901,5,0,0:0:0:0:
352,96,63254,5,8,0:0:0:0:
160,96,63607,5,0,0:0:0:0:
352,96,64136,5,8,0:0:0:0:
160,96,64313,5,0,0:0:0:0:
352,96,64666,5,8,0:0:0:0:
160,96,65019,5,0,0:0:0:0:
160,96,65725,5,0,0:0:0:0:
160,96,65901,5,0,0:0:0:0:
352,96,66078,5,8,0:0:0:0:
352,96,66431,5,8,0:0:0:0:
352,96,66607,5,8,0:0:0:0:
160,96,66783,5,0,0:0:0:0:
352,96,67136,5,8,0:0:0:0:
352,96,67489,5,8,0:0:0:0:
352,96,67842,5,8,0:0:0:0:
160,288,68548,5,4,0:0:0:0:
352,96,68901,5,8,0:0:0:0:
160,96,69254,5,0,0:0:0:0:
352,96,69519,5,8,0:0:0:0:
352,96,69783,5,8,0:0:0:0:
160,96,69960,5,0,0:0:0:0:
352,96,70313,5,8,0:0:0:0:
352,96,70666,5,8,0:0:0:0:
160,96,71372,5,0,0:0:0:0:
352,96,71725,5,8,0:0:0:0:
160,96,72078,5,0,0:0:0:0:
352,96,72607,5,8,0:0:0:0:
160,96,72783,5,0,0:0:0:0:
352,96,73136,5,8,0:0:0:0:
160,96,73489,5,0,0:0:0:0:
352,96,73842,5,8,0:0:0:0:
352,96,74019,5,8,0:0:0:0:
160,96,74195,5,0,0:0:0:0:
352,96,74548,5,8,0:0:0:0:
160,96,74901,5,0,0:0:0:0:
352,96,75166,5,8,0:0:0:0:
352,96,75430,5,8,0:0:0:0:
160,96,75607,5,0,0:0:0:0:
352,96,75960,5,8,0:0:0:0:
352,96,76313,5,8,0:0:0:0:
160,96,77019,5,0,0:0:0:0:
352,96,77372,5,8,0:0:0:0:
160,96,77725,5,0,0:0:0:0:
352,96,78254,5,8,0:0:0:0:
160,96,78430,5,0,0:0:0:0:
160,96,78783,5,0,0:0:0:0:
352,96,79136,5,8,0:0:0:0:
352,96,79489,5,8,0:0:0:0:
352,96,79666,5,8,0:0:0:0:
160,288,79842,5,4,0:0:0:0:
352,96,80195,5,8,0:0:0:0:
160,96,80548,5,0,0:0:0:0:
352,96,80813,5,8,0:0:0:0:
352,96,81077,5,8,0:0:0:0:
160,96,81254,5,0,0:0:0:0:
352,96,81607,5,8,0:0:0:0:
352,96,81960,5,8,0:0:0:0:
160,96,82666,5,0,0:0:0:0:
352,96,83019,5,8,0:0:0:0:
160,96,83372,5,0,0:0:0:0:
352,96,83636,5,8,0:0:0:0:
352,96,83901,5,8,0:0:0:0:
160,96,84077,5,0,0:0:0:0:
352,96,84430,5,8,0:0:0:0:
160,96,84783,5,0,0:0:0:0:
352,96,85136,5,8,0:0:0:0:
352,96,85313,5,8,0:0:0:0:
160,96,85489,5,0,0:0:0:0:
352,96,85842,5,8,0:0:0:0:
160,96,86195,5,0,0:0:0:0:
352,96,86460,5,8,0:0:0:0:
352,96,86724,5,8,0:0:0:0:
160,96,86901,5,0,0:0:0:0:
352,96,87254,5,8,0:0:0:0:
352,96,87607,5,8,0:0:0:0:
256,192,88313,12,0,90783,0:0:0:0:
352,96,91136,5,8,0:0:0:0:
160,96,91488,5,0,0:0:0:0:
160,96,92018,5,0,0:0:0:0:
352,96,92371,5,8,0:0:0:0:
352,96,92724,5,8,0:0:0:0:
160,96,93253,5,8,0:0:0:0:
352,96,93607,5,8,0:0:0:0:
160,96,93959,5,0,0:0:0:0:
352,96,94312,5,8,0:0:0:0:
352,96,94841,5,8,0:0:0:0:
160,96,95194,5,0,0:0:0:0:
352,96,95547,5,8,0:0:0:0:
160,96,95724,5,0,0:0:0:0:
352,96,96077,5,8,0:0:0:0:
352,96,96783,5,8,0:0:0:0:
160,96,97135,5,0,0:0:0:0:
352,96,97665,5,8,0:0:0:0:
160,96,98018,5,0,0:0:0:0:
352,96,98371,5,8,0:0:0:0:
352,96,98900,5,8,0:0:0:0:
352,96,99254,5,8,0:0:0:0:
352,96,99606,5,0,0:0:0:0:
160,96,99959,5,0,0:0:0:0:
160,96,100488,5,0,0:0:0:0:
352,96,100841,5,8,0:0:0:0:
352,96,101194,5,8,0:0:0:0:
352,96,101371,5,8,0:0:0:0:
160,96,101724,5,0,0:0:0:0:
352,96,102430,5,8,0:0:0:0:
160,96,102783,5,0,0:0:0:0:
352,96,103312,5,8,0:0:0:0:
160,96,103665,5,0,0:0:0:0:
352,96,104018,5,8,0:0:0:0:
160,96,104194,5,0,0:0:0:0:
352,96,104547,5,8,0:0:0:0:
352,96,104900,5,8,0:0:0:0:
160,96,105253,5,0,0:0:0:0:
160,96,105430,5,0,0:0:0:0:
352,96,105606,5,8,0:0:0:0:
160,96,105959,5,0,0:0:0:0:
160,96,106312,5,0,0:0:0:0:
352,96,106665,5,8,0:0:0:0:
352,96,106841,5,8,0:0:0:0:
160,96,107018,5,0,0:0:0:0:
352,96,107371,5,8,0:0:0:0:
352,96,108077,5,8,0:0:0:0:
160,96,108430,5,0,0:0:0:0:
352,96,108959,5,8,0:0:0:0:
160,96,109312,5,0,0:0:0:0:
352,96,109665,5,8,0:0:0:0:
352,96,110194,5,8,0:0:0:0:
160,96,110547,5,0,0:0:0:0:
352,96,110901,5,8,0:0:0:0:
352,96,111254,5,8,0:0:0:0:
352,96,111783,5,8,0:0:0:0:
256,192,112136,12,0,115136,0:0:0:0:
