osu file format v14

[General]
AudioFilename: audio.mp3
AudioLeadIn: 0
PreviewTime: 3644
Countdown: 0
SampleSet: Soft
StackLeniency: 0.4
Mode: 0
LetterboxInBreaks: 0
WidescreenStoryboard: 0

[Editor]
Bookmarks: 3719,4919,14519,24119,33719,48119,57719,67319,76919,86519,96119,109319,110519
DistanceSpacing: 1.6
BeatDivisor: 8
GridSize: 32
TimelineZoom: 2.3

[Metadata]
Title:Aoharu Band Arrange
TitleUnicode:Aoharu Band Arrange
Artist:Mitsukiyo
ArtistUnicode:ミツキヨ
Creator:lit120
Version:Miracles
Source:ブルーアーカイブ -Blue Archive-
Tags:Yostar nat games nexon Blue Archive 블루 아카이브 ブルアカ blueaka mobile rpg instrumental video game gacha electronic Original Soundtrack OST Vol.4 Vol 4 ~Aiming for the ideal freedom~ NezMayo JuNN vgm electric guitar Theme 152 -Hakurei- Lancien rawrneru i love traps
BeatmapID:4055407
BeatmapSetID:1957516

[Difficulty]
HPDrainRate:6
CircleSize:4.5
OverallDifficulty:9
ApproachRate:9.4
SliderMultiplier:3.59999990463257
SliderTickRate:1

[Events]
//Background and Video events
0,0,"bg.jpg",0,0
//Break Periods
//Storyboard Layer 0 (Background)
//Storyboard Layer 1 (Fail)
//Storyboard Layer 2 (Pass)
//Storyboard Layer 3 (Foreground)
//Storyboard Layer 4 (Overlay)
//Storyboard Sound Samples

[TimingPoints]
119,600,4,2,1,40,1,0
3719,-200,4,2,1,40,0,0
4919,-400,4,2,1,55,0,0
6119,-200,4,2,1,55,0,0
7319,-400,4,2,1,55,0,0
8519,-200,4,2,1,55,0,0
9719,-400,4,2,1,55,0,0
10919,-200,4,2,1,55,0,0
12119,-400,4,2,1,55,0,0
13319,-200,4,2,1,55,0,0
14519,-400,4,2,1,55,0,0
15719,-200,4,2,1,55,0,0
16919,-400,4,2,1,55,0,0
18119,-200,4,2,1,55,0,0
19319,-400,4,2,1,55,0,0
20519,-200,4,2,1,55,0,0
21719,-400,4,2,1,55,0,0
22919,-200,4,2,1,55,0,0
24119,-133.333333333333,4,2,1,65,0,0
43319,-200,4,2,1,65,0,0
44519,-400,4,2,1,55,0,0
48119,-133.333333333333,4,2,1,65,0,0
57719,-100,4,2,1,75,0,0
66119,-200,4,2,1,50,0,0
66719,-83.3333333333333,4,2,1,75,0,0
66794,-83.3333333333333,4,2,1,5,0,0
66869,-83.3333333333333,4,2,1,75,0,0
66944,-83.3333333333333,4,2,1,5,0,0
67019,-166.666666666667,4,2,1,75,0,0
67244,-166.666666666667,4,2,1,5,0,0
67319,-83.3333333333333,4,2,1,85,0,1
84644,-83.3333333333333,4,2,1,5,0,1
84719,-83.3333333333333,4,2,1,85,0,1
85394,-83.3333333333333,4,2,1,5,0,1
85469,-83.3333333333333,4,2,1,85,0,1
85544,-83.3333333333333,4,2,1,5,0,1
85619,-83.3333333333333,4,2,1,85,0,1
85844,-83.3333333333333,4,2,1,5,0,1
85919,-83.3333333333333,4,2,1,85,0,1
85994,-83.3333333333333,4,2,1,5,0,1
86069,-83.3333333333333,4,2,1,85,0,1
86144,-83.3333333333333,4,2,1,5,0,1
86219,-83.3333333333333,4,2,1,85,0,1
86294,-83.3333333333333,4,2,1,5,0,1
86369,-83.3333333333333,4,2,1,85,0,1
86444,-83.3333333333333,4,2,1,5,0,1
86519,-83.3333333333333,4,2,1,85,0,1
105719,-200,4,2,1,85,0,0
106619,-200,4,2,1,55,0,0
109319,-200,4,2,1,40,0,0
110519,-200,4,2,1,20,0,0

[Colours]
Combo1 : 237,204,105
Combo2 : 119,189,247
Combo3 : 248,133,205
Combo4 : 56,154,207

[HitObjects]
207,59,3719,6,0,P|169:35|125:37,1,89.9999976158143,2|0,0:0|0:0,0:0:0:0:
83,197,4169,2,0,P|120:222|164:220,1,89.9999976158143,2|0,0:0|0:0,0:0:0:0:
151,106,4619,2,0,L|139:150,1,44.9999988079071,2|0,0:0|0:0,0:0:0:0:
25,243,4919,6,0,P|12:215|11:180,2,67.4999982118607,6|0|0,3:2|0:0|0:0,0:0:0:0:
262,383,6119,6,0,P|316:364|324:300,1,89.9999976158143,10|0,0:0|0:0,0:0:0:0:
414,300,6569,2,0,P|395:246|331:238,1,89.9999976158143,2|0,0:0|0:0,0:0:0:0:
331,148,7019,2,0,P|308:148|287:157,1,44.9999988079071,2|0,0:0|0:0,0:0:0:0:
180,231,7319,6,0,P|183:264|204:289,2,67.4999982118607,2|0|0,3:2|0:0|0:0,0:0:0:0:
392,9,8519,6,0,P|387:68|382:135,1,89.9999976158143,2|0,0:0|0:0,0:0:0:0:
331,148,8969,1,2,0:0:0:0:
268,58,9119,1,0,0:0:0:0:
256,60,9194,1,0,0:0:0:0:
245,62,9269,1,0,0:0:0:0:
234,64,9344,1,0,0:0:0:0:
223,66,9419,1,2,0:0:0:0:
212,68,9494,1,0,0:0:0:0:
201,70,9569,1,0,0:0:0:0:
190,72,9644,1,0,0:0:0:0:
179,74,9719,6,0,P|124:71|103:69,2,67.4999982118607,2|0|0,3:2|0:0|0:0,0:0:0:0:
368,236,10919,6,0,P|342:272|302:292,1,89.9999976158143,10|0,0:0|0:0,0:0:0:0:
200,175,11369,2,0,P|197:219|216:259,1,89.9999976158143,2|0,0:0|0:0,0:0:0:0:
298,161,11819,2,0,L|284:204,1,44.9999988079071,2|0,0:0|0:0,0:0:0:0:
149,315,12119,6,0,P|91:307|71:304,2,67.4999982118607,2|0|0,3:2|0:0|0:0,0:0:0:0:
185,82,13319,6,0,P|135:119|73:102,1,89.9999976158143,2|0,0:2|0:0,0:0:0:0:
57,69,13769,1,2,0:0:0:0:
173,3,13919,1,0,0:0:0:0:
184,5,13994,1,0,0:0:0:0:
195,7,14069,1,0,0:0:0:0:
206,9,14144,1,0,0:0:0:0:
217,11,14219,1,2,0:0:0:0:
228,13,14294,1,0,0:0:0:0:
239,15,14369,1,0,0:0:0:0:
250,17,14444,1,0,0:0:0:0:
261,19,14519,6,0,P|304:17|336:15,2,67.4999982118607,2|0|0,3:2|0:0|0:0,0:0:0:0:
421,231,15719,6,0,L|437:142,1,89.9999976158143,10|0,0:0|0:0,0:0:0:0:
275,111,16169,2,0,L|259:200,1,89.9999976158143,2|0,0:0|0:0,0:0:0:0:
344,193,16619,2,0,L|353:149,1,44.9999988079071,2|0,0:0|0:0,0:0:0:0:
222,278,16919,6,0,P|230:323|235:363,2,67.4999982118607,2|0|0,3:2|0:0|0:0,0:0:0:0:
2,126,18119,6,0,P|7:184|15:257,1,89.9999976158143,2|0,0:0|0:0,0:0:0:0:
19,287,18569,1,2,0:0:0:0:
94,157,18719,1,0,0:0:0:0:
93,145,18794,1,0,0:0:0:0:
92,134,18869,1,0,0:0:0:0:
91,123,18944,1,0,0:0:0:0:
90,112,19019,1,2,0:0:0:0:
89,100,19094,1,0,0:0:0:0:
88,89,19169,1,0,0:0:0:0:
86,78,19244,1,0,0:0:0:0:
85,66,19319,6,0,P|86:33|88:0,2,67.4999982118607,2|0|0,3:2|0:0|0:0,0:0:0:0:
268,314,20519,6,0,P|212:281|159:286,1,89.9999976158143,10|0,0:0|0:0,0:0:0:0:
351,183,20969,2,0,P|288:199|254:240,1,89.9999976158143,2|0,0:0|0:0,0:0:0:0:
317,31,21419,2,0,P|301:47|290:66,1,44.9999988079071,2|0,0:0|0:0,0:0:0:0:
158,146,21719,6,0,P|125:138|92:134,2,67.4999982118607,2|0|0,3:2|0:0|0:0,0:0:0:0:
23,333,22919,6,0,P|65:302|121:308,1,89.9999976158143,2|0,0:0|0:0,0:0:0:0:
157,345,23369,1,2,0:0:0:0:
243,272,23519,1,0,0:0:0:0:
254,274,23594,1,0,0:0:0:0:
265,276,23669,1,0,0:0:0:0:
276,278,23744,1,0,0:0:0:0:
287,280,23819,1,2,0:0:0:0:
298,282,23894,1,0,0:0:0:0:
309,284,23969,1,0,1:2:0:0:
320,286,24044,1,0,1:2:0:0:
331,288,24119,6,0,P|380:242|350:148,1,135.000001573563,2|0,3:2|0:0,0:0:0:0:
253,17,24569,2,0,P|265:135|268:184,1,135.000001573563,0|0,3:2|0:0,0:0:0:0:
177,332,25019,2,0,P|167:273|162:239,1,67.5000007867814,0|0,3:2|0:0,0:0:0:0:
70,62,25319,5,10,0:0:0:0:
5,133,25469,2,0,P|59:158|149:118,1,135.000001573563,0|2,1:2|0:0,0:0:0:0:
243,12,25919,2,0,P|211:47|182:106,1,67.5000007867814,0|0,1:2|0:0,0:0:0:0:
252,224,26219,2,0,P|237:178|201:124,1,67.5000007867814,2|0,0:0|0:0,0:0:0:0:
378,1,26519,6,0,P|449:54|533:24,1,135.000001573563,2|0,3:2|0:0,0:0:0:0:
348,223,26969,2,0,P|338:140|321:27,1,135.000001573563,0|0,3:2|0:0,0:0:0:0:
488,234,27419,2,0,P|477:297|471:342,1,67.5000007867814,0|0,3:2|0:0,0:0:0:0:
324,370,27719,5,10,0:0:0:0:
242,297,27869,2,0,P|155:308|66:317,1,135.000001573563,0|2,1:2|0:0,0:0:0:0:
6,216,28319,1,0,1:2:0:0:
12,191,28394,1,0,0:0:0:0:
26,169,28469,1,0,0:0:0:0:
43,151,28544,1,0,0:0:0:0:
65,138,28619,1,2,0:0:0:0:
89,131,28694,1,0,0:0:0:0:
115,130,28769,1,0,0:0:0:0:
139,136,28844,1,0,0:0:0:0:
162,146,28919,6,0,P|226:169|288:104,1,135.000001573563,2|0,3:2|0:0,0:0:0:0:
397,310,29369,2,0,P|384:243|297:221,1,135.000001573563,0|0,3:2|0:0,0:0:0:0:
422,24,29819,2,0,P|391:39|371:65,1,67.5000007867814,0|0,3:2|0:0,0:0:0:0:
166,166,30119,5,10,0:0:0:0:
62,56,30269,2,0,P|71:146|80:244,1,135.000001573563,0|2,1:2|0:0,0:0:0:0:
4,331,30719,2,0,P|15:274|24:238,1,67.5000007867814,0|0,1:2|0:0,0:0:0:0:
141,382,31019,2,0,P|130:325|121:289,1,67.5000007867814,2|0,0:0|0:0,0:0:0:0:
289,186,31319,6,0,B|344:194|344:194|358:211|358:211|413:219,1,135.000001573563,2|0,3:2|0:0,0:0:0:0:
266,55,31769,2,0,B|210:63|210:63|196:80|196:80|141:88,1,135.000001573563,0|0,3:2|0:0,0:0:0:0:
14,253,32219,2,0,P|6:195|-2:138,1,67.5000007867814,0|0,3:2|0:0,0:0:0:0:
161,369,32519,5,10,0:0:0:0:
232,297,32669,2,0,P|173:268|108:282,1,135.000001573563,0|2,1:2|0:0,0:0:0:0:
261,384,33119,1,0,1:2:0:0:
286,380,33194,1,0,0:0:0:0:
311,377,33269,1,0,0:0:0:0:
336,374,33344,1,0,0:0:0:0:
361,371,33419,1,2,0:0:0:0:
386,369,33494,1,0,0:0:0:0:
411,367,33569,1,0,0:0:0:0:
437,365,33644,1,0,0:0:0:0:
462,363,33719,6,0,P|509:304|449:218,1,135.000001573563,2|0,3:2|0:0,0:0:0:0:
334,132,34169,2,0,P|325:196|370:244,1,135.000001573563,0|0,3:2|0:0,0:0:0:0:
486,113,34619,2,0,P|480:32|477:-16,1,67.5000007867814,0|0,3:2|0:0,0:0:0:0:
306,0,34919,5,10,0:0:0:0:
236,61,35069,2,0,B|180:52|180:52|166:35|166:35|111:27,1,135.000001573563,0|2,1:2|0:0,0:0:0:0:
280,142,35519,2,0,P|306:120|322:91,1,67.5000007867814,0|0,1:2|0:0,0:0:0:0:
164,185,35819,2,0,P|171:248|177:299,1,67.5000007867814,2|0,0:0|0:0,0:0:0:0:
335,382,36119,6,0,P|277:327|199:372,1,135.000001573563,2|0,3:2|0:0,0:0:0:0:
52,292,36569,2,0,P|157:268|244:242,1,135.000001573563,0|0,3:2|0:0,0:0:0:0:
347,182,37019,2,0,P|314:173|282:166,1,67.5000007867814,0|0,3:2|0:0,0:0:0:0:
140,20,37319,5,10,0:0:0:0:
84,100,37469,2,0,P|148:117|210:88,1,135.000001573563,0|2,1:2|0:0,0:0:0:0:
359,7,37919,1,0,1:2:0:0:
383,2,37994,1,0,0:0:0:0:
408,6,38069,1,0,0:0:0:0:
430,18,38144,1,0,0:0:0:0:
447,37,38219,1,2,0:0:0:0:
456,61,38294,1,0,0:0:0:0:
457,86,38369,1,0,0:0:0:0:
450,110,38444,1,0,0:0:0:0:
435,130,38519,6,0,P|444:221|451:317,1,135.000001573563,2|0,3:2|0:0,0:0:0:0:
320,382,38969,2,0,P|311:291|304:195,1,135.000001573563,0|0,3:2|0:0,0:0:0:0:
163,149,39419,2,0,P|167:197|172:240,1,67.5000007867814,0|0,3:2|0:0,0:0:0:0:
336,74,39719,5,10,0:0:0:0:
264,17,39869,2,0,B|208:25|208:25|194:42|194:42|139:50,1,135.000001573563,0|2,1:2|0:0,0:0:0:0:
243,174,40319,2,0,P|246:140|250:107,1,67.5000007867814,0|0,1:2|0:0,0:0:0:0:
91,199,40619,2,0,P|94:232|97:266,1,67.5000007867814,2|0,0:0|0:0,0:0:0:0:
248,381,40919,6,0,P|187:332|135:351,1,135.000001573563,2|0,3:2|0:0,0:0:0:0:
304,224,41369,2,0,P|367:236|413:190,1,135.000001573563,0|0,3:2|0:0,0:0:0:0:
264,17,41819,2,0,P|271:73|275:124,1,67.5000007867814,0|0,3:2|0:0,0:0:0:0:
121,266,42119,5,10,0:0:0:0:
30,161,42269,2,0,P|111:177|221:195,1,135.000001573563,0|2,1:2|0:0,0:0:0:0:
309,377,42719,1,0,1:2:0:0:
334,375,42794,1,0,0:0:0:0:
357,366,42869,1,0,0:0:0:0:
376,350,42944,1,0,0:0:0:0:
390,328,43019,1,2,0:0:0:0:
396,304,43094,1,0,0:0:0:0:
394,279,43169,1,0,1:2:0:0:
385,255,43244,1,0,0:0:0:0:
368,236,43319,6,0,B|319:197|287:110|338:30|429:74|418:139|371:135,1,269.999992847443,6|0,3:2|0:0,0:0:0:0:
248,69,44519,6,0,P|253:36|258:3,2,67.4999982118607,2|2|2,0:0|0:0|0:0,0:0:0:0:
114,230,45719,6,0,B|161:258|184:315|184:315|177:254|203:205,1,224.999994039536,2|0,0:0|0:0,0:0:0:0:
203,205,47519,2,0,L|204:189,7,11.2499997019768
278,232,48119,6,0,P|337:218|383:209,1,67.5000007867814,6|2,3:2|0:0,0:0:0:0:
422,100,48419,1,2,0:0:0:0:
422,100,48569,2,0,P|404:158|389:202,1,67.5000007867814,2|0,0:0|3:2,0:0:0:0:
464,290,48869,1,2,0:0:0:0:
464,290,49019,2,0,P|422:245|391:210,1,67.5000007867814,2|2,0:0|0:0,0:0:0:0:
250,361,49319,5,2,3:2:0:0:
187,291,49469,1,2,0:0:0:0:
278,272,49619,1,2,0:0:0:0:
158,379,49769,2,0,P|85:368|34:361,1,67.5000007867814,2|0,0:0|3:2,0:0:0:0:
278,272,50069,1,2,0:0:0:0:
278,272,50219,2,0,P|311:267|344:261,1,67.5000007867814,2|2,0:0|0:0,0:0:0:0:
193,111,50519,5,2,3:2:0:0:
85,175,50669,1,2,0:0:0:0:
106,89,50819,1,2,0:0:0:0:
171,197,50969,2,0,P|165:242|165:268,1,67.5000007867814,2|0,0:0|3:2,0:0:0:0:
106,89,51269,2,0,P|111:43|111:17,2,67.5000007867814,2|2|2,0:0|0:0|0:0,0:0:0:0:
265,243,51719,5,2,3:2:0:0:
407,178,51869,1,2,0:0:0:0:
280,88,52019,1,2,0:0:0:0:
407,178,52169,2,0,P|468:174|496:172,1,67.5000007867814,2|0,0:0|3:2,0:0:0:0:
336,211,52469,1,2,0:0:0:0:
273,166,52619,1,2,0:0:0:0:
344,133,52769,1,2,0:0:0:0:
290,21,52919,6,0,P|285:54|279:87,1,67.5000007867814,2|2,3:2|0:0,0:0:0:0:
176,173,53219,1,2,0:0:0:0:
176,173,53369,2,0,P|180:139|186:106,1,67.5000007867814,2|0,0:0|3:2,0:0:0:0:
336,211,53669,1,2,0:0:0:0:
336,211,53819,2,0,P|331:244|325:277,1,67.5000007867814,2|2,0:0|0:0,0:0:0:0:
222,363,54119,5,2,3:2:0:0:
160,309,54269,1,2,0:0:0:0:
237,282,54419,1,2,0:0:0:0:
79,293,54569,2,0,P|15:284|-23:281,1,67.5000007867814,2|0,0:0|3:2,0:0:0:0:
109,182,54869,1,2,0:0:0:0:
109,182,55019,2,0,P|142:178|176:173,1,67.5000007867814,2|2,0:0|0:0,0:0:0:0:
357,29,55319,5,2,3:2:0:0:
290,92,55469,1,2,0:0:0:0:
202,67,55619,1,2,0:0:0:0:
312,181,55769,2,0,P|306:240|304:264,1,67.5000007867814,2|0,0:0|3:2,0:0:0:0:
431,154,56069,2,0,P|427:120|424:86,2,67.5000007867814,2|2|2,0:0|0:0|0:0,0:0:0:0:
266,47,56519,6,0,P|234:58|202:67,1,67.5000007867814,2|2,3:2|0:0,0:0:0:0:
140,120,56819,1,2,0:0:0:0:
140,266,56969,2,0,P|146:232|155:200,1,67.5000007867814,2|0,0:0|3:2,0:0:0:0:
14,47,57269,1,2,0:0:0:0:
14,47,57344,1,2,0:0:0:0:
14,47,57419,2,0,P|39:69|63:93,1,67.5000007867814,2|2,0:0|0:0,0:0:0:0:
151,281,57719,5,2,3:2:0:0:
325,204,57869,1,2,1:2:0:0:
199,155,58019,1,2,3:2:0:0:
276,329,58169,1,2,1:2:0:0:
140,266,58319,2,0,P|66:277|29:281,1,89.9999976158143,0|2,3:2|1:2,0:0:0:0:
336,219,58619,2,0,P|410:208|447:204,1,89.9999976158143,2|2,3:2|1:2,0:0:0:0:
252,90,58919,5,2,3:2:0:0:
151,281,59069,1,2,1:2:0:0:
257,193,59219,1,2,3:2:0:0:
358,384,59369,1,2,1:2:0:0:
464,296,59519,2,0,P|453:222|439:150,1,89.9999976158143,0|2,3:2|1:2,0:0:0:0:
341,57,59819,2,0,P|352:131|366:203,1,89.9999976158143,2|2,3:2|1:2,0:0:0:0:
208,368,60119,5,2,3:2:0:0:
326,213,60269,1,2,1:2:0:0:
214,172,60419,1,2,3:2:0:0:
322,333,60569,1,2,1:2:0:0:
140,266,60719,2,0,P|66:277|29:281,1,89.9999976158143,0|2,3:2|1:2,0:0:0:0:
195,96,61019,2,0,P|269:107|306:111,1,89.9999976158143,2|2,3:2|1:2,0:0:0:0:
114,10,61319,5,2,3:2:0:0:
183,189,61469,1,2,1:2:0:0:
307,114,61619,1,2,3:2:0:0:
247,295,61769,2,0,P|241:339|236:384,1,89.9999976158143,2|0,1:2|3:2,0:0:0:0:
356,219,62069,1,2,1:2:0:0:
329,119,62219,1,2,3:2:0:0:
256,192,62369,1,2,3:2:0:0:
256,192,62444,1,0,3:2:0:0:
256,192,62519,5,2,3:2:0:0:
450,55,62669,1,2,3:2:0:0:
421,221,62819,1,2,3:2:0:0:
284,26,62969,1,2,3:2:0:0:
331,239,63119,5,0,3:2:0:0:
373,4,63269,1,2,3:2:0:0:
469,142,63419,1,2,3:2:0:0:
234,101,63569,1,2,3:2:0:0:
59,327,63719,5,2,3:2:0:0:
256,192,63869,1,2,3:2:0:0:
89,161,64019,1,2,3:2:0:0:
226,356,64169,1,2,3:2:0:0:
179,143,64319,5,0,3:2:0:0:
138,379,64469,1,2,3:2:0:0:
40,240,64619,1,2,3:2:0:0:
276,281,64769,1,2,3:2:0:0:
142,64,64919,5,2,3:2:0:0:
186,41,64994,1,0,3:2:0:0:
234,50,65069,1,2,3:2:0:0:
269,84,65144,1,0,3:2:0:0:
288,129,65219,1,2,3:2:0:0:
331,152,65294,1,0,3:2:0:0:
379,144,65369,1,2,3:2:0:0:
404,101,65444,1,0,3:2:0:0:
385,54,65519,5,0,3:2:0:0:
340,98,65594,1,0,3:2:0:0:
342,160,65669,1,2,3:2:0:0:
391,198,65744,1,0,3:2:0:0:
452,211,65819,1,2,3:2:0:0:
494,257,65894,1,0,3:2:0:0:
496,319,65969,1,2,3:2:0:0:
453,365,66044,1,0,3:2:0:0:
389,357,66119,6,0,B|394:320|394:320|405:311|405:311|411:273,1,89.9999976158143,2|0,3:2|0:0,0:0:0:0:
342,160,66569,1,2,1:2:0:0:
342,160,66644,1,0,1:2:0:0:
342,160,66719,6,0,P|315:164|288:169,1,53.9999969215394,0|0,1:2|0:0,0:0:0:0:
126,272,66869,2,0,P|152:267|179:262,1,53.9999969215394,0|0,1:2|0:0,0:0:0:0:
60,93,67019,6,0,P|41:115|70:105,1,80.9999953823091,4|0,0:3|0:0,0:0:0:0:
6,32,67319,6,0,P|15:156|23:264,1,215.999987686158,6|0,3:2|0:0,0:0:0:0:
83,341,67769,1,0,3:2:0:0:
212,162,67919,2,0,P|132:179|78:184,1,107.999993843079,8|0,1:2|0:0,0:0:0:0:
286,382,68219,2,0,P|294:301|304:237,1,107.999993843079,0|0,3:2|0:0,0:0:0:0:
479,77,68519,6,0,L|463:194,1,107.999993843079,2|0,0:0|0:0,0:0:0:0:
449,291,68819,1,0,3:2:0:0:
283,167,68969,2,0,L|299:284,1,107.999993843079,2|8,0:0|1:2,0:0:0:0:
312,381,69269,1,0,0:0:0:0:
380,161,69419,1,2,0:0:0:0:
277,70,69569,1,2,0:0:0:0:
277,70,69644,1,2,0:0:0:0:
277,70,69719,6,0,B|187:85|187:85|166:114|166:114|78:129,1,215.999987686158,2|0,3:2|0:0,0:0:0:0:
252,161,70169,1,0,3:2:0:0:
104,39,70319,2,0,P|50:40|6:69,1,107.999993843079,8|0,1:2|0:0,0:0:0:0:
252,161,70619,2,0,P|305:159|349:130,1,107.999993843079,0|0,3:2|0:0,0:0:0:0:
154,329,70919,5,2,0:0:0:0:
79,261,71069,1,0,0:0:0:0:
174,229,71219,1,0,3:2:0:0:
174,229,71294,1,0,3:2:0:0:
174,229,71369,1,2,3:2:0:0:
58,360,71519,1,8,1:2:0:0:
249,297,71669,1,0,0:0:0:0:
99,162,71819,2,0,P|107:101|113:28,1,107.999993843079,2|0,0:0|0:0,0:0:0:0:
293,233,72119,6,0,B|360:244|386:183|368:180|394:118|461:130,1,215.999987686158,6|0,3:2|0:0,0:0:0:0:
340,45,72569,1,0,3:2:0:0:
456,219,72719,2,0,P|446:290|441:344,1,107.999993843079,8|0,1:2|0:0,0:0:0:0:
299,145,73019,1,0,3:2:0:0:
213,271,73169,1,0,0:0:0:0:
135,88,73319,6,0,B|176:32|176:32|153:209,1,215.999987686158,2|0,0:0|3:2,0:0:0:0:
0,326,73769,2,0,B|41:382|41:382|18:205,1,215.999987686158,2|0,0:0|0:0,0:0:0:0:
241,350,74219,2,0,P|175:337|100:328,1,107.999993843079,2|0,0:0|0:0,0:0:0:0:
296,214,74519,6,0,P|403:201|510:188,1,215.999987686158,2|0,3:2|0:0,0:0:0:0:
415,103,74969,1,0,3:2:0:0:
324,340,75119,2,0,P|316:279|306:222,1,107.999993843079,8|0,1:2|0:0,0:0:0:0:
133,157,75419,2,0,P|140:210|149:264,1,107.999993843079,0|0,3:2|0:0,0:0:0:0:
345,86,75719,6,0,P|282:128|215:119,1,107.999993843079,2|0,0:0|0:0,0:0:0:0:
161,167,76019,1,0,3:2:0:0:
0,49,76169,2,0,P|67:82|93:145,1,107.999993843079,2|8,0:0|1:2,0:0:0:0:
161,167,76469,1,0,0:0:0:0:
140,367,76619,2,0,P|130:314|148:264,1,107.999993843079,2|0,0:0|0:0,0:0:0:0:
349,105,76919,6,0,B|417:118|470:132|470:132|512:99|480:52,1,215.999987686158,6|0,3:2|0:0,0:0:0:0:
393,9,77369,1,0,3:2:0:0:
313,205,77519,2,0,P|320:299|321:349,1,107.999993843079,8|0,1:2|0:0,0:0:0:0:
169,145,77819,2,0,P|176:50|177:0,1,107.999993843079,0|0,3:2|0:0,0:0:0:0:
55,267,78119,5,2,0:0:0:0:
165,166,78269,1,0,0:0:0:0:
197,370,78419,1,0,3:2:0:0:
51,288,78569,1,2,0:0:0:0:
287,216,78719,2,0,P|373:230|439:239,1,107.999993843079,8|0,1:2|0:0,0:0:0:0:
261,73,79019,1,2,0:0:0:0:
353,8,79169,1,2,0:0:0:0:
353,8,79244,1,2,0:0:0:0:
353,8,79319,6,0,B|415:22|474:34|474:34|498:77|453:115,1,215.999987686158,2|0,3:2|0:0,0:0:0:0:
379,216,79769,1,0,3:2:0:0:
232,68,79919,2,0,P|137:79|89:83,1,107.999993843079,8|0,1:2|0:0,0:0:0:0:
263,291,80219,2,0,P|276:204|288:144,1,107.999993843079,0|0,3:2|0:0,0:0:0:0:
451,4,80519,5,2,0:0:0:0:
485,136,80669,1,0,0:0:0:0:
353,99,80819,1,0,3:2:0:0:
403,301,80969,2,0,P|473:320|468:208,1,215.999987686158,2|0,0:0|0:0,0:0:0:0:
290,162,81419,2,0,P|236:169|182:174,1,107.999993843079,2|0,0:0|0:0,0:0:0:0:
7,367,81719,6,0,P|86:267|162:311,1,215.999987686158,6|0,3:2|0:0,0:0:0:0:
233,374,82169,1,0,3:2:0:0:
363,198,82319,2,0,P|354:100|350:56,1,107.999993843079,8|0,1:2|0:0,0:0:0:0:
199,23,82619,2,0,P|208:121|212:165,1,107.999993843079,0|0,3:2|0:0,0:0:0:0:
379,329,82919,6,0,L|262:306,1,107.999993843079,2|0,0:0|0:0,0:0:0:0:
166,287,83219,1,0,3:2:0:0:
469,177,83369,2,0,L|363:198,1,107.999993843079,2|8,0:0|1:2,0:0:0:0:
256,219,83669,1,0,0:0:0:0:
392,54,83819,1,2,0:0:0:0:
298,8,83969,1,2,0:0:0:0:
298,8,84044,1,2,0:0:0:0:
298,8,84119,6,0,P|215:22|59:42,1,215.999987686158,2|0,3:2|0:0,0:0:0:0:
239,171,84569,2,0,P|234:215|227:258,1,53.9999969215394,0|0,3:2|0:0,0:0:0:0:
150,290,84719,2,0,P|76:272|62:232,1,107.999993843079,8|0,1:2|0:0,0:0:0:0:
241,93,85019,2,0,P|293:106|364:122,1,107.999993843079,0|0,3:2|0:0,0:0:0:0:
495,318,85319,6,0,P|485:290|469:266,1,53.9999969215394,2|0,0:0|0:0,0:0:0:0:
354,229,85469,2,0,P|382:234|411:232,1,53.9999969215394
499,151,85619,1,0,3:2:0:0:
499,151,85694,1,0,3:2:0:0:
499,151,85769,2,0,P|479:172|467:199,1,53.9999969215394,0|0,1:2|0:0,0:0:0:0:
334,342,85919,6,0,P|380:330|424:325,1,53.9999969215394,0|0,1:2|0:0,0:0:0:0:
222,165,86069,2,0,P|248:173|275:179,1,53.9999969215394,0|0,1:2|0:0,0:0:0:0:
113,308,86219,2,0,P|159:296|203:291,1,53.9999969215394,8|0,0:3|0:0,0:0:0:0:
2,200,86369,2,0,P|48:212|92:217,1,53.9999969215394,4|0,0:3|0:0,0:0:0:0:
212,33,86519,6,0,P|127:11|105:131,1,215.999987686158,6|0,3:2|0:0,0:0:0:0:
151,205,86969,1,0,3:2:0:0:
287,71,87119,2,0,P|279:125|275:179,1,107.999993843079,8|0,1:2|0:0,0:0:0:0:
377,350,87419,2,0,P|384:296|389:242,1,107.999993843079,0|0,3:2|0:0,0:0:0:0:
494,36,87719,5,2,0:0:0:0:
386,103,87869,1,0,0:0:0:0:
499,163,88019,1,0,3:2:0:0:
499,163,88094,1,0,3:2:0:0:
499,163,88169,1,2,3:2:0:0:
310,32,88319,2,0,P|240:49|186:60,1,107.999993843079,8|0,1:2|0:0,0:0:0:0:
369,224,88619,1,2,0:0:0:0:
287,311,88769,1,2,0:0:0:0:
287,311,88844,1,2,0:0:0:0:
287,311,88919,6,0,B|219:317|197:254|215:252|194:189|126:196,1,215.999987686158,2|0,3:2|0:0,0:0:0:0:
259,122,89369,1,0,3:2:0:0:
132,330,89519,2,0,P|59:323|-9:318,1,107.999993843079,8|0,1:2|0:0,0:0:0:0:
230,215,89819,2,0,P|283:210|337:205,1,107.999993843079,0|0,3:2|0:0,0:0:0:0:
83,10,90119,6,0,L|106:127,1,107.999993843079,2|0,0:0|0:0,0:0:0:0:
125,223,90419,1,0,3:2:0:0:
271,93,90569,2,0,L|248:210,1,107.999993843079,2|8,0:0|1:2,0:0:0:0:
229,306,90869,1,0,0:0:0:0:
416,187,91019,1,2,0:0:0:0:
506,344,91169,1,2,0:0:0:0:
506,344,91244,1,2,0:0:0:0:
506,344,91319,6,0,P|405:356|395:237,1,215.999987686158,6|0,3:2|0:0,0:0:0:0:
448,172,91769,1,0,3:2:0:0:
297,25,91919,2,0,P|306:127|308:155,1,107.999993843079,8|0,1:2|0:0,0:0:0:0:
166,263,92219,2,0,P|157:161|155:133,1,107.999993843079,0|0,3:2|0:0,0:0:0:0:
288,372,92519,5,2,0:0:0:0:
183,291,92669,1,0,0:0:0:0:
381,236,92819,1,0,3:2:0:0:
276,155,92969,1,2,0:0:0:0:
399,361,93119,2,0,P|452:352|506:344,1,107.999993843079,8|0,1:2|0:0,0:0:0:0:
390,157,93419,1,2,0:0:0:0:
499,74,93569,1,2,0:0:0:0:
499,74,93644,1,2,0:0:0:0:
499,74,93719,6,0,B|409:59|409:59|388:30|388:30|300:15,1,215.999987686158,2|0,3:2|0:0,0:0:0:0:
201,77,94169,1,0,3:2:0:0:
298,253,94319,2,0,P|305:169|312:122,1,107.999993843079,8|0,1:2|0:0,0:0:0:0:
162,273,94619,2,0,P|168:326|172:380,1,107.999993843079,0|0,3:2|0:0,0:0:0:0:
62,152,94919,5,2,0:0:0:0:
143,78,95069,1,0,0:0:0:0:
165,185,95219,1,0,3:2:0:0:
165,185,95294,1,0,3:2:0:0:
165,185,95369,1,2,3:2:0:0:
39,45,95519,1,8,1:2:0:0:
84,258,95669,1,0,0:0:0:0:
247,112,95819,2,0,P|323:130|372:140,1,107.999993843079,2|0,0:0|0:0,0:0:0:0:
479,340,96119,6,0,P|436:269|305:297,1,215.999987686158,6|0,3:2|0:0,0:0:0:0:
247,370,96569,1,0,3:2:0:0:
138,194,96719,2,0,P|222:214|268:220,1,107.999993843079,8|0,1:2|0:0,0:0:0:0:
391,73,97019,1,0,3:2:0:0:
277,148,97169,1,0,0:0:0:0:
158,2,97319,6,0,P|165:73|170:122,1,107.999993843079,2|0,0:0|0:0,0:0:0:0:
224,299,97619,1,0,3:2:0:0:
324,214,97769,1,2,0:0:0:0:
117,183,97919,2,0,P|49:194|-19:202,1,107.999993843079,8|0,1:2|0:0,0:0:0:0:
162,5,98219,1,2,0:0:0:0:
246,67,98369,1,2,0:2:0:0:
246,67,98444,1,2,0:2:0:0:
246,67,98519,6,0,B|336:56|336:56|359:28|359:28|447:18,1,215.999987686158,2|0,3:2|0:0,0:0:0:0:
503,110,98969,1,0,3:2:0:0:
343,188,99119,2,0,P|268:176|231:171,1,107.999993843079,8|0,1:2|0:0,0:0:0:0:
367,312,99419,2,0,P|420:304|473:295,1,107.999993843079,0|0,3:2|0:0,0:0:0:0:
352,65,99719,6,0,P|337:152|327:202,1,107.999993843079,2|0,0:0|0:0,0:0:0:0:
276,357,100019,1,0,3:2:0:0:
195,253,100169,2,0,B|129:235|96:293|113:298|82:356|16:338,1,215.999987686158,2|0,0:0|0:0,0:0:0:0:
139,126,100619,1,2,0:0:0:0:
21,48,100769,1,2,0:0:0:0:
21,48,100844,1,2,0:0:0:0:
21,48,100919,6,0,P|30:168|35:270,1,215.999987686158,6|0,3:2|0:0,0:0:0:0:
177,328,101369,1,0,3:2:0:0:
275,130,101519,1,8,1:2:0:0:
188,238,101669,1,0,0:0:0:0:
137,108,101819,2,0,P|142:54|148:1,1,107.999993843079,0|0,3:2|0:0,0:0:0:0:
287,152,102119,6,0,P|373:166|407:40,1,215.999987686158,2|0,0:0|3:2,0:0:0:0:
512,178,102569,1,2,0:0:0:0:
397,354,102719,2,0,P|388:266|383:204,1,107.999993843079,8|0,1:2|0:0,0:0:0:0:
263,108,103019,1,2,0:0:0:0:
186,199,103169,1,2,0:0:0:0:
186,199,103244,1,2,0:0:0:0:
186,199,103319,6,0,B|112:201|62:209|62:209|17:177|49:126,1,215.999987686158,2|0,3:2|0:0,0:0:0:0:
146,47,103769,1,0,3:2:0:0:
70,243,103919,2,0,P|76:329|78:376,1,107.999993843079,8|0,1:2|0:0,0:0:0:0:
266,225,104219,1,0,3:2:0:0:
171,120,104369,1,0,0:0:0:0:
330,13,104519,6,0,P|320:98|317:146,1,107.999993843079,2|0,0:0|0:0,0:0:0:0:
241,334,104819,1,0,3:2:0:0:
174,220,104969,1,2,0:0:0:0:
375,283,105119,2,0,P|464:275|498:273,1,107.999993843079,8|0,1:2|0:0,0:0:0:0:
303,98,105419,1,2,0:0:0:0:
422,24,105569,1,2,0:0:0:0:
422,24,105644,1,2,0:0:0:0:
422,24,105719,6,0,B|463:42|507:52|507:52|490:93|479:137|479:137|438:119|394:109,1,269.999992847443,6|0,3:2|0:0,0:0:0:0:
258,240,106919,2,0,B|274:211|271:174|271:174|284:209|311:226,2,134.999996423721,10|2|2,0:0|0:0|0:0,0:0:0:0:
152,372,108119,6,0,B|129:264|20:265|20:265|127:243|126:133|126:133|148:240|257:240|257:240|150:261|152:372,1,719.999980926514,2|0,0:0|0:0,0:0:0:0:
