osu file format v14

[General]
AudioFilename: audio.mp3
AudioLeadIn: 0
PreviewTime: 3644
Countdown: 0
SampleSet: Soft
StackLeniency: 0.4
Mode: 0
LetterboxInBreaks: 0
WidescreenStoryboard: 0

[Editor]
Bookmarks: 3719,4919,14519,24119,33719,48119,57719,67319,76919,86519,96119,109319,110519
DistanceSpacing: 1.6
BeatDivisor: 8
GridSize: 32
TimelineZoom: 1.9

[Metadata]
Title:Aoharu Band Arrange
TitleUnicode:Aoharu Band Arrange
Artist:Mitsukiyo
ArtistUnicode:ミツキヨ
Creator:lit120
Version:Hard
Source:ブルーアーカイブ -Blue Archive-
Tags:Yostar nat games nexon Blue Archive 블루 아카이브 ブルアカ blueaka mobile rpg instrumental video game gacha electronic Original Soundtrack OST Vol.4 Vol 4 ~Aiming for the ideal freedom~ NezMayo JuNN vgm electric guitar Theme 152 -Hakurei- Lancien rawrneru i love traps
BeatmapID:4235004
BeatmapSetID:1957516

[Difficulty]
HPDrainRate:5
CircleSize:4
OverallDifficulty:6
ApproachRate:8
SliderMultiplier:2.99999990463257
SliderTickRate:1

[Events]
//Background and Video events
0,0,"bg.jpg",0,0
//Break Periods
//Storyboard Layer 0 (Background)
//Storyboard Layer 1 (Fail)
//Storyboard Layer 2 (Pass)
//Storyboard Layer 3 (Foreground)
//Storyboard Layer 4 (Overlay)
//Storyboard Sound Samples

[TimingPoints]
119,600,4,2,1,40,1,0
3719,-133.333333333333,4,2,1,40,0,0
4919,-133.333333333333,4,2,1,55,0,0
24119,-100,4,2,1,65,0,0
43319,-133.333333333333,4,2,1,65,0,0
44519,-133.333333333333,4,2,1,55,0,0
48119,-100,4,2,1,65,0,0
57719,-100,4,2,1,75,0,0
66119,-100,4,2,1,50,0,0
66719,-100,4,2,1,75,0,0
67244,-100,4,2,1,5,0,0
67319,-100,4,2,1,85,0,1
105719,-133.333333333333,4,2,1,85,0,0
106619,-133.333333333333,4,2,1,55,0,0
109319,-133.333333333333,4,2,1,40,0,0
110519,-133.333333333333,4,2,1,20,0,0

[Colours]
Combo1 : 237,204,105
Combo2 : 119,189,247
Combo3 : 248,133,205
Combo4 : 56,154,207

[HitObjects]
130,334,3719,6,0,P|185:365|230:257,2,168.750001072884,2|2|2,0:0|0:0|0:0,0:0:0:0:
2,207,4919,6,0,B|94:251|163:154|117:141|185:44|278:88,1,337.500002145768,6|0,3:2|0:0,0:0:0:0:
444,18,6119,2,0,P|392:78|396:137,1,112.500000715256,10|0,0:0|0:0,0:0:0:0:
318,164,6569,2,0,P|343:239|397:265,1,112.500000715256,2|0,0:0|0:0,0:0:0:0:
381,346,7019,2,0,P|322:366|300:359,1,56.2500003576279,2|0,0:0|0:0,0:0:0:0:
256,315,7319,6,0,B|144:258|50:349|50:349|1:308|27:245,1,337.500002145767,2|0,3:2|0:0,0:0:0:0:
187,169,8519,2,0,P|100:131|97:78,1,112.500000715256,2|0,0:0|0:0,0:0:0:0:
75,34,8969,1,2,0:0:0:0:
75,34,9119,2,0,P|30:39|-5:42,2,56.2500003576279,0|0|2,0:0|0:0|0:0,0:0:0:0:
161,8,9569,1,0,0:0:0:0:
161,8,9644,1,0,0:0:0:0:
161,8,9719,6,0,B|227:61|320:25|320:25|247:93|265:176,1,337.500002145767,2|0,3:2|0:0,0:0:0:0:
198,344,10919,2,0,P|251:313|307:331,1,112.500000715256,10|0,0:0|0:0,0:0:0:0:
338,243,11369,2,0,P|397:258|424:310,1,112.500000715256,2|0,0:0|0:0,0:0:0:0:
508,269,11819,2,0,P|512:242|507:214,1,56.2500003576279,2|0,0:0|0:0,0:0:0:0:
429,168,12119,6,0,B|480:184|509:161|510:112|510:112|441:82|441:82|386:99|386:99|306:72,1,337.500002145767,2|0,3:2|0:0,0:0:0:0:
137,7,13319,2,0,P|130:66|119:144,1,112.500000715256,2|0,0:2|0:0,0:0:0:0:
54,178,13769,1,2,0:0:0:0:
54,178,13919,2,0,P|29:127|13:87,2,56.2500003576279,0|0|2,0:0|0:0|0:0,0:0:0:0:
116,243,14369,1,0,0:0:0:0:
116,243,14444,1,0,0:0:0:0:
116,243,14519,6,0,B|133:310|90:373|90:373|166:345|166:345|197:366|197:366|280:342,1,337.500002145767,2|0,3:2|0:0,0:0:0:0:
407,219,15719,2,0,L|255:237,1,112.500000715256,10|0,0:0|0:0,0:0:0:0:
282,143,16169,2,0,L|393:129,1,112.500000715256,2|0,0:0|0:0,0:0:0:0:
380,39,16619,2,0,L|324:46,1,56.2500003576279,2|0,0:0|0:0,0:0:0:0:
235,57,16919,6,0,B|143:63|73:19|73:19|117:70|118:134|66:174,1,337.500002145767,2|0,3:2|0:0,0:0:0:0:
227,260,18119,2,0,P|290:216|363:215,1,112.500000715256,2|0,0:0|0:0,0:0:0:0:
413,207,18569,1,2,0:0:0:0:
413,207,18719,2,0,P|429:156|437:134,2,56.2500003576279,0|0|2,0:0|0:0|0:0,0:0:0:0:
477,270,19169,1,0,0:0:0:0:
477,270,19244,1,0,0:0:0:0:
477,270,19319,6,0,B|489:336|425:373|425:373|340:328|202:343,1,337.500002145767,2|0,3:2|0:0,0:0:0:0:
39,372,20519,2,0,P|34:300|78:250,1,112.500000715256,10|0,0:0|0:0,0:0:0:0:
26,181,20969,2,0,P|85:140|151:153,1,112.500000715256,2|0,0:0|0:0,0:0:0:0:
184,74,21419,2,0,P|248:105|266:136,1,56.2500003576279,2|0,0:0|0:0,0:0:0:0:
314,137,21719,6,0,B|395:153|446:63|446:63|428:149|422:244,1,337.500002145767,2|0,3:2|0:0,0:0:0:0:
285,351,22919,2,0,P|233:301|167:299,1,112.500000715256,2|0,0:0|0:0,0:0:0:0:
105,292,23369,1,2,0:0:0:0:
105,292,23519,2,0,L|38:301,2,56.2500003576279,0|0|2,0:0|0:0|0:0,0:0:0:0:
152,215,23969,1,0,1:2:0:0:
152,215,24044,1,0,1:2:0:0:
152,215,24119,6,0,P|143:141|124:39,1,149.999995231629,2|0,3:2|0:0,0:0:0:0:
211,27,24569,2,0,P|220:101|239:203,1,149.999995231629,0|0,3:2|0:0,0:0:0:0:
314,213,25019,2,0,P|383:203|432:198,1,74.9999976158143,0|0,3:2|0:0,0:0:0:0:
460,148,25319,5,10,0:0:0:0:
511,221,25469,2,0,P|505:304|501:376,1,149.999995231629,0|2,1:2|0:0,0:0:0:0:
420,328,25919,2,0,P|358:339|308:347,1,74.9999976158143,0|0,1:2|0:0,0:0:0:0:
265,382,26219,2,0,P|203:371|153:363,1,74.9999976158143,2|0,0:0|0:0,0:0:0:0:
129,302,26519,6,0,P|146:225|228:177,1,149.999995231629,2|0,3:2|0:0,0:0:0:0:
287,162,26969,2,0,P|210:145|162:63,1,149.999995231629,0|0,3:2|0:0,0:0:0:0:
147,4,27419,2,0,P|91:16|55:20,1,74.9999976158143,0|0,3:2|0:0,0:0:0:0:
9,82,27719,5,10,0:0:0:0:
43,164,27869,2,0,P|33:250|24:335,1,149.999995231629,0|2,1:2|0:0,0:0:0:0:
97,368,28319,2,0,P|148:351|198:342,1,74.9999976158143,0|0,1:2|0:0,0:0:0:0:
256,326,28619,1,2,0:0:0:0:
343,346,28769,1,0,0:0:0:0:
343,346,28844,1,0,0:0:0:0:
343,346,28919,6,0,L|500:335,1,149.999995231629,2|0,3:2|0:0,0:0:0:0:
466,249,29369,2,0,L|317:260,1,149.999995231629,0|0,3:2|0:0,0:0:0:0:
250,199,29819,2,0,L|175:193,1,74.9999976158143,0|0,3:2|0:0,0:0:0:0:
101,246,30119,5,10,0:0:0:0:
39,180,30269,2,0,P|54:94|135:50,1,149.999995231629,0|2,1:2|0:0,0:0:0:0:
185,28,30719,2,0,P|248:39|298:44,1,74.9999976158143,0|0,1:2|0:0,0:0:0:0:
325,100,31019,1,2,0:0:0:0:
413,83,31169,1,0,0:0:0:0:
471,14,31319,6,0,P|450:97|440:200,1,149.999995231629,2|0,3:2|0:0,0:0:0:0:
365,207,31769,2,0,P|386:290|396:393,1,149.999995231629,0|0,3:2|0:0,0:0:0:0:
306,375,32219,2,0,P|257:363|217:357,1,74.9999976158143,0|0,3:2|0:0,0:0:0:0:
174,291,32519,5,10,0:0:0:0:
234,223,32669,2,0,P|228:118|222:14,1,149.999995231629,0|2,1:2|0:0,0:0:0:0:
153,17,33119,2,0,P|118:26|59:40,1,74.9999976158143,0|0,1:2|0:0,0:0:0:0:
25,106,33419,1,2,0:0:0:0:
79,177,33569,1,0,0:0:0:0:
79,177,33644,1,0,0:0:0:0:
79,177,33719,6,0,P|71:267|65:333,1,149.999995231629,2|0,3:2|0:0,0:0:0:0:
146,366,34169,2,0,P|154:276|160:210,1,149.999995231629,0|0,3:2|0:0,0:0:0:0:
228,157,34619,2,0,P|267:163|312:169,1,74.9999976158143,0|0,3:2|0:0,0:0:0:0:
380,214,34919,5,10,0:0:0:0:
431,288,35069,2,0,P|360:302|302:259,1,149.999995231629,0|2,1:2|0:0,0:0:0:0:
302,168,35519,2,0,L|320:66,1,74.9999976158143,0|0,1:2|0:0,0:0:0:0:
237,48,35819,2,0,P|171:59|131:61,1,74.9999976158143,2|0,0:0|0:0,0:0:0:0:
85,13,36119,6,0,P|138:79|104:144,1,149.999995231629,2|0,3:2|0:0,0:0:0:0:
51,194,36569,2,0,P|32:263|83:314,1,149.999995231629,0|0,3:2|0:0,0:0:0:0:
166,349,37019,2,0,P|233:340|269:335,1,74.9999976158143,0|0,3:2|0:0,0:0:0:0:
295,268,37319,5,10,0:0:0:0:
233,202,37469,2,0,P|248:119|264:17,1,149.999995231629,0|2,1:2|0:0,0:0:0:0:
337,12,37919,2,0,P|385:44|414:53,1,74.9999976158143,0|0,1:2|0:0,0:0:0:0:
476,99,38219,1,2,0:0:0:0:
431,177,38369,1,0,0:0:0:0:
431,177,38444,1,0,0:0:0:0:
431,177,38519,6,0,L|442:338,1,149.999995231629,2|0,3:2|0:0,0:0:0:0:
354,349,38969,2,0,L|343:199,1,149.999995231629,0|0,3:2|0:0,0:0:0:0:
257,222,39419,2,0,L|262:296,1,74.9999976158143,0|0,3:2|0:0,0:0:0:0:
188,349,39719,5,10,0:0:0:0:
112,299,39869,2,0,P|103:215|148:158,1,149.999995231629,0|2,1:2|0:0,0:0:0:0:
215,117,40319,2,0,L|312:131,1,74.9999976158143,0|0,1:2|0:0,0:0:0:0:
343,199,40619,1,2,0:0:0:0:
433,199,40769,1,0,0:0:0:0:
475,119,40919,6,0,P|454:34|379:33,1,149.999995231629,2|0,3:2|0:0,0:0:0:0:
311,24,41369,2,0,P|223:31|144:36,1,149.999995231629,0|0,3:2|0:0,0:0:0:0:
102,103,41819,2,0,P|111:139|138:164,1,74.9999976158143,0|0,3:2|0:0,0:0:0:0:
224,189,42119,5,10,0:0:0:0:
289,127,42269,2,0,P|262:221|244:301,1,149.999995231629,0|2,1:2|0:0,0:0:0:0:
181,329,42719,2,0,P|121:317|85:311,1,74.9999976158143,0|0,1:2|0:0,0:0:0:0:
39,374,43019,1,2,0:0:0:0:
22,285,43169,1,0,1:2:0:0:
22,285,43244,1,0,0:0:0:0:
22,285,43319,6,0,B|44:190|3:64|3:64|40:114|107:102,1,337.500002145767,6|0,3:2|0:0,0:0:0:0:
264,24,44519,2,0,P|313:91|417:45,2,168.750001072884,2|2|2,0:0|0:0|0:0,0:0:0:0:
156,169,45719,6,0,B|200:239|161:330|161:330|229:258|312:270|312:270|313:335|364:362|364:362|414:332|412:266,1,562.500003576279,2|0,0:0|0:0,0:0:0:0:
475,98,47519,2,0,L|486:72,7,28.125000178814
431,110,48119,6,0,L|339:98,2,74.9999976158143,6|2|2,3:2|0:0|0:0,0:0:0:0:
377,182,48569,2,0,L|302:172,1,74.9999976158143,2|0,0:0|3:2,0:0:0:0:
242,104,48869,1,2,0:0:0:0:
242,104,49019,2,0,L|167:113,1,74.9999976158143,2|2,0:0|0:0,0:0:0:0:
86,74,49319,6,0,P|93:37|106:2,2,74.9999976158143,2|2|2,3:2|0:0|0:0,0:0:0:0:
35,148,49769,2,0,P|43:231|48:300,1,149.999995231629,2|2,0:0|0:0,0:0:0:0:
106,366,50219,2,0,P|166:343|217:334,1,74.9999976158143,2|2,0:0|0:0,0:0:0:0:
265,330,50519,6,0,L|347:338,2,74.9999976158143,2|2|2,3:2|0:0|0:0,0:0:0:0:
212,259,50969,2,0,L|220:177,1,74.9999976158143,2|0,0:0|3:2,0:0:0:0:
290,131,51269,1,2,0:0:0:0:
290,131,51419,2,0,L|365:139,1,74.9999976158143,2|2,0:0|0:0,0:0:0:0:
418,209,51719,6,0,L|411:284,2,74.9999976158143,2|2|2,3:2|0:0|0:0,0:0:0:0:
489,156,52169,2,0,P|503:75|411:39,1,149.999995231629,2|2,0:0|0:0,0:0:0:0:
368,13,52619,1,2,0:0:0:0:
278,22,52769,1,2,0:0:0:0:
212,84,52919,6,0,P|174:80|137:77,2,74.9999976158143,2|2|2,3:2|0:0|0:0,0:0:0:0:
290,131,53369,2,0,L|282:205,1,74.9999976158143,2|0,0:0|3:2,0:0:0:0:
206,254,53669,1,2,0:0:0:0:
206,254,53819,2,0,L|213:328,1,74.9999976158143,2|2,0:0|0:0,0:0:0:0:
141,383,54119,6,0,L|55:379,2,74.9999976158143,2|2|2,3:2|0:0|0:0,0:0:0:0:
130,292,54569,2,0,P|90:221|17:169,1,149.999995231629,2|2,0:0|0:0,0:0:0:0:
99,113,55019,2,0,P|152:74|204:37,1,74.9999976158143,2|2,0:0|0:0,0:0:0:0:
243,35,55319,6,0,L|322:39,2,74.9999976158143,2|2|2,3:2|0:0|0:0,0:0:0:0:
230,124,55769,2,0,L|309:128,1,74.9999976158143,2|0,0:0|3:2,0:0:0:0:
388,94,56069,1,2,0:0:0:0:
388,94,56219,2,0,L|467:98,1,74.9999976158143,2|2,0:0|0:0,0:0:0:0:
449,186,56519,6,0,L|375:183,2,74.9999976158143,2|2|2,3:2|0:0|0:0,0:0:0:0:
436,275,56969,2,0,L|362:272,1,74.9999976158143,2|0,0:0|3:2,0:0:0:0:
291,216,57269,1,2,0:0:0:0:
291,216,57344,1,2,0:0:0:0:
291,216,57419,2,0,L|217:213,1,74.9999976158143,2|2,0:0|0:0,0:0:0:0:
146,157,57719,6,0,L|71:153,1,74.9999976158143,2|2,3:2|1:2,0:0:0:0:
5,215,58019,2,0,P|11:271|17:325,1,74.9999976158143,2|2,3:2|1:2,0:0:0:0:
67,362,58319,1,0,3:2:0:0:
137,306,58469,1,2,1:2:0:0:
191,379,58619,2,0,P|261:375|289:373,1,74.9999976158143,2|2,3:2|1:2,0:0:0:0:
333,315,58919,6,0,P|403:319|431:321,1,74.9999976158143,2|2,3:2|1:2,0:0:0:0:
480,265,59219,1,2,3:2:0:0:
428,191,59369,2,0,L|445:116,1,74.9999976158143,2|0,1:2|3:2,0:0:0:0:
361,84,59669,2,0,L|344:157,2,74.9999976158143,2|2|2,1:2|3:2|1:2,0:0:0:0:
277,50,60119,6,0,P|223:62|184:67,1,74.9999976158143,2|2,3:2|1:2,0:0:0:0:
119,33,60419,2,0,P|101:85|86:122,1,74.9999976158143,2|2,3:2|1:2,0:0:0:0:
24,161,60719,1,0,3:2:0:0:
81,231,60869,1,2,1:2:0:0:
151,173,61019,2,0,P|170:216|166:265,1,74.9999976158143,2|2,3:2|1:2,0:0:0:0:
114,315,61319,6,0,P|73:321|25:303,1,74.9999976158143,2|2,3:2|1:2,0:0:0:0:
81,231,61619,1,2,3:2:0:0:
170,244,61769,2,0,L|342:263,1,149.999995231629,2|2,1:2|1:2,0:0:0:0:
395,308,62219,1,2,3:2:0:0:
468,256,62369,1,2,3:2:0:0:
468,256,62444,1,0,3:2:0:0:
468,256,62519,6,0,P|452:215|438:173,1,74.9999976158143,2|2,3:2|3:2,0:0:0:0:
466,97,62819,2,0,P|423:89|379:80,1,74.9999976158143,2|2,3:2|3:2,0:0:0:0:
328,20,63119,2,0,P|300:53|270:86,1,74.9999976158143,0|2,3:2|3:2,0:0:0:0:
192,99,63419,2,0,P|207:139|221:181,1,74.9999976158143,2|2,3:2|3:2,0:0:0:0:
294,214,63719,5,2,3:2:0:0:
322,299,63869,1,2,3:2:0:0:
232,306,64019,1,2,3:2:0:0:
172,373,64169,1,2,3:2:0:0:
119,300,64319,2,0,P|82:293|46:287,1,74.9999976158143,0|2,3:2|3:2,0:0:0:0:
69,198,64619,2,0,P|57:163|44:128,1,74.9999976158143,2|2,3:2|3:2,0:0:0:0:
131,103,64919,6,0,L|185:93,2,37.4999988079071,2|0|2,3:2|3:2|3:2,0:0:0:0:
66,40,65219,2,0,L|12:30,2,37.4999988079071,2|0|2,3:2|3:2|3:2,0:0:0:0:
151,11,65519,1,0,3:2:0:0:
232,51,65669,1,2,3:2:0:0:
260,136,65819,1,2,3:2:0:0:
220,217,65969,1,2,3:2:0:0:
220,217,66044,1,0,3:2:0:0:
220,217,66119,6,0,P|219:283|343:317,1,149.999995231629,2|0,3:2|0:0,0:0:0:0:
371,338,66569,2,0,L|385:375,2,37.4999988079071,2|0|0,1:2|1:0|1:2,0:0:0:0:
422,263,66869,1,0,1:2:0:0:
382,182,67019,2,0,P|391:118|404:51,1,112.499996423721,4|0,0:3|0:0,0:0:0:0:
420,30,67319,6,0,P|346:70|275:49,1,149.999995231629,6|0,3:2|0:0,0:0:0:0:
207,10,67769,1,0,3:2:0:0:
164,89,67919,2,0,P|171:146|176:183,1,74.9999976158143,8|0,1:2|0:0,0:0:0:0:
249,210,68219,2,0,P|242:267|237:304,1,74.9999976158143,0|0,3:2|0:0,0:0:0:0:
287,360,68519,6,0,P|219:311|142:350,1,149.999995231629,2|0,0:0|3:2,0:0:0:0:
82,374,68969,1,2,0:0:0:0:
9,320,69119,2,0,P|15:263|21:217,1,74.9999976158143,8|0,1:2|0:0,0:0:0:0:
77,178,69419,2,0,P|71:121|65:75,1,74.9999976158143,2|0,0:0|0:0,0:0:0:0:
47,14,69719,6,0,P|92:73|164:88,1,149.999995231629,2|0,3:2|0:0,0:0:0:0:
254,90,70169,1,0,3:2:0:0:
313,22,70319,2,0,P|292:136|280:226,1,149.999995231629,8|0,1:2|3:2,0:0:0:0:
262,256,70769,1,0,0:0:0:0:
329,316,70919,6,0,P|382:312|425:310,1,74.9999976158143,2|0,0:0|0:0,0:0:0:0:
460,240,71219,2,0,P|456:187|454:144,1,74.9999976158143,0|2,3:2|0:0,0:0:0:0:
384,109,71519,2,0,P|465:128|471:46,1,149.999995231629,8|2,1:2|0:0,0:0:0:0:
424,14,71969,1,2,0:0:0:0:
424,14,72044,1,2,0:0:0:0:
424,14,72119,6,0,L|275:37,1,149.999995231629,6|0,3:2|0:0,0:0:0:0:
201,89,72569,1,0,3:2:0:0:
126,38,72719,2,0,L|51:26,1,74.9999976158143,8|0,1:2|0:0,0:0:0:0:
44,116,73019,2,0,L|119:128,1,74.9999976158143,0|0,3:2|0:0,0:0:0:0:
193,179,73319,6,0,P|185:293|183:355,1,149.999995231629,2|0,0:0|3:2,0:0:0:0:
110,379,73769,1,2,0:0:0:0:
52,308,73919,2,0,P|122:289|184:328,1,149.999995231629,8|2,1:2|0:0,0:0:0:0:
256,382,74369,1,0,0:0:0:0:
327,328,74519,6,0,P|389:289|459:308,1,149.999995231629,2|0,3:2|0:0,0:0:0:0:
511,235,74969,1,0,3:2:0:0:
448,169,75119,2,0,P|394:178|346:185,1,74.9999976158143,8|0,1:2|0:0,0:0:0:0:
300,233,75419,2,0,P|246:224|198:217,1,74.9999976158143,0|0,3:2|0:0,0:0:0:0:
170,150,75719,6,0,P|179:96|186:48,1,74.9999976158143,2|0,0:0|0:0,0:0:0:0:
253,20,76019,1,0,3:2:0:0:
308,90,76169,1,2,0:0:0:0:
379,34,76319,2,0,P|360:107|373:180,1,149.999995231629,8|2,1:2|0:0,0:0:0:0:
444,235,76769,1,2,0:0:0:0:
444,235,76844,1,2,0:0:0:0:
444,235,76919,6,0,P|372:216|300:232,1,149.999995231629,6|0,3:2|0:0,0:0:0:0:
256,312,77369,1,0,3:2:0:0:
212,233,77519,2,0,P|147:244|113:248,1,74.9999976158143,8|0,1:2|0:0,0:0:0:0:
60,292,77819,2,0,P|49:227|45:193,1,74.9999976158143,0|0,3:2|0:0,0:0:0:0:
1,140,78119,6,0,P|73:128|157:118,1,149.999995231629,2|0,0:0|3:2,0:0:0:0:
238,103,78569,1,2,0:0:0:0:
308,158,78719,2,0,P|303:195|300:233,1,74.9999976158143,8|0,1:2|0:0,0:0:0:0:
347,310,79019,2,0,P|384:314|421:318,1,74.9999976158143,2|0,0:0|0:0,0:0:0:0:
498,271,79319,6,0,P|502:233|512:112,1,149.999995231629,2|0,3:2|0:0,0:0:0:0:
457,48,79769,1,0,3:2:0:0:
370,72,79919,2,0,P|279:64|198:64,1,149.999995231629,8|0,1:2|3:2,0:0:0:0:
149,118,80369,1,0,0:0:0:0:
200,192,80519,6,0,P|208:264|210:319,1,74.9999976158143,2|0,0:0|0:0,0:0:0:0:
150,335,80819,2,0,P|78:343|23:345,1,74.9999976158143,0|2,3:2|0:0,0:0:0:0:
7,285,81119,2,0,P|21:179|30:115,1,149.999995231629,8|2,1:2|0:0,0:0:0:0:
27,46,81569,1,2,0:0:0:0:
27,46,81644,1,2,0:0:0:0:
27,46,81719,6,0,P|55:103|145:111,1,149.999995231629,6|0,3:2|0:0,0:0:0:0:
220,86,82169,1,0,3:2:0:0:
284,149,82319,2,0,P|280:210|278:258,1,74.9999976158143,8|0,1:2|0:0,0:0:0:0:
368,233,82619,2,0,P|370:195|372:158,1,74.9999976158143,0|0,3:2|0:0,0:0:0:0:
461,168,82919,6,0,L|452:317,1,149.999995231629,2|0,0:0|3:2,0:0:0:0:
376,367,83369,1,2,0:0:0:0:
302,315,83519,2,0,P|236:326|137:340,1,149.999995231629,8|2,1:2|0:0,0:0:0:0:
68,367,83969,1,0,0:0:0:0:
16,293,84119,6,0,P|26:210|35:131,1,149.999995231629,2|0,3:2|0:0,0:0:0:0:
114,105,84569,1,0,3:2:0:0:
176,170,84719,2,0,P|258:161|308:160,1,74.9999976158143,8|0,1:2|0:0,0:0:0:0:
329,116,85019,2,0,P|411:125|461:126,1,74.9999976158143,0|0,3:2|0:0,0:0:0:0:
419,36,85319,6,0,P|337:27|287:26,1,74.9999976158143,2|0,0:0|0:0,0:0:0:0:
256,8,85619,1,0,3:2:0:0:
256,8,85694,1,0,3:2:0:0:
256,8,85769,1,0,1:2:0:0:
167,27,85919,1,0,1:2:0:0:
158,117,86069,1,0,1:2:0:0:
241,153,86219,2,0,P|235:226|233:260,1,74.9999976158143,8|4,0:3|0:3,0:0:0:0:
299,291,86519,6,0,P|220:253|149:296,1,149.999995231629,6|0,3:2|0:0,0:0:0:0:
108,343,86969,1,0,3:2:0:0:
189,381,87119,2,0,P|255:374|301:370,1,74.9999976158143,8|0,1:2|0:0,0:0:0:0:
353,364,87419,2,0,L|441:371,1,74.9999976158143,0|0,3:2|0:0,0:0:0:0:
498,314,87719,6,0,P|454:255|493:159,1,149.999995231629,2|0,0:0|3:2,0:0:0:0:
412,111,88169,1,2,0:0:0:0:
333,155,88319,2,0,P|263:145|227:140,1,74.9999976158143,8|0,1:2|0:0,0:0:0:0:
191,84,88619,2,0,P|121:94|85:99,1,74.9999976158143,2|0,0:0|0:0,0:0:0:0:
33,60,88919,6,0,P|103:152|79:232,1,149.999995231629,2|0,3:2|0:0,0:0:0:0:
69,264,89369,1,0,3:2:0:0:
117,339,89519,2,0,P|195:327|299:316,1,149.999995231629,8|0,1:2|3:2,0:0:0:0:
346,358,89969,1,0,0:0:0:0:
381,275,90119,6,0,P|373:208|370:174,1,74.9999976158143,2|0,0:0|0:0,0:0:0:0:
303,142,90419,2,0,P|311:75|314:41,1,74.9999976158143,0|2,3:2|0:0,0:0:0:0:
245,6,90719,2,0,P|325:41|416:-1,1,149.999995231629,8|2,1:2|0:0,0:0:0:0:
471,10,91169,1,2,0:0:0:0:
471,10,91244,1,2,0:0:0:0:
471,10,91319,6,0,P|464:88|458:179,1,149.999995231629,6|0,3:2|0:0,0:0:0:0:
466,249,91769,1,0,3:2:0:0:
381,275,91919,2,0,P|328:267|289:264,1,74.9999976158143,8|0,1:2|0:0,0:0:0:0:
235,208,92219,2,0,P|202:250|179:282,1,74.9999976158143,0|0,3:2|0:0,0:0:0:0:
103,300,92519,6,0,P|31:225|63:156,1,149.999995231629,2|0,0:0|3:2,0:0:0:0:
86,113,92969,1,2,0:0:0:0:
175,120,93119,2,0,L|337:133,1,149.999995231629,8|2,1:2|0:0,0:0:0:0:
380,202,93569,1,0,0:0:0:0:
459,160,93719,6,0,P|473:93|404:32,1,149.999995231629,2|0,3:2|0:0,0:0:0:0:
333,16,94169,1,0,3:2:0:0:
249,50,94319,2,0,P|190:44|168:42,1,74.9999976158143,8|0,1:2|0:0,0:0:0:0:
90,7,94619,2,0,P|84:66|82:88,1,74.9999976158143,0|0,3:2|0:0,0:0:0:0:
47,166,94919,6,0,P|84:170|122:173,1,74.9999976158143,2|0,0:0|0:0,0:0:0:0:
206,209,95219,1,0,3:2:0:0:
170,293,95369,1,2,0:0:0:0:
86,257,95519,2,0,P|86:330|139:381,1,149.999995231629,8|2,1:2|0:0,0:0:0:0:
230,363,95969,1,2,0:0:0:0:
230,363,96044,1,2,0:0:0:0:
229,363,96119,6,0,L|379:374,1,149.999995231629,6|0,3:2|0:0,0:0:0:0:
456,328,96569,1,0,3:2:0:0:
379,285,96719,2,0,L|304:280,1,74.9999976158143,8|0,1:2|0:0,0:0:0:0:
305,191,97019,2,0,L|380:196,1,74.9999976158143,0|0,3:2|0:0,0:0:0:0:
457,150,97319,6,0,P|454:73|372:41,1,149.999995231629,2|0,0:0|3:2,0:0:0:0:
306,36,97769,1,2,0:0:0:0:
231,86,97919,2,0,P|159:71|123:66,1,74.9999976158143,8|0,1:2|0:0,0:0:0:0:
103,143,98219,2,0,P|175:158|211:163,1,74.9999976158143,2|0,0:0|0:0,0:0:0:0:
230,230,98519,6,0,P|218:304|208:378,1,149.999995231629,2|0,3:2|0:0,0:0:0:0:
127,335,98969,1,0,3:2:0:0:
46,378,99119,2,0,P|36:304|24:230,1,149.999995231629,8|0,1:2|3:2,0:0:0:0:
13,140,99569,1,0,0:0:0:0:
103,143,99719,6,0,P|175:158|211:163,1,74.9999976158143,2|0,0:0|0:0,0:0:0:0:
230,230,100019,2,0,P|292:190|321:168,1,74.9999976158143,0|2,3:2|0:0,0:0:0:0:
381,201,100319,2,0,P|396:129|404:36,1,149.999995231629,8|2,1:2|0:0,0:0:0:0:
492,66,100769,1,2,0:0:0:0:
492,66,100844,1,2,0:0:0:0:
492,66,100919,6,0,P|477:138|469:231,1,149.999995231629,6|0,3:2|0:0,0:0:0:0:
503,297,101369,1,0,3:2:0:0:
449,368,101519,2,0,P|384:345|345:338,1,74.9999976158143,8|0,1:2|0:0,0:0:0:0:
312,282,101819,2,0,P|250:312|217:334,1,74.9999976158143,0|0,3:2|0:0,0:0:0:0:
154,318,102119,6,0,P|115:253|147:182,1,149.999995231629,2|0,0:0|3:2,0:0:0:0:
213,135,102569,1,2,0:0:0:0:
143,77,102719,2,0,P|150:29|155:-21,1,74.9999976158143,8|0,1:2|0:0,0:0:0:0:
62,2,103019,2,0,P|55:50|50:100,1,74.9999976158143,2|0,0:0|0:0,0:0:0:0:
4,153,103319,6,0,P|11:238|17:330,1,149.999995231629,2|0,3:2|0:0,0:0:0:0:
78,367,103769,1,0,3:2:0:0:
154,318,103919,2,0,P|217:330|257:333,1,74.9999976158143,8|0,1:2|0:0,0:0:0:0:
304,377,104219,2,0,P|346:328|368:295,1,74.9999976158143,0|0,3:2|0:0,0:0:0:0:
430,276,104519,6,0,P|409:215|391:179,1,74.9999976158143,2|0,0:0|0:0,0:0:0:0:
405,116,104819,1,0,3:2:0:0:
320,88,104969,1,2,0:0:0:0:
267,160,105119,2,0,P|197:160|144:82,1,149.999995231629,8|2,1:2|0:0,0:0:0:0:
232,79,105569,1,2,0:0:0:0:
232,79,105644,1,2,0:0:0:0:
232,79,105719,6,0,B|226:168|220:304|220:304|184:243|113:255,1,337.500002145767,6|0,3:2|0:0,0:0:0:0:
0,124,106919,2,0,B|11:13|11:13|57:54,2,168.750001072884,10|2|2,0:0|0:0|0:0,0:0:0:0:
140,10,108119,6,0,B|212:24|256:76|256:76|300:24|372:10|372:10|423:124|379:204|379:204|256:160|133:204|133:204|184:287|256:324,1,900.000005722047,2|0,0:0|0:0,0:0:0:0:
