osu file format v14

[General]
AudioFilename: audio.mp3
AudioLeadIn: 0
PreviewTime: 3644
Countdown: 0
SampleSet: Soft
StackLeniency: 0.4
Mode: 0
LetterboxInBreaks: 0
WidescreenStoryboard: 0

[Editor]
Bookmarks: 3719,4919,14519,24119,33719,48119,57719,67319,76919,86519,96119,109319,110519
DistanceSpacing: 1
BeatDivisor: 4
GridSize: 32
TimelineZoom: 1.9

[Metadata]
Title:Aoharu Band Arrange
TitleUnicode:Aoharu Band Arrange
Artist:Mitsukiyo
ArtistUnicode:ミツキヨ
Creator:lit120
Version:Easy
Source:ブルーアーカイブ -Blue Archive-
Tags:Yostar nat games nexon Blue Archive 블루 아카이브 ブルアカ blueaka mobile rpg instrumental video game gacha electronic Original Soundtrack OST Vol.4 Vol 4 ~Aiming for the ideal freedom~ NezMayo JuNN vgm electric guitar Theme 152 -Hakurei- Lancien rawrneru i love traps
BeatmapID:4235839
BeatmapSetID:1957516

[Difficulty]
HPDrainRate:2
CircleSize:3
OverallDifficulty:2
ApproachRate:3
SliderMultiplier:1.79999990463257
SliderTickRate:1

[Events]
//Background and Video events
0,0,"bg.jpg",0,0
//Break Periods
//Storyboard Layer 0 (Background)
//Storyboard Layer 1 (Fail)
//Storyboard Layer 2 (Pass)
//Storyboard Layer 3 (Foreground)
//Storyboard Layer 4 (Overlay)
//Storyboard Sound Samples

[TimingPoints]
119,600,4,2,1,40,1,0
4919,-100,4,2,1,55,0,0
24119,-100,4,2,1,65,0,0
44519,-100,4,2,1,55,0,0
48119,-100,4,2,1,65,0,0
57719,-100,4,2,1,75,0,0
66119,-100,4,2,1,50,0,0
66719,-100,4,2,1,75,0,0
67319,-100,4,2,1,85,0,1
105719,-100,4,2,1,85,0,0
106619,-100,4,2,1,55,0,0
109319,-100,4,2,1,40,0,0
110519,-100,4,2,1,20,0,0

[Colours]
Combo1 : 237,204,105
Combo2 : 119,189,247
Combo3 : 248,133,205
Combo4 : 56,154,207

[HitObjects]
411,367,3719,6,0,P|471:356|500:280,2,134.999992847443,2|2|2,0:0|0:0|0:0,0:0:0:0:
350,299,4919,6,0,B|252:312|252:312|214:355|214:355|90:371,1,269.999985694885,6|0,3:2|0:0,0:0:0:0:
26,318,6119,2,0,B|3:247|3:247|25:181,2,134.999992847443,10|2|2,0:0|0:0|0:0,0:0:0:0:
108,278,7319,2,0,B|142:147|142:147|78:91|135:12,1,269.999985694885,2|0,3:2|0:0,0:0:0:0:
212,2,8519,2,0,P|276:12|367:27,1,134.999992847443,2|2,0:0|0:0,0:0:0:0:
467,81,9419,1,2,0:0:0:0:
421,158,9719,6,0,B|435:228|460:334|460:334|422:300|371:306,1,269.999985694885,2|0,3:2|0:0,0:0:0:0:
288,313,10919,2,0,L|144:331,2,134.999992847443,10|2|2,0:0|0:0|0:0,0:0:0:0:
326,231,12119,2,0,P|329:101|214:11,1,269.999985694885,2|0,3:2|0:0,0:0:0:0:
139,9,13319,2,0,L|-8:30,1,134.999992847443,2|2,0:2|0:0,0:0:0:0:
72,145,14219,1,2,0:0:0:0:
2,202,14519,6,0,B|32:239|84:253|134:225|153:185|153:185|203:202|215:268,1,269.999985694885,2|0,3:2|0:0,0:0:0:0:
263,321,15719,2,0,L|407:339,2,134.999992847443,10|2|2,0:0|0:0|0:0,0:0:0:0:
299,240,16919,2,0,B|433:257|433:257|512:219|462:125,1,269.999985694885,2|0,3:2|0:0,0:0:0:0:
391,101,18119,2,0,L|218:119,1,134.999992847443,2|2,0:0|0:0,0:0:0:0:
164,15,19019,1,2,0:0:0:0:
82,53,19319,6,0,B|109:186|109:186|76:187|48:208|27:230|25:278,1,269.999985694885,2|0,3:2|0:0,0:0:0:0:
70,352,20519,2,0,L|224:375,2,134.999992847443,10|2|2,0:0|0:0|0:0,0:0:0:0:
114,275,21719,2,0,B|248:295|248:295|323:263|293:175,1,269.999985694885,2|0,3:2|0:0,0:0:0:0:
226,127,22919,2,0,P|335:122|379:92,1,134.999992847443,2|2,0:0|0:0,0:0:0:0:
449,14,23819,1,2,0:0:0:0:
510,80,24119,6,0,P|504:166|500:233,2,134.999992847443,2|0|0,3:2|3:2|3:2,0:0:0:0:
449,14,25319,2,0,P|391:50|315:43,1,134.999992847443,10|2,0:0|0:0,0:0:0:0:
195,13,26219,1,2,0:0:0:0:
128,73,26519,2,0,P|69:38|8:10,2,134.999992847443,2|0|0,3:2|3:2|3:2,0:0:0:0:
167,154,27719,1,10,0:0:0:0:
144,287,28169,1,2,0:0:0:0:
245,376,28619,1,2,0:0:0:0:
329,344,28919,6,0,L|466:361,2,134.999992847443,2|0|0,3:2|3:2|3:2,0:0:0:0:
277,270,30119,2,0,L|144:287,1,134.999992847443,10|2,0:0|0:0,0:0:0:0:
67,175,31019,1,2,0:0:0:0:
141,123,31319,2,0,P|86:86|19:98,2,134.999992847443,2|0|0,3:2|3:2|3:2,0:0:0:0:
196,194,32519,1,10,0:0:0:0:
330,181,32969,1,2,0:0:0:0:
451,241,33419,1,2,0:0:0:0:
503,168,33719,6,0,L|511:33,2,134.999992847443,2|0|0,3:2|3:2|3:2,0:0:0:0:
418,137,34919,2,0,L|426:2,1,134.999992847443,10|2,0:0|0:0,0:0:0:0:
310,70,35819,1,2,0:0:0:0:
236,17,36119,2,0,L|94:12,2,134.999992847443,2|0|0,3:2|3:2|3:2,0:0:0:0:
227,107,37319,1,10,0:0:0:0:
92,102,37769,1,2,0:0:0:0:
10,210,38219,1,2,0:0:0:0:
37,296,38519,6,0,P|89:251|88:165,2,134.999992847443,2|0|0,3:2|3:2|3:2,0:0:0:0:
85,371,39719,2,0,P|146:355|237:336,1,134.999992847443,10|2,0:0|0:0,0:0:0:0:
351,329,40619,1,2,0:0:0:0:
426,280,40919,2,0,L|468:143,2,134.999992847443,2|0|0,3:2|3:2|3:2,0:0:0:0:
346,239,42119,1,10,0:0:0:0:
385,109,42569,1,2,0:0:0:0:
284,20,43019,1,2,0:0:0:0:
205,63,43319,6,0,P|128:56|10:46,1,179.999990463257,6|0,3:2|0:0,0:0:0:0:
128,195,44519,2,0,P|196:184|293:166,2,134.999992847443,2|2|2,0:0|0:0|0:0,0:0:0:0:
51,146,45719,2,0,B|170:238|69:360|69:360|188:339|188:339|223:293|223:293|334:277,1,539.999971389771,2|0,0:0|0:0,0:0:0:0:
504,215,48119,6,0,L|485:370,2,134.999992847443,6|2|2,3:2|0:0|0:0,0:0:0:0:
423,174,49319,1,2,3:2:0:0:
335,277,49769,2,0,P|263:245|248:185,1,134.999992847443,2|2,0:0|0:0,0:0:0:0:
303,124,50519,2,0,P|342:71|329:7,2,134.999992847443,2|2|2,3:2|0:0|0:0,0:0:0:0:
212,111,51719,1,2,3:2:0:0:
103,31,52169,2,0,P|93:118|85:195,1,134.999992847443,2|2,0:0|0:0,0:0:0:0:
29,233,52919,6,0,P|39:320|47:397,2,134.999992847443,2|2|2,3:2|0:0|0:0,0:0:0:0:
117,250,54119,1,2,3:2:0:0:
193,360,54569,2,0,P|272:352|348:345,1,134.999992847443,2|2,0:0|0:0,0:0:0:0:
376,271,55319,2,0,P|443:277|510:284,2,134.999992847443,2|2|2,3:2|0:0|0:0,0:0:0:0:
305,214,56519,1,2,3:2:0:0:
420,144,56969,2,0,P|413:72|401:-3,1,134.999992847443,2|2,0:0|0:0,0:0:0:0:
313,3,57719,6,0,P|253:17|211:23,1,89.9999952316285,2|2,3:2|3:2,0:0:0:0:
184,102,58319,2,0,P|198:162|204:204,1,89.9999952316285,0|2,3:2|3:2,0:0:0:0:
242,270,58919,2,0,P|228:330|222:372,2,89.9999952316285,2|2|0,3:2|3:2|3:2,0:0:0:0:
153,265,59819,1,2,3:2:0:0:
105,341,60119,6,0,P|55:315|37:281,1,89.9999952316285,2|2,3:2|3:2,0:0:0:0:
0,205,60719,2,0,P|10:130|15:89,1,89.9999952316285,0|2,3:2|3:2,0:0:0:0:
93,78,61319,2,0,P|98:122|104:167,2,89.9999952316285,2|2|0,3:2|3:2|3:2,0:0:0:0:
160,18,62219,1,2,3:2:0:0:
236,64,62519,6,0,P|312:60|356:55,1,89.9999952316285,2|2,3:2|3:2,0:0:0:0:
407,20,63119,2,0,P|434:91|452:131,1,89.9999952316285,0|2,3:2|3:2,0:0:0:0:
501,169,63719,1,2,3:2:0:0:
430,225,64019,1,2,3:2:0:0:
388,305,64319,1,0,3:2:0:0:
312,256,64619,1,2,3:2:0:0:
224,239,64919,6,0,B|256:60|256:60|214:38|166:64,1,269.999985694885,2|2,3:2|3:2,0:0:0:0:
86,91,66119,1,2,3:2:0:0:
126,219,66569,1,2,0:0:0:0:
33,317,67019,1,2,0:0:0:0:
100,377,67319,6,0,L|300:367,1,179.999990463257,6|8,3:2|1:2,0:0:0:0:
363,334,68219,1,0,3:2:0:0:
447,300,68519,2,0,L|491:164,2,134.999992847443,2|2|2,0:0|0:0|0:0,0:0:0:0:
376,244,69719,2,0,L|432:68,1,179.999990463257,2|8,3:2|1:2,0:0:0:0:
365,11,70619,1,0,3:2:0:0:
281,45,70919,2,0,P|214:31|147:24,1,134.999992847443,2|2,0:0|0:0,0:0:0:0:
33,95,71819,1,2,0:0:0:0:
95,160,72119,6,0,P|185:153|288:146,1,179.999990463257,6|8,3:2|1:2,0:0:0:0:
348,197,73019,1,0,3:2:0:0:
292,268,73319,1,2,0:0:0:0:
385,364,73769,1,2,0:0:0:0:
496,288,74219,1,2,0:0:0:0:
457,206,74519,2,0,P|466:126|482:14,1,179.999990463257,2|8,3:2|1:2,0:0:0:0:
392,4,75419,1,0,3:2:0:0:
318,56,75719,2,0,P|248:49|165:41,1,134.999992847443,2|2,0:0|0:0,0:0:0:0:
60,98,76619,1,2,0:0:0:0:
34,184,76919,6,0,P|118:228|200:166,1,179.999990463257,6|8,3:2|1:2,0:0:0:0:
258,137,77819,1,0,3:2:0:0:
344,162,78119,2,0,P|411:167|478:172,2,134.999992847443,2|2|2,0:0|0:0|0:0,0:0:0:0:
315,247,79319,2,0,P|404:288|397:389,1,179.999990463257,2|8,3:2|1:2,0:0:0:0:
324,380,80219,1,0,3:2:0:0:
235,363,80519,2,0,P|158:356|90:348,1,134.999992847443,2|2,0:0|0:0,0:0:0:0:
8,250,81419,1,2,0:0:0:0:
89,209,81719,6,0,B|72:93|72:93|116:26,1,179.999990463257,6|8,3:2|1:2,0:0:0:0:
189,5,82619,1,0,3:2:0:0:
262,58,82919,1,2,0:0:0:0:
173,159,83369,1,2,0:0:0:0:
287,230,83819,1,2,0:0:0:0:
330,151,84119,2,0,L|538:135,1,179.999990463257,2|8,3:2|1:2,0:0:0:0:
508,227,85019,1,0,3:2:0:0:
445,291,85319,2,0,P|455:356|458:388,1,89.9999952316285,2|0,0:0|3:2,0:0:0:0:
367,382,85919,1,0,1:2:0:0:
311,311,86219,1,8,0:3:0:0:
226,342,86519,6,0,P|128:339|15:333,1,179.999990463257,6|8,3:2|1:2,0:0:0:0:
2,255,87419,1,0,3:2:0:0:
74,202,87719,2,0,L|219:215,2,134.999992847443,2|2|2,0:0|0:0|0:0,0:0:0:0:
46,116,88919,2,0,P|69:51|193:43,1,179.999990463257,2|8,3:2|1:2,0:0:0:0:
256,48,89819,1,0,3:2:0:0:
343,28,90119,2,0,P|425:35|490:40,1,134.999992847443,2|2,0:0|0:0,0:0:0:0:
510,170,91019,1,2,0:0:0:0:
432,215,91319,6,0,B|321:195|321:195|250:234,1,179.999990463257,6|8,3:2|1:2,0:0:0:0:
195,287,92219,1,0,3:2:0:0:
241,364,92519,1,2,0:0:0:0:
106,352,92969,1,2,0:0:0:0:
135,220,93419,1,2,0:0:0:0:
202,159,93719,2,0,P|226:65|155:13,1,179.999990463257,2|8,3:2|1:2,0:0:0:0:
81,6,94619,1,0,3:2:0:0:
30,80,94919,2,0,P|17:146|1:212,1,134.999992847443,2|2,0:0|0:0,0:0:0:0:
49,337,95819,1,2,0:0:0:0:
131,300,96119,6,0,P|217:312|322:323,1,179.999990463257,6|8,3:2|1:2,0:0:0:0:
389,364,97019,1,0,3:2:0:0:
443,292,97319,2,0,L|482:159,2,134.999992847443,2|2|2,0:0|0:0|0:0,0:0:0:0:
368,241,98519,2,0,B|336:185|336:185|377:46,1,179.999990463257,2|8,3:2|1:2,0:0:0:0:
291,26,99419,1,0,3:2:0:0:
213,71,99719,2,0,L|228:227,1,134.999992847443,2|2,0:0|0:0,0:0:0:0:
229,340,100619,1,2,0:0:0:0:
147,378,100919,6,0,P|72:354|102:248,1,179.999990463257,6|8,3:2|1:2,0:0:0:0:
121,187,101819,1,0,3:2:0:0:
61,119,102119,1,2,0:0:0:0:
132,4,102569,1,2,0:0:0:0:
228,97,103019,1,2,0:0:0:0:
301,44,103319,2,0,P|388:54|496:65,1,179.999990463257,2|8,3:2|1:2,0:0:0:0:
509,148,104219,1,0,3:2:0:0:
447,213,104519,2,0,P|441:286|435:358,1,134.999992847443,2|2,0:0|0:0,0:0:0:0:
305,383,105419,1,2,0:0:0:0:
255,308,105719,6,0,B|159:285|121:382|121:382|105:328|36:302,1,269.999985694885,6|0,3:2|0:0,0:0:0:0:
23,226,106919,2,0,B|-2:144|-2:144|13:86,2,134.999992847443,10|2|2,0:0|0:0|0:0,0:0:0:0:
113,212,108119,2,0,B|197:170|171:82|171:82|203:38|256:37|256:37|309:38|341:82|341:82|315:170|399:212|399:212|380:328|256:328,1,719.999961853028,2|0,0:0|0:0,0:0:0:0:
