osu file format v14

[General]
AudioFilename: audio.mp3
AudioLeadIn: 0
PreviewTime: 47218
Countdown: 0
SampleSet: Normal
StackLeniency: 0.7
Mode: 1
LetterboxInBreaks: 0
WidescreenStoryboard: 1

[Editor]
DistanceSpacing: 1.6
BeatDivisor: 16
GridSize: 32
TimelineZoom: 2.599999

[Metadata]
Title:Aoharu Band Arrange
TitleUnicode:Aoharu Band Arrange
Artist:Mitsukiyo
ArtistUnicode:ミツキヨ
Creator:ler1211
Version:Wish
Source:ブルーアーカイブ -Blue Archive-
Tags:Yostar nat games nexon Blue Archive 블루 아카이브 ブルアカ buruaka blueaka mobile rpg instrumental video game gacha electronic Original Soundtrack OST Vol.4 Vol volume 4 ~Aiming for the ideal freedom~ NezMayo JuNN vgm electric guitar Theme 152 theme_152 cut ver. version 5th pv fifth promotional video
BeatmapID:4461751
BeatmapSetID:2123126

[Difficulty]
HPDrainRate:6
CircleSize:5
OverallDifficulty:6
ApproachRate:5
SliderMultiplier:2.5
SliderTickRate:1

[Events]
//Background and Video events
0,0,"band.jpg",0,40
Video,0,"output.mp4"
//Break Periods
//Storyboard Layer 0 (Background)
//Storyboard Layer 1 (Fail)
//Storyboard Layer 2 (Pass)
//Storyboard Layer 3 (Foreground)
//Storyboard Layer 4 (Overlay)
//Storyboard Sound Samples

[TimingPoints]
493,600,4,1,0,70,1,0
5293,600,4,1,0,70,1,0
14893,-100,4,1,0,80,0,0
29293,600,4,1,0,80,1,0
38893,-100,4,1,0,90,0,0
43468,-100,4,1,0,100,0,0
48493,-100,4,1,0,100,0,1
67693,-100,4,1,0,100,0,0
67993,-100,4,1,0,70,0,0

[HitObjects]
256,192,4093,5,8,0:0:0:0:
256,192,4543,1,8,0:0:0:0:
256,192,4693,1,0,0:0:0:0:
256,192,4993,1,8,0:0:0:0:
256,192,5293,1,4,0:0:0:0:
256,192,5743,1,0,0:0:0:0:
256,192,5893,1,8,0:0:0:0:
256,192,6193,1,0,0:0:0:0:
256,192,6493,1,8,0:0:0:0:
256,192,6643,1,0,0:0:0:0:
256,192,6943,1,8,0:0:0:0:
256,192,7093,1,0,0:0:0:0:
256,192,7243,1,0,0:0:0:0:
256,192,7393,1,8,0:0:0:0:
256,192,7693,1,0,0:0:0:0:
256,192,7993,1,0,0:0:0:0:
256,192,8143,1,0,0:0:0:0:
256,192,8293,1,8,0:0:0:0:
256,192,8593,1,0,0:0:0:0:
256,192,8893,1,8,0:0:0:0:
256,192,9043,1,0,0:0:0:0:
256,192,9343,1,8,0:0:0:0:
256,192,9493,1,0,0:0:0:0:
256,192,9568,1,0,0:0:0:0:
256,192,9643,1,0,0:0:0:0:
256,192,9718,1,0,0:0:0:0:
256,192,9793,1,8,0:0:0:0:
256,192,9868,1,8,0:0:0:0:
256,192,9943,1,8,0:0:0:0:
256,192,10018,1,8,0:0:0:0:
256,192,10093,1,0,0:0:0:0:
256,192,10543,1,0,0:0:0:0:
256,192,10693,1,8,0:0:0:0:
256,192,10993,1,0,0:0:0:0:
256,192,11293,1,8,0:0:0:0:
256,192,11443,1,8,0:0:0:0:
256,192,11743,1,8,0:0:0:0:
256,192,11893,1,0,0:0:0:0:
256,192,12193,1,8,0:0:0:0:
256,192,12493,1,0,0:0:0:0:
256,192,12793,1,8,0:0:0:0:
256,192,12943,1,8,0:0:0:0:
256,192,13093,1,0,0:0:0:0:
256,192,13393,1,0,0:0:0:0:
256,192,13693,1,8,0:0:0:0:
256,192,13843,1,0,0:0:0:0:
256,192,14143,1,8,0:0:0:0:
256,192,14293,1,0,0:0:0:0:
256,192,14368,1,0,0:0:0:0:
256,192,14443,1,0,0:0:0:0:
256,192,14518,1,0,0:0:0:0:
256,192,14593,1,8,0:0:0:0:
256,192,14668,1,8,0:0:0:0:
256,192,14743,1,8,0:0:0:0:
256,192,14818,1,8,0:0:0:0:
256,192,14893,1,0,0:0:0:0:
256,192,15343,1,0,0:0:0:0:
256,192,15493,1,8,0:0:0:0:
256,192,15793,1,0,0:0:0:0:
256,192,15943,1,0,0:0:0:0:
256,192,16093,1,8,0:0:0:0:
256,192,16243,1,0,0:0:0:0:
256,192,16543,1,8,0:0:0:0:
256,192,16693,1,0,0:0:0:0:
256,192,16843,1,0,0:0:0:0:
256,192,16993,1,8,0:0:0:0:
256,192,17068,1,8,0:0:0:0:
256,192,17143,1,8,0:0:0:0:
256,192,17293,1,0,0:0:0:0:
256,192,17593,1,8,0:0:0:0:
256,192,17743,1,0,0:0:0:0:
256,192,17893,1,8,0:0:0:0:
256,192,18193,1,0,0:0:0:0:
256,192,18343,1,0,0:0:0:0:
256,192,18493,1,8,0:0:0:0:
256,192,18643,1,0,0:0:0:0:
256,192,18943,1,8,0:0:0:0:
256,192,19093,1,0,0:0:0:0:
256,192,19168,1,0,0:0:0:0:
256,192,19243,1,0,0:0:0:0:
256,192,19318,1,0,0:0:0:0:
256,192,19393,1,8,0:0:0:0:
256,192,19468,1,8,0:0:0:0:
256,192,19543,1,8,0:0:0:0:
256,192,19618,1,8,0:0:0:0:
256,192,19693,1,0,0:0:0:0:
256,192,20143,1,0,0:0:0:0:
256,192,20293,1,8,0:0:0:0:
256,192,20593,1,0,0:0:0:0:
256,192,20743,1,0,0:0:0:0:
256,192,20893,1,8,0:0:0:0:
256,192,21043,1,8,0:0:0:0:
256,192,21343,1,8,0:0:0:0:
256,192,21493,1,0,0:0:0:0:
256,192,21643,1,8,0:0:0:0:
256,192,21793,1,0,0:0:0:0:
256,192,21868,1,0,0:0:0:0:
256,192,21943,1,8,0:0:0:0:
256,192,22018,1,8,0:0:0:0:
256,192,22093,1,0,0:0:0:0:
256,192,22393,1,8,0:0:0:0:
256,192,22543,1,0,0:0:0:0:
256,192,22693,1,8,0:0:0:0:
256,192,22993,1,0,0:0:0:0:
256,192,23143,1,0,0:0:0:0:
256,192,23293,1,8,0:0:0:0:
256,192,23443,1,0,0:0:0:0:
256,192,23593,1,0,0:0:0:0:
256,192,23743,1,8,0:0:0:0:
256,192,23893,1,0,0:0:0:0:
256,192,23968,1,0,0:0:0:0:
256,192,24043,1,0,0:0:0:0:
256,192,24118,1,0,0:0:0:0:
256,192,24193,1,8,0:0:0:0:
256,192,24268,1,8,0:0:0:0:
256,192,24343,1,0,0:0:0:0:
256,192,24418,1,8,0:0:0:0:
256,192,24493,1,0,0:0:0:0:
256,192,25693,1,8,0:0:0:0:
256,192,26143,1,8,0:0:0:0:
256,192,26593,1,8,0:0:0:0:
256,192,26893,1,0,0:0:0:0:
256,192,28693,1,8,0:0:0:0:
256,192,28768,1,8,0:0:0:0:
256,192,28843,1,0,0:0:0:0:
256,192,28918,1,0,0:0:0:0:
256,192,28993,1,8,0:0:0:0:
256,192,29068,1,8,0:0:0:0:
256,192,29143,1,8,0:0:0:0:
256,192,29218,1,8,0:0:0:0:
256,192,29293,1,0,0:0:0:0:
256,192,29593,1,8,0:0:0:0:
256,192,29743,1,8,0:0:0:0:
256,192,29893,1,0,0:0:0:0:
256,192,30043,1,8,0:0:0:0:
256,192,30193,1,0,0:0:0:0:
256,192,30493,1,0,0:0:0:0:
256,192,30643,1,8,0:0:0:0:
256,192,30943,1,8,0:0:0:0:
256,192,31093,1,0,0:0:0:0:
256,192,31243,1,8,0:0:0:0:
256,192,31393,1,0,0:0:0:0:
256,192,31693,1,0,0:0:0:0:
256,192,31843,1,8,0:0:0:0:
256,192,31993,1,8,0:0:0:0:
256,192,32143,1,8,0:0:0:0:
256,192,32293,1,0,0:0:0:0:
256,192,32443,1,8,0:0:0:0:
256,192,32593,1,0,0:0:0:0:
256,192,32893,1,0,0:0:0:0:
256,192,33043,1,0,0:0:0:0:
256,192,33343,1,8,0:0:0:0:
256,192,33493,1,0,0:0:0:0:
256,192,33643,1,0,0:0:0:0:
256,192,33793,1,8,0:0:0:0:
256,192,33943,1,8,0:0:0:0:
256,192,34093,1,0,0:0:0:0:
256,192,34393,1,8,0:0:0:0:
256,192,34543,1,8,0:0:0:0:
256,192,34693,1,0,0:0:0:0:
256,192,34843,1,8,0:0:0:0:
256,192,34993,1,0,0:0:0:0:
256,192,35293,1,0,0:0:0:0:
256,192,35443,1,8,0:0:0:0:
256,192,35743,1,8,0:0:0:0:
256,192,35893,1,0,0:0:0:0:
256,192,36043,1,8,0:0:0:0:
256,192,36193,1,0,0:0:0:0:
256,192,36493,1,0,0:0:0:0:
256,192,36643,1,8,0:0:0:0:
256,192,36793,1,8,0:0:0:0:
256,192,36943,1,8,0:0:0:0:
256,192,37093,1,0,0:0:0:0:
256,192,37243,1,8,0:0:0:0:
256,192,37393,1,0,0:0:0:0:
256,192,37693,1,0,0:0:0:0:
256,192,37843,1,0,0:0:0:0:
256,192,37993,1,0,0:0:0:0:
256,192,38143,1,8,0:0:0:0:
256,192,38293,1,0,0:0:0:0:
256,192,38443,1,0,0:0:0:0:
256,192,38593,1,8,0:0:0:0:
256,192,38743,1,8,0:0:0:0:
256,192,38893,1,0,0:0:0:0:
256,192,39043,1,8,0:0:0:0:
256,192,39193,1,8,0:0:0:0:
256,192,39343,1,8,0:0:0:0:
256,192,39493,1,0,0:0:0:0:
256,192,39643,1,8,0:0:0:0:
256,192,39793,1,0,0:0:0:0:
256,192,39943,1,8,0:0:0:0:
256,192,40018,1,8,0:0:0:0:
256,192,40093,1,0,0:0:0:0:
256,192,40243,1,8,0:0:0:0:
256,192,40393,1,8,0:0:0:0:
256,192,40543,1,8,0:0:0:0:
256,192,40693,1,0,0:0:0:0:
256,192,40843,1,8,0:0:0:0:
256,192,40993,1,0,0:0:0:0:
256,192,41143,1,8,0:0:0:0:
256,192,41218,1,8,0:0:0:0:
256,192,41293,1,0,0:0:0:0:
256,192,41443,1,8,0:0:0:0:
256,192,41593,1,8,0:0:0:0:
256,192,41743,1,8,0:0:0:0:
256,192,41893,1,0,0:0:0:0:
256,192,42043,1,8,0:0:0:0:
256,192,42193,1,0,0:0:0:0:
256,192,42343,1,8,0:0:0:0:
256,192,42418,1,8,0:0:0:0:
256,192,42493,1,0,0:0:0:0:
256,192,42643,1,0,0:0:0:0:
256,192,42793,1,0,0:0:0:0:
256,192,42943,1,8,0:0:0:0:
256,192,43093,1,0,0:0:0:0:
256,192,43243,1,0,0:0:0:0:
256,192,43393,1,8,0:0:0:0:
256,192,43543,1,0,0:0:0:0:
256,192,43618,1,0,0:0:0:0:
256,192,43693,1,0,0:0:0:0:
256,192,43843,1,8,0:0:0:0:
256,192,43918,1,0,0:0:0:0:
256,192,43993,1,8,0:0:0:0:
256,192,44143,1,8,0:0:0:0:
256,192,44293,1,0,0:0:0:0:
256,192,44443,1,8,0:0:0:0:
256,192,44593,1,0,0:0:0:0:
256,192,44743,1,8,0:0:0:0:
256,192,44818,1,8,0:0:0:0:
256,192,44893,1,0,0:0:0:0:
256,192,45043,1,8,0:0:0:0:
256,192,45118,1,0,0:0:0:0:
256,192,45193,1,8,0:0:0:0:
256,192,45343,1,8,0:0:0:0:
256,192,45493,1,0,0:0:0:0:
256,192,45643,1,8,0:0:0:0:
256,192,45718,1,8,0:0:0:0:
256,192,45793,1,0,0:0:0:0:
256,192,45943,1,8,0:0:0:0:
256,192,46093,1,0,0:0:0:0:
256,192,46168,1,0,0:0:0:0:
256,192,46243,1,8,0:0:0:0:
256,192,46318,1,8,0:0:0:0:
256,192,46393,1,0,0:0:0:0:
256,192,46468,1,8,0:0:0:0:
256,192,46543,1,0,0:0:0:0:
256,192,46618,1,0,0:0:0:0:
256,192,46693,1,8,0:0:0:0:
256,192,46768,1,8,0:0:0:0:
256,192,46843,1,0,0:0:0:0:
256,192,46918,1,0,0:0:0:0:
256,192,46993,1,8,0:0:0:0:
256,192,47068,1,8,0:0:0:0:
256,192,47143,1,8,0:0:0:0:
256,192,47218,1,8,0:0:0:0:
256,192,47293,1,0,0:0:0:0:
256,192,47743,1,0,0:0:0:0:
256,192,47818,1,0,0:0:0:0:
256,192,47893,1,8,0:0:0:0:
256,192,48043,1,8,0:0:0:0:
256,192,48193,1,0,0:0:0:0:
256,192,48493,1,4,0:0:0:0:
256,192,48793,1,0,0:0:0:0:
256,192,48943,1,0,0:0:0:0:
256,192,49018,1,0,0:0:0:0:
256,192,49093,1,8,0:0:0:0:
256,192,49243,1,0,0:0:0:0:
256,192,49393,1,0,0:0:0:0:
256,192,49543,1,8,0:0:0:0:
256,192,49618,1,0,0:0:0:0:
256,192,49693,1,8,0:0:0:0:
256,192,49843,1,8,0:0:0:0:
256,192,49993,1,0,0:0:0:0:
256,192,50068,1,0,0:0:0:0:
256,192,50143,1,8,0:0:0:0:
256,192,50218,1,0,0:0:0:0:
256,192,50293,1,8,0:0:0:0:
256,192,50443,1,0,0:0:0:0:
256,192,50593,1,8,0:0:0:0:
256,192,50668,1,8,0:0:0:0:
256,192,50743,1,8,0:0:0:0:
256,192,50818,1,8,0:0:0:0:
256,192,50893,1,0,0:0:0:0:
256,192,51193,1,0,0:0:0:0:
256,192,51343,1,0,0:0:0:0:
256,192,51418,1,0,0:0:0:0:
256,192,51493,1,8,0:0:0:0:
256,192,51643,1,0,0:0:0:0:
256,192,51793,1,8,0:0:0:0:
256,192,51943,1,0,0:0:0:0:
256,192,52018,1,0,0:0:0:0:
256,192,52093,1,8,0:0:0:0:
256,192,52243,1,8,0:0:0:0:
256,192,52393,1,0,0:0:0:0:
256,192,52468,1,8,0:0:0:0:
256,192,52543,1,0,0:0:0:0:
256,192,52618,1,0,0:0:0:0:
256,192,52693,1,8,0:0:0:0:
256,192,52843,1,0,0:0:0:0:
256,192,52993,1,8,0:0:0:0:
256,192,53068,1,8,0:0:0:0:
256,192,53143,1,8,0:0:0:0:
256,192,53293,1,4,0:0:0:0:
256,192,53593,1,0,0:0:0:0:
256,192,53743,1,0,0:0:0:0:
256,192,53818,1,0,0:0:0:0:
256,192,53893,1,8,0:0:0:0:
256,192,54043,1,0,0:0:0:0:
256,192,54193,1,8,0:0:0:0:
256,192,54343,1,0,0:0:0:0:
256,192,54418,1,0,0:0:0:0:
256,192,54493,1,8,0:0:0:0:
256,192,54568,1,8,0:0:0:0:
256,192,54643,1,0,0:0:0:0:
256,192,54793,1,0,0:0:0:0:
256,192,54943,1,8,0:0:0:0:
256,192,55018,1,8,0:0:0:0:
256,192,55093,1,0,0:0:0:0:
256,192,55243,1,0,0:0:0:0:
256,192,55393,1,8,0:0:0:0:
256,192,55468,1,8,0:0:0:0:
256,192,55543,1,0,0:0:0:0:
256,192,55618,1,8,0:0:0:0:
256,192,55693,1,0,0:0:0:0:
256,192,55993,1,0,0:0:0:0:
256,192,56143,1,0,0:0:0:0:
256,192,56218,1,0,0:0:0:0:
256,192,56293,1,8,0:0:0:0:
256,192,56443,1,0,0:0:0:0:
256,192,56593,1,0,0:0:0:0:
256,192,56743,1,8,0:0:0:0:
256,192,56818,1,8,0:0:0:0:
256,192,56893,1,8,0:0:0:0:
256,192,57043,1,8,0:0:0:0:
256,192,57193,1,0,0:0:0:0:
256,192,57268,1,0,0:0:0:0:
256,192,57343,1,8,0:0:0:0:
256,192,57418,1,8,0:0:0:0:
256,192,57493,1,0,0:0:0:0:
256,192,57568,1,0,0:0:0:0:
256,192,57643,1,0,0:0:0:0:
256,192,57718,1,0,0:0:0:0:
256,192,57793,1,8,0:0:0:0:
256,192,57943,1,8,0:0:0:0:
256,192,58093,1,4,0:0:0:0:
256,192,58393,1,0,0:0:0:0:
256,192,58543,1,0,0:0:0:0:
256,192,58618,1,0,0:0:0:0:
256,192,58693,1,8,0:0:0:0:
256,192,58843,1,0,0:0:0:0:
256,192,58993,1,0,0:0:0:0:
256,192,59143,1,8,0:0:0:0:
256,192,59218,1,0,0:0:0:0:
256,192,59293,1,8,0:0:0:0:
256,192,59443,1,8,0:0:0:0:
256,192,59593,1,0,0:0:0:0:
256,192,59668,1,0,0:0:0:0:
256,192,59743,1,8,0:0:0:0:
256,192,59818,1,0,0:0:0:0:
256,192,59893,1,8,0:0:0:0:
256,192,60043,1,0,0:0:0:0:
256,192,60193,1,8,0:0:0:0:
256,192,60268,1,8,0:0:0:0:
256,192,60343,1,8,0:0:0:0:
256,192,60418,1,8,0:0:0:0:
256,192,60493,1,0,0:0:0:0:
256,192,60643,1,8,0:0:0:0:
256,192,60793,1,0,0:0:0:0:
256,192,60943,1,0,0:0:0:0:
256,192,61018,1,0,0:0:0:0:
256,192,61093,1,8,0:0:0:0:
256,192,61243,1,0,0:0:0:0:
256,192,61393,1,8,0:0:0:0:
256,192,61543,1,0,0:0:0:0:
256,192,61618,1,0,0:0:0:0:
256,192,61693,1,8,0:0:0:0:
256,192,61843,1,8,0:0:0:0:
256,192,61993,1,0,0:0:0:0:
256,192,62068,1,8,0:0:0:0:
256,192,62143,1,0,0:0:0:0:
256,192,62218,1,0,0:0:0:0:
256,192,62293,1,8,0:0:0:0:
256,192,62443,1,0,0:0:0:0:
256,192,62593,1,8,0:0:0:0:
256,192,62668,1,8,0:0:0:0:
256,192,62743,1,8,0:0:0:0:
256,192,62893,1,4,0:0:0:0:
256,192,63193,1,0,0:0:0:0:
256,192,63343,1,0,0:0:0:0:
256,192,63418,1,0,0:0:0:0:
256,192,63493,1,8,0:0:0:0:
256,192,63643,1,0,0:0:0:0:
256,192,63793,1,8,0:0:0:0:
256,192,63943,1,0,0:0:0:0:
256,192,64018,1,0,0:0:0:0:
256,192,64093,1,8,0:0:0:0:
256,192,64168,1,8,0:0:0:0:
256,192,64243,1,0,0:0:0:0:
256,192,64393,1,0,0:0:0:0:
256,192,64543,1,8,0:0:0:0:
256,192,64618,1,8,0:0:0:0:
256,192,64693,1,0,0:0:0:0:
256,192,64843,1,0,0:0:0:0:
256,192,64993,1,8,0:0:0:0:
256,192,65068,1,8,0:0:0:0:
256,192,65143,1,0,0:0:0:0:
256,192,65218,1,8,0:0:0:0:
256,192,65293,1,0,0:0:0:0:
256,192,65443,1,8,0:0:0:0:
256,192,65593,1,0,0:0:0:0:
256,192,65743,1,0,0:0:0:0:
256,192,65818,1,0,0:0:0:0:
256,192,65893,1,8,0:0:0:0:
256,192,66043,1,0,0:0:0:0:
256,192,66193,1,0,0:0:0:0:
256,192,66343,1,8,0:0:0:0:
256,192,66418,1,8,0:0:0:0:
256,192,66493,1,8,0:0:0:0:
256,192,66643,1,8,0:0:0:0:
256,192,66793,1,0,0:0:0:0:
256,192,66868,1,0,0:0:0:0:
256,192,66943,1,8,0:0:0:0:
256,192,67018,1,0,0:0:0:0:
256,192,67093,1,8,0:0:0:0:
256,192,67168,1,8,0:0:0:0:
256,192,67243,1,0,0:0:0:0:
256,192,67318,1,0,0:0:0:0:
256,192,67393,1,8,0:0:0:0:
256,192,67468,1,8,0:0:0:0:
256,192,67543,1,8,0:0:0:0:
256,192,67618,1,8,0:0:0:0:
256,192,67693,1,0,0:0:0:0:
256,192,68893,1,8,0:0:0:0:
256,192,69343,1,8,0:0:0:0:
256,192,69793,1,8,0:0:0:0:
256,192,70093,1,0,0:0:0:0:
256,192,71293,1,8,0:0:0:0:
