osu file format v14

[General]
AudioFilename: audio.mp3
AudioLeadIn: 0
PreviewTime: 153142
Countdown: 0
SampleSet: Soft
StackLeniency: 0.3
Mode: 0
LetterboxInBreaks: 0
WidescreenStoryboard: 1

[Editor]
Bookmarks: 178080,187455
DistanceSpacing: 0.9
BeatDivisor: 4
GridSize: 4
TimelineZoom: 2.6

[Metadata]
Title:Sayonara no Kotoba
TitleUnicode:さよならのコトバ
Artist:Mitsuki Nakae
ArtistUnicode:中恵光城
Creator:CyberX
Version:Sotsugyo omedeto
Source:初恋1/1
Tags:真加辺 碧 Midori Makabe MANYO Little Wing 福田真一朗 Shinichiro Fukuda 土屋 玲子 Reiko Tsuchiya 石井 康幸 Yasuyuki Ishii 矢吹 正則 Masanori Yabuki 坂 知学 Tomotaka Saka WONDERSTATION Inc. tone work's Perfect Vocal Collection Hatsukoi 1/1
BeatmapID:1915461
BeatmapSetID:917179

[Difficulty]
HPDrainRate:6.2
CircleSize:4.2
OverallDifficulty:8.1
ApproachRate:9
SliderMultiplier:1.6
SliderTickRate:1

[Events]
//Background and Video events
0,0,"Midori.jpg",0,0
//Break Periods
2,90154,99855
2,199655,210855
//Storyboard Layer 0 (Background)
//Storyboard Layer 1 (Fail)
//Storyboard Layer 2 (Pass)
//Storyboard Layer 3 (Foreground)
//Storyboard Sound Samples

[TimingPoints]
-45,375,4,2,0,40,1,0
3517,-83.3333333333333,4,2,0,40,0,0
4455,-100,4,2,0,40,0,0
9517,-83.3333333333333,4,2,0,40,0,0
10455,-100,4,2,0,40,0,0
13455,-125,4,2,0,40,0,0
23955,-100,4,2,0,40,0,0
24517,-125,4,2,0,40,0,0
37080,-100,4,2,0,40,0,0
38017,-125,4,2,0,40,0,0
40455,-100,4,2,0,40,0,0
41017,-125,4,2,0,40,0,0
49455,-100,4,2,0,40,0,0
50580,-83.3333333333333,4,2,0,40,0,0
50955,-100,4,2,0,40,0,0
52455,-125,4,2,0,40,0,0
52830,-83.3333333333333,4,2,0,40,0,0
53017,-100,4,2,0,40,0,0
53580,-83.3333333333333,4,2,0,40,0,0
53955,-125,4,2,0,40,0,0
54705,-100,4,2,0,40,0,0
55080,-71.4285714285714,4,2,0,40,0,0
55455,-100,4,2,0,40,0,0
57330,-83.3333333333333,4,2,0,40,0,0
57705,-100,4,2,0,40,0,0
62955,-142.857142857143,4,2,0,40,0,0
64080,-111.111111111111,4,2,0,40,0,0
66330,-83.3333333333333,4,2,0,40,0,0
67455,-66.6666666666667,4,2,0,40,0,1
78330,-100,4,2,0,40,0,0
78705,-76.9230769230769,4,2,0,40,0,0
79080,-66.6666666666667,4,2,0,40,0,0
79455,-58.8235294117647,4,2,0,40,0,1
85455,-50,4,2,0,40,0,1
88080,-50,4,2,0,40,0,0
88455,-76.3358778625954,4,2,0,40,0,1
89955,-76.3358778625954,4,2,0,40,0,0
100455,-125,4,2,0,40,0,0
124455,-100,4,2,0,40,0,0
137580,-83.3333333333333,4,2,0,40,0,0
137955,-100,4,2,0,40,0,0
149205,-125,4,2,0,40,0,0
149955,-200,4,2,0,40,0,0
150330,-142.857142857143,4,2,0,40,0,0
151455,-333.333333333333,4,2,0,40,0,0
152955,-142.857142857143,4,2,0,40,0,0
153330,-100,4,2,0,40,0,0
153705,-76.9230769230769,4,2,0,40,0,0
154080,-62.5,4,2,0,40,0,0
154455,-52.6315789473684,4,2,0,40,0,1
155205,-58.8235294117647,4,2,0,40,0,1
165330,-76.9230769230769,4,2,0,40,0,0
165705,-66.6666666666667,4,2,0,40,0,0
166080,-58.8235294117647,4,2,0,40,0,0
166455,-50,4,2,0,40,0,1
172455,-43.4782608695652,4,2,0,40,0,1
175080,-43.4782608695652,4,2,0,40,0,1
175455,-100,4,2,0,40,0,0
193455,-83.3333333333333,4,2,0,40,0,0
196455,-100,4,2,0,40,0,0
197017,-76.9230769230769,4,2,0,40,0,0
197955,-100,4,2,0,40,0,0
199455,-100,4,2,0,40,0,0
211455,-71.4285714285714,4,2,0,40,0,0
212955,-100,4,2,0,40,0,0
213705,-83.3333333333333,4,2,0,40,0,0
214080,-71.4285714285714,4,2,0,40,0,0
214455,-62.5,4,2,0,40,0,0
215955,-76.9230769230769,4,2,0,40,0,0
217455,-125,4,2,0,40,0,0
220080,-100,4,2,0,40,0,0
220455,-66.6666666666667,4,2,0,40,0,1
231330,-100,4,2,0,40,0,0
231705,-66.6666666666667,4,2,0,40,0,0
232080,-58.8235294117647,4,2,0,40,0,0
232455,-50,4,2,0,40,0,1
238455,-43.4782608695652,4,2,0,40,0,1
239955,-40,4,2,0,40,0,1
240517,-43.4782608695652,4,2,0,40,0,1
243517,-66.6666666666667,4,2,0,40,0,1
244455,-43.4782608695652,4,2,0,40,0,1
245955,-38.4615384615385,4,2,0,40,0,1
246705,-66.6666666666667,4,2,0,40,0,1
247080,-76.9230769230769,4,2,0,40,0,1
247455,-151.515151515152,4,2,0,40,0,0

[Colours]
Combo1 : 253,255,255
Combo2 : 223,176,249
Combo3 : 164,149,208

[HitObjects]
189,131,1455,6,0,B|164:187|26:314|-86:88|12:9|181:-46|269:107,1,560
199,249,2955,6,0,P|135:290|5:307,1,200
224,356,3517,2,0,L|390:346,1,143.999995605469
454,365,3892,2,0,P|471:337|477:308,1,47.9999985351563
381,210,4080,6,0,B|370:248|370:248|365:266|383:279|408:276|415:260|415:260|428:223,1,143.999995605469
260,99,4455,2,0,P|338:27|446:49,1,200
493,95,5017,1,0,0:0:0:0:
272,263,5767,5,0,0:0:0:0:
261,283,5860,1,0,0:0:0:0:
258,308,5955,2,0,B|253:355|253:355|250:284|214:252,1,160
126,196,6423,1,0,0:0:0:0:
119,176,6517,2,0,P|129:147|146:131,1,40
288,64,6705,6,0,P|267:93|250:100,1,40
33,57,6892,2,0,P|20:36|21:22,1,40
105,15,7080,2,0,P|135:33|237:23,1,120
464,37,7455,6,0,B|441:66|409:94|354:93|354:93|409:93|456:124|408:191|408:191|355:258|372:342|415:417|532:401|520:235|429:303,1,600
298,344,8955,6,0,L|91:355,1,200
241,153,9517,2,0,P|294:196|299:274,1,143.999995605469
134,191,9892,2,0,P|157:158|170:152,1,47.9999985351563
64,271,10080,6,0,P|22:192|42:151,1,95.9999970703126
54,71,10361,5,0,0:0:0:0:
83,50,10455,2,0,B|128:132|228:102|228:102|292:18|411:10|519:63|520:215|520:215|500:148|417:87|344:75|275:90|202:170|203:269|294:347|395:332|449:269|413:185|347:201,1,1200
422,360,13455,6,0,P|474:300|517:290,1,96
266,336,13830,6,0,P|300:367|342:376,1,64
215,266,14205,5,0,0:0:0:0:
205,218,14392,5,0,0:0:0:0:
208,182,14580,5,0,0:0:0:0:
321,87,14767,6,0,P|233:135|206:234,1,192
113,159,15517,2,0,L|23:167,1,64
17,362,15892,2,0,P|44:314|9:234,1,128
49,27,16455,6,0,P|48:51|71:95,1,64
162,96,16830,2,0,L|234:91,1,64
382,54,17205,2,0,P|332:39|301:85,1,96
290,146,17580,5,0,0:0:0:0:
436,185,17767,2,0,P|409:161|418:211,1,96
226,220,18142,1,0,0:0:0:0:
333,329,18330,2,0,P|360:353|351:303,1,96
239,315,18705,5,0,0:0:0:0:
190,334,18892,5,0,0:0:0:0:
159,362,19080,5,0,0:0:0:0:
4,301,19455,6,0,B|-9:347|-9:347|-17:374|10:394|48:389|58:365|58:365|78:309,1,192
113,257,20205,5,0,0:0:0:0:
113,181,20392,5,0,0:0:0:0:
98,130,20580,5,0,0:0:0:0:
75,108,20767,6,0,P|147:128|210:97,1,128
330,46,21330,6,0,B|318:22|279:22|279:22|239:90|313:163,1,192
128,28,22080,2,0,P|129:61|146:93,1,64
432,123,22455,2,0,P|449:94|452:58,1,64
189,226,22830,6,0,L|264:222,1,64
393,282,23205,2,0,P|350:293|331:315,2,64
470,290,23767,1,0,0:0:0:0:
276,369,23955,6,0,B|254:351|254:351|231:299|264:237,1,120
229,167,24330,1,0,0:0:0:0:
257,42,24517,1,0,0:0:0:0:
450,42,24705,5,0,0:0:0:0:
414,92,24892,5,0,0:0:0:0:
390,112,25080,5,0,0:0:0:0:
371,122,25267,5,0,0:0:0:0:
211,173,25455,6,0,P|262:180|318:151,1,96
299,11,25830,2,0,L|309:90,1,64
480,198,26205,2,0,P|426:217|392:213,1,64
321,261,26580,5,0,0:0:0:0:
273,352,26767,2,0,L|430:337,1,128
146,341,27330,5,0,0:0:0:0:
21,355,27517,2,0,P|36:302|77:291,1,96
171,211,27892,2,0,B|141:208|125:183|125:183|142:215|152:260,1,128
45,183,28361,1,0,0:0:0:0:
44,155,28455,2,0,P|79:115|127:95,1,96
110,39,28830,6,0,P|128:72|169:89,1,64
217,148,29205,2,0,P|244:109|241:81,1,64
208,20,29580,1,0,0:0:0:0:
20,15,29767,2,0,P|22:57|50:87,1,64
208,20,30142,1,0,0:0:0:0:
124,201,30330,6,0,P|177:197|213:146,1,96
250,98,30705,5,0,0:0:0:0:
303,59,30892,5,0,0:0:0:0:
408,41,31080,5,0,0:0:0:0:
510,84,31455,6,0,B|471:111|426:74|426:74|371:34|310:72,1,192
277,129,32205,5,0,0:0:0:0:
242,189,32392,5,0,0:0:0:0:
237,281,32580,5,0,0:0:0:0:
284,367,32767,6,0,P|316:323|397:280,1,128
186,250,33330,6,0,P|158:194|137:178,1,64
300,101,33705,2,0,P|328:45|349:29,1,64
123,339,34080,2,0,P|67:307|21:306,1,96
17,219,34455,6,0,P|23:182|46:158,1,64
105,94,34830,1,0,0:0:0:0:
217,4,35017,1,0,0:0:0:0:
188,17,35110,1,0,0:0:0:0:
164,38,35204,1,0,0:0:0:0:
243,73,35392,5,0,0:0:0:0:
49,28,35580,5,0,0:0:0:0:
240,157,36517,6,0,P|252:179|260:220,1,64
158,115,36892,1,0,0:0:0:0:
305,301,37080,2,0,P|336:264|342:215,1,80
329,377,37361,5,0,0:0:0:0:
329,377,37455,2,0,P|340:291|306:243,1,120
260,216,37830,1,0,0:0:0:0:
235,384,38017,2,0,P|293:364|316:299,1,128
411,215,38580,6,0,B|401:221|385:205|385:205|410:242|402:278,1,96
149,369,38955,2,0,P|198:367|286:251,1,192
71,122,39705,6,0,P|72:163|91:199,1,64
156,219,40080,1,0,0:0:0:0:
208,78,40267,1,0,0:0:0:0:
55,19,40455,6,0,P|16:66|11:130,1,120
80,183,40830,1,0,0:0:0:0:
220,45,41017,2,0,P|141:2|64:15,1,160
200,173,41580,2,0,P|197:114|183:90,1,64
159,290,41955,6,0,B|197:316|242:279|242:279|297:239|336:265,1,192
69,114,42705,5,0,0:0:0:0:
19,176,42892,5,0,0:0:0:0:
0,292,43080,5,0,0:0:0:0:
143,383,43455,6,0,P|84:309|-10:341,1,192
219,352,44205,2,0,P|245:323|279:315,1,64
138,224,44580,2,0,P|167:250|175:284,1,64
303,246,44861,5,0,0:0:0:0:
336,269,44955,2,0,L|417:264,1,64
455,361,45330,2,0,P|483:333|493:303,1,64
389,111,45705,6,0,P|361:139|351:169,1,64
490,33,46080,2,0,P|410:17|372:28,1,96
210,151,46455,6,0,P|229:107|254:76,1,64
271,361,46830,2,0,B|227:289|271:227|271:227|226:290|191:287,1,224
330,294,47580,2,0,P|365:256|422:239,1,96
492,241,47955,5,0,0:0:0:0:
298,31,48705,5,0,0:0:0:0:
369,60,48892,5,0,0:0:0:0:
421,105,49080,5,0,0:0:0:0:
438,151,49267,5,0,0:0:0:0:
270,113,49455,6,0,P|333:143|375:205,1,120
393,271,49830,1,0,0:0:0:0:
223,175,50017,2,0,P|126:186|64:261,1,200
206,296,50580,2,0,B|200:284|172:279|172:279|138:334|205:386,1,143.999995605469
393,271,50955,6,0,B|403:237|375:214|375:214|289:255|310:363,1,240
407,369,51705,5,0,0:0:0:0:
463,326,51892,5,0,0:0:0:0:
502,246,52080,5,0,0:0:0:0:
502,145,52267,5,0,0:0:0:0:
501,125,52360,1,0,0:0:0:0:
493,107,52455,6,0,L|382:115,1,96
280,95,52830,2,0,P|293:58|309:36,1,47.9999985351563
203,195,53017,2,0,L|370:185,1,160
139,271,53580,6,0,P|105:227|96:181,1,95.9999970703126
6,111,53955,2,0,L|207:100,1,192
295,84,54705,6,0,P|277:30|304:23,1,80
396,162,55080,2,0,P|421:98|451:112,1,111.999996582031
357,340,55455,2,0,P|355:283|430:247,1,120
486,227,55830,5,0,0:0:0:0:
444,334,56017,2,0,L|262:349,1,160
125,360,56580,5,0,0:0:0:0:
27,357,56767,2,0,B|65:383|117:343|117:343|165:306|218:338,1,200
83,239,57330,6,0,B|53:222|53:222|71:305,1,95.9999970703126
166,217,57705,5,0,0:0:0:0:
188,158,57892,5,0,0:0:0:0:
172,77,58080,5,0,0:0:0:0:
99,24,58267,5,0,0:0:0:0:
86,39,58360,1,0,0:0:0:0:
69,50,58455,6,0,L|260:42,1,160
342,67,59017,1,0,0:0:0:0:
257,141,59205,6,0,P|298:158|355:150,1,80
205,230,59580,2,0,P|181:267|131:294,1,80
312,299,59955,2,0,P|329:333|385:378,1,80
484,384,60330,5,0,0:0:0:0:
487,149,60517,2,0,P|453:166|426:188,1,40
402,239,60705,5,0,0:0:0:0:
326,183,60892,5,0,0:0:0:0:
253,214,61080,5,0,0:0:0:0:
139,228,61267,5,0,0:0:0:0:
34,206,61455,5,0,0:0:0:0:
70,266,61830,5,0,0:0:0:0:
70,315,62205,5,0,0:0:0:0:
53,362,62580,5,0,0:0:0:0:
53,362,62955,6,0,B|88:391|143:357|143:357|195:325|244:363,1,195.999994018555
380,347,63705,2,0,P|349:364|318:362,1,55.9999982910157
184,249,64080,2,0,P|215:266|254:259,1,71.9999978027344
454,300,64361,5,0,0:0:0:0:
438,274,64455,2,0,L|307:263,1,107.999996704102
249,261,64830,5,0,0:0:0:0:
192,204,65017,5,0,0:0:0:0:
162,108,65205,6,0,P|160:65|173:31,1,71.9999978027344
372,170,65580,2,0,P|336:146|316:115,1,71.9999978027344
76,66,65861,5,0,0:0:0:0:
76,66,65955,2,0,B|63:68|47:43|47:43|64:75|74:120,1,107.999996704102
44,211,66330,5,0,0:0:0:0:
74,343,66517,5,0,0:0:0:0:
87,323,66610,1,0,0:0:0:0:
93,299,66705,5,0,0:0:0:0:
190,348,66892,5,0,0:0:0:0:
338,356,67080,5,0,0:0:0:0:
479,292,67267,5,0,0:0:0:0:
381,105,67455,6,0,B|268:158|295:289|370:330|443:266|409:204|369:236,1,300.000011444092
451,151,68017,2,0,P|469:96|465:66,1,60.0000022888184
216,34,68205,6,0,B|194:92|250:129|291:117|294:69|260:59|258:84,1,120.000004577637
36,141,68580,2,0,P|85:109|159:120,1,120.000004577637
272,317,68955,6,0,B|280:344|257:363|257:363|186:330|203:241,1,180.000006866455
275,90,69330,2,0,L|263:261,1,120.000004577637
0,267,69705,6,0,P|82:291|130:271,1,120.000004577637
430,359,70080,2,0,B|443:310|443:310|450:287|427:271|395:275|386:295|386:295|370:341,1,180.000006866455
328,238,70455,6,0,P|383:194|493:222,1,180.000006866455
390,57,70830,2,0,P|402:90|400:129,1,60.0000022888184
306,68,71017,2,0,P|219:47|226:-12,1,120.000004577637
243,159,71392,1,0,0:0:0:0:
231,254,71580,5,0,0:0:0:0:
159,365,71767,2,0,P|188:291|294:260,1,180.000006866455
327,329,72142,2,0,P|342:359|339:402,1,60.0000022888184
27,357,72330,6,0,B|65:383|117:343|117:343|165:306|218:338,1,200
73,268,72705,2,0,P|123:193|241:165,1,180.000006866455
26,78,73080,6,0,P|45:141|73:169,1,60.0000022888184
85,15,73267,1,0,0:0:0:0:
168,64,73455,5,0,0:0:0:0:
282,101,73642,5,0,0:0:0:0:
412,86,73830,5,0,0:0:0:0:
511,20,74017,5,0,0:0:0:0:
205,141,74205,6,0,P|262:46|338:21,1,180.000006866455
136,198,74580,2,0,P|174:225|210:234,1,60.0000022888184
357,172,74767,2,0,B|384:163|403:186|403:186|370:257|281:240,1,180.000006866455
179,353,75142,2,0,P|223:340|253:318,1,60.0000022888184
488,352,75330,6,0,B|454:375|407:339|407:339|365:306|318:335,1,180.000006866455
63,293,75705,2,0,B|42:296|16:256|16:256|43:307|59:378,1,180.000006866455
86,205,76080,6,0,B|93:178|93:178|97:165|84:156|67:158|62:170|62:170|53:195,1,60.0000022888184
7,99,76267,1,0,0:0:0:0:
127,42,76455,5,0,0:0:0:0:
264,102,76642,1,0,0:0:0:0:
333,231,76830,5,0,0:0:0:0:
287,362,77017,1,0,0:0:0:0:
232,204,77205,6,0,P|287:151|412:150,1,180.000006866455
480,209,77580,2,0,P|470:223|458:188,1,60.0000022888184
322,15,77767,2,0,B|209:68|236:199|311:240|384:176|350:114|310:146,1,300.000011444092
381,327,78330,6,0,B|387:348|369:362|369:362|316:336|329:270,1,120
93,335,78705,2,0,P|173:347|224:279,1,155.999992858887
185,89,79080,2,0,B|136:84|111:44|111:44|138:95|154:167,1,180.000006866455
248,188,79455,6,0,B|305:225|346:180|346:180|417:105|486:167|481:251|381:283|359:190,1,340.000006484985
68,250,80017,2,0,B|84:197|84:197|92:169|64:149|25:154|14:179|14:179|-5:235,1,204.000003890991
147,291,80392,2,0,P|246:300|315:374,1,204.000003890991
4,383,80767,2,0,P|39:342|40:320,1,68.0000012969971
144,106,80955,6,0,B|154:72|126:49|126:49|40:90|61:198,1,204.000003890991
321,84,81330,2,0,B|352:67|348:30|348:30|258:0|197:90,1,204.000003890991
389,194,81705,6,0,P|458:108|452:42,1,136.000002593994
259,320,82080,2,0,P|350:348|415:327,1,136.000002593994
158,265,82455,6,0,B|75:256|31:188|31:188|78:275|105:399,1,340.000006484985
120,151,83017,2,0,P|113:58|60:15,1,136.000002593994
172,338,83392,1,0,0:0:0:0:
330,241,83580,2,0,P|259:180|191:187,1,136.000002593994
432,62,83955,6,0,B|434:24|372:2|322:63|350:125|410:129|410:129|388:135|371:214|454:264|492:166,1,340.000006484985
209,69,84517,1,0,0:0:0:0:
234,46,84610,1,0,0:0:0:0:
266,34,84704,5,0,0:0:0:0:
258,131,84892,5,0,0:0:0:0:
273,227,85080,5,0,0:0:0:0:
347,341,85267,5,0,0:0:0:0:
5,361,85455,6,0,P|56:284|204:315,1,240
27,121,85830,2,0,P|50:183|48:234,1,80
246,380,86017,2,0,P|275:313|266:278,1,80
275,70,86205,6,0,B|245:74|208:17|208:17|247:90|270:193,1,240
404,275,86580,2,0,P|432:212|426:172,1,80
133,11,86767,2,0,P|105:74|111:114,1,80
179,301,86955,6,0,B|217:303|239:239|177:188|113:216|104:279|104:279|103:255|18:236|-7:318|17:361|71:363,1,400
394,364,87517,2,0,B|413:303|413:303|422:270|390:246|344:252|331:281|331:281|308:346,1,240
338,31,87892,2,0,P|344:94|365:123,1,80
488,226,88080,2,0,P|439:176|271:134,1,240
143,140,88455,6,0,B|162:137|162:137|184:118|182:84|201:74|201:74|180:81|156:56|126:63|126:63|109:75|109:75|113:56|113:56|102:30|70:22|65:-1|65:-1|65:23|34:37|33:68|33:68|39:87|39:87|23:79|23:79|-6:82|-23:108|-46:107|-46:107|-24:114|-19:148|9:160|9:160|29:159|29:159|17:173|17:173|10:202|31:225|22:247|22:247|36:228|70:232|89:211|89:211|95:191|95:191|112:224|152:230,1,838.400015351563
41,345,100455,6,0,P|67:297|97:280,1,64
217,252,100830,2,0,L|131:250,1,64
24,132,101205,6,0,P|72:183|117:178,1,96
195,167,101580,1,0,0:0:0:0:
273,27,101767,6,0,P|250:45|236:82,1,64
203,227,102142,2,0,P|191:198|195:167,1,64
328,275,102517,2,0,P|296:263|300:301,1,64
40,356,102892,2,0,L|144:351,1,96
212,370,103267,2,0,P|242:363|261:369,1,32
330,377,103455,6,0,P|386:351|432:367,1,96
456,264,103830,2,0,P|489:242|531:227,1,64
254,259,104205,6,0,P|299:274|339:299,1,96
160,201,104580,2,0,P|171:186|190:169,1,32
378,88,104767,6,0,P|339:115|315:157,1,96
497,91,105142,2,0,P|476:83|457:80,1,32
156,14,105330,6,0,P|199:33|226:72,1,96
11,82,105705,5,0,0:0:0:0:
86,186,105892,5,0,0:0:0:0:
240,274,106080,5,0,0:0:0:0:
455,316,106267,5,0,0:0:0:0:
209,346,106455,6,0,B|287:340|300:257|266:216|208:237|215:281|245:272,1,192
338,234,107205,5,0,0:0:0:0:
300,127,107392,5,0,0:0:0:0:
181,54,107580,5,0,0:0:0:0:
32,55,107767,6,0,B|22:24|22:24|17:8|33:-3|57:0|63:13|63:13|74:46,1,128
47,160,108330,6,0,P|103:149|118:121,1,64
271,47,108705,2,0,B|258:48|242:24|242:24|259:55|268:97,1,96
284,175,109080,6,0,P|303:152|345:140,1,64
214,270,109455,2,0,P|207:240|160:200,1,64
279,361,109830,6,0,P|287:333|304:316,1,32
354,257,110017,2,0,P|379:242|403:242,1,32
469,345,110205,6,0,L|371:335,1,96
118,279,110580,2,0,L|216:269,1,96
46,232,110955,5,0,0:0:0:0:
31,260,111048,1,0,0:0:0:0:
30,292,111142,1,0,0:0:0:0:
89,371,111330,5,0,0:0:0:0:
215,380,111517,5,0,0:0:0:0:
355,341,111705,5,0,0:0:0:0:
443,200,111892,5,0,0:0:0:0:
405,33,112080,6,0,P|424:69|428:105,1,64
274,175,112455,6,0,P|245:139|243:86,1,96
398,221,112830,2,0,P|433:181|439:150,1,64
219,16,113205,6,0,P|184:56|178:87,1,64
394,98,113580,2,0,P|389:71|378:55,1,32
188,167,113767,6,0,P|200:204|224:233,1,64
351,273,114142,1,0,0:0:0:0:
418,53,114330,6,0,P|436:80|445:111,1,64
196,322,114705,2,0,P|169:303|150:278,1,64
100,168,115080,5,0,0:0:0:0:
131,78,115267,1,0,0:0:0:0:
266,0,115455,6,0,P|226:11|198:29,1,64
275,257,115830,2,0,P|314:245|342:227,1,64
390,132,116205,6,0,P|378:92|360:64,1,64
133,141,116580,2,0,P|138:164|154:193,1,32
445,283,116767,6,0,P|459:250|455:222,1,64
206,23,117142,2,0,P|193:42|184:74,1,32
176,352,117330,6,0,P|209:366|278:359,1,96
376,326,117705,5,0,0:0:0:0:
471,229,117892,5,0,0:0:0:0:
478,68,118080,5,0,0:0:0:0:
292,29,118267,1,0,0:0:0:0:
280,58,118361,1,0,0:0:0:0:
286,90,118454,5,0,0:0:0:0:
483,146,118642,5,0,0:0:0:0:
266,264,118830,2,0,P|234:224|232:200,1,64
213,111,119205,5,0,0:0:0:0:
255,34,119392,5,0,0:0:0:0:
344,5,119580,5,0,0:0:0:0:
476,16,119767,6,0,B|482:-7|463:-23|463:-23|404:5|418:79,1,160
336,157,120330,2,0,P|377:178|406:177,1,64
255,34,120705,6,0,P|234:75|235:104,1,64
372,236,121080,2,0,P|393:195|392:166,1,64
327,113,121455,5,0,0:0:0:0:
233,92,121642,5,0,0:0:0:0:
106,104,121830,5,0,0:0:0:0:
0,188,122017,5,0,0:0:0:0:
47,142,122205,5,0,0:0:0:0:
192,98,122392,5,0,0:0:0:0:
357,142,122580,5,0,0:0:0:0:
436,310,122767,5,0,0:0:0:0:
410,207,122955,5,0,0:0:0:0:
306,110,123142,5,0,0:0:0:0:
166,61,123330,5,0,0:0:0:0:
3,77,123517,5,0,0:0:0:0:
207,176,123705,6,0,P|194:220|169:256,1,64
131,300,124080,1,0,0:0:0:0:
59,366,124267,2,0,P|38:345|27:339,1,32
186,364,124455,6,0,P|243:338|321:360,1,120
380,369,124830,1,0,0:0:0:0:
488,301,125017,2,0,B|451:295|437:268|437:268|459:317|463:371,1,160
382,187,125580,2,0,P|352:238|363:307,1,120
462,150,125955,6,0,B|490:77|490:77|500:40|467:10|416:17|402:48|402:48|377:121,1,280
306,157,126705,5,0,0:0:0:0:
207,175,126892,5,0,0:0:0:0:
80,148,127080,5,0,0:0:0:0:
4,62,127267,5,0,0:0:0:0:
165,32,127455,6,0,B|143:27|118:0|118:0|118:36|156:70,1,120
159,129,127830,1,0,0:0:0:0:
290,84,128017,2,0,B|297:52|335:16|335:16|284:16|235:71,1,200
255,262,128580,6,0,P|241:205|257:161,1,80
392,179,128955,2,0,B|434:151|517:155|517:155|460:97|345:104,1,280
310,188,129705,5,0,0:0:0:0:
336,264,129892,5,0,0:0:0:0:
436,331,130080,5,0,0:0:0:0:
466,192,130267,5,0,0:0:0:0:
432,212,130360,1,0,0:0:0:0:
419,248,130455,6,0,L|228:261,1,160
58,339,131017,1,0,0:0:0:0:
141,358,131205,6,0,P|178:301|181:290,1,80
186,187,131580,2,0,P|171:120|166:110,1,80
68,21,131861,5,0,0:0:0:0:
68,21,131955,2,0,B|-48:62|-6:189|52:214|98:170|103:110|52:127,1,280
262,86,132705,6,0,P|259:35|212:29,1,80
337,144,133080,2,0,L|463:136,1,120
285,214,133455,6,0,P|238:217|207:237,1,80
434,280,133830,2,0,B|404:284|367:227|367:227|406:300|429:403,1,240
507,106,134580,2,0,P|497:168|472:206,1,80
313,326,134955,6,0,P|251:316|213:291,1,80
423,297,135330,1,0,0:0:0:0:
24,357,135517,5,0,0:0:0:0:
8,320,135610,1,0,0:0:0:0:
9,281,135704,5,0,0:0:0:0:
77,196,135892,5,0,0:0:0:0:
203,161,136080,5,0,0:0:0:0:
361,215,136267,5,0,0:0:0:0:
465,356,136455,6,0,B|473:324|473:324|477:309|463:298|442:301|436:314|436:314|426:344,1,120
344,365,136830,1,0,0:0:0:0:
256,331,137017,2,0,B|227:281|227:281|214:257|183:263|161:291|169:315|169:315|193:364,1,200
370,260,137580,2,0,B|381:222|381:222|386:202|367:189|341:192|333:209|333:209|320:247,1,143.999995605469
467,58,137955,6,0,B|450:27|413:31|413:31|383:121|473:182,1,240
328,107,138705,5,0,0:0:0:0:
252,65,138892,5,0,0:0:0:0:
137,38,139080,5,0,0:0:0:0:
0,41,139267,5,0,0:0:0:0:
32,135,139455,6,0,B|59:153|95:125|95:125|130:98|167:121,1,120
281,38,139830,5,0,0:0:0:0:
362,188,140017,2,0,P|333:139|210:140,1,160
424,298,140580,2,0,P|473:247|475:174,1,120
447,65,140955,6,0,B|383:58|349:6|349:6|385:72|406:167,1,280
296,257,141705,6,0,B|327:253|344:227|344:227|326:260|316:308,1,120
474,330,142080,2,0,B|442:326|425:300|425:300|443:333|453:381,1,120
359,364,142455,6,0,B|324:387|276:351|276:351|232:317|184:346,1,160
102,336,143017,1,0,0:0:0:0:
39,359,143205,6,0,P|72:328|117:357,1,80
201,231,143580,2,0,P|188:251|149:260,1,40
24,248,143767,2,0,L|194:240,1,160
271,180,144330,6,0,P|303:156|342:147,1,80
467,246,144705,2,0,L|309:254,1,120
255,293,145080,2,0,P|257:333|280:366,1,80
254,86,145455,6,0,B|255:56|206:38|167:86|189:135|236:138|236:138|219:143|205:205|271:244|301:167,1,280
351,95,146205,6,0,P|344:52|303:5,1,80
76,94,146580,2,0,P|83:137|124:184,1,80
253,256,146955,5,0,0:0:0:0:
388,253,147142,5,0,0:0:0:0:
507,170,147330,5,0,0:0:0:0:
456,326,147517,5,0,0:0:0:0:
423,348,147610,1,0,0:0:0:0:
384,358,147704,5,0,0:0:0:0:
275,296,147892,5,0,0:0:0:0:
227,160,148080,5,0,0:0:0:0:
279,15,148267,5,0,0:0:0:0:
455,44,148455,6,0,B|461:65|443:79|443:79|390:53|403:-13,1,120
326,216,148830,2,0,P|409:165|460:165,1,120
301,357,149205,6,0,P|296:310|314:274,1,64
440,317,149580,2,0,B|447:292|447:292|450:279|438:270|421:272|415:283|415:283|407:308,1,96
163,368,149955,6,0,P|127:360|108:341,1,60
138,257,150330,2,0,P|114:262|102:274,1,27.9999991455078
32,199,150517,5,0,0:0:0:0:
42,173,150610,1,0,0:0:0:0:
62,154,150704,5,0,0:0:0:0:
161,120,150892,5,0,0:0:0:0:
296,136,151080,5,0,0:0:0:0:
415,211,151267,5,0,0:0:0:0:
462,355,151455,5,0,0:0:0:0:
360,361,151830,5,0,0:0:0:0:
272,284,152017,5,0,0:0:0:0:
227,185,152205,5,0,0:0:0:0:
236,66,152580,5,0,0:0:0:0:
390,17,152955,6,0,P|356:13|301:26,1,83.9999974365235
478,90,153330,6,0,P|442:41|383:15,1,120
479,212,153705,6,0,B|486:236|465:252|465:252|402:223|417:144,1,155.999992858887
164,138,154080,6,0,B|199:167|254:133|254:133|306:101|355:139,1,192
29,302,154455,6,0,B|86:339|128:293|128:293|206:218|271:279|276:366|163:398|141:303,1,379.999989852906
298,384,155017,2,0,P|321:316|316:284,1,75.9999979705811
79,115,155205,6,0,B|0:152|18:243|71:272|122:227|98:184|70:206,1,204.000003890991
162,85,155580,2,0,P|117:39|9:31,1,136.000002593994
222,192,155955,6,0,B|250:241|250:241|263:265|294:259|316:231|308:207|308:207|284:159,1,204.000003890991
392,42,156330,2,0,B|366:34|347:57|347:57|374:143|480:109,1,204.000003890991
499,223,156705,6,0,B|464:252|409:218|409:218|357:186|308:224,1,204.000003890991
269,372,157080,2,0,P|341:335|363:273,1,136.000002593994
286,78,157455,6,0,B|296:44|268:21|268:21|182:62|203:170,1,204.000003890991
262,268,157830,2,0,P|301:240|310:218,1,68.0000012969971
90,178,158017,2,0,B|73:146|36:150|36:150|5:240|96:301,1,204.000003890991
36,360,158392,6,0,P|100:351|111:333,1,68.0000012969971
130,60,158580,2,0,P|66:69|55:87,1,68.0000012969971
410,61,158767,2,0,B|386:64|356:18|356:18|387:76|405:157,1,204.000003890991
466,369,159142,2,0,P|501:332|505:311,1,68.0000012969971
295,181,159330,6,0,B|281:239|254:290|254:290|280:250|332:254,1,204.000003890991
360,375,159705,2,0,P|311:315|187:298,1,204.000003890991
14,303,160080,6,0,B|42:352|42:352|55:376|86:370|108:342|100:318|100:318|76:270,1,204.000003890991
109,174,160455,5,0,0:0:0:0:
218,225,160642,5,0,0:0:0:0:
368,236,160830,5,0,0:0:0:0:
508,176,161017,5,0,0:0:0:0:
287,29,161205,6,0,B|208:66|226:157|279:186|330:141|306:98|278:120,1,204.000003890991
428,82,161580,6,0,P|373:19|333:9,1,68.0000012969971
82,31,161767,2,0,B|50:53|29:47|29:47|70:133|178:112,1,204.000003890991
429,256,162142,2,0,P|454:199|456:177,1,68.0000012969971
112,219,162330,6,0,B|147:248|202:214|202:214|254:182|303:220,1,204.000003890991
414,361,162705,5,0,0:0:0:0:
357,293,162892,5,0,0:0:0:0:
245,274,163080,5,0,0:0:0:0:
101,300,163267,5,0,0:0:0:0:
15,384,163455,5,0,0:0:0:0:
101,300,163642,5,0,0:0:0:0:
133,169,163830,5,0,0:0:0:0:
106,18,164017,5,0,0:0:0:0:
461,41,164205,6,0,P|347:47|314:2,1,136.000002593994
205,146,164580,2,0,P|249:101|267:95,1,68.0000012969971
404,188,164767,2,0,B|415:128|498:90|573:175|525:263|373:294|311:163,1,340.000006484985
214,363,165330,6,0,P|222:267|267:203,1,155.999992858887
291,60,165705,2,0,B|242:55|217:15|217:15|244:66|260:138,1,180.000006866455
8,160,166080,2,0,B|43:189|98:155|98:155|150:123|199:161,1,204.000003890991
360,242,166455,6,0,B|285:309|339:404|407:417|446:349|405:310|383:345,1,240
510,318,166830,6,0,P|509:245|485:212,1,80
92,266,167017,2,0,B|56:290|32:283|32:283|78:380|199:356,1,240
440,96,167392,2,0,B|478:98|500:34|438:-17|374:11|365:74|365:74|364:50|279:31|254:113|278:156|332:158,1,400
116,77,167955,6,0,B|92:80|62:34|62:34|93:92|111:173,1,160
388,299,168330,2,0,B|411:302|441:256|441:256|410:314|392:395,1,160
187,352,168705,2,0,P|138:286|68:246,1,160
322,157,169080,2,0,P|355:82|416:28,1,160
151,56,169455,6,0,B|139:63|101:5|101:5|140:78|159:161,1,240
82,377,169830,6,0,P|54:346|52:310,1,80
64,227,170017,2,0,P|172:161|289:204,1,240
387,383,170392,2,0,P|407:328|409:280,1,80
463,55,170580,6,0,B|441:93|441:93|431:112|406:107|388:85|395:65|395:65|414:26,1,160
324,271,170955,6,0,B|318:324|235:274|252:195|274:189|274:189|214:185|170:108|223:23|336:42|337:135|296:132,1,400
48,97,171517,1,0,0:0:0:0:
66,61,171610,1,0,0:0:0:0:
96,36,171704,5,0,0:0:0:0:
245,29,171892,5,0,0:0:0:0:
426,103,172080,5,0,0:0:0:0:
497,302,172267,5,0,0:0:0:0:
325,352,172455,6,0,B|295:382|367:422|442:337|394:249|242:218|180:349,1,276.000005264282
75,373,172830,2,0,P|139:357|177:311,1,92.0000017547608
183,19,173017,2,0,P|208:56|214:101,1,92.0000017547608
0,226,173205,6,0,B|83:217|127:149|127:149|81:218|86:277,1,276.000005264282
250,375,173580,2,0,P|232:313|249:261,1,92.0000017547608
344,2,173767,2,0,P|292:41|276:93,1,92.0000017547608
495,203,173955,6,0,B|442:246|360:195|360:195|282:147|209:204,1,276.000005264282
73,369,174330,2,0,P|131:288|156:278,1,92.0000017547608
125,93,174517,6,0,B|180:65|130:-17|60:7|27:70|91:117|91:117|150:140|132:194,1,276.000005264282
412,86,174892,2,0,B|409:102|442:124|442:124|400:102|340:88,1,92.0000017547608
225,308,175080,6,0,B|255:304|292:361|292:361|222:242|238:161,1,276.000005264282
324,31,175455,6,0,P|288:105|303:173,1,120
380,236,175830,5,0,0:0:0:0:
501,187,176017,1,0,0:0:0:0:
500,50,176205,6,0,P|427:5|370:9,1,120
236,28,176580,1,0,0:0:0:0:
190,174,176767,1,0,0:0:0:0:
277,318,176955,6,0,P|332:329|404:297,1,120
482,250,177330,1,0,0:0:0:0:
512,98,177517,1,0,0:0:0:0:
153,4,177705,6,0,P|110:59|111:142,1,120
98,340,178080,2,0,P|59:257|60:245,1,80
397,81,178455,6,0,P|437:144|414:211,1,120
190,312,178830,1,0,0:0:0:0:
190,312,179017,2,0,P|149:248|198:162,1,160
318,20,179580,6,0,P|341:34|352:49,1,40
306,361,179767,2,0,P|358:350|381:301,1,80
413,239,180142,1,0,0:0:0:0:
407,126,180330,5,0,0:0:0:0:
350,44,180517,1,0,0:0:0:0:
237,12,180705,6,0,P|182:31|157:70,1,80
264,256,181080,2,0,P|319:233|342:201,1,80
40,268,181455,6,0,P|7:214|12:140,1,120
266,89,181830,2,0,P|277:109|271:136,1,40
230,359,182017,2,0,P|151:374|91:340,1,120
282,223,182392,2,0,P|275:245|251:260,1,40
35,68,182580,2,0,P|41:45|65:30,1,40
387,345,182767,6,0,P|417:314|423:239,1,120
238,49,183142,1,0,0:0:0:0:
238,49,183330,2,0,P|206:90|207:131,1,80
261,261,183705,2,0,P|292:219|291:178,1,80
42,300,184080,2,0,P|104:323|160:314,1,120
317,0,184455,6,0,P|350:49|355:108,1,120
223,199,184830,2,0,P|165:207|150:202,1,40
43,194,185017,2,0,P|15:141|15:82,1,120
248,48,185392,6,0,P|257:68|259:88,1,40
96,17,185580,2,0,P|119:5|146:2,1,40
161,302,185767,6,0,P|235:291|267:262,1,120
322,207,186142,1,0,0:0:0:0:
347,108,186330,1,0,0:0:0:0:
317,8,186517,1,0,0:0:0:0:
28,286,186705,6,0,P|33:332|76:376,1,80
472,206,187080,2,0,P|467:160|424:116,1,80
255,277,187455,6,0,P|260:344|286:383,1,80
464,302,187830,2,0,L|327:312,1,120
261,122,188205,2,0,P|259:167|236:208,1,80
170,260,188580,5,0,0:0:0:0:
0,167,188767,2,0,L|183:152,1,160
359,30,189330,6,0,P|321:55|300:90,1,80
363,354,189705,5,0,0:0:0:0:
279,309,189892,5,0,0:0:0:0:
233,171,190080,5,0,0:0:0:0:
246,34,190267,5,0,0:0:0:0:
372,252,190455,6,0,P|339:229|319:196,2,80
439,181,191017,1,0,0:0:0:0:
311,85,191205,6,0,P|329:56|345:46,1,40
426,34,191392,1,0,0:0:0:0:
247,35,191580,5,0,0:0:0:0:
97,101,191767,5,0,0:0:0:0:
11,290,191955,6,0,P|10:226|38:173,1,120
97,101,192330,1,0,0:0:0:0:
76,354,192517,5,0,0:0:0:0:
112,369,192610,1,0,0:0:0:0:
152,367,192704,5,0,0:0:0:0:
263,331,192892,5,0,0:0:0:0:
346,227,193080,5,0,0:0:0:0:
351,67,193267,5,0,0:0:0:0:
197,150,193455,6,0,B|219:188|219:188|230:208|256:203|275:180|268:159|268:159|248:119,1,143.999995605469
125,74,193830,6,0,P|99:101|91:123,1,47.9999985351563
63,335,194017,2,0,P|35:259|41:197,1,143.999995605469
270,40,194392,2,0,P|227:32|205:41,1,47.9999985351563
168,369,194580,6,0,P|209:315|286:304,1,143.999995605469
391,310,194955,5,0,0:0:0:0:
478,367,195142,5,0,0:0:0:0:
450,237,195330,5,0,0:0:0:0:
340,133,195517,1,0,0:0:0:0:
326,87,195610,1,0,0:0:0:0:
335,41,195704,5,0,0:0:0:0:
270,150,195892,5,0,0:0:0:0:
169,234,196080,5,0,0:0:0:0:
12,272,196267,5,0,0:0:0:0:
235,342,196455,6,0,B|247:360|244:372|244:372|293:348|281:287,1,120
408,289,196830,6,0,P|380:266|353:256,1,40
173,171,197017,2,0,B|146:7|322:-100|468:48|375:200|289:179|264:117|287:89,1,467.999978576661
83,139,197955,6,0,B|8:170|34:332|197:262|197:262|361:191|387:353|312:384,1,560
273,319,199455,5,0,0:0:0:0:
149,136,211455,6,0,B|202:178|218:141|228:136|228:136|223:126|232:87|163:90|163:90|218:53|188:26|187:15|187:15|175:17|141:-4|122:61|122:61|104:-5|70:15|58:13|58:13|57:24|27:51|84:89|84:89|15:86|23:126|18:136|18:136|28:141|44:178|98:135|98:135|74:199|112:200|103:182|103:182|144:160|153:151|162:175,1,839.999974365235,0|0,0:0|2:0,0:0:0:0:
281,191,212955,6,0,B|290:173|310:176|310:176|327:225|277:259,1,120
132,342,213330,2,0,B|86:351|62:304|62:304|75:288|94:294,1,120
220,280,213705,6,0,P|305:247|376:250,1,143.999995605469
448,334,214080,2,0,B|435:326|409:366|409:366|436:315|450:257,1,167.999994873047
428,22,214455,6,0,P|487:93|481:203,1,192
271,136,214830,2,0,P|280:156|312:189,1,64
378,129,215017,2,0,L|179:141,1,192
105,221,215392,2,0,P|38:192|31:183,1,64
220,246,215580,5,0,0:0:0:0:
44,52,215767,1,0,0:0:0:0:
68,31,215860,1,0,0:0:0:0:
99,23,215955,6,0,B|142:59|211:16|211:16|276:-23|337:24,1,207.999990478516
178,181,216517,2,0,P|202:122|302:92,1,155.999992858887
423,21,216892,2,0,B|450:39|469:34|469:34|433:108|340:90,1,155.999992858887
178,181,217267,5,0,0:0:0:0:
178,181,217360,1,0,0:0:0:0:
178,181,217456,6,0,L|37:192,1,128
367,242,218017,2,0,L|226:253,1,128
512,312,218767,5,0,0:0:0:0:
512,312,218860,1,0,0:0:0:0:
512,312,218955,6,0,L|371:323,1,128
250,330,219705,2,0,L|138:340,1,96
30,363,220080,6,0,P|48:325|44:301,1,40
213,209,220267,2,0,P|175:227|151:223,1,40
117,71,220455,6,0,B|51:63|16:10|16:10|53:78|75:177,1,300.000011444092
182,133,221017,1,0,0:0:0:0:
48,328,221205,6,0,P|78:267|221:236,1,180.000006866455
390,228,221580,2,0,B|403:179|403:179|410:156|387:140|355:144|346:164|346:164|330:210,1,180.000006866455
427,312,221955,6,0,B|435:343|452:352|452:352|376:383|312:296,1,180.000006866455
244,191,222330,2,0,L|263:-35,1,180.000006866455
366,136,222705,6,0,P|395:67|380:23,1,120.000004577637
116,112,223080,2,0,P|116:170|154:215,1,120.000004577637
490,248,223455,6,0,B|455:277|400:243|400:243|348:211|299:249,1,180.000006866455
236,345,223830,2,0,P|251:301|275:274,1,60.0000022888184
501,75,224017,2,0,B|525:62|547:88|547:88|511:162|418:144,1,180.000006866455
274,160,224392,2,0,P|245:91|248:78,1,60.0000022888184
72,55,224580,6,0,P|141:26|154:29,1,60.0000022888184
423,71,224767,2,0,B|416:44|380:29|380:29|318:101|381:191,1,240.000009155274
128,141,225330,6,0,B|148:134|125:98|70:120|72:172|134:222|194:176,1,180.000006866455
171,355,225705,2,0,P|243:336|311:240,1,180.000006866455
95,40,226080,6,0,P|63:53|39:86,1,60.0000022888184
0,161,226267,1,0,0:0:0:0:
278,77,226455,6,0,P|265:45|232:21,1,60.0000022888184
312,155,226642,5,0,0:0:0:0:
306,256,226830,5,0,0:0:0:0:
247,337,227017,5,0,0:0:0:0:
81,360,227205,6,0,B|99:342|123:385|71:431|19:402|0:309|79:272,1,180.000006866455
160,230,227580,6,0,P|200:250|238:247,1,60.0000022888184
475,268,227767,2,0,B|440:297|385:263|385:263|333:231|284:269,1,180.000006866455
303,380,228142,2,0,P|346:354|352:338,1,60.0000022888184
422,150,228330,6,0,B|453:128|414:81|374:102|359:145|411:166|411:166|442:176|436:211,1,180.000006866455
400,29,228705,5,0,0:0:0:0:
240,39,228892,5,0,0:0:0:0:
98,118,229080,5,0,0:0:0:0:
26,283,229267,6,0,P|37:236|47:215,1,60.0000022888184
184,84,229455,5,0,0:0:0:0:
324,93,229642,5,0,0:0:0:0:
435,188,229830,5,0,0:0:0:0:
441,332,230017,5,0,0:0:0:0:
343,276,230205,6,0,B|325:293|368:317|413:267|384:214|293:195|256:274,1,180.000006866455
211,366,230580,6,0,P|223:322|237:306,1,60.0000022888184
19,214,230767,2,0,B|65:243|98:207|98:207|155:146|211:197|207:264|126:290|108:215,1,300.000011444092
236,27,231330,6,0,P|264:38|279:71,1,40
330,185,231517,1,0,0:0:0:0:
388,193,231610,1,0,0:0:0:0:
443,168,231705,6,0,P|466:151|477:119,1,60.0000022888184
220,132,231892,2,0,P|209:149|205:190,1,60.0000022888184
438,362,232080,6,0,P|462:313|461:286,1,68.0000012969971
405,25,232267,2,0,P|363:19|318:27,1,68.0000012969971
203,361,232455,6,0,B|236:408|332:347|341:274|268:236|221:284|240:328,1,240
54,248,232830,6,0,P|32:297|38:352,1,80
462,300,233017,2,0,B|404:294|375:247|375:247|407:307|425:391,1,240
512,165,233392,2,0,B|466:202|394:158|394:158|326:116|261:166,1,240
238,315,233767,2,0,P|267:254|290:244,1,80
151,22,233955,6,0,B|58:65|79:172|141:206|201:153|173:103|140:129,1,240
0,268,234330,2,0,B|36:287|64:352|64:352|36:289|68:225,1,240
420,124,234705,6,0,B|460:110|489:145|489:145|439:251|306:226,1,240
234,63,235080,2,0,B|246:70|284:12|284:12|245:85|226:166,1,240
299,379,235455,6,0,B|318:261|192:184|87:290|154:399|215:384|233:340|217:320,1,320
512,278,236017,2,0,L|244:293,1,240
100,364,236392,2,0,P|87:319|96:279,1,80
234,49,236580,2,0,P|194:43|108:145,1,160
21,190,236955,6,0,B|80:239|174:181|174:181|262:127|345:191,1,320
435,283,237517,1,0,0:0:0:0:
452,247,237610,1,0,0:0:0:0:
452,208,237705,5,0,0:0:0:0:
411,81,237892,5,0,0:0:0:0:
286,28,238080,5,0,0:0:0:0:
134,25,238267,5,0,0:0:0:0:
54,74,238455,6,0,B|59:133|-22:129|-57:77|-13:2|89:-16|154:53|143:134,1,276.000005264282
230,225,238830,6,0,P|250:175|251:115,1,92.0000017547608
417,42,239017,2,0,P|368:19|316:9,1,92.0000017547608
40,355,239205,6,0,B|7:354|-11:322|7:262|70:276|70:294|70:294|77:247|124:227|169:264|153:311|125:310,1,276.000005264282
416,229,239580,2,0,B|429:180|429:180|436:157|413:141|381:145|372:165|372:165|356:211,1,184.000003509522
296,363,239955,6,0,B|269:386|226:387|197:333|194:285|238:255|276:259|276:259|208:173|267:168|330:164|326:66|262:11,1,500
123,6,240517,2,0,P|78:28|52:72,1,92.0000017547608
53,183,240705,5,0,0:0:0:0:
114,301,240892,5,0,0:0:0:0:
255,363,241080,5,0,0:0:0:0:
427,356,241267,5,0,0:0:0:0:
512,145,241455,6,0,B|454:139|425:92|425:92|508:203|491:278,1,276.000005264282
330,101,241830,6,0,P|359:25|392:1,1,92.0000017547608
264,187,242017,2,0,B|216:218|174:172|174:172|96:97|26:160|26:245|139:277|153:204,1,368.000007019043
355,208,242580,2,0,P|397:279|355:384,1,184.000003509522
28,330,242955,6,0,B|74:369|154:320|154:320|238:269|292:312,1,276.000005264282
452,378,243330,1,0,0:0:0:0:
282,56,243517,5,0,0:0:0:0:
282,56,243611,1,0,0:0:0:0:
282,56,243705,2,0,P|318:40|358:37,2,80.0000030517579
466,136,244080,2,0,P|415:50|388:35,2,80.0000030517579
61,190,244455,6,0,B|98:256|98:256|116:288|158:280|187:242|177:210|177:210|144:145,1,276.000005264282
58,27,244830,2,0,P|30:71|20:119,1,92.0000017547608
470,352,245017,6,0,B|521:330|503:218|390:266|390:266|277:315|259:203|311:182,1,368.000007019043
198,377,245580,6,0,P|124:309|122:297,1,92.0000017547608
311,107,245767,2,0,P|283:203|274:209,1,92.0000017547608
77,185,245955,6,0,B|-39:82|99:-81|246:-4|299:147|132:213|132:213|0:260|20:388,1,727.999966674806
297,319,246705,6,0,P|232:338|193:385,1,120.000004577637
464,350,247080,2,0,P|407:312|366:306,1,103.999995239258
229,281,247455,6,0,B|248:314|295:314|295:314|256:364|302:444|398:433|421:346|372:305|372:305|418:290|432:252,1,422.399998710938
