osu file format v14

[General]
AudioFilename: audio.mp3
AudioLeadIn: 0
PreviewTime: 58366
Countdown: 0
SampleSet: Soft
StackLeniency: 0.7
Mode: 0
LetterboxInBreaks: 0
WidescreenStoryboard: 0

[Editor]
DistanceSpacing: 1
BeatDivisor: 4
GridSize: 8
TimelineZoom: 2

[Metadata]
Title:Ouka Enbu
TitleUnicode:桜花演武
Artist:Mitsuki Nakae
ArtistUnicode:中恵光城
Creator:Lasse
Version:Mirash's Extra
Source:
Tags:ABSOLUTE CASTAWAY 刀心幻戯 憶 toushin gengi m3-40 Mirash Komore
BeatmapID:1461594
BeatmapSetID:688552

[Difficulty]
HPDrainRate:6
CircleSize:4
OverallDifficulty:8
ApproachRate:9
SliderMultiplier:2.8
SliderTickRate:1

[Events]
//Background and Video events
0,0,"bg.jpg",0,0
//Break Periods
2,81775,87462
2,130224,142597
2,170765,175840
//Storyboard Layer 0 (Background)
//Storyboard Layer 1 (Fail)
//Storyboard Layer 2 (Pass)
//Storyboard Layer 3 (Foreground)
//Storyboard Sound Samples

[TimingPoints]
495,405.405405405405,4,2,4,50,1,0
13163,-100,4,2,1,5,0,0
13467,-83.3333333333333,4,2,4,80,0,0
26440,-111.111111111111,4,2,1,60,0,0
39413,-83.3333333333333,4,2,4,70,0,0
52386,-142.857142857143,4,2,1,60,0,0
55630,-142.857142857143,4,2,1,70,0,0
57251,-142.857142857143,4,2,4,70,0,0
58163,-142.857142857143,4,2,4,50,0,0
58467,-71.4285714285715,4,2,4,50,0,0
58873,-71.4285714285715,4,2,4,80,0,0
64549,-71.4285714285715,4,2,4,70,0,0
65359,-71.4285714285715,4,2,4,80,0,0
71035,-71.4285714285715,4,2,4,70,0,0
71846,-71.4285714285715,4,2,4,80,0,0
73467,-71.4285714285715,4,2,4,70,0,0
75089,-100,4,2,4,60,0,0
81373,-133.333333333333,4,2,4,60,0,0
81576,-100,4,2,1,60,0,0
88062,-111.111111111111,4,2,1,62,0,0
93738,-111.111111111111,4,2,1,66,0,0
94549,-83.3333333333333,4,2,4,70,0,0
107522,-142.857142857143,4,2,1,60,0,0
110765,-142.857142857143,4,2,1,70,0,0
112386,-142.857142857143,4,2,4,70,0,0
114008,-71.4285714285714,4,2,4,80,0,0
119684,-71.4285714285714,4,2,4,70,0,0
120494,-71.4285714285714,4,2,4,80,0,0
126170,-71.4285714285714,4,2,4,70,0,0
126981,-71.4285714285714,4,2,4,80,0,0
128603,-71.4285714285714,4,2,4,70,0,0
143197,-133.333333333333,4,2,4,54,0,0
149684,-133.333333333333,4,2,4,56,0,0
155055,-133.333333333333,4,2,1,65,0,0
155157,-133.333333333333,4,2,1,56,0,0
155461,-133.333333333333,4,2,1,65,0,0
155866,-133.333333333333,4,2,1,60,0,0
165900,-111.111111111111,4,2,1,70,0,0
167522,-111.111111111111,4,2,4,70,0,0
170359,-111.111111111111,4,2,1,50,0,0
170765,-111.111111111111,4,2,4,60,0,0
171170,-111.111111111111,4,2,4,50,0,0
176440,-111.111111111111,4,2,4,65,0,0
176744,-111.111111111111,4,2,4,70,0,0
177251,-71.4285714285714,4,2,4,80,0,0
182927,-71.4285714285714,4,2,4,70,0,0
183738,-71.4285714285714,4,2,4,80,0,0
189413,-71.4285714285714,4,2,4,70,0,0
190224,-71.4285714285714,4,2,4,80,0,0
195900,-71.4285714285714,4,2,4,70,0,0
196711,-71.4285714285714,4,2,4,80,0,0
198332,-71.4285714285714,4,2,4,70,0,0
212116,-71.4285714285714,4,2,4,80,0,0
212927,-200,4,2,4,50,0,0
213028,-200,4,2,4,40,0,0
213130,-200,4,2,4,30,0,0

[Colours]
Combo1 : 235,148,216
Combo2 : 69,163,203
Combo3 : 222,196,114
Combo4 : 122,222,122

[HitObjects]
435,325,495,5,4,0:3:0:0:
435,325,697,1,0,0:0:0:0:
273,353,900,1,0,0:0:0:0:
273,353,1103,1,0,0:0:0:0:
344,282,1305,5,0,0:0:0:0:
274,231,1508,1,0,0:0:0:0:
274,231,1609,1,0,0:0:0:0:
388,211,1812,1,0,0:0:0:0:
388,211,1913,1,0,0:0:0:0:
204,181,2116,5,2,0:3:0:0:
204,181,2319,1,0,0:0:0:0:
96,140,2522,1,0,0:0:0:0:
96,140,2623,1,0,0:0:0:0:
96,140,2724,1,0,0:0:0:0:
96,140,2826,1,0,0:0:0:0:
96,140,2927,1,0,0:0:0:0:
180,121,3130,1,0,0:0:0:0:
180,121,3231,1,0,0:0:0:0:
261,100,3434,1,0,0:0:0:0:
261,100,3535,1,0,0:0:0:0:
35,195,3738,5,4,0:3:0:0:
35,195,3940,1,0,0:0:0:0:
84,65,4143,1,0,0:0:0:0:
84,65,4346,1,0,0:0:0:0:
97,250,4549,5,0,0:0:0:0:
171,299,4751,1,0,0:0:0:0:
171,299,4853,1,0,0:0:0:0:
94,338,5055,1,0,0:0:0:0:
94,338,5157,1,0,0:0:0:0:
277,345,5359,5,2,0:0:0:0:
277,345,5461,1,0,0:0:0:0:
277,345,5562,1,0,0:0:0:0:
374,319,5765,1,2,0:0:0:0:
374,319,5866,1,0,0:0:0:0:
374,319,5967,1,0,0:0:0:0:
374,319,6069,1,0,0:0:0:0:
397,334,6170,5,2,0:0:0:0:
394,298,6272,1,0,0:0:0:0:
393,263,6373,1,0,0:0:0:0:
286,151,6576,5,2,0:0:0:0:
285,186,6677,1,0,0:0:0:0:
282,222,6779,1,0,0:0:0:0:
279,258,6880,1,0,0:0:0:0:
246,287,6981,5,4,0:3:0:0:
246,287,7184,1,0,0:0:0:0:
84,246,7386,1,0,0:0:0:0:
84,246,7589,1,0,0:0:0:0:
184,189,7792,5,0,0:0:0:0:
132,119,7994,1,0,0:0:0:0:
132,119,8096,1,0,0:0:0:0:
264,143,8299,1,0,0:0:0:0:
264,143,8400,1,0,0:0:0:0:
317,339,8603,5,2,0:0:0:0:
317,339,8805,1,0,0:0:0:0:
394,271,9008,1,0,0:0:0:0:
394,271,9109,1,0,0:0:0:0:
394,271,9211,1,0,0:0:0:0:
394,271,9312,1,0,0:0:0:0:
394,271,9413,1,0,0:0:0:0:
488,323,9616,1,0,0:0:0:0:
488,323,9717,1,0,0:0:0:0:
410,371,9920,1,0,0:0:0:0:
410,371,10022,1,0,0:0:0:0:
475,197,10224,5,4,0:3:0:0:
475,197,10427,1,0,0:0:0:0:
367,174,10630,1,0,0:0:0:0:
367,174,10832,1,0,0:0:0:0:
176,40,11035,5,0,0:0:0:0:
280,55,11238,1,0,0:0:0:0:
291,74,11339,1,0,0:0:0:0:
197,127,11542,1,0,0:0:0:0:
188,147,11643,1,0,0:0:0:0:
273,227,11846,1,2,0:0:0:0:
280,243,11947,1,0,0:0:0:0:
286,260,12049,1,0,0:0:0:0:
291,278,12150,1,0,0:0:0:0:
270,309,12251,5,2,0:0:0:0:
320,307,12353,1,0,0:0:0:0:
365,308,12454,1,0,0:0:0:0:
96,350,12657,5,2,0:0:0:0:
96,350,12758,1,0,0:0:0:0:
96,350,12859,1,0,0:0:0:0:
96,350,12961,1,0,0:0:0:0:
152,294,13062,6,0,P|141:329|140:371,1,70,0|0,0:3|0:0,0:0:0:0:
139,362,13467,6,0,P|219:340|324:335,1,167.999994873047,6|8,3:2|0:2,0:0:0:0:
380,297,13772,1,0,0:2:0:0:
435,234,13873,2,0,P|406:202|403:160,1,83.9999974365235,0|0,3:2|0:2,0:0:0:0:
335,101,14076,2,0,P|307:154|271:180,1,83.9999974365235,8|0,0:2|0:2,0:0:0:0:
260,256,14278,6,0,P|191:208|195:122,1,167.999994873047,2|8,3:2|0:2,0:0:0:0:
231,45,14582,2,0,P|320:15|394:88,1,167.999994873047,2|0,3:2|0:2,0:0:0:0:
402,162,14886,2,0,P|382:200|338:223,1,83.9999974365235,10|0,0:2|0:2,0:0:0:0:
300,133,15089,6,0,P|213:127|131:146,1,167.999994873047,4|8,3:3|0:2,0:0:0:0:
80,194,15393,1,0,0:2:0:0:
80,194,15494,1,2,3:2:0:0:
148,247,15596,1,0,3:2:0:0:
231,233,15697,1,8,3:2:0:0:
288,292,15799,1,0,3:2:0:0:
251,367,15900,6,0,B|183:363|183:363|158:333|158:333|73:324,1,167.999994873047,2|8,3:2|0:2,0:0:0:0:
48,249,16204,2,0,P|94:182|178:179,1,167.999994873047,2|0,3:2|0:2,0:0:0:0:
288,292,16508,2,0,P|263:254|222:230,1,83.9999974365235,8|0,0:2|0:2,0:0:0:0:
376,107,16711,6,0,P|363:208|381:318,1,167.999994873047,6|8,3:1|0:2,0:0:0:0:
443,315,17015,1,0,0:2:0:0:
512,267,17116,2,0,P|480:238|437:229,1,83.9999974365235,0|0,3:2|0:2,0:0:0:0:
286,173,17319,2,0,P|254:146|243:107,1,83.9999974365235,8|0,0:2|0:2,0:0:0:0:
471,46,17522,6,0,P|424:121|332:90,1,167.999994873047,2|8,3:2|0:2,0:0:0:0:
267,24,17826,2,0,P|182:23|120:108,1,167.999994873047,2|0,3:2|3:2,0:0:0:0:
101,212,18130,2,0,P|139:230|193:226,1,83.9999974365235,10|0,0:2|0:2,0:0:0:0:
353,113,18332,5,6,3:3:0:0:
434,89,18434,1,0,0:2:0:0:
488,152,18535,1,8,0:2:0:0:
450,226,18636,1,0,0:2:0:0:
366,210,18738,5,2,3:2:0:0:
282,213,18839,1,0,0:2:0:0:
244,287,18940,1,8,0:2:0:0:
266,368,19042,1,0,0:2:0:0:
334,310,19143,5,6,3:3:0:0:
316,271,19244,1,0,0:2:0:0:
342,238,19346,1,10,0:2:0:0:
324,199,19447,1,0,0:2:0:0:
356,127,19549,5,10,3:2:0:0:
282,71,19650,1,10,3:2:0:0:
191,89,19751,1,10,3:2:0:0:
166,178,19853,1,10,3:2:0:0:
120,257,19954,6,0,B|214:250|192:311|287:300,1,167.999994873047,6|8,3:2|0:2,0:0:0:0:
351,259,20258,1,0,0:2:0:0:
431,282,20359,2,0,P|463:306|504:345,1,83.9999974365235,0|0,3:2|0:2,0:0:0:0:
511,237,20562,2,0,P|501:195|504:121,1,83.9999974365235,8|0,0:2|0:2,0:0:0:0:
249,202,20765,6,0,P|344:175|391:96,1,167.999994873047,2|8,3:2|0:2,0:0:0:0:
181,161,21069,2,0,P|129:130|118:15,1,167.999994873047,2|0,3:2|0:2,0:0:0:0:
255,92,21373,2,0,P|294:76|325:46,1,83.9999974365235,8|0,0:2|0:2,0:0:0:0:
207,25,21576,6,0,L|15:35,1,167.999994873047,4|8,3:3|0:2,0:0:0:0:
0,98,21880,1,0,0:2:0:0:
0,98,21981,1,2,3:2:0:0:
12,180,22082,1,0,3:2:0:0:
24,263,22184,1,8,3:2:0:0:
38,345,22285,1,0,3:2:0:0:
38,345,22386,2,0,L|203:302,1,167.999994873047,2|8,3:2|0:2,0:0:0:0:
251,227,22690,1,2,3:2:0:0:
251,227,22792,2,0,B|206:217|206:217|159:227,1,83.9999974365235,0|0,3:2|0:2,0:0:0:0:
285,304,22994,2,0,B|330:314|330:314|377:304,1,83.9999974365235,8|0,0:2|0:2,0:0:0:0:
329,72,23197,6,0,B|363:144|363:144|329:230,1,167.999994873047,6|8,3:1|0:2,0:0:0:0:
449,162,23501,1,0,0:2:0:0:
481,84,23603,2,0,L|512:3,1,83.9999974365235,0|0,3:2|0:2,0:0:0:0:
496,234,23805,2,0,L|465:312,1,83.9999974365235,8|0,3:2|0:2,0:0:0:0:
330,226,24008,6,0,B|245:225|261:284|167:279,1,167.999994873047,2|8,3:2|0:2,0:0:0:0:
118,216,24312,2,0,P|130:156|126:123,1,83.9999974365235,2|0,3:2|0:0,0:0:0:0:
194,81,24515,1,0,3:2:0:0:
194,81,24616,2,0,P|98:37|55:68,1,167.999994873047,10|6,0:2|3:3,0:0:0:0:
37,149,24920,5,0,0:2:0:0:
26,232,25022,1,8,0:2:0:0:
16,315,25123,1,0,0:2:0:0:
131,364,25224,5,2,3:2:0:0:
98,338,25326,1,0,0:2:0:0:
57,333,25427,1,8,0:2:0:0:
20,350,25528,1,0,0:2:0:0:
109,266,25630,5,6,3:1:0:0:
109,266,25934,1,2,3:0:0:0:
109,266,26238,1,2,3:0:0:0:
163,208,26440,6,0,P|234:216|298:248,1,125.999996154785,6|0,0:0|0:0,0:0:0:0:
328,307,26744,1,0,0:0:0:0:
328,307,26846,2,0,P|392:296|453:253,1,125.999996154785,0|0,3:0|0:0,0:0:0:0:
326,178,27251,6,0,B|281:135|281:135|270:63,1,125.999996154785,2|0,3:0|0:0,0:0:0:0:
404,14,27657,2,0,B|447:58|447:58|450:141,1,125.999996154785,8|0,3:2|0:0,0:0:0:0:
205,34,28062,6,0,P|147:49|87:100,1,125.999996154785,2|0,3:0|0:0,0:0:0:0:
105,168,28366,1,0,0:0:0:0:
105,168,28467,2,0,P|61:237|58:306,1,125.999996154785,0|0,3:0|0:0,0:0:0:0:
115,342,28873,1,0,3:0:0:0:
115,342,29076,1,0,0:0:0:0:
176,289,29278,2,0,L|366:311,1,188.999994232178,8|0,3:2|0:0,0:0:0:0:
397,309,29684,5,4,3:2:0:0:
380,294,29785,1,0,0:0:0:0:
365,281,29886,1,0,0:0:0:0:
266,180,30089,2,0,L|391:192,1,125.999996154785,0|0,3:0|0:0,0:0:0:0:
391,192,30393,1,0,0:0:0:0:
391,192,30494,2,0,P|416:125|408:58,1,125.999996154785,0|0,3:0|0:0,0:0:0:0:
204,26,30900,5,8,3:2:0:0:
193,108,31103,1,0,0:0:0:0:
131,157,31305,2,0,B|129:298|16:223|23:391,2,251.999992309571,2|2|2,3:2|3:3|3:0,0:0:0:0:
67,104,32319,1,0,0:0:0:0:
67,104,32420,1,0,0:0:0:0:
67,104,32522,1,10,3:2:0:0:
216,205,32724,5,8,0:0:0:0:
270,197,32826,1,8,0:0:0:0:
324,190,32927,2,0,L|480:221,1,125.999996154785,6|0,3:2|0:0,0:0:0:0:
453,294,33231,1,0,0:0:0:0:
453,294,33332,2,0,L|314:267,1,125.999996154785,8|0,3:2|0:0,0:0:0:0:
329,269,33636,1,0,0:0:0:0:
329,269,33738,1,0,3:3:0:0:
33,323,33940,5,0,0:0:0:0:
38,192,34143,1,8,3:2:0:0:
49,61,34346,1,8,0:0:0:0:
122,98,34549,6,0,P|184:88|259:94,1,125.999996154785,2|0,3:0|0:0,0:0:0:0:
485,163,34954,2,0,P|400:166|352:202,1,125.999996154785,8|0,3:2|0:0,0:0:0:0:
296,258,35258,1,0,0:0:0:0:
296,258,35359,2,0,P|247:209|187:188,1,125.999996154785,0|0,3:0|0:0,0:0:0:0:
130,341,35765,5,8,3:0:0:0:
146,332,35866,1,8,0:0:0:0:
162,326,35967,1,0,0:0:0:0:
178,323,36069,1,8,0:0:0:0:
193,322,36170,2,0,P|263:358|356:343,1,125.999996154785,6|0,3:2|0:0,0:0:0:0:
169,231,36576,2,0,P|199:177|250:141,1,125.999996154785,8|0,3:2|0:0,0:0:0:0:
346,164,36880,1,0,0:0:0:0:
346,164,36981,2,0,P|376:219|379:282,1,125.999996154785,0|0,3:0|0:0,0:0:0:0:
388,1,37386,6,0,P|331:51|308:119,1,125.999996154785,8|8,3:2|0:0,0:0:0:0:
438,364,37792,2,0,P|469:277|475:91,2,251.999992309571,2|10|10,3:2|3:2|3:2,0:0:0:0:
42,120,38805,5,8,0:0:0:0:
63,152,38907,1,8,0:0:0:0:
83,182,39008,1,10,0:3:0:0:
115,187,39109,5,8,0:3:0:0:
114,198,39211,1,12,0:3:0:0:
114,208,39312,1,12,0:3:0:0:
77,238,39413,6,0,P|173:236|240:353,1,167.999994873047,6|8,3:2|0:2,0:0:0:0:
287,336,39717,1,2,0:2:0:0:
370,299,39819,2,0,P|419:284|462:284,1,83.9999974365235,0|0,3:2|0:2,0:0:0:0:
382,137,40022,5,8,0:2:0:0:
350,214,40123,1,0,0:2:0:0:
269,209,40224,2,0,L|252:116,1,83.9999974365235,2|0,3:2|0:2,0:0:0:0:
188,61,40427,2,0,L|117:124,1,83.9999974365235,10|0,0:2|3:2,0:0:0:0:
20,174,40630,2,0,L|193:224,1,167.999994873047,2|10,0:2|0:2,0:0:0:0:
467,343,41035,6,0,B|377:332|381:376|290:361,1,167.999994873047,2|8,3:2|0:2,0:0:0:0:
230,318,41339,1,0,0:2:0:0:
146,323,41440,2,0,P|79:343|54:360,1,83.9999974365235,0|0,3:2|3:2,0:0:0:0:
117,225,41643,5,8,0:2:0:0:
100,142,41744,1,0,0:2:0:0:
179,131,41846,2,0,P|208:146|270:149,1,83.9999974365235,2|0,3:2|0:2,0:0:0:0:
319,98,42049,2,0,P|305:58|278:20,1,83.9999974365235,10|0,0:2|3:2,0:0:0:0:
194,18,42251,2,0,P|144:93|176:192,1,167.999994873047,2|10,3:2|0:2,0:0:0:0:
360,343,42657,6,0,P|381:283|331:189,1,167.999994873047,6|8,3:1|0:2,0:0:0:0:
266,238,42961,1,2,0:2:0:0:
184,257,43062,2,0,P|136:263|91:250,1,83.9999974365235,0|0,3:2|2:2,0:0:0:0:
192,76,43265,5,8,0:2:0:0:
179,154,43366,1,0,0:2:0:0:
108,182,43467,2,0,P|73:105|92:20,1,167.999994873047,2|10,3:2|0:2,0:0:0:0:
207,0,43772,1,0,0:2:0:0:
274,54,43873,2,0,B|319:47|319:47|357:62,1,83.9999974365235,2|0,0:2|3:2,0:0:0:0:
340,189,44076,2,0,B|301:194|301:194|252:181,1,83.9999974365235,10|0,0:2|0:2,0:0:0:0:
386,128,44278,6,0,P|455:141|428:290,1,251.999992309571,12|0,0:1|0:0,0:0:0:0:
354,268,44684,1,2,3:2:0:0:
278,303,44785,1,0,3:2:0:0:
211,353,44886,1,8,3:2:0:0:
126,361,44988,1,0,3:2:0:0:
73,313,45089,6,0,L|68:112,1,167.999994873047,6|8,3:3|0:2,0:0:0:0:
68,145,45393,1,8,0:0:0:0:
68,145,45494,1,8,3:2:0:0:
68,145,45596,1,8,3:3:0:0:
68,145,45697,1,8,3:3:0:0:
379,81,45900,6,0,B|287:76|311:134|212:129,1,167.999994873047,6|8,3:2|0:2,0:0:0:0:
142,100,46204,1,2,0:2:0:0:
83,160,46305,2,0,L|99:254,1,83.9999974365235,0|0,3:2|0:2,0:0:0:0:
342,257,46508,6,0,L|286:193,1,83.9999974365235,8|0,0:2|0:2,0:0:0:0:
190,208,46711,2,0,L|166:289,1,83.9999974365235,2|0,3:2|0:2,0:0:0:0:
152,378,46913,2,0,L|319:327,2,167.999994873047,10|2|10,0:2|3:2|0:2,0:0:0:0:
399,343,47522,6,0,P|436:266|397:195,1,167.999994873047,2|8,3:2|0:2,0:0:0:0:
321,168,47826,1,0,0:2:0:0:
299,86,47927,2,0,P|338:70|383:74,1,83.9999974365235,0|0,3:2|3:2,0:0:0:0:
238,152,48130,5,8,0:2:0:0:
158,178,48231,1,0,0:2:0:0:
86,134,48332,2,0,P|80:89|94:39,1,83.9999974365235,2|0,3:2|3:2,0:0:0:0:
214,0,48535,2,0,P|220:45|206:95,1,83.9999974365235,10|0,0:2|0:2,0:0:0:0:
82,226,48738,2,0,P|136:301|235:310,1,167.999994873047,2|10,3:2|0:2,0:0:0:0:
63,132,49143,6,0,P|113:88|234:92,1,167.999994873047,6|8,3:1|0:2,0:0:0:0:
290,109,49447,1,2,0:2:0:0:
222,159,49549,2,0,P|207:185|206:246,1,83.9999974365235,0|0,3:2|2:2,0:0:0:0:
400,309,49751,5,8,0:2:0:0:
338,252,49853,1,0,0:2:0:0:
271,302,49954,2,0,P|233:327|181:338,1,83.9999974365235,2|0,3:2|0:2,0:0:0:0:
370,173,50157,2,0,P|407:182|473:220,1,83.9999974365235,10|0,0:2|0:2,0:0:0:0:
276,207,50359,2,0,P|172:206|86:161,1,167.999994873047,2|10,3:2|0:2,0:0:0:0:
76,59,50663,5,0,0:2:0:0:
37,134,50765,2,0,L|37:251,1,83.9999974365235,12|0,0:1|0:0,0:0:0:0:
191,52,50967,2,0,L|191:155,1,83.9999974365235,8|0,0:2|0:0,0:0:0:0:
285,261,51170,2,0,L|285:144,1,83.9999974365235,2|0,3:2|3:2,0:0:0:0:
131,343,51372,2,0,L|131:240,1,83.9999974365235,0|0,3:2|0:0,0:0:0:0:
393,98,51576,5,10,3:2:0:0:
391,123,51677,1,8,0:0:0:0:
389,148,51778,1,8,0:2:0:0:
387,173,51880,1,0,0:0:0:0:
385,198,51981,1,8,3:2:0:0:
412,226,52082,5,8,3:3:0:0:
412,226,52184,1,8,3:3:0:0:
15,208,52386,6,0,P|171:185|195:307,1,293.999991027832,6|10,3:2|0:0,0:0:0:0:
197,295,53096,1,8,0:0:0:0:
190,301,53197,2,0,P|184:233|226:78,2,195.999994018555,0|2|2,3:0|0:2|3:2,0:0:0:0:
264,313,54211,1,0,3:0:0:0:
338,327,54413,1,2,3:2:0:0:
472,206,54616,5,8,0:0:0:0:
354,206,54818,1,2,3:2:0:0:
400,59,55022,5,8,0:0:0:0:
414,143,55224,1,8,0:0:0:0:
414,143,55326,1,8,0:0:0:0:
414,143,55427,1,8,0:0:0:0:
121,320,55630,6,0,P|136:254|110:159,1,146.999995513916,6|2,3:2|3:2,0:0:0:0:
119,177,56035,1,8,0:0:0:0:
218,133,56238,1,2,3:2:0:0:
218,133,56339,1,8,0:0:0:0:
80,93,56542,1,8,0:2:0:0:
80,93,56643,1,0,3:3:0:0:
365,63,56846,5,8,0:2:0:0:
262,43,57049,1,10,3:3:0:0:
214,51,57150,1,8,3:3:0:0:
166,59,57251,1,10,3:2:0:0:
462,116,57454,1,0,3:0:0:0:
462,116,57555,1,10,3:2:0:0:
462,116,57859,5,10,0:0:0:0:
434,306,58062,1,10,0:0:0:0:
434,306,58467,5,0,0:0:0:0:
434,306,58670,1,0,0:0:0:0:
370,252,58873,6,0,B|209:245|267:344|82:332,1,293.999991027832,6|2,0:2|0:2,0:0:0:0:
210,209,59278,2,0,B|235:164|235:164|220:99,1,97.9999970092774,2|0,3:2|3:2,0:0:0:0:
107,149,59481,2,0,B|82:194|82:194|97:259,1,97.9999970092774,10|0,0:2|0:2,0:0:0:0:
149,58,59684,2,0,P|57:23|37:119,1,195.999994018555,2|8,3:2|0:2,0:0:0:0:
107,149,59988,5,2,0:2:0:0:
184,208,60089,2,0,P|229:205|302:171,1,97.9999970092774,2|0,3:2|0:2,0:0:0:0:
317,96,60292,2,0,P|368:86|434:89,1,97.9999970092774,10|0,0:2|0:2,0:0:0:0:
468,242,60494,6,0,P|454:301|433:364,1,97.9999970092774,2|0,3:2|0:2,0:0:0:0:
316,272,60697,2,0,P|330:331|351:394,1,97.9999970092774,10|0,0:2|0:2,0:0:0:0:
451,351,60900,6,0,P|466:304|477:257,1,97.9999970092774,2|0,3:2|0:2,0:0:0:0:
326,360,61103,2,0,P|311:313|301:266,1,97.9999970092774,10|0,0:2|0:2,0:0:0:0:
413,11,61305,2,0,P|380:221|392:299,1,293.999991027832,2|2,3:2|3:2,0:0:0:0:
209,333,61711,6,0,P|209:280|237:218,1,97.9999970092774,2|0,3:2|3:2,0:0:0:0:
185,143,61913,2,0,P|128:174|74:185,1,97.9999970092774,10|0,0:2|0:2,0:0:0:0:
12,256,62116,2,0,P|129:283|225:373,1,195.999994018555,6|8,0:1|0:2,0:0:0:0:
286,309,62420,5,2,0:2:0:0:
321,216,62522,2,0,P|294:163|286:106,1,97.9999970092774,2|0,3:2|3:2,0:0:0:0:
135,36,62724,2,0,P|101:73|45:93,1,97.9999970092774,10|0,0:2|0:2,0:0:0:0:
151,307,62927,2,0,B|140:202|203:223|191:103,1,195.999994018555,2|8,3:2|0:2,0:0:0:0:
251,40,63231,5,2,3:2:0:0:
343,71,63332,2,0,P|404:99|444:137,1,97.9999970092774,2|0,3:2|3:2,0:0:0:0:
368,250,63535,2,0,P|316:231|266:180,1,97.9999970092774,10|0,0:2|0:2,0:0:0:0:
29,164,63738,6,0,P|86:142|151:138,1,97.9999970092774,2|0,3:2|0:2,0:0:0:0:
37,265,63940,2,0,P|92:280|160:272,1,97.9999970092774,10|0,0:2|0:2,0:0:0:0:
216,56,64143,2,0,P|220:119|208:166,1,97.9999970092774,2|0,3:2|3:2,0:0:0:0:
211,356,64346,2,0,P|220:302|212:257,1,97.9999970092774,10|0,0:2|0:2,0:0:0:0:
144,205,64549,5,10,0:2:0:0:
282,207,64751,1,0,3:2:0:0:
282,207,64853,1,8,3:2:0:0:
421,211,65055,1,0,0:2:0:0:
421,211,65157,1,8,0:3:0:0:
376,133,65359,6,0,B|271:129|321:67|174:66,1,195.999994018555,6|8,0:2|0:2,0:0:0:0:
118,126,65663,1,2,0:2:0:0:
188,190,65765,2,0,P|216:225|229:297,1,97.9999970092774,2|0,3:2|3:2,0:0:0:0:
108,329,65967,2,0,P|82:281|85:210,1,97.9999970092774,10|0,0:2|0:2,0:0:0:0:
205,359,66170,2,0,P|324:366|364:282,1,195.999994018555,2|8,3:2|0:2,0:0:0:0:
347,213,66474,5,2,3:2:0:0:
443,194,66576,2,0,L|457:295,1,97.9999970092774,2|0,3:2|3:2,0:0:0:0:
327,129,66778,2,0,L|428:115,1,97.9999970092774,10|0,0:2|0:2,0:0:0:0:
258,238,66981,2,0,L|244:137,1,97.9999970092774,2|0,3:2|0:2,0:0:0:0:
361,311,67184,2,0,L|260:325,1,97.9999970092774,10|0,0:2|0:2,0:0:0:0:
66,326,67386,5,2,3:2:0:0:
158,293,67488,1,0,3:2:0:0:
111,227,67589,2,0,P|82:184|78:129,1,97.9999970092774,10|0,0:2|0:2,0:0:0:0:
107,69,67792,2,0,L|320:50,1,195.999994018555,2|8,3:2|0:2,0:0:0:0:
427,126,68096,5,2,3:2:0:0:
362,169,68197,2,0,B|314:149|314:149|254:153,1,97.9999970092774,2|0,3:2|3:2,0:0:0:0:
251,280,68400,2,0,B|299:300|299:300|359:296,1,97.9999970092774,10|0,0:2|0:2,0:0:0:0:
185,209,68603,2,0,B|80:203|112:270|-10:260,1,195.999994018555,6|8,0:1|0:2,0:0:0:0:
44,161,68907,5,2,0:2:0:0:
133,121,69008,2,0,P|174:117|238:132,1,97.9999970092774,2|0,3:2|3:2,0:0:0:0:
238,290,69211,2,0,P|190:300|141:298,1,97.9999970092774,10|0,0:2|0:2,0:0:0:0:
278,203,69413,2,0,B|374:187|374:187|485:231,1,195.999994018555,2|8,0:2|0:2,0:0:0:0:
386,111,69717,5,2,3:2:0:0:
289,103,69819,2,0,P|304:57|339:23,1,97.9999970092774,2|0,3:2|3:2,0:0:0:0:
457,42,70022,2,0,P|476:87|479:136,1,97.9999970092774,10|0,0:2|0:2,0:0:0:0:
259,191,70224,2,0,P|245:239|186:288,1,97.9999970092774,2|0,3:2|0:2,0:0:0:0:
485,331,70427,2,0,P|470:262|477:208,1,97.9999970092774,10|0,0:2|0:2,0:0:0:0:
391,79,70630,6,0,L|375:186,1,97.9999970092774,2|0,3:2|3:2,0:0:0:0:
363,258,70832,2,0,L|347:365,1,97.9999970092774,10|0,0:2|0:2,0:0:0:0:
1,194,71035,1,2,3:2:0:0:
1,194,71238,5,8,3:2:0:0:
98,185,71339,1,8,3:2:0:0:
194,199,71440,1,8,0:2:0:0:
289,174,71542,1,8,0:3:0:0:
384,195,71643,1,8,3:3:0:0:
479,179,71744,1,8,3:3:0:0:
479,179,71846,6,0,L|449:377,1,195.999994018555,6|8,3:2|0:2,0:0:0:0:
354,345,72150,1,2,0:2:0:0:
259,368,72251,2,0,L|248:271,1,97.9999970092774,0|0,3:2|3:2,0:0:0:0:
359,193,72454,2,0,L|348:96,1,97.9999970092774,8|0,0:2|0:2,0:0:0:0:
213,3,72657,2,0,L|238:200,1,195.999994018555,0|10,3:2|0:2,0:0:0:0:
110,271,72961,5,8,0:2:0:0:
110,271,73062,1,10,0:2:0:0:
142,179,73163,1,8,0:2:0:0:
238,198,73265,1,10,0:2:0:0:
247,295,73366,1,8,0:2:0:0:
169,347,73467,2,0,P|63:346|16:237,1,195.999994018555,12|0,0:2|0:0,0:0:0:0:
498,192,75089,5,6,3:1:0:0:
425,217,75292,1,0,0:0:0:0:
342,182,75494,1,8,0:0:0:0:
236,216,75697,1,0,3:0:0:0:
236,216,75799,1,0,3:0:0:0:
236,216,75900,1,0,3:0:0:0:
108,209,76204,1,0,0:0:0:0:
108,209,76305,1,10,0:0:0:0:
29,220,76508,5,0,0:0:0:0:
29,220,76609,1,8,0:0:0:0:
29,220,76711,2,0,B|106:217|78:265|173:259,1,140,6|0,0:1|0:0,0:0:0:0:
267,255,77116,2,0,P|300:197|288:121,1,140,8|0,0:0|3:0,0:0:0:0:
196,80,77522,1,0,3:0:0:0:
180,176,77724,1,0,3:0:0:0:
180,176,77826,1,0,0:0:0:0:
180,176,77927,1,8,0:0:0:0:
216,168,78028,5,8,0:3:0:0:
206,237,78130,1,8,0:3:0:0:
197,306,78231,1,8,0:3:0:0:
183,374,78332,2,0,P|271:350|346:350,1,140,6|0,3:1|0:0,0:0:0:0:
496,256,78738,5,8,0:0:0:0:
415,245,78940,1,0,3:0:0:0:
415,245,79042,1,0,3:0:0:0:
415,245,79143,1,0,3:0:0:0:
323,224,79346,1,0,0:0:0:0:
490,74,79549,5,8,0:0:0:0:
490,74,79650,1,8,0:0:0:0:
386,33,79853,1,8,0:0:0:0:
386,33,79954,2,0,P|392:110|368:196,1,140,6|0,3:1|0:0,0:0:0:0:
378,170,80258,1,0,3:0:0:0:
378,170,80359,2,0,L|220:141,1,140,8|0,0:0|3:0,0:0:0:0:
9,191,80765,5,2,3:3:0:0:
9,191,81069,1,2,0:0:0:0:
9,191,81373,2,0,P|9:228|4:252,2,52.5000020027161,0|0|4,0:0|0:0|3:2,0:0:0:0:
9,196,88062,6,0,P|89:193|154:176,1,125.999996154785,4|0,3:2|0:0,0:0:0:0:
189,113,88366,1,0,0:0:0:0:
189,113,88467,2,0,P|271:125|323:144,1,125.999996154785,8|0,0:0|0:0,0:0:0:0:
311,138,88772,1,0,0:0:0:0:
311,138,88873,2,0,P|296:208|288:274,1,125.999996154785,0|0,3:2|0:0,0:0:0:0:
477,263,89278,2,0,P|470:202|455:138,1,125.999996154785,8|0,0:0|0:0,0:0:0:0:
322,343,89684,6,0,L|178:335,1,125.999996154785,0|0,3:2|0:0,0:0:0:0:
203,321,89988,1,0,0:0:0:0:
209,306,90089,2,0,L|72:304,1,125.999996154785,8|0,0:0|0:0,0:0:0:0:
72,316,90393,1,0,0:0:0:0:
63,329,90494,2,0,L|61:202,1,125.999996154785,0|0,3:2|0:0,0:0:0:0:
126,150,90900,1,8,0:0:0:0:
342,296,91306,5,0,3:2:0:0:
342,296,91407,1,0,0:0:0:0:
342,296,91508,1,0,0:0:0:0:
342,296,91610,1,0,0:0:0:0:
342,296,91711,2,0,P|349:220|332:169,1,125.999996154785,8|0,0:0|0:0,0:0:0:0:
319,169,92015,1,0,0:0:0:0:
304,164,92116,2,0,P|298:100|315:27,1,125.999996154785,0|0,3:2|0:0,0:0:0:0:
461,42,92522,2,0,P|472:129|459:183,1,125.999996154785,8|0,0:0|0:0,0:0:0:0:
266,229,92927,6,0,B|122:216|164:312|16:293,2,251.999992309571,0|8|8,3:2|0:0|0:0,0:0:0:0:
447,118,93940,5,8,3:2:0:0:
416,95,94042,1,8,3:2:0:0:
378,97,94143,1,8,3:0:0:0:
347,65,94244,5,8,3:0:0:0:
344,77,94346,1,12,3:0:0:0:
343,89,94447,1,12,3:0:0:0:
311,115,94549,6,0,B|241:102|241:102|224:76|224:76|137:63,1,167.999994873047,6|8,3:2|0:2,0:0:0:0:
99,125,94853,1,2,0:2:0:0:
127,203,94954,2,0,L|106:300,1,83.9999974365235,0|0,3:2|0:2,0:0:0:0:
211,283,95157,2,0,L|191:373,1,83.9999974365235,8|0,0:2|0:2,0:0:0:0:
314,340,95359,6,0,L|353:155,1,167.999994873047,2|10,3:2|0:2,0:0:0:0:
311,99,95663,1,0,3:2:0:0:
227,84,95765,2,0,L|247:175,1,83.9999974365235,2|0,0:2|3:2,0:0:0:0:
409,28,95967,2,0,L|391:115,1,83.9999974365235,10|0,0:2|0:2,0:0:0:0:
259,253,96170,6,0,B|170:253|198:188|101:191,1,167.999994873047,2|8,3:2|0:2,0:0:0:0:
46,247,96474,1,0,0:2:0:0:
100,311,96576,2,0,L|185:313,1,83.9999974365235,0|0,3:2|3:2,0:0:0:0:
258,350,96778,2,0,L|353:351,1,83.9999974365235,8|0,0:0|0:0,0:0:0:0:
470,275,96981,2,0,P|405:275|359:266,1,83.9999974365235,2|0,3:2|0:2,0:0:0:0:
314,221,97184,2,0,P|335:185|365:155,1,83.9999974365235,10|0,0:2|3:2,0:0:0:0:
499,195,97386,2,0,P|445:119|366:62,1,167.999994873047,2|10,3:2|0:2,0:0:0:0:
112,124,97792,5,6,3:1:0:0:
160,55,97893,1,0,0:0:0:0:
240,78,97994,1,8,0:0:0:0:
245,162,98096,1,2,0:2:0:0:
167,195,98197,2,0,L|191:379,1,167.999994873047,0|8,3:2|0:2,0:0:0:0:
272,371,98501,5,0,0:2:0:0:
354,351,98603,2,0,P|316:262|248:248,1,167.999994873047,2|10,3:2|0:2,0:0:0:0:
180,289,98907,1,0,0:2:0:0:
99,313,99008,2,0,P|66:242|94:156,1,167.999994873047,2|10,0:2|0:2,0:0:0:0:
231,98,99413,6,0,L|318:114,1,83.9999974365235,12|0,0:1|0:0,0:0:0:0:
392,90,99616,2,0,L|305:106,1,83.9999974365235,8|0,0:2|0:0,0:0:0:0:
183,163,99819,2,0,L|272:183,1,83.9999974365235,2|0,3:2|3:2,0:0:0:0:
433,162,100022,2,0,L|344:182,1,83.9999974365235,8|0,3:2|3:2,0:0:0:0:
138,229,100224,2,0,L|231:255,1,83.9999974365235,6|0,3:3|0:0,0:0:0:0:
473,238,100427,2,0,L|380:264,1,83.9999974365235,8|8,0:2|0:0,0:0:0:0:
284,315,100630,5,8,3:2:0:0:
315,333,100731,1,8,3:3:0:0:
308,309,100832,1,8,3:3:0:0:
291,340,100934,1,8,3:3:0:0:
207,355,101035,6,0,B|125:355|138:297|37:302,1,167.999994873047,6|8,3:2|0:2,0:0:0:0:
18,223,101339,1,0,0:2:0:0:
72,159,101440,2,0,P|136:225|96:329,1,167.999994873047,2|8,3:2|0:2,0:0:0:0:
251,179,101744,5,0,0:2:0:0:
215,102,101846,2,0,P|171:110|124:102,1,83.9999974365235,2|0,3:2|0:2,0:0:0:0:
228,264,102049,2,0,P|292:251|336:253,1,83.9999974365235,8|0,0:2|3:2,0:0:0:0:
479,175,102251,6,0,P|469:124|432:81,1,83.9999974365235,2|0,3:2|3:2,0:0:0:0:
326,104,102454,2,0,P|359:192|386:208,1,83.9999974365235,8|0,0:2|0:2,0:0:0:0:
470,269,102657,5,2,3:2:0:0:
431,343,102758,1,0,0:0:0:0:
348,326,102859,1,8,0:2:0:0:
272,364,102961,1,0,0:2:0:0:
192,336,103062,2,0,P|97:331|-1:352,1,167.999994873047,2|8,3:3|0:0,0:0:0:0:
85,237,103366,5,0,0:0:0:0:
146,180,103467,2,0,B|168:218|168:218|164:257,1,83.9999974365235,2|0,3:2|3:2,0:0:0:0:
243,212,103670,2,0,L|249:129,1,83.9999974365235,10|0,0:2|0:2,0:0:0:0:
384,52,103873,2,0,B|335:120|335:120|329:218,1,167.999994873047,2|10,3:2|0:2,0:0:0:0:
43,50,104278,6,0,B|158:59|105:10|215:13,1,167.999994873047,6|8,3:1|0:2,0:0:0:0:
279,48,104582,1,2,0:2:0:0:
249,129,104684,2,0,P|200:175|119:99,1,167.999994873047,0|8,3:2|0:2,0:0:0:0:
33,256,104988,5,0,0:2:0:0:
93,300,105089,2,0,B|83:258|83:258|103:199,1,83.9999974365235,2|0,3:2|0:2,0:0:0:0:
211,334,105292,2,0,B|181:365|181:365|120:380,1,83.9999974365235,10|0,0:2|0:2,0:0:0:0:
171,206,105494,2,0,B|250:233|250:233|301:327,1,167.999994873047,2|10,3:2|0:2,0:0:0:0:
424,204,105799,5,0,0:2:0:0:
379,281,105900,2,0,L|338:203,1,83.9999974365235,12|0,0:1|0:0,0:0:0:0:
379,122,106103,2,0,L|475:124,1,83.9999974365235,8|0,0:2|0:0,0:0:0:0:
512,211,106305,2,0,L|460:301,1,83.9999974365235,2|0,3:2|3:2,0:0:0:0:
371,290,106508,2,0,L|332:208,1,83.9999974365235,0|0,3:2|0:0,0:0:0:0:
278,90,106711,1,10,3:2:0:0:
253,94,106812,1,8,0:0:0:0:
228,97,106913,1,8,0:2:0:0:
202,101,107015,1,0,0:0:0:0:
177,105,107116,1,8,3:2:0:0:
156,149,107217,5,8,3:3:0:0:
156,149,107319,1,8,3:3:0:0:
335,358,107522,6,0,P|256:245|106:265,1,293.999991027832,6|10,3:2|0:0,0:0:0:0:
110,272,108231,1,8,0:0:0:0:
111,286,108332,2,0,P|204:283|306:204,1,195.999994018555,0|2,3:0|0:2,0:0:0:0:
425,144,108940,1,8,0:0:0:0:
357,68,109143,2,0,P|345:116|341:165,1,97.9999970092774,2|0,3:2|3:0,0:0:0:0:
506,183,109549,2,0,P|509:123|506:71,1,97.9999970092774,2|8,3:2|0:0,0:0:0:0:
421,218,109954,5,2,3:2:0:0:
411,335,110157,1,8,0:0:0:0:
202,327,110359,1,8,0:0:0:0:
211,335,110461,1,8,0:0:0:0:
219,341,110562,1,8,0:0:0:0:
281,250,110765,6,0,P|206:237|132:278,1,146.999995513916,6|2,3:2|3:2,0:0:0:0:
137,279,111170,1,8,0:0:0:0:
38,191,111373,1,2,3:2:0:0:
49,200,111474,1,8,0:0:0:0:
130,88,111677,1,8,0:2:0:0:
126,102,111778,1,0,3:3:0:0:
228,161,111981,1,8,0:2:0:0:
242,159,112082,1,0,3:3:0:0:
256,157,112184,1,10,3:3:0:0:
271,155,112285,1,8,3:3:0:0:
342,115,112386,5,10,3:2:0:0:
342,115,112690,1,10,3:2:0:0:
342,115,112994,1,10,0:0:0:0:
409,169,113197,6,0,P|429:231|408:323,1,146.999995513916,10|8,0:0|3:0,0:0:0:0:
403,319,113603,5,2,0:0:0:0:
242,260,113805,1,12,3:0:0:0:
149,309,114008,6,0,B|123:159|266:194|232:26,1,293.999991027832,6|2,0:2|0:2,0:0:0:0:
64,38,114413,2,0,P|99:84|131:109,1,97.9999970092774,2|0,3:2|0:2,0:0:0:0:
318,134,114616,2,0,P|333:183|336:244,1,97.9999970092774,10|0,0:2|0:2,0:0:0:0:
234,337,114819,2,0,P|322:283|424:277,1,195.999994018555,2|8,3:2|0:2,0:0:0:0:
506,200,115123,5,2,0:2:0:0:
467,110,115224,2,0,P|440:149|419:210,1,97.9999970092774,2|0,3:2|3:2,0:0:0:0:
282,84,115427,2,0,P|337:83|384:66,1,97.9999970092774,10|0,0:2|0:2,0:0:0:0:
145,191,115630,2,0,P|257:180|345:207,1,195.999994018555,2|10,3:2|0:2,0:0:0:0:
356,299,115934,5,0,0:2:0:0:
432,359,116035,2,0,P|449:300|447:261,1,97.9999970092774,2|0,3:2|0:2,0:0:0:0:
281,260,116238,2,0,P|265:311|273:369,1,97.9999970092774,10|0,0:2|0:2,0:0:0:0:
367,212,116440,2,0,P|370:137|266:72,1,195.999994018555,2|8,3:2|0:2,0:0:0:0:
73,85,116744,5,2,3:2:0:0:
156,126,116846,2,0,P|168:185|151:238,1,97.9999970092774,2|0,3:2|0:2,0:0:0:0:
31,253,117049,2,0,P|14:190|28:149,1,97.9999970092774,10|0,0:2|0:2,0:0:0:0:
121,313,117251,2,0,B|237:299|201:363|319:348,1,195.999994018555,6|8,0:1|0:2,0:0:0:0:
350,259,117555,5,2,0:2:0:0:
444,287,117657,2,0,P|480:313|506:358,1,97.9999970092774,2|0,3:2|3:2,0:0:0:0:
510,169,117859,2,0,P|459:192|412:199,1,97.9999970092774,10|0,0:2|0:2,0:0:0:0:
245,36,118062,2,0,P|343:45|425:105,1,195.999994018555,2|8,3:2|0:2,0:0:0:0:
417,198,118366,5,2,3:2:0:0:
321,176,118467,2,0,P|280:157|238:126,1,97.9999970092774,2|0,3:2|3:2,0:0:0:0:
114,205,118670,2,0,P|139:263|150:336,1,97.9999970092774,10|0,0:2|0:2,0:0:0:0:
252,352,118873,2,0,P|294:312|347:280,1,97.9999970092774,2|0,3:2|0:2,0:0:0:0:
293,162,119076,6,0,P|250:147|205:120,1,97.9999970092774,10|0,0:2|0:2,0:0:0:0:
90,212,119279,2,0,P|120:267|139:338,1,97.9999970092774,2|0,3:2|3:2,0:0:0:0:
242,344,119482,2,0,P|279:299|328:262,1,97.9999970092774,10|0,0:2|0:2,0:0:0:0:
431,272,119684,5,10,0:2:0:0:
213,213,119886,1,0,3:2:0:0:
213,213,119988,1,8,3:2:0:0:
416,168,120190,1,0,0:2:0:0:
416,168,120292,1,8,0:3:0:0:
80,100,120494,6,0,P|14:185|40:272,1,195.999994018555,6|8,0:2|0:2,0:0:0:0:
117,318,120799,1,2,0:2:0:0:
204,264,120900,2,0,P|249:254|313:249,1,97.9999970092774,2|0,3:2|3:2,0:0:0:0:
396,272,121103,2,0,P|437:297|475:330,1,97.9999970092774,10|0,0:2|0:2,0:0:0:0:
191,346,121305,2,0,L|230:111,1,195.999994018555,2|8,3:2|0:2,0:0:0:0:
343,155,121609,5,2,3:2:0:0:
456,160,121711,2,0,B|476:111|476:111|467:55,1,97.9999970092774,2|0,3:2|3:2,0:0:0:0:
310,53,121913,2,0,B|293:100|293:100|309:149,1,97.9999970092774,10|0,0:2|0:2,0:0:0:0:
453,267,122116,2,0,L|351:243,1,97.9999970092774,2|0,3:2|0:2,0:0:0:0:
258,301,122319,2,0,L|151:276,1,97.9999970092774,10|0,0:2|0:2,0:0:0:0:
35,177,122522,6,0,P|57:132|96:96,1,97.9999970092774,2|0,3:2|3:2,0:0:0:0:
253,196,122724,2,0,P|199:178|148:175,1,97.9999970092774,10|0,0:2|0:2,0:0:0:0:
34,302,122927,2,0,P|121:353|215:346,1,195.999994018555,2|8,3:2|0:2,0:0:0:0:
396,322,123231,5,2,3:2:0:0:
308,366,123332,2,0,P|295:332|296:266,1,97.9999970092774,2|0,3:2|3:3,0:0:0:0:
383,147,123535,2,0,P|425:128|500:131,1,97.9999970092774,10|0,0:2|0:2,0:0:0:0:
301,187,123738,2,0,B|228:168|228:168|171:186|171:186|83:166,1,195.999994018555,6|8,0:1|0:2,0:0:0:0:
64,86,124042,5,2,0:2:0:0:
20,173,124143,2,0,L|31:293,1,97.9999970092774,2|0,3:2|3:2,0:0:0:0:
101,337,124346,2,0,L|198:328,1,97.9999970092774,10|0,0:2|0:2,0:0:0:0:
285,281,124549,2,0,L|274:81,1,195.999994018555,2|8,0:2|0:2,0:0:0:0:
184,44,124853,5,2,3:2:0:0:
177,141,124954,2,0,P|171:199|190:265,1,97.9999970092774,2|0,3:2|3:2,0:0:0:0:
403,186,125157,2,0,P|375:110|347:80,1,97.9999970092774,10|0,0:2|0:2,0:0:0:0:
222,327,125359,2,0,P|332:324|412:258,2,195.999994018555,2|10|2,3:2|0:2|3:2,0:0:0:0:
124,313,125866,5,0,3:2:0:0:
50,248,125967,2,0,P|20:291|14:360,1,97.9999970092774,10|0,0:2|0:2,0:0:0:0:
252,192,126170,1,2,3:2:0:0:
252,192,126373,5,8,3:2:0:0:
343,226,126474,1,8,3:2:0:0:
410,153,126576,1,8,0:2:0:0:
360,68,126677,1,8,0:3:0:0:
265,91,126778,1,8,3:3:0:0:
174,129,126880,1,8,3:3:0:0:
142,107,126981,6,0,B|153:176|153:176|129:240|129:240|140:308,1,195.999994018555,6|8,3:2|0:2,0:0:0:0:
316,336,127285,1,2,0:2:0:0:
308,238,127386,2,0,L|205:256,1,97.9999970092774,0|0,3:2|3:2,0:0:0:0:
391,289,127589,2,0,L|495:270,1,97.9999970092774,8|0,0:2|0:2,0:0:0:0:
434,136,127792,2,0,L|241:168,1,195.999994018555,0|10,3:2|0:2,0:0:0:0:
144,186,128096,5,8,0:2:0:0:
144,186,128197,1,10,0:2:0:0:
178,273,128299,1,8,0:2:0:0:
105,336,128400,1,10,0:2:0:0:
25,282,128501,1,8,0:2:0:0:
49,191,128603,1,12,0:2:0:0:
496,190,143197,5,6,3:2:0:0:
376,152,143400,5,2,0:0:0:0:
380,177,143501,1,2,0:0:0:0:
384,203,143603,1,0,3:3:0:0:
268,179,143805,5,2,0:0:0:0:
266,200,143907,1,2,0:0:0:0:
264,220,144008,1,8,0:0:0:0:
163,147,144211,5,2,0:0:0:0:
160,162,144312,1,2,0:0:0:0:
157,177,144413,1,0,3:0:0:0:
49,97,144616,5,2,0:0:0:0:
50,107,144717,1,2,0:0:0:0:
51,117,144819,1,2,3:0:0:0:
15,7,145022,5,2,0:0:0:0:
14,12,145123,1,2,0:0:0:0:
13,17,145224,1,0,3:0:0:0:
126,44,145427,5,2,0:0:0:0:
126,44,145528,1,2,0:0:0:0:
126,44,145630,1,8,0:0:0:0:
252,19,145832,5,2,0:0:0:0:
257,18,145934,1,0,0:0:0:0:
262,18,146035,2,0,P|282:81|284:256,1,210.000008010865,0|6,3:0|3:1,0:0:0:0:
181,297,146643,5,2,0:0:0:0:
190,292,146744,1,2,0:0:0:0:
199,287,146846,1,0,3:0:0:0:
84,261,147049,5,2,0:0:0:0:
97,253,147150,1,2,0:0:0:0:
110,245,147251,1,8,0:0:0:0:
71,371,147454,5,2,0:0:0:0:
89,361,147555,1,2,0:0:0:0:
108,351,147657,1,0,3:0:0:0:
440,197,147859,5,2,0:0:0:0:
440,197,147961,1,2,0:0:0:0:
338,269,148163,1,0,0:0:0:0:
338,269,148265,1,0,0:0:0:0:
359,100,148467,2,0,P|287:101|226:114,1,105.000004005432,0|0,3:0|0:0,0:0:0:0:
146,214,148873,2,0,P|211:215|278:208,1,105.000004005432,10|0,0:0|0:0,0:0:0:0:
250,211,149177,1,0,0:0:0:0:
250,211,149278,1,0,3:0:0:0:
324,177,149481,1,0,0:0:0:0:
43,114,149684,5,6,3:2:0:0:
129,71,149886,5,2,0:0:0:0:
155,73,149988,1,2,0:0:0:0:
180,76,150089,1,0,3:3:0:0:
235,182,150292,5,2,0:0:0:0:
214,180,150393,1,2,0:0:0:0:
193,178,150494,1,8,0:0:0:0:
68,244,150697,5,2,0:0:0:0:
83,246,150799,1,2,0:0:0:0:
98,248,150900,1,0,3:0:0:0:
194,331,151103,5,2,0:0:0:0:
183,331,151204,1,2,0:0:0:0:
172,331,151305,1,2,3:0:0:0:
248,259,151508,5,2,0:0:0:0:
253,259,151609,1,2,0:0:0:0:
258,259,151711,1,0,3:0:0:0:
351,329,151913,1,2,0:0:0:0:
351,329,152015,1,2,0:0:0:0:
351,329,152116,1,8,0:0:0:0:
419,240,152319,5,2,0:0:0:0:
414,240,152420,1,0,0:0:0:0:
409,241,152522,2,0,P|377:151|397:41,1,210.000008010865,0|6,3:0|3:1,0:0:0:0:
289,35,153130,5,2,0:0:0:0:
290,45,153231,1,2,0:0:0:0:
291,55,153332,1,0,3:0:0:0:
200,98,153535,5,2,0:0:0:0:
200,113,153636,1,2,0:0:0:0:
201,128,153738,1,12,0:1:0:0:
116,194,153940,5,2,0:0:0:0:
116,215,154042,1,2,0:0:0:0:
116,235,154143,1,0,3:0:0:0:
344,344,154346,5,2,0:0:0:0:
344,344,154447,1,2,0:0:0:0:
187,351,154650,1,0,0:0:0:0:
187,351,154751,1,8,0:0:0:0:
388,191,154954,5,0,0:0:0:0:
344,162,155055,1,8,0:0:0:0:
312,194,155157,1,8,3:3:0:0:
312,194,155258,1,8,3:3:0:0:
312,194,155359,1,8,3:3:0:0:
261,219,155461,5,8,0:0:0:0:
253,146,155562,1,8,0:0:0:0:
245,73,155663,1,8,0:0:0:0:
177,42,155765,1,8,0:0:0:0:
123,91,155866,5,12,3:3:0:0:
130,104,155967,1,12,3:3:0:0:
137,117,156069,1,12,3:3:0:0:
128,159,156170,6,0,P|101:237|-18:247,1,210.000008010865,6|0,3:2|0:0,0:0:0:0:
162,343,156778,1,10,0:0:0:0:
162,343,156880,1,8,0:0:0:0:
162,343,156981,2,0,L|291:339,1,105.000004005432,0|0,3:0|0:0,0:0:0:0:
358,287,157386,2,0,L|478:286,1,105.000004005432,2|8,0:2|0:0,0:0:0:0:
276,179,157792,5,2,3:2:0:0:
221,228,157994,1,0,3:0:0:0:
289,257,158197,1,2,3:2:0:0:
345,210,158400,1,8,0:0:0:0:
161,156,158603,6,0,P|142:215|144:272,1,105.000004005432,2|8,3:2|0:0,0:0:0:0:
463,180,159008,1,8,0:0:0:0:
461,159,159109,1,8,0:0:0:0:
459,137,159211,1,8,0:0:0:0:
457,116,159312,1,8,0:0:0:0:
420,82,159413,6,0,B|295:57|336:120|208:89,1,210.000008010865,6|0,3:1|0:0,0:0:0:0:
62,154,160022,1,10,0:0:0:0:
81,146,160123,1,8,0:0:0:0:
101,139,160224,2,0,P|138:205|83:332,1,210.000008010865,0|0,3:0|0:0,0:0:0:0:
378,189,160832,5,10,0:0:0:0:
362,174,160934,1,8,0:0:0:0:
344,163,161035,2,0,P|267:193|222:266,2,157.500006008148,0|2|10,3:0|3:0|0:0,0:0:0:0:
198,320,161846,2,0,P|306:336|383:246,1,210.000008010865,10|0,3:0|0:0,0:0:0:0:
205,80,162454,5,8,0:0:0:0:
205,80,162555,1,8,0:0:0:0:
205,80,162657,2,0,B|216:229|75:154|90:368,1,315.000012016297,6|10,3:2|0:0,0:0:0:0:
109,359,163366,1,8,0:0:0:0:
128,352,163467,2,0,P|140:266|14:169,1,210.000008010865,0|10,3:0|3:0,0:0:0:0:
13,281,164076,1,8,0:0:0:0:
255,243,164278,6,0,P|326:273|370:321,1,105.000004005432,2|0,3:0|0:0,0:0:0:0:
407,120,164684,2,0,P|391:185|399:247,1,105.000004005432,2|8,3:0|0:0,0:0:0:0:
215,158,165089,2,0,P|270:141|306:107,1,105.000004005432,2|8,3:0|0:0,0:0:0:0:
91,37,165494,1,8,0:0:0:0:
96,57,165596,1,8,0:0:0:0:
101,77,165697,1,8,0:0:0:0:
106,97,165799,1,8,0:0:0:0:
146,116,165900,6,0,P|91:158|125:292,1,188.999994232178,6|2,3:2|3:2,0:0:0:0:
162,318,166305,2,0,P|202:288|272:291,1,62.9999980773926,8|0,0:0|0:0,0:0:0:0:
197,198,166508,2,0,P|228:187|275:189,1,62.9999980773926,2|8,3:2|0:0,0:0:0:0:
407,285,166711,2,0,P|340:259|267:267,1,125.999996154785,2|0,3:2|3:3,0:0:0:0:
357,348,167015,1,2,0:0:0:0:
434,365,167116,2,0,P|480:328|506:260,1,125.999996154785,8|10,0:2|3:3,0:0:0:0:
427,194,167420,5,8,3:3:0:0:
353,174,167522,2,0,P|388:90|485:75,1,188.999994232178,14|10,3:1|3:2,0:0:0:0:
427,194,167927,2,0,P|411:237|406:262,1,62.9999980773926,0|0,0:0|3:0,0:0:0:0:
289,289,168130,2,0,P|284:233|276:199,1,62.9999980773926,10|0,0:0|0:0,0:0:0:0:
280,140,168332,2,0,B|139:136|215:248|31:231,1,251.999992309571,2|8,3:0|0:0,0:0:0:0:
12,308,168839,5,8,3:0:0:0:
87,314,168940,1,8,3:0:0:0:
162,321,169042,1,8,3:0:0:0:
237,328,169143,5,10,3:1:0:0:
311,337,169447,5,10,3:1:0:0:
386,346,169751,5,10,3:1:0:0:
461,355,169954,5,10,3:1:0:0:
17,192,176440,5,14,0:1:0:0:
17,192,176744,1,8,0:0:0:0:
17,192,177049,1,12,3:0:0:0:
369,67,177251,6,0,B|184:35|275:163|69:109,1,293.999991027832,6|2,0:2|0:2,0:0:0:0:
22,43,177657,2,0,P|97:21|136:29,1,97.9999970092774,2|0,3:2|0:2,0:0:0:0:
283,181,177859,2,0,P|338:183|406:154,1,97.9999970092774,10|0,0:2|0:2,0:0:0:0:
470,75,178062,2,0,L|455:276,1,195.999994018555,2|8,3:2|0:2,0:0:0:0:
356,272,178366,5,2,0:2:0:0:
298,350,178467,2,0,P|347:323|404:318,1,97.9999970092774,2|0,3:2|3:2,0:0:0:0:
272,260,178670,2,0,P|246:255|168:269,1,97.9999970092774,10|0,0:2|0:2,0:0:0:0:
196,351,178873,2,0,P|92:337|18:253,1,195.999994018555,2|10,3:2|0:2,0:0:0:0:
110,205,179177,5,0,0:2:0:0:
0,103,179278,2,0,P|27:153|34:206,1,97.9999970092774,2|0,3:2|0:2,0:0:0:0:
210,164,179481,2,0,P|157:129|101:120,1,97.9999970092774,10|0,0:2|0:2,0:0:0:0:
77,39,179684,2,0,L|278:36,1,195.999994018555,2|8,3:2|0:2,0:0:0:0:
371,41,179988,5,2,3:2:0:0:
468,46,180089,2,0,L|464:152,1,97.9999970092774,2|0,3:2|0:2,0:0:0:0:
387,206,180292,2,0,L|385:317,1,97.9999970092774,10|0,0:2|0:2,0:0:0:0:
205,359,180494,2,0,L|210:129,1,195.999994018555,6|8,0:1|0:2,0:0:0:0:
304,133,180799,5,2,0:2:0:0:
261,51,180900,2,0,P|217:59|162:98,1,97.9999970092774,2|0,3:2|3:2,0:0:0:0:
293,231,181103,2,0,P|348:222|402:195,1,97.9999970092774,10|0,0:2|0:2,0:0:0:0:
58,107,181305,2,0,P|143:185|226:141,1,195.999994018555,2|8,3:2|0:2,0:0:0:0:
304,133,181609,5,2,3:2:0:0:
397,102,181711,2,0,P|448:130|472:185,1,97.9999970092774,2|0,3:2|3:2,0:0:0:0:
293,318,181913,2,0,P|244:297|208:253,1,97.9999970092774,10|0,0:2|0:2,0:0:0:0:
386,205,182116,2,0,P|416:314|351:371,1,195.999994018555,2|8,3:2|0:2,0:0:0:0:
247,378,182420,5,0,0:2:0:0:
137,333,182522,2,0,P|118:224|172:167,1,195.999994018555,2|10,3:2|0:2,0:0:0:0:
307,144,182826,5,0,0:2:0:0:
427,208,182927,6,0,P|444:315|384:380,1,195.999994018555,10|8,0:2|3:2,0:0:0:0:
288,283,183231,1,0,3:2:0:0:
288,283,183332,1,8,3:2:0:0:
282,204,183434,1,0,3:2:0:0:
276,126,183535,1,8,0:3:0:0:
270,48,183636,1,8,0:3:0:0:
237,24,183738,6,0,B|129:40|172:94|45:106,1,195.999994018555,6|8,0:2|0:2,0:0:0:0:
25,195,184042,1,2,0:2:0:0:
98,259,184143,2,0,P|156:250|206:225,1,97.9999970092774,2|0,3:2|0:2,0:0:0:0:
276,126,184346,2,0,P|216:133|175:156,1,97.9999970092774,10|0,0:2|0:2,0:0:0:0:
181,324,184549,2,0,P|256:324|369:257,1,195.999994018555,2|8,3:2|0:2,0:0:0:0:
361,168,184853,5,2,0:2:0:0:
458,164,184954,2,0,B|436:201|436:201|448:265,1,97.9999970092774,2|0,3:2|3:2,0:0:0:0:
461,65,185157,2,0,B|421:88|421:88|366:84,1,97.9999970092774,10|0,0:2|0:2,0:0:0:0:
208,23,185359,2,0,P|112:38|108:155,1,195.999994018555,2|10,3:2|0:2,0:0:0:0:
188,133,185663,1,0,0:2:0:0:
285,116,185765,2,0,L|271:223,1,97.9999970092774,2|0,3:2|0:2,0:0:0:0:
233,310,185967,1,10,0:2:0:0:
147,349,186069,1,0,0:2:0:0:
64,331,186170,2,0,P|90:237|196:240,1,195.999994018555,2|8,3:2|0:2,0:0:0:0:
328,291,186474,5,2,3:2:0:0:
417,332,186576,2,0,P|426:264|397:223,1,97.9999970092774,2|0,3:2|0:2,0:0:0:0:
344,170,186778,2,0,P|353:105|373:65,1,97.9999970092774,10|0,0:2|0:2,0:0:0:0:
231,49,186981,6,0,P|128:83|52:133,1,195.999994018555,6|8,0:1|0:2,0:0:0:0:
25,224,187285,1,2,0:2:0:0:
93,293,187386,2,0,P|126:245|132:202,1,97.9999970092774,2|0,3:2|3:2,0:0:0:0:
261,145,187589,1,10,0:2:0:0:
219,233,187690,1,0,0:2:0:0:
265,319,187792,2,0,P|309:335|382:321,1,97.9999970092774,2|0,3:2|0:0,0:0:0:0:
413,239,187994,2,0,P|361:223|306:231,1,97.9999970092774,8|2,0:2|3:2,0:0:0:0:
124,62,188197,6,0,P|185:103|218:110,1,97.9999970092774,2|0,3:2|3:2,0:0:0:0:
228,195,188400,2,0,P|168:207|127:227,1,97.9999970092774,10|0,0:2|0:2,0:0:0:0:
28,316,188603,2,0,P|49:212|27:121,1,195.999994018555,2|10,3:2|0:2,0:0:0:0:
27,27,188907,1,0,0:2:0:0:
131,55,189008,2,0,P|192:96|225:103,1,97.9999970092774,2|0,3:2|3:2,0:0:0:0:
330,40,189211,2,0,L|322:149,1,97.9999970092774,10|0,0:2|0:2,0:0:0:0:
420,285,189413,5,10,0:2:0:0:
194,333,189615,1,0,3:2:0:0:
194,333,189717,1,8,3:2:0:0:
316,366,189921,1,0,0:2:0:0:
316,366,190022,1,8,0:3:0:0:
316,366,190123,1,8,0:3:0:0:
276,344,190224,6,0,B|283:271|283:271|324:228|324:228|330:161,1,195.999994018555,6|8,0:2|0:2,0:0:0:0:
284,77,190528,1,2,0:2:0:0:
189,50,190630,2,0,P|127:65|92:103,1,97.9999970092774,2|0,3:2|3:2,0:0:0:0:
163,216,190832,2,0,P|221:197|253:155,1,97.9999970092774,10|0,0:2|0:2,0:0:0:0:
75,167,191035,2,0,B|91:275|3:233|19:370,1,195.999994018555,2|8,3:2|0:2,0:0:0:0:
113,368,191339,5,2,3:2:0:0:
190,307,191440,2,0,L|310:356,1,97.9999970092774,2|0,3:2|3:2,0:0:0:0:
384,287,191643,2,0,L|504:336,1,97.9999970092774,10|0,0:2|0:2,0:0:0:0:
363,194,191846,6,0,L|243:243,1,97.9999970092774,2|0,3:2|0:2,0:0:0:0:
169,174,192049,2,0,L|49:223,1,97.9999970092774,10|0,0:2|0:2,0:0:0:0:
85,69,192251,5,2,3:2:0:0:
183,67,192353,1,0,3:2:0:0:
280,66,192454,2,0,L|404:66,1,97.9999970092774,10|0,0:2|0:2,0:0:0:0:
504,195,192657,2,0,L|302:197,1,195.999994018555,2|8,3:2|0:2,0:0:0:0:
228,254,192961,5,2,3:2:0:0:
139,295,193062,2,0,B|91:284|91:284|62:240,1,97.9999970092774,2|0,3:2|3:3,0:0:0:0:
77,144,193265,2,0,B|125:155|125:155|154:199,1,97.9999970092774,10|0,0:2|0:2,0:0:0:0:
234,362,193467,2,0,B|354:367|302:301|428:308,1,195.999994018555,6|8,0:1|0:2,0:0:0:0:
501,256,193772,5,2,0:2:0:0:
426,193,193873,2,0,P|377:201|338:230,1,97.9999970092774,2|0,3:2|3:2,0:0:0:0:
239,278,194076,2,0,P|235:202|251:157,1,97.9999970092774,10|0,0:2|0:2,0:0:0:0:
387,89,194278,2,0,P|273:68|186:96,1,195.999994018555,2|8,0:2|0:2,0:0:0:0:
105,241,194582,5,2,3:2:0:0:
44,163,194684,2,0,P|100:154|141:169,1,97.9999970092774,2|0,3:2|3:2,0:0:0:0:
148,320,194886,2,0,P|100:322|47:291,1,97.9999970092774,10|0,0:2|0:2,0:0:0:0:
227,199,195089,6,0,B|260:164|260:164|314:154,1,97.9999970092774,2|0,3:2|0:2,0:0:0:0:
306,335,195292,2,0,B|257:326|257:326|224:291,1,97.9999970092774,10|0,0:2|0:2,0:0:0:0:
432,146,195494,6,0,L|433:358,1,195.999994018555,2|10,3:2|0:2,0:0:0:0:
310,373,195799,1,0,0:2:0:0:
177,341,195900,2,0,L|178:146,1,195.999994018555,2|8,3:2|3:2,0:0:0:0:
304,7,196204,5,8,3:2:0:0:
304,7,196305,1,8,0:2:0:0:
320,99,196407,1,8,0:3:0:0:
293,191,196508,1,8,3:3:0:0:
311,281,196609,1,8,3:3:0:0:
284,373,196711,6,0,B|185:372|218:302|98:302,1,195.999994018555,6|8,3:2|0:2,0:0:0:0:
17,261,197015,1,2,0:2:0:0:
77,184,197116,2,0,P|150:189|194:202,1,97.9999970092774,0|0,3:2|3:2,0:0:0:0:
351,267,197319,2,0,P|285:261|243:262,1,97.9999970092774,8|0,0:2|0:2,0:0:0:0:
201,104,197522,2,0,P|291:101|412:114,1,195.999994018555,0|10,3:2|0:2,0:0:0:0:
493,67,197826,5,8,0:2:0:0:
493,67,197927,1,10,0:2:0:0:
484,164,198028,1,8,0:2:0:0:
476,262,198130,1,10,0:2:0:0:
468,359,198231,1,8,0:2:0:0:
370,359,198332,1,12,0:2:0:0:
370,359,199954,6,0,B|364:290|364:290|401:250|401:250|395:169,1,195.999994018555,6|8,3:2|0:2,0:0:0:0:
314,121,200258,1,0,0:2:0:0:
217,136,200359,2,0,B|235:185|235:185|276:217,1,97.9999970092774,0|0,3:2|0:2,0:0:0:0:
450,21,200562,2,0,B|432:70|432:70|391:102,1,97.9999970092774,8|0,0:2|0:2,0:0:0:0:
251,60,200765,2,0,B|152:32|152:32|64:68,1,195.999994018555,2|8,3:2|0:2,0:0:0:0:
98,160,201069,1,2,3:2:0:0:
0,166,201170,2,0,L|14:271,1,97.9999970092774,0|0,0:0|0:2,0:0:0:0:
30,360,201373,2,0,L|135:346,1,97.9999970092774,10|0,0:2|0:2,0:0:0:0:
225,342,201576,6,0,P|201:273|88:248,1,195.999994018555,4|8,3:3|0:2,0:0:0:0:
98,160,201880,1,0,0:2:0:0:
98,160,201981,1,2,3:2:0:0:
174,145,202082,1,0,3:2:0:0:
249,167,202184,1,8,3:2:0:0:
324,147,202285,1,0,3:2:0:0:
401,153,202386,6,0,B|303:143|323:63|225:67,1,195.999994018555,2|8,3:2|0:2,0:0:0:0:
112,45,202690,1,2,3:2:0:0:
112,45,202792,2,0,P|79:33|5:33,1,97.9999970092774,0|0,3:2|0:2,0:0:0:0:
3,130,202994,2,0,P|73:154|233:119,1,195.999994018555,8|6,0:2|3:1,0:0:0:0:
288,166,203299,5,0,0:2:0:0:
294,263,203400,2,0,B|312:308|312:308|361:338,1,97.9999970092774,8|0,0:2|0:2,0:0:0:0:
438,264,203603,2,0,B|420:219|420:219|371:189,1,97.9999970092774,0|0,3:2|0:2,0:0:0:0:
169,219,203805,2,0,P|173:287|192:343,1,97.9999970092774,8|0,0:2|0:2,0:0:0:0:
81,338,204008,2,0,P|66:240|91:98,1,195.999994018555,2|8,3:2|0:2,0:0:0:0:
257,138,204312,2,0,P|271:263|264:358,1,195.999994018555,2|0,3:2|3:2,0:0:0:0:
344,240,204616,2,0,B|388:227|388:227|469:240,1,97.9999970092774,10|0,0:2|0:2,0:0:0:0:
480,88,204819,5,6,3:3:0:0:
418,136,204920,1,0,0:2:0:0:
339,124,205022,1,8,0:2:0:0:
301,55,205123,1,0,0:2:0:0:
235,11,205224,5,2,3:2:0:0:
161,38,205326,1,0,0:2:0:0:
128,109,205427,1,8,0:2:0:0:
53,133,205528,1,0,0:2:0:0:
6,204,205630,5,6,3:3:0:0:
20,229,205731,1,0,0:2:0:0:
34,254,205832,1,10,0:2:0:0:
48,279,205934,1,0,0:2:0:0:
126,317,206035,5,10,3:2:0:0:
213,328,206136,1,10,3:2:0:0:
277,267,206238,1,10,3:2:0:0:
258,181,206339,1,10,3:2:0:0:
175,211,206440,6,0,P|159:113|198:10,1,195.999994018555,6|8,3:2|0:2,0:0:0:0:
282,41,206744,1,0,0:2:0:0:
373,60,206846,2,0,L|481:80,1,97.9999970092774,0|0,3:2|0:2,0:0:0:0:
492,173,207049,2,0,L|391:154,1,97.9999970092774,8|0,0:2|0:2,0:0:0:0:
298,143,207251,6,0,L|297:362,1,195.999994018555,2|8,3:2|0:2,0:0:0:0:
380,363,207555,2,0,B|394:313|394:313|384:251,1,97.9999970092774,2|0,3:2|0:0,0:0:0:0:
208,232,207758,1,0,0:2:0:0:
208,232,207859,2,0,B|194:182|194:182|204:120,1,97.9999970092774,8|0,0:2|0:2,0:0:0:0:
207,318,208062,6,0,B|104:315|138:370|9:367,1,195.999994018555,4|8,3:3|0:2,0:0:0:0:
17,268,208366,1,0,0:2:0:0:
17,268,208467,1,2,3:2:0:0:
34,189,208569,1,0,3:2:0:0:
31,107,208670,1,8,3:2:0:0:
95,51,208772,1,0,3:2:0:0:
182,73,208873,6,0,B|269:73|269:73|299:54|299:54|394:56,1,195.999994018555,2|8,3:2|0:2,0:0:0:0:
297,152,209177,2,0,L|89:152,1,195.999994018555,2|0,3:2|0:2,0:0:0:0:
219,230,209481,2,0,L|332:228,1,97.9999970092774,8|0,0:2|0:2,0:0:0:0:
447,120,209684,6,0,B|451:234|403:190|408:323,1,195.999994018555,6|8,3:1|0:2,0:0:0:0:
329,368,209988,1,0,0:2:0:0:
241,325,210089,2,0,P|188:327|139:351,1,97.9999970092774,0|0,3:2|0:2,0:0:0:0:
31,365,210292,2,0,P|59:300|69:251,1,97.9999970092774,8|0,3:2|0:2,0:0:0:0:
53,151,210494,2,0,P|136:217|242:238,1,195.999994018555,2|8,3:2|0:2,0:0:0:0:
357,160,210799,2,0,P|266:111|183:170,1,195.999994018555,2|0,3:2|3:2,0:0:0:0:
504,194,211103,1,10,0:2:0:0:
504,194,211305,5,6,3:3:0:0:
461,260,211407,1,0,0:2:0:0:
397,305,211508,1,8,0:2:0:0:
319,310,211609,1,0,0:2:0:0:
251,255,211711,5,2,3:2:0:0:
242,282,211812,1,0,0:2:0:0:
233,309,211913,1,8,0:2:0:0:
224,337,212015,1,0,0:2:0:0:
141,367,212116,5,6,3:1:0:0:
141,367,212420,1,2,3:0:0:0:
141,367,212724,1,2,3:0:0:0:
378,178,212927,6,0,L|371:216,2,35,2|2|2,0:0|0:0|0:0,0:0:0:0:
