osu file format v14

[General]
AudioFilename: audio.mp3
AudioLeadIn: 0
PreviewTime: 58366
Countdown: 0
SampleSet: Soft
StackLeniency: 0.7
Mode: 0
LetterboxInBreaks: 0
WidescreenStoryboard: 1

[Editor]
DistanceSpacing: 1.2
BeatDivisor: 4
GridSize: 32
TimelineZoom: 1.7

[Metadata]
Title:Ouka Enbu
TitleUnicode:桜花演武
Artist:Mitsuki Nakae
ArtistUnicode:中恵光城
Creator:Lasse
Version:Advanced
Source:
Tags:ABSOLUTE CASTAWAY 刀心幻戯 憶 toushin gengi m3-40 Mirash Komore
BeatmapID:1462064
BeatmapSetID:688552

[Difficulty]
HPDrainRate:4
CircleSize:3.4
OverallDifficulty:6
ApproachRate:7
SliderMultiplier:1.6
SliderTickRate:1

[Events]
//Background and Video events
0,0,"bg.jpg",0,0
//Break Periods
2,81776,87162
2,130224,142297
//Storyboard Layer 0 (Background)
//Storyboard Layer 1 (Fail)
//Storyboard Layer 2 (Pass)
//Storyboard Layer 3 (Foreground)
//Storyboard Sound Samples

[TimingPoints]
495,405.405405405405,4,2,4,50,1,0
495,-142.857142857143,4,2,4,50,0,0
13467,-100,4,2,4,80,0,0
26440,-166.666666666667,4,2,1,60,0,0
39413,-111.111111111111,4,2,4,70,0,0
52386,-142.857142857143,4,2,1,60,0,0
55630,-111.111111111111,4,2,1,70,0,0
57251,-100,4,2,4,70,0,0
58163,-100,4,2,4,50,0,0
58873,-90.9090909090909,4,2,4,80,0,1
64549,-111.111111111111,4,2,4,70,0,0
65359,-90.9090909090909,4,2,4,80,0,1
71035,-90.9090909090908,4,2,4,70,0,0
71846,-90.9090909090909,4,2,4,80,0,1
73467,-90.9090909090909,4,2,4,70,0,0
75089,-133.333333333333,4,2,4,60,0,0
81576,-142.857142857143,4,2,1,60,0,0
88062,-142.857142857143,4,2,1,62,0,0
93738,-125,4,2,1,66,0,0
94549,-111.111111111111,4,2,4,70,0,0
107522,-142.857142857143,4,2,1,60,0,0
110765,-111.111111111111,4,2,1,70,0,0
112386,-100,4,2,4,70,0,0
113197,-125,4,2,4,70,0,0
113603,-111.111111111111,4,2,4,70,0,0
114008,-90.9090909090909,4,2,4,80,0,1
119684,-111.111111111111,4,2,4,70,0,0
120494,-90.9090909090909,4,2,4,80,0,1
126170,-90.9090909090908,4,2,4,70,0,0
126981,-90.9090909090909,4,2,4,80,0,1
128603,-100,4,2,4,70,0,0
143197,-166.666666666667,4,2,4,54,0,0
149684,-166.666666666667,4,2,4,56,0,0
155055,-166.666666666667,4,2,1,65,0,0
155157,-166.666666666667,4,2,1,56,0,0
155461,-166.666666666667,4,2,1,65,0,0
155866,-166.666666666667,4,2,1,60,0,0
156170,-142.857142857143,4,2,1,60,0,0
165900,-111.111111111111,4,2,1,70,0,0
167522,-100,4,2,4,70,0,0
169143,-90.9090909090909,4,2,4,70,0,0
170359,-90.9090909090909,4,2,1,50,0,0
170765,-166.666666666667,4,2,4,60,0,0
171170,-166.666666666667,4,2,4,50,0,0
176440,-100,4,2,4,65,0,0
176846,-111.111111111111,4,2,4,65,0,0
177251,-90.9090909090909,4,2,4,80,0,1
182927,-111.111111111111,4,2,4,70,0,0
183738,-90.9090909090909,4,2,4,80,0,1
189413,-111.111111111111,4,2,4,70,0,0
190224,-90.9090909090909,4,2,4,80,0,1
195900,-90.9090909090908,4,2,4,70,0,0
196711,-90.9090909090909,4,2,4,80,0,1
198332,-90.9090909090909,4,2,4,70,0,0
199954,-100,4,2,4,70,0,0
212116,-100,4,2,4,80,0,0
212927,-142.857142857143,4,2,4,50,0,0
213028,-142.857142857143,4,2,4,40,0,0
213130,-142.857142857143,4,2,4,30,0,0

[Colours]
Combo1 : 250,180,240
Combo2 : 110,190,225
Combo3 : 255,230,130
Combo4 : 150,230,140

[HitObjects]
0,260,495,6,0,L|118:256,1,111.999996582031,4|0,0:3|0:0,0:0:0:0:
204,130,1305,2,0,P|208:81|225:34,2,83.9999974365235,0|0|0,0:0|0:0|0:0,0:0:0:0:
248,194,2116,2,0,L|384:185,1,111.999996582031,2|0,0:3|0:0,0:0:0:0:
440,52,2927,2,0,P|390:44|337:29,2,83.9999974365235,0|0|0,0:0|0:0|0:0,0:0:0:0:
493,109,3738,5,4,0:3:0:0:
402,236,4143,1,0,0:0:0:0:
267,154,4549,2,0,L|252:50,2,83.9999974365235,0|0|0,0:0|0:0|0:0,0:0:0:0:
234,224,5359,1,2,0:0:0:0:
120,332,5765,1,2,0:0:0:0:
12,218,6170,1,2,0:0:0:0:
126,110,6576,1,2,0:0:0:0:
234,224,6981,6,0,L|367:213,1,111.999996582031,4|0,0:3|0:0,0:0:0:0:
447,95,7792,2,0,P|446:46|459:4,2,83.9999974365235,0|0|0,0:0|0:0|0:0,0:0:0:0:
387,145,8603,6,0,P|346:138|271:134,1,111.999996582031,2|0,0:0|0:0,0:0:0:0:
122,99,9413,2,0,P|118:50|101:3,2,83.9999974365235,0|0|0,0:0|0:0|0:0,0:0:0:0:
94,172,10224,1,4,0:3:0:0:
126,325,10630,1,0,0:0:0:0:
267,257,11035,2,0,L|372:252,2,83.9999974365235,0|0|0,0:0|0:0|0:0,0:0:0:0:
202,212,11846,5,2,0:0:0:0:
312,101,12251,1,2,0:0:0:0:
350,253,12657,1,2,0:0:0:0:
202,212,13062,1,0,0:3:0:0:
321,75,13467,6,0,P|377:55|466:106,1,160,6|0,3:2|3:2,0:0:0:0:
467,195,14076,1,8,0:2:0:0:
386,248,14278,2,0,L|384:371,2,120,2|2|10,3:2|3:2|0:2,0:0:0:0:
300,205,15089,6,0,L|194:194,1,80,4|8,3:3|0:2,0:0:0:0:
130,229,15494,2,0,L|74:226,3,40,2|0|8|0,3:2|3:2|3:2|3:2,0:0:0:0:
49,201,15900,2,0,P|39:143|64:87,2,120,2|2|8,3:2|3:2|0:2,0:0:0:0:
119,266,16711,6,0,L|292:274,1,160,6|0,3:1|3:2,0:0:0:0:
364,316,17319,1,8,0:2:0:0:
435,252,17522,2,0,P|453:204|422:130,2,120,2|2|10,3:2|3:2|0:2,0:0:0:0:
356,197,18332,6,0,P|321:183|261:186,1,80,6|8,3:3|0:2,0:0:0:0:
203,242,18738,2,0,P|163:241|126:226,1,80,2|8,3:2|0:2,0:0:0:0:
44,176,19143,2,0,L|39:128,3,40,6|0|10|0,3:3|0:2|0:2|0:2,0:0:0:0:
47,88,19549,2,0,L|45:39,3,40,10|10|10|10,3:2|3:2|3:2|3:2,0:0:0:0:
89,28,19954,6,0,B|126:33|162:50|162:50|196:34|243:35,1,160,6|0,3:2|3:2,0:0:0:0:
294,116,20562,1,8,0:2:0:0:
363,182,20765,2,0,P|421:198|486:172,2,120,2|2|8,3:2|3:2|0:2,0:0:0:0:
269,205,21576,6,0,P|224:197|172:213,1,80,4|8,3:3|0:2,0:0:0:0:
106,249,21981,2,0,L|53:250,3,40,2|0|8|0,3:2|3:2|3:2|3:2,0:0:0:0:
18,243,22386,2,0,B|2:207|12:163|12:163|-17:130,2,120,2|2|8,3:2|3:2|0:2,0:0:0:0:
96,298,23197,6,0,B|157:285|157:285|203:311|273:300,1,160,6|0,3:1|3:2,0:0:0:0:
312,228,23805,1,8,3:2:0:0:
263,145,24008,2,0,P|246:91|278:22,2,120,2|2|10,3:2|3:2|0:2,0:0:0:0:
341,90,24819,6,0,P|366:83|430:86,1,80,6|8,3:3|0:2,0:0:0:0:
476,161,25224,2,0,L|488:258,1,80,2|8,3:2|0:2,0:0:0:0:
426,316,25630,2,0,B|380:325|380:325|329:292|342:232,2,120,6|2|2,3:1|3:0|3:0,0:0:0:0:
484,257,26440,6,0,L|486:150,1,95.9999970703126,6|0,0:0|3:0,0:0:0:0:
447,52,27251,1,2,3:0:0:0:
332,55,27657,1,8,3:2:0:0:
299,165,28062,2,0,P|241:176|195:155,1,95.9999970703126,2|0,3:0|3:0,0:0:0:0:
174,53,28873,1,0,3:0:0:0:
95,136,29278,1,8,3:2:0:0:
128,246,29684,6,0,B|137:282|137:282|124:325|137:361,1,95.9999970703126,4|0,3:2|3:0,0:0:0:0:
245,355,30494,2,0,P|303:344|359:353,1,95.9999970703126,0|8,3:0|3:2,0:0:0:0:
436,285,31305,1,2,3:2:0:0:
408,174,31711,1,2,3:3:0:0:
293,166,32116,1,2,3:0:0:0:
249,272,32522,2,0,L|186:266,1,47.9999985351563,10|8,3:2|0:0,0:0:0:0:
153,299,32927,6,0,L|144:188,1,95.9999970703126,6|8,3:2|3:2,0:0:0:0:
54,131,33738,1,0,3:3:0:0:
95,23,34143,1,8,3:2:0:0:
210,28,34549,2,0,L|324:18,1,95.9999970703126,2|8,3:0|3:2,0:0:0:0:
402,81,35359,2,0,P|391:128|391:183,1,95.9999970703126,0|8,3:0|3:2,0:0:0:0:
294,239,36170,6,0,L|181:230,1,95.9999970703126,6|8,3:2|3:2,0:0:0:0:
83,239,36981,1,0,3:0:0:0:
91,354,37386,1,8,3:2:0:0:
206,346,37792,2,0,P|252:340|313:337,1,95.9999970703126,2|10,3:2|3:2,0:0:0:0:
357,351,38400,1,0,3:0:0:0:
399,312,38603,2,0,L|401:254,1,47.9999985351563,10|8,3:2|0:0,0:0:0:0:
429,214,39008,2,0,L|427:156,1,47.9999985351563,10|12,0:3|0:3,0:0:0:0:
498,123,39413,6,0,P|425:127|361:79,1,143.999995605469,6|0,3:2|3:2,0:0:0:0:
307,26,40022,1,8,0:2:0:0:
227,58,40224,2,0,L|126:52,1,71.9999978027344,2|10,3:2|0:2,0:0:0:0:
76,91,40630,2,0,P|62:117|56:181,1,71.9999978027344,2|10,0:2|0:2,0:0:0:0:
91,236,41035,6,0,P|167:232|250:235,1,143.999995605469,2|0,3:2|3:2,0:0:0:0:
293,297,41643,1,8,0:2:0:0:
233,359,41846,2,0,P|161:362|89:361,1,143.999995605469,2|2,3:2|3:2,0:0:0:0:
1,212,42657,6,0,B|-10:140|-10:140|23:64,1,143.999995605469,6|0,3:1|3:2,0:0:0:0:
99,43,43265,1,8,0:2:0:0:
178,76,43467,2,0,L|272:69,1,71.9999978027344,2|10,3:2|0:2,0:0:0:0:
332,97,43873,2,0,L|426:90,1,71.9999978027344,2|10,0:2|0:2,0:0:0:0:
504,147,44278,5,12,0:1:0:0:
504,147,44481,1,8,0:2:0:0:
439,204,44684,2,0,P|396:191|356:195,1,71.9999978027344,2|8,3:2|3:2,0:0:0:0:
292,232,45089,2,0,P|247:236|211:222,1,71.9999978027344,6|8,3:3|0:2,0:0:0:0:
138,204,45494,2,0,L|94:200,3,35.9999989013672,8|8|8|8,3:2|3:3|3:3|3:3,0:0:0:0:
60,214,45900,6,0,P|21:273|38:344,1,143.999995605469,6|0,3:2|3:2,0:0:0:0:
116,372,46508,1,8,0:2:0:0:
197,344,46711,2,0,P|232:337|268:336,1,71.9999978027344,2|10,3:2|0:2,0:0:0:0:
351,359,47116,2,0,P|386:366|422:367,1,71.9999978027344,2|10,3:2|0:2,0:0:0:0:
474,298,47522,6,0,L|471:154,1,143.999995605469,2|0,3:2|3:2,0:0:0:0:
432,77,48130,1,8,0:2:0:0:
351,45,48332,2,0,L|202:33,1,143.999995605469,2|2,3:2|3:2,0:0:0:0:
98,167,49143,6,0,B|158:132|158:132|229:153,1,143.999995605469,6|0,3:1|3:2,0:0:0:0:
312,177,49751,1,8,0:2:0:0:
347,255,49954,2,0,L|341:339,1,71.9999978027344,2|10,3:2|0:2,0:0:0:0:
261,360,50359,2,0,P|222:351|169:349,1,71.9999978027344,2|10,3:2|0:2,0:0:0:0:
87,363,50765,5,12,0:1:0:0:
87,363,50967,1,8,0:2:0:0:
26,300,51170,2,0,L|24:206,1,71.9999978027344,2|0,3:2|3:2,0:0:0:0:
60,149,51576,2,0,P|94:140|130:145,1,71.9999978027344,10|8,3:2|0:2,0:0:0:0:
207,184,51981,2,0,L|249:183,3,35.9999989013672,8|8|8|8,3:2|3:3|3:3|3:3,0:0:0:0:
286,201,52386,6,0,L|296:23,2,167.999994873047,6|10|2,3:2|0:0|0:2,0:0:0:0:
312,333,54008,2,0,P|297:260|154:262,1,223.999993164063,2|2,3:2|3:2,0:0:0:0:
67,337,55224,1,8,0:0:0:0:
18,171,55630,6,0,L|11:53,2,107.999996704102,6|2|2,3:2|3:2|3:2,0:0:0:0:
103,181,56440,2,0,L|111:58,2,107.999996704102,2|2|10,3:2|0:0|3:3,0:0:0:0:
176,227,57251,6,0,P|219:207|292:215,1,120,10|10,3:2|3:2,0:0:0:0:
405,312,57859,1,10,0:0:0:0:
405,312,58062,1,10,0:0:0:0:
411,49,58873,6,0,B|356:33|302:63|302:63|218:35,1,176.000005371094,6|2,0:2|3:2,0:0:0:0:
137,54,59481,1,10,0:2:0:0:
63,130,59684,2,0,B|68:232,1,88.000002685547,2|8,3:2|0:2,0:0:0:0:
141,293,60089,2,0,P|196:281|256:287,1,88.000002685547,2|10,3:2|0:2,0:0:0:0:
318,335,60494,6,0,P|361:334|404:323,1,88.000002685547,2|10,3:2|0:2,0:0:0:0:
464,236,60900,2,0,L|470:132,1,88.000002685547,2|10,3:2|0:2,0:0:0:0:
428,50,61305,1,2,3:2:0:0:
239,145,61711,1,2,3:2:0:0:
239,145,61913,1,10,0:2:0:0:
159,75,62116,6,0,B|108:49|108:49|42:54|17:115,1,176.000005371094,6|2,0:1|3:2,0:0:0:0:
13,220,62724,1,10,0:2:0:0:
96,284,62927,2,0,B|192:284,1,88.000002685547,2|8,3:2|0:2,0:0:0:0:
277,333,63332,1,2,3:2:0:0:
277,333,63535,1,10,0:2:0:0:
328,240,63738,6,0,B|336:121,1,88.000002685547,2|10,3:2|0:2,0:0:0:0:
362,50,64143,2,0,P|404:38|447:45,1,88.000002685547,2|10,3:2|0:2,0:0:0:0:
496,143,64549,2,0,L|507:298,1,143.999995605469,10|0,0:2|3:2,0:0:0:0:
304,349,65359,6,0,B|237:331|189:354|189:354|152:349|125:328,1,176.000005371094,6|2,0:2|3:2,0:0:0:0:
48,272,65967,1,10,0:2:0:0:
95,177,66170,2,0,B|100:75,1,88.000002685547,2|8,3:2|0:2,0:0:0:0:
195,44,66576,2,0,P|253:38|306:16,1,88.000002685547,2|10,3:2|0:2,0:0:0:0:
373,79,66981,6,0,L|400:182,1,88.000002685547,2|10,3:2|0:2,0:0:0:0:
307,224,67386,2,0,P|268:212|212:212,1,88.000002685547,2|10,3:2|0:2,0:0:0:0:
125,256,67792,1,2,3:2:0:0:
312,354,68197,1,2,3:2:0:0:
312,354,68400,1,10,0:2:0:0:
402,300,68603,6,0,B|440:257|440:257|452:192|400:152,1,176.000005371094,6|2,0:1|3:2,0:0:0:0:
295,140,69211,1,10,0:2:0:0:
210,203,69413,2,0,P|169:207|118:192,1,88.000002685547,2|8,0:2|0:2,0:0:0:0:
56,113,69819,1,2,3:2:0:0:
56,113,70022,1,10,0:2:0:0:
142,51,70224,6,0,P|183:47|234:62,1,88.000002685547,2|10,3:2|0:2,0:0:0:0:
295,140,70630,2,0,L|305:245,1,88.000002685547,2|10,3:2|0:2,0:0:0:0:
357,318,71035,2,0,P|399:329|442:325,1,88.000002685547,2|8,3:2|3:2,0:0:0:0:
490,231,71440,2,0,L|492:171,3,44.0000013427735,8|8|8|8,0:2|0:3|3:3|3:3,0:0:0:0:
477,135,71846,6,0,P|401:88|302:138,2,176.000005371094,6|0|0,3:2|3:2|3:2,0:0:0:0:
482,240,72859,1,10,0:2:0:0:
380,270,73062,2,0,L|286:252,1,88.000002685547,10|10,0:2|0:2,0:0:0:0:
195,328,73467,5,12,0:2:0:0:
452,326,75089,6,0,L|460:202,1,120.000004577637,6|8,3:1|0:0,0:0:0:0:
430,127,75697,1,0,3:0:0:0:
430,127,75900,2,0,L|351:119,1,60.0000022888184,0|0,3:0|0:0,0:0:0:0:
300,74,76305,1,10,0:0:0:0:
137,117,76711,6,0,B|98:106|62:119|62:119|42:111|13:92,2,120.000004577637,6|8|0,0:1|0:0|3:0,0:0:0:0:
197,175,77724,1,0,3:0:0:0:
257,233,77927,2,0,L|257:267,3,30.0000011444092,8|8|8|8,0:0|0:3|0:3|0:3,0:0:0:0:
282,295,78332,6,0,B|321:284|357:297|357:297|377:289|406:270,1,120.000004577637,6|8,3:1|0:0,0:0:0:0:
466,321,78940,1,0,3:0:0:0:
501,244,79143,2,0,L|502:122,1,120.000004577637,0|8,3:0|0:0,0:0:0:0:
357,38,79954,6,0,B|313:31|313:31|280:45|280:45|240:42,1,120.000004577637,6|8,3:1|0:0,0:0:0:0:
160,68,80562,1,0,3:0:0:0:
222,124,80765,2,0,B|241:170|241:170|235:231,2,90.0000034332277,2|2|8,3:3|0:0|0:0,0:0:0:0:
138,64,81576,5,4,3:2:0:0:
86,72,88062,5,4,3:2:0:0:
97,250,88873,1,0,3:2:0:0:
275,239,89684,1,0,3:2:0:0:
264,61,90494,1,0,3:2:0:0:
442,50,91305,5,0,3:2:0:0:
453,228,92116,1,0,3:2:0:0:
275,239,92927,2,0,L|155:233,1,111.999996582031,0|8,3:2|0:0,0:0:0:0:
42,275,93738,2,0,L|38:211,1,64,8|8,0:0|3:2,0:0:0:0:
11,139,94143,2,0,L|14:75,1,64,8|12,3:0|3:0,0:0:0:0:
88,29,94549,6,0,B|142:34|142:34|188:20|188:20|235:25,1,143.999995605469,6|0,3:2|3:2,0:0:0:0:
295,80,95157,1,8,0:2:0:0:
335,155,95359,2,0,L|339:247,1,71.9999978027344,2|10,3:2|0:2,0:0:0:0:
389,297,95765,2,0,P|424:302|459:295,1,71.9999978027344,2|10,0:2|0:2,0:0:0:0:
494,216,96170,6,0,L|498:67,1,143.999995605469,2|0,3:2|3:2,0:0:0:0:
425,24,96778,1,8,0:0:0:0:
346,60,96981,2,0,L|203:41,1,143.999995605469,2|2,3:2|3:2,0:0:0:0:
36,85,97792,6,0,B|79:113|79:113|84:229,1,143.999995605469,6|0,3:1|3:2,0:0:0:0:
88,291,98400,1,8,0:2:0:0:
161,337,98603,2,0,P|203:328|255:330,1,71.9999978027344,2|10,3:2|0:2,0:0:0:0:
315,349,99008,2,0,P|350:347|385:339,1,71.9999978027344,2|10,0:2|0:2,0:0:0:0:
465,269,99413,5,12,0:1:0:0:
465,269,99616,1,8,0:2:0:0:
396,216,99819,2,0,P|360:207|325:206,1,71.9999978027344,2|8,3:2|3:2,0:0:0:0:
250,250,100224,2,0,P|214:248|179:240,1,71.9999978027344,6|8,3:3|0:2,0:0:0:0:
108,189,100630,2,0,L|102:136,3,35.9999989013672,8|8|8|8,3:2|3:3|3:3|3:3,0:0:0:0:
78,118,101035,6,0,B|71:59|114:31|114:31|160:62,1,143.999995605469,6|2,3:2|3:2,0:0:0:0:
208,119,101643,1,8,0:2:0:0:
289,89,101846,2,0,L|360:81,1,71.9999978027344,2|8,3:2|0:2,0:0:0:0:
431,129,102251,2,0,P|438:160|434:205,1,71.9999978027344,2|8,3:2|0:2,0:0:0:0:
363,248,102657,6,0,L|209:237,1,143.999995605469,2|2,3:2|3:3,0:0:0:0:
150,289,103265,1,8,0:0:0:0:
213,347,103467,2,0,L|367:358,1,143.999995605469,2|2,3:2|3:2,0:0:0:0:
478,233,104278,6,0,B|485:140|485:140|434:108,1,143.999995605469,6|0,3:1|3:2,0:0:0:0:
366,70,104886,1,8,0:2:0:0:
285,101,105089,2,0,L|207:92,1,71.9999978027344,2|10,3:2|0:2,0:0:0:0:
131,119,105494,2,0,L|53:110,1,71.9999978027344,2|10,3:2|0:2,0:0:0:0:
0,205,105900,5,12,0:1:0:0:
0,205,106103,1,8,0:2:0:0:
77,242,106305,2,0,P|87:285|87:336,1,71.9999978027344,2|0,3:2|3:2,0:0:0:0:
157,366,106711,2,0,L|236:359,1,71.9999978027344,10|8,3:2|0:2,0:0:0:0:
308,327,107116,2,0,L|313:270,3,35.9999989013672,8|8|8|8,3:2|3:3|3:3|3:3,0:0:0:0:
295,261,107522,6,0,L|282:84,2,167.999994873047,6|10|2,3:2|0:0|0:2,0:0:0:0:
388,357,109143,2,0,L|405:122,1,223.999993164063,2|2,3:2|3:2,0:0:0:0:
339,15,110359,1,8,0:0:0:0:
176,75,110765,6,0,L|67:59,2,107.999996704102,6|2|2,3:2|3:2|3:2,0:0:0:0:
245,126,111576,2,0,L|354:142,2,107.999996704102,2|2|10,3:2|0:0|3:3,0:0:0:0:
165,159,112386,6,0,P|137:222|151:284,1,120,10|10,3:2|3:2,0:0:0:0:
256,360,112994,1,10,0:0:0:0:
256,360,113197,1,10,0:0:0:0:
421,309,113603,2,0,L|426:226,1,71.9999978027344,2|12,0:0|3:0,0:0:0:0:
459,137,114008,6,0,B|417:172|365:150|365:150|334:123|294:126,1,176.000005371094,6|2,0:2|3:2,0:0:0:0:
216,196,114616,1,10,0:2:0:0:
115,162,114819,2,0,P|103:107|120:66,1,88.000002685547,2|8,3:2|0:2,0:0:0:0:
195,13,115224,2,0,L|310:15,1,88.000002685547,2|10,3:2|0:2,0:0:0:0:
366,79,115630,6,0,P|378:134|361:175,1,88.000002685547,2|10,3:2|0:2,0:0:0:0:
286,229,116035,2,0,L|190:225,1,88.000002685547,2|10,3:2|0:2,0:0:0:0:
117,294,116440,1,2,3:2:0:0:
312,375,116846,1,2,3:2:0:0:
312,375,117049,1,10,0:2:0:0:
408,333,117251,6,0,B|435:274|397:227|397:227|420:200|421:167,1,176.000005371094,6|2,0:1|3:2,0:0:0:0:
417,64,117859,1,10,0:2:0:0:
313,90,118062,2,0,B|218:75,1,88.000002685547,2|8,3:2|0:2,0:0:0:0:
129,33,118467,1,2,3:2:0:0:
129,33,118670,1,10,0:2:0:0:
52,105,118873,6,0,L|61:192,1,88.000002685547,2|10,3:2|0:2,0:0:0:0:
161,225,119278,2,0,P|203:214|247:215,1,88.000002685547,2|10,3:2|0:2,0:0:0:0:
347,244,119684,2,0,B|386:255|411:242|411:242|452:226|483:262,1,143.999995605469,10|0,0:2|3:2,0:0:0:0:
293,356,120494,6,0,B|237:348|237:348|173:363|173:363|119:357,1,176.000005371094,6|2,0:2|3:2,0:0:0:0:
21,316,121103,1,10,0:2:0:0:
56,216,121305,2,0,B|61:114,1,88.000002685547,2|8,3:2|0:2,0:0:0:0:
113,36,121711,2,0,P|160:25|215:47,1,88.000002685547,2|10,3:2|0:2,0:0:0:0:
259,121,122116,6,0,B|274:221,1,88.000002685547,2|10,3:2|0:2,0:0:0:0:
334,295,122522,2,0,P|381:301|434:273,1,88.000002685547,2|10,3:2|0:2,0:0:0:0:
492,212,122927,1,2,3:2:0:0:
345,60,123332,1,2,3:2:0:0:
345,60,123535,1,10,0:2:0:0:
259,121,123738,6,0,B|200:133|200:133|150:98|76:113,1,176.000005371094,6|2,0:1|3:2,0:0:0:0:
15,185,124346,1,10,0:2:0:0:
65,277,124549,2,0,P|103:291|156:290,1,88.000002685547,2|8,0:2|0:2,0:0:0:0:
232,225,124954,1,2,3:2:0:0:
232,225,125157,1,10,0:2:0:0:
309,296,125359,6,0,P|352:295|393:310,1,88.000002685547,2|10,3:2|0:2,0:0:0:0:
480,249,125765,2,0,L|489:143,1,88.000002685547,2|10,3:2|0:2,0:0:0:0:
435,69,126170,2,0,P|391:69|350:54,1,88.000002685547,2|8,3:2|3:2,0:0:0:0:
246,77,126576,2,0,L|186:71,3,44.0000013427735,8|8|8|8,0:2|0:3|3:3|3:3,0:0:0:0:
152,90,126981,6,0,P|105:166|155:265,2,176.000005371094,6|0|0,3:2|3:2|3:2,0:0:0:0:
248,46,127994,1,10,0:2:0:0:
321,121,128197,2,0,L|418:111,1,88.000002685547,10|10,0:2|0:2,0:0:0:0:
487,33,128603,5,12,0:2:0:0:
478,315,143197,6,0,B|419:330|362:287|362:287|333:281|285:304,1,191.999994140625,6|8,3:2|0:0,0:0:0:0:
112,361,144819,2,0,L|102:153,1,191.999994140625,2|8,3:0|0:0,0:0:0:0:
228,23,146440,6,0,B|287:8|344:51|344:51|373:57|421:34,1,191.999994140625,6|8,3:1|0:0,0:0:0:0:
504,206,148062,2,0,B|464:158|464:158|439:297,1,191.999994140625,2|10,3:2|0:0,0:0:0:0:
272,378,149684,6,0,L|266:168,1,191.999994140625,6|8,3:2|0:0,0:0:0:0:
133,44,151305,2,0,B|67:23|67:23|16:70|33:133,1,191.999994140625,2|8,3:0|0:0,0:0:0:0:
80,320,152927,5,6,3:1:0:0:
207,176,153738,1,12,0:1:0:0:
380,258,154549,2,0,P|435:265|481:208,1,119.999996337891,2|8,3:0|0:0,0:0:0:0:
479,107,155461,2,0,P|438:65|380:71,1,119.999996337891,8|12,0:0|3:3,0:0:0:0:
336,109,156170,6,0,L|161:97,2,167.999994873047,6|10|2,3:2|0:0|0:2,0:0:0:0:
437,196,157792,2,0,P|460:296|351:341,1,223.999993164063,2|2,3:2|3:2,0:0:0:0:
233,326,159008,1,8,0:0:0:0:
125,244,159413,6,0,B|136:204|117:174|117:174|141:142|141:142|91:94|109:39,1,223.999993164063,6|0,3:2|3:0,0:0:0:0:
372,98,161035,2,0,P|415:88|477:90,2,83.9999974365235,0|2|10,3:0|3:0|0:0,0:0:0:0:
332,152,161846,2,0,L|320:261,2,83.9999974365235,10|8|8,3:0|3:3|0:0,0:0:0:0:
281,107,162657,6,0,B|227:83|227:83|172:105|111:81,2,167.999994873047,6|10|10,3:2|0:0|3:0,0:0:0:0:
334,230,164278,2,4,B|302:316|302:316|214:347|164:280,1,223.999993164063,2|2,3:0|3:0,0:0:0:0:
107,182,165494,1,8,0:0:0:0:
226,56,165900,6,0,L|335:34,2,107.999996704102,6|2|2,3:2|3:2|3:2,0:0:0:0:
190,134,166711,2,0,L|212:243,2,107.999996704102,2|2|10,3:2|0:0|3:3,0:0:0:0:
112,98,167522,6,0,B|82:97|59:103|59:103|27:80|32:26,2,120,14|10|10,3:1|3:2|0:0,0:0:0:0:
190,134,168332,2,0,L|372:115,1,160,2|8,3:0|0:0,0:0:0:0:
445,307,169143,6,0,B|408:274|408:274|409:184,1,132.00000402832,10|10,3:1|3:1,0:0:0:0:
409,33,169751,1,10,3:1:0:0:
409,33,169954,1,10,3:1:0:0:
489,193,170359,6,0,B|489:211|483:233|472:251|448:266|448:266|426:251|414:233|408:213|408:193,1,176.000005371094,2|6,0:0|3:2,0:0:0:0:
328,107,171170,2,0,L|319:46,2,47.9999985351563,2|0|0,0:0|0:0|0:0,0:0:0:0:
239,177,171981,5,10,0:0:0:0:
136,126,172386,1,0,3:0:0:0:
55,208,172792,1,0,3:0:0:0:
107,310,173197,1,0,3:0:0:0:
220,292,173603,6,0,L|281:286,1,47.9999985351563,10|0,0:0|0:0,0:0:0:0:
315,320,174008,1,4,3:1:0:0:
400,243,174413,2,0,L|403:174,2,47.9999985351563,2|0|0,0:0|0:0|3:0,0:0:0:0:
424,355,175224,5,10,0:0:0:0:
315,320,175630,1,0,3:0:0:0:
208,363,176035,1,0,3:0:0:0:
46,259,176440,6,0,B|43:174,1,80,14|0,0:1|0:0,0:0:0:0:
63,94,176846,2,0,P|91:81|132:83,1,71.9999978027344,10|12,0:0|3:0,0:0:0:0:
235,100,177251,6,0,B|289:93|289:93|359:114|359:114|406:106,1,176.000005371094,6|2,0:2|3:2,0:0:0:0:
500,156,177859,1,10,0:2:0:0:
453,250,178062,2,0,L|448:352,1,88.000002685547,2|8,3:2|0:2,0:0:0:0:
348,371,178467,2,0,P|293:359|233:365,1,88.000002685547,2|10,3:2|0:2,0:0:0:0:
197,274,178873,6,0,L|192:172,1,88.000002685547,2|10,3:2|0:2,0:0:0:0:
148,90,179278,2,0,P|93:78|33:84,1,88.000002685547,2|10,3:2|0:2,0:0:0:0:
7,169,179684,1,2,3:2:0:0:
120,347,180089,1,2,3:2:0:0:
120,347,180292,1,10,0:2:0:0:
197,274,180494,6,0,B|262:257|262:257|313:290|365:279,1,176.000005371094,6|2,0:1|3:2,0:0:0:0:
455,224,181103,1,10,0:2:0:0:
396,135,181305,2,0,P|363:122|300:116,1,88.000002685547,2|8,3:2|0:2,0:0:0:0:
222,173,181711,1,2,3:2:0:0:
222,173,181913,1,10,0:2:0:0:
118,144,182116,6,0,P|105:103|114:61,1,88.000002685547,2|8,3:2|0:2,0:0:0:0:
214,27,182522,2,0,L|318:18,1,88.000002685547,2|10,3:2|0:2,0:0:0:0:
401,63,182927,2,0,B|416:117|416:117|402:154|402:154|408:201,1,143.999995605469,10|8,0:2|3:2,0:0:0:0:
266,359,183738,6,0,B|242:332|192:332|192:332|143:358|98:330,1,176.000005371094,6|2,0:2|3:2,0:0:0:0:
12,275,184346,1,10,0:2:0:0:
64,183,184549,2,0,L|74:86,1,88.000002685547,2|8,3:2|0:2,0:0:0:0:
158,33,184954,2,0,P|198:27|266:51,1,88.000002685547,2|10,3:2|0:2,0:0:0:0:
312,117,185359,6,0,L|314:204,1,88.000002685547,2|10,3:2|0:2,0:0:0:0:
375,292,185765,2,0,P|418:297|460:287,1,88.000002685547,2|10,3:2|0:2,0:0:0:0:
506,191,186170,1,2,3:2:0:0:
370,28,186576,1,2,3:2:0:0:
370,28,186778,1,10,0:2:0:0:
312,117,186981,6,0,B|261:108|261:108|218:123|218:123|183:96|123:104,1,176.000005371094,6|2,0:1|3:2,0:0:0:0:
52,154,187589,1,10,0:2:0:0:
98,249,187792,2,0,P|128:265|193:264,1,88.000002685547,2|8,3:2|0:2,0:0:0:0:
267,205,188197,1,2,3:2:0:0:
267,205,188400,1,10,0:2:0:0:
338,282,188603,6,0,L|347:369,1,88.000002685547,2|10,3:2|0:2,0:0:0:0:
452,371,189008,2,0,L|461:284,1,88.000002685547,2|10,3:2|0:2,0:0:0:0:
414,210,189413,2,0,B|425:171|412:146|412:146|396:105|432:74,1,143.999995605469,10|0,0:2|3:2,0:0:0:0:
224,31,190224,6,0,B|191:35|168:23|168:23|137:24|118:40|118:40|92:27|54:31,1,176.000005371094,6|2,0:2|3:2,0:0:0:0:
10,128,190832,1,10,0:2:0:0:
73,211,191035,2,0,L|86:309,1,88.000002685547,2|8,3:2|0:2,0:0:0:0:
174,355,191440,2,0,P|213:347|277:351,1,88.000002685547,2|10,3:2|0:2,0:0:0:0:
345,284,191846,6,0,B|355:183,1,88.000002685547,2|10,3:2|0:2,0:0:0:0:
287,113,192251,2,0,P|248:105|184:109,1,88.000002685547,2|10,3:2|0:2,0:0:0:0:
125,182,192657,1,2,3:2:0:0:
260,348,193062,1,2,3:2:0:0:
260,348,193265,1,10,0:2:0:0:
345,284,193467,6,0,B|377:278|412:297|412:297|471:307|495:238,1,176.000005371094,6|2,0:1|3:2,0:0:0:0:
473,139,194076,1,10,0:2:0:0:
369,160,194278,2,0,L|274:151,1,88.000002685547,2|8,0:2|0:2,0:0:0:0:
186,104,194684,1,2,3:2:0:0:
186,104,194886,1,10,0:2:0:0:
102,168,195089,6,0,P|81:217|97:269,1,88.000002685547,2|10,3:2|0:2,0:0:0:0:
170,314,195494,2,0,L|266:314,1,88.000002685547,2|10,3:2|0:2,0:0:0:0:
356,352,195900,2,0,L|452:352,1,88.000002685547,2|8,3:2|3:2,0:0:0:0:
481,252,196305,2,0,L|481:198,3,44.0000013427735,8|8|8|8,0:2|0:3|3:3|3:3,0:0:0:0:
460,159,196711,6,0,P|384:112|285:162,2,176.000005371094,6|0|0,3:2|3:2|3:2,0:0:0:0:
462,264,197724,1,10,0:2:0:0:
392,344,197927,2,0,P|335:344|304:324,1,88.000002685547,10|10,0:2|0:2,0:0:0:0:
256,216,198332,5,12,0:2:0:0:
485,89,199954,6,0,B|406:37|406:37|331:72,1,160,6|0,3:2|3:2,0:0:0:0:
269,123,200562,1,8,0:2:0:0:
173,133,200765,2,0,L|46:119,2,120,2|2|10,3:2|3:2|0:2,0:0:0:0:
231,208,201576,6,0,P|239:242|230:290,1,80,4|8,3:3|0:2,0:0:0:0:
155,345,201981,2,0,L|99:342,3,40,2|0|8|0,3:2|3:2|3:2|3:2,0:0:0:0:
66,347,202386,2,0,B|47:314|60:273|60:273|3:227,2,120,2|2|8,3:2|3:2|0:2,0:0:0:0:
155,311,203197,6,0,P|227:300|328:319,1,160,6|0,3:1|3:2,0:0:0:0:
400,352,203805,1,8,0:2:0:0:
478,296,204008,2,0,B|500:240|500:240|472:173,2,120,2|2|10,3:2|3:2|0:2,0:0:0:0:
398,242,204819,6,0,P|363:228|303:234,1,80,6|8,3:3|0:2,0:0:0:0:
227,250,205224,2,0,L|215:145,1,80,2|8,3:2|0:2,0:0:0:0:
167,88,205630,2,0,L|116:86,3,40,6|0|10|0,3:3|0:2|0:2|0:2,0:0:0:0:
87,114,206035,2,0,L|46:110,3,40,10|10|10|10,3:2|3:2|3:2|3:2,0:0:0:0:
24,152,206440,6,0,B|23:199|39:233|39:233|22:269|17:306,1,160,6|0,3:2|3:2,0:0:0:0:
94,362,207049,1,8,0:2:0:0:
188,343,207251,2,0,P|246:327|311:353,2,120,2|2|8,3:2|3:2|0:2,0:0:0:0:
132,264,208062,6,0,L|132:165,1,80,4|8,3:3|0:2,0:0:0:0:
205,122,208467,2,0,P|228:114|256:113,3,40,2|0|8|0,3:2|3:2|3:2|3:2,0:0:0:0:
289,126,208873,2,0,B|327:133|368:113|368:113|406:134,2,120,2|2|8,3:2|3:2|0:2,0:0:0:0:
201,85,209684,6,0,B|146:61|146:61|92:55|38:108,1,160,6|0,3:1|3:2,0:0:0:0:
12,179,210292,1,8,3:2:0:0:
68,257,210494,2,0,L|64:380,2,120,2|2|10,3:2|3:2|0:2,0:0:0:0:
147,203,211305,6,0,P|172:196|236:199,1,80,6|8,3:3|0:2,0:0:0:0:
310,241,211711,2,0,L|322:338,1,80,2|8,3:2|0:2,0:0:0:0:
409,357,212116,2,0,B|455:366|455:366|483:348|483:272,2,120,6|2|2,3:1|3:0|3:0,0:0:0:0:
314,339,212927,6,0,L|272:331,2,27.9999991455078,2|2|2,0:0|0:0|0:0,0:0:0:0:
