osu file format v14

[General]
AudioFilename: audio.mp3
AudioLeadIn: 0
PreviewTime: 58366
Countdown: 0
SampleSet: Soft
StackLeniency: 0.3
Mode: 0
LetterboxInBreaks: 0
WidescreenStoryboard: 0

[Editor]
Bookmarks: 13467,26440,39413,52386,58873,73467,75089,81576,94549,107522,114008,130224,143197,156170,170765,177251,190224,199954,212927
DistanceSpacing: 1.3
BeatDivisor: 4
GridSize: 32
TimelineZoom: 2

[Metadata]
Title:Ouka Enbu
TitleUnicode:桜花演武
Artist:Mitsuki Nakae
ArtistUnicode:中恵光城
Creator:Lasse
Version:Petal
Source:
Tags:ABSOLUTE CASTAWAY 刀心幻戯 憶 toushin gengi m3-40 Mirash Komore
BeatmapID:1457104
BeatmapSetID:688552

[Difficulty]
HPDrainRate:5
CircleSize:4
OverallDifficulty:9
ApproachRate:9.3
SliderMultiplier:3.2
SliderTickRate:1

[Events]
//Background and Video events
0,0,"bg.jpg",0,0
//Break Periods
2,130224,142643
//Storyboard Layer 0 (Background)
//Storyboard Layer 1 (Fail)
//Storyboard Layer 2 (Pass)
//Storyboard Layer 3 (Foreground)
//Storyboard Sound Samples

[TimingPoints]
495,405.405405405405,4,2,4,50,1,0
495,-166.666666666667,4,2,4,50,0,0
13113,-166.666666666667,4,2,1,5,0,0
13467,-90.9090909090909,4,2,4,80,0,0
25630,-71.4285714285714,4,2,4,80,0,0
26440,-166.666666666667,4,2,1,60,0,0
39413,-100,4,2,4,70,0,0
52386,-142.857142857143,4,2,1,60,0,0
55630,-111.111111111111,4,2,1,70,0,0
57251,-100,4,2,4,70,0,0
58163,-100,4,2,4,50,0,0
58873,-76.9230769230769,4,2,4,80,0,1
64549,-111.111111111111,4,2,4,70,0,0
65359,-76.9230769230769,4,2,4,80,0,1
71035,-111.111111111111,4,2,4,70,0,0
71846,-76.9230769230769,4,2,4,80,0,1
73467,-100,4,2,4,70,0,0
75089,-125,4,2,4,60,0,0
81576,-125,4,2,1,60,0,0
88062,-125,4,2,1,62,0,0
93738,-125,4,2,1,66,0,0
94549,-100,4,2,4,70,0,0
107522,-142.857142857143,4,2,1,60,0,0
110765,-111.111111111111,4,2,1,70,0,0
112386,-100,4,2,4,70,0,0
114008,-76.9230769230769,4,2,4,80,0,1
119684,-111.111111111111,4,2,4,70,0,0
120494,-76.9230769230769,4,2,4,80,0,1
126170,-111.111111111111,4,2,4,70,0,0
126981,-76.9230769230769,4,2,4,80,0,1
128603,-100,4,2,4,70,0,0
143197,-166.666666666667,4,2,4,54,0,0
149684,-166.666666666667,4,2,4,56,0,0
155055,-166.666666666667,4,2,1,65,0,0
155157,-166.666666666667,4,2,1,56,0,0
155461,-166.666666666667,4,2,1,65,0,0
155866,-166.666666666667,4,2,1,60,0,0
156170,-142.857142857143,4,2,1,60,0,0
165900,-111.111111111111,4,2,1,70,0,0
167522,-100,4,2,4,70,0,0
169143,-90.9090909090909,4,2,4,70,0,0
170359,-90.9090909090909,4,2,1,50,0,0
170765,-166.666666666667,4,2,4,60,0,0
171170,-166.666666666667,4,2,4,50,0,0
176440,-100,4,2,4,65,0,0
176744,-166.666666666667,4,2,4,70,0,0
177251,-76.9230769230769,4,2,4,80,0,1
182927,-111.111111111111,4,2,4,70,0,0
183738,-76.9230769230769,4,2,4,80,0,1
189413,-111.111111111111,4,2,4,70,0,0
190224,-71.4285714285714,4,2,4,80,0,1
195900,-111.111111111111,4,2,4,70,0,0
196711,-71.4285714285714,4,2,4,80,0,1
198332,-83.3333333333333,4,2,4,70,0,0
212116,-66.6666666666667,4,2,4,80,0,0
212927,-142.857142857143,4,2,4,50,0,0
213028,-142.857142857143,4,2,4,40,0,0
213130,-142.857142857143,4,2,4,30,0,0

[Colours]
Combo1 : 250,180,240
Combo2 : 110,190,225
Combo3 : 255,230,130
Combo4 : 150,230,140

[HitObjects]
80,108,495,5,4,0:3:0:0:
100,201,697,1,0,0:0:0:0:
193,181,900,1,0,0:0:0:0:
173,88,1103,1,0,0:0:0:0:
100,201,1305,5,0,0:0:0:0:
80,108,1508,1,0,0:0:0:0:
84,121,1609,1,0,0:0:0:0:
193,181,1812,1,0,0:0:0:0:
187,167,1913,1,0,0:0:0:0:
336,109,2116,5,2,0:3:0:0:
292,194,2319,1,0,0:0:0:0:
377,238,2522,1,0,0:0:0:0:
382,224,2623,1,0,0:0:0:0:
386,210,2927,5,0,0:0:0:0:
340,330,3130,1,0,0:0:0:0:
335,316,3231,1,0,0:0:0:0:
292,194,3434,1,0,0:0:0:0:
290,208,3535,1,0,0:0:0:0:
185,345,3738,5,4,0:3:0:0:
213,253,3940,1,0,0:0:0:0:
122,224,4143,1,0,0:0:0:0:
93,315,4346,1,0,0:0:0:0:
213,253,4549,5,0,0:0:0:0:
185,345,4751,1,0,0:0:0:0:
187,331,4853,1,0,0:0:0:0:
122,224,5055,1,0,0:0:0:0:
121,239,5157,1,0,0:0:0:0:
8,279,5359,6,0,L|5:221,2,47.9999985351563,2|0|0,0:0|0:0|0:0,0:0:0:0:
5,231,5765,2,0,L|2:173,2,47.9999985351563,2|0|0,0:0|0:0|0:0,0:0:0:0:
121,239,6170,6,0,L|124:172,2,47.9999985351563,2|0|0,0:0|0:0|0:0,0:0:0:0:
2,183,6576,2,0,L|-1:125,1,47.9999985351563,2|0,0:0|0:0,0:0:0:0:
198,95,6981,5,4,0:3:0:0:
218,188,7184,1,0,0:0:0:0:
311,168,7386,1,0,0:0:0:0:
291,75,7589,1,0,0:0:0:0:
218,188,7792,5,0,0:0:0:0:
198,95,7994,1,0,0:0:0:0:
202,108,8096,1,0,0:0:0:0:
311,168,8299,1,0,0:0:0:0:
305,154,8400,1,0,0:0:0:0:
426,27,8603,5,2,0:0:0:0:
373,106,8805,1,0,0:0:0:0:
453,159,9008,1,0,0:0:0:0:
459,146,9109,1,0,0:0:0:0:
465,132,9413,5,0,0:0:0:0:
406,247,9616,1,0,0:0:0:0:
403,232,9717,1,0,0:0:0:0:
373,106,9920,1,0,0:0:0:0:
373,120,10022,1,0,0:0:0:0:
276,274,10224,5,4,0:3:0:0:
326,192,10427,1,0,0:0:0:0:
246,140,10630,1,0,0:0:0:0:
194,221,10832,1,0,0:0:0:0:
326,192,11035,5,0,0:0:0:0:
276,274,11238,1,0,0:0:0:0:
281,260,11339,1,0,0:0:0:0:
246,140,11542,1,0,0:0:0:0:
241,155,11643,1,0,0:0:0:0:
370,276,11846,6,0,L|426:272,2,47.9999985351563,2|0|0,0:0|0:0|0:0,0:0:0:0:
159,303,12251,2,0,L|103:299,2,47.9999985351563,2|0|0,0:0|0:0|0:0,0:0:0:0:
417,272,12657,6,0,L|473:268,2,47.9999985351563,2|0|0,0:0|0:0|0:0,0:0:0:0:
111,299,13062,2,0,L|70:296,1,23.9999992675781,0|0,0:3|0:0,0:0:0:0:
373,180,13467,6,0,P|386:131|380:74,1,88.000002685547,6|0,3:2|0:2,0:0:0:0:
287,192,13670,2,0,P|330:192|372:180,1,88.000002685547,8|0,0:2|0:2,0:0:0:0:
103,129,13873,2,0,P|90:80|96:23,1,88.000002685547,0|0,3:2|0:2,0:0:0:0:
189,141,14076,2,0,P|145:141|103:129,1,88.000002685547,8|0,0:2|0:2,0:0:0:0:
275,277,14278,6,0,P|288:228|282:171,1,88.000002685547,2|0,3:2|0:2,0:0:0:0:
206,327,14481,1,8,0:2:0:0:
130,289,14582,2,0,P|199:241|275:277,1,176.000005371094,2|0,3:2|0:2,0:0:0:0:
130,289,14886,2,0,P|98:257|77:219,1,88.000002685547,10|0,0:2|0:2,0:0:0:0:
275,277,15089,6,0,P|300:233|309:176,1,88.000002685547,4|0,3:3|0:2,0:0:0:0:
102,128,15292,2,0,P|79:90|68:48,1,88.000002685547,8|0,0:2|0:2,0:0:0:0:
396,129,15494,5,2,3:2:0:0:
346,67,15596,1,0,3:2:0:0:
268,58,15697,1,8,3:2:0:0:
206,107,15799,1,0,3:2:0:0:
102,128,15900,6,0,P|58:120|20:99,1,88.000002685547,2|0,3:2|0:2,0:0:0:0:
130,289,16103,1,8,0:2:0:0:
114,298,16204,2,0,P|89:261|76:219,2,88.000002685547,2|0|0,3:2|3:2|0:2,0:0:0:0:
264,299,16508,2,0,P|288:262|301:220,1,88.000002685547,8|0,0:2|0:2,0:0:0:0:
422,34,16711,6,0,P|397:70|384:112,1,88.000002685547,6|0,3:1|0:2,0:0:0:0:
500,71,16913,2,0,P|463:46|421:33,1,88.000002685547,8|0,0:2|0:2,0:0:0:0:
342,262,17116,2,0,P|366:298|379:340,1,88.000002685547,0|0,3:2|0:2,0:0:0:0:
264,299,17319,2,0,P|300:274|342:261,1,88.000002685547,8|0,0:2|0:2,0:0:0:0:
217,140,17522,6,0,P|264:212|249:334,1,176.000005371094,2|8,3:2|0:2,0:0:0:0:
102,260,17826,2,0,P|141:183|217:140,1,176.000005371094,2|0,3:2|3:2,0:0:0:0:
155,328,18130,2,0,P|122:298|102:259,1,88.000002685547,10|0,0:2|0:2,0:0:0:0:
72,46,18332,5,6,3:3:0:0:
148,9,18434,1,0,0:2:0:0:
226,51,18535,1,8,0:2:0:0:
217,140,18636,1,0,0:2:0:0:
126,170,18738,5,2,3:2:0:0:
210,127,18839,1,0,0:2:0:0:
290,179,18940,1,8,0:2:0:0:
287,274,19042,1,0,0:2:0:0:
191,278,19143,5,6,3:3:0:0:
175,270,19244,1,0,0:2:0:0:
243,360,19346,5,10,0:2:0:0:
246,377,19447,1,0,0:2:0:0:
145,355,19549,5,10,3:2:0:0:
75,281,19650,5,10,3:2:0:0:
95,184,19751,5,10,3:2:0:0:
185,142,19853,5,10,3:2:0:0:
310,198,19954,6,0,P|360:197|414:177,1,88.000002685547,6|0,3:2|0:2,0:0:0:0:
322,112,20157,2,0,P|309:154|309:197,1,88.000002685547,8|0,0:2|0:2,0:0:0:0:
509,316,20359,2,0,P|495:267|462:220,1,88.000002685547,0|0,3:2|0:2,0:0:0:0:
422,329,20562,2,0,P|466:329|508:317,1,88.000002685547,8|0,0:2|0:2,0:0:0:0:
223,208,20765,6,0,P|265:196|309:197,1,88.000002685547,2|0,3:2|0:2,0:0:0:0:
210,320,20967,1,8,0:2:0:0:
138,275,21069,2,0,P|140:201|231:224,1,176.000005371094,2|0,3:2|0:2,0:0:0:0:
133,356,21373,2,0,P|89:356|46:345,1,88.000002685547,8|0,0:2|0:2,0:0:0:0:
1,190,21576,6,0,P|26:146|35:89,1,88.000002685547,4|0,3:3|0:2,0:0:0:0:
222,207,21778,2,0,P|199:169|188:127,1,88.000002685547,8|0,0:2|0:2,0:0:0:0:
133,356,21981,5,2,3:2:0:0:
180,293,22082,1,0,3:2:0:0:
259,287,22184,1,8,3:2:0:0:
315,341,22285,1,0,3:2:0:0:
418,347,22386,6,0,P|462:339|500:318,1,88.000002685547,2|0,3:2|0:2,0:0:0:0:
325,213,22589,1,8,0:2:0:0:
306,212,22690,2,0,P|302:167|312:124,2,88.000002685547,2|0|0,3:2|3:2|0:2,0:0:0:0:
509,106,22994,2,0,P|488:66|459:34,1,88.000002685547,8|0,0:2|0:2,0:0:0:0:
156,53,23197,6,0,P|188:23|227:4,1,88.000002685547,6|0,3:1|0:2,0:0:0:0:
234,91,23400,2,0,P|192:78|156:53,1,88.000002685547,8|0,0:2|0:2,0:0:0:0:
94,198,23603,2,0,P|57:172|16:160,1,88.000002685547,0|0,3:2|0:2,0:0:0:0:
23,247,23805,2,0,P|62:228|94:198,1,88.000002685547,8|0,3:2|0:2,0:0:0:0:
379,231,24008,6,0,B|390:188|362:147|362:147|317:168|305:211,1,176.000005371094,2|8,3:2|0:2,0:0:0:0:
270,342,24312,2,0,B|301:373|350:368|350:368|354:319|323:288,1,176.000005371094,2|0,3:2|3:2,0:0:0:0:
248,264,24616,2,0,P|227:226|232:183,1,88.000002685547,10|0,0:2|0:2,0:0:0:0:
417,7,24819,5,6,3:3:0:0:
433,89,24920,1,0,0:2:0:0:
372,154,25022,1,8,0:2:0:0:
289,122,25123,1,0,0:2:0:0:
283,27,25224,5,2,3:2:0:0:
303,119,25326,1,0,0:2:0:0:
232,183,25427,1,8,0:2:0:0:
141,155,25528,1,0,0:2:0:0:
116,62,25630,6,0,B|96:120|141:155|141:155|102:186|106:229|106:229|59:253|59:253|96:286|88:345,2,335.999989746094,6|2|2,3:1|3:0|3:0,0:0:0:0:
116,62,26440,5,6,0:0:0:0:
208,86,26643,1,0,0:0:0:0:
299,60,26846,1,0,3:0:0:0:
390,82,27049,1,0,0:0:0:0:
394,100,27251,1,2,3:0:0:0:
303,78,27454,1,0,0:0:0:0:
120,80,27657,1,8,3:2:0:0:
212,104,27859,1,0,0:0:0:0:
216,122,28062,5,2,3:0:0:0:
145,184,28265,1,0,0:0:0:0:
144,193,28366,1,0,0:0:0:0:
143,202,28467,1,0,3:0:0:0:
237,215,28670,1,0,0:0:0:0:
237,234,28873,1,0,3:0:0:0:
332,157,29076,1,0,0:0:0:0:
314,329,29278,1,8,3:2:0:0:
314,329,29684,5,4,3:2:0:0:
315,320,29785,1,0,0:0:0:0:
316,311,29886,1,0,0:0:0:0:
409,252,30089,1,0,3:0:0:0:
332,157,30292,1,0,0:0:0:0:
333,148,30393,1,0,0:0:0:0:
334,139,30494,1,0,3:0:0:0:
427,80,30697,1,0,0:0:0:0:
409,252,30900,1,8,3:2:0:0:
502,193,31103,1,0,0:0:0:0:
497,174,31305,5,2,3:2:0:0:
162,207,31711,1,2,3:3:0:0:
313,23,32116,1,2,3:0:0:0:
346,358,32522,1,10,3:2:0:0:
329,190,32724,1,8,0:0:0:0:
326,199,32826,1,8,0:0:0:0:
324,208,32927,5,6,3:2:0:0:
213,154,33130,1,0,0:0:0:0:
211,145,33231,1,0,0:0:0:0:
210,136,33332,1,8,3:2:0:0:
115,56,33535,1,0,0:0:0:0:
116,47,33636,1,0,0:0:0:0:
117,38,33738,1,0,3:3:0:0:
94,138,33940,1,0,0:0:0:0:
48,338,34143,1,8,3:2:0:0:
71,238,34346,1,8,0:0:0:0:
76,245,34447,1,8,0:0:0:0:
81,252,34549,5,2,3:0:0:0:
173,207,34751,1,0,0:0:0:0:
384,269,34954,1,8,3:2:0:0:
466,196,35157,1,0,0:0:0:0:
467,187,35258,1,0,0:0:0:0:
468,178,35359,1,0,3:0:0:0:
386,97,35562,1,0,0:0:0:0:
384,269,35765,1,8,3:2:0:0:
383,259,35866,1,8,0:0:0:0:
296,137,36069,1,8,0:0:0:0:
295,127,36170,5,6,3:2:0:0:
220,201,36373,1,0,0:0:0:0:
144,49,36576,1,8,3:2:0:0:
248,33,36778,1,0,0:0:0:0:
247,42,36880,1,0,0:0:0:0:
246,51,36981,1,0,3:0:0:0:
174,128,37184,1,0,0:0:0:0:
324,215,37386,1,8,3:2:0:0:
224,256,37589,1,8,0:0:0:0:
223,247,37690,1,8,0:0:0:0:
222,238,37792,5,2,3:2:0:0:
326,224,37994,1,0,3:0:0:0:
174,128,38197,1,10,3:2:0:0:
278,132,38400,1,0,3:0:0:0:
119,216,38603,5,10,3:2:0:0:
54,97,38805,1,8,0:0:0:0:
66,124,38907,1,8,0:0:0:0:
64,152,39008,5,10,0:3:0:0:
47,181,39109,1,8,0:3:0:0:
34,223,39211,1,12,0:3:0:0:
51,260,39312,1,12,0:3:0:0:
91,285,39413,6,0,P|169:266|256:295,1,160,6|8,3:2|0:2,0:0:0:0:
350,358,39717,1,2,0:2:0:0:
420,292,39819,2,0,P|431:247|428:200,1,80,0|0,3:2|0:2,0:0:0:0:
285,111,40022,5,8,0:2:0:0:
206,165,40123,1,0,0:2:0:0:
120,121,40224,2,0,P|109:76|112:29,1,80,2|0,3:2|0:2,0:0:0:0:
206,165,40427,2,0,P|172:197|130:217,1,80,10|0,0:2|3:2,0:0:0:0:
202,69,40630,2,0,P|246:81|285:108,1,80,2|0,0:2|3:2,0:0:0:0:
105,126,40832,2,0,P|93:80|96:33,1,80,10|0,0:2|0:2,0:0:0:0:
285,111,41035,6,0,L|365:103,1,80,2|0,3:2|0:2,0:0:0:0:
512,41,41238,1,8,0:2:0:0:
459,116,41339,1,0,0:2:0:0:
368,84,41440,2,0,L|363:-7,1,80,0|0,3:2|3:2,0:0:0:0:
222,204,41643,5,8,0:2:0:0:
284,131,41744,1,0,0:2:0:0:
374,175,41846,2,0,L|379:266,1,80,2|0,3:2|0:2,0:0:0:0:
227,284,42049,2,0,L|222:193,1,80,10|0,0:2|3:2,0:0:0:0:
379,255,42251,2,0,L|466:238,1,80,2|0,3:2|3:2,0:0:0:0:
382,335,42454,2,0,L|379:256,1,80,10|0,0:2|0:2,0:0:0:0:
203,367,42657,6,0,P|130:334|51:335,1,160,6|8,3:1|0:2,0:0:0:0:
0,225,42961,1,2,0:2:0:0:
66,156,43062,2,0,L|75:66,1,80,0|0,3:2|2:2,0:0:0:0:
221,203,43265,5,8,0:2:0:0:
307,243,43366,1,0,0:2:0:0:
392,199,43467,2,0,L|398:109,1,80,2|0,3:2|0:2,0:0:0:0:
331,74,43670,2,0,L|405:124,1,80,10|0,0:2|0:2,0:0:0:0:
469,84,43873,2,0,L|388:123,1,80,2|0,0:2|3:2,0:0:0:0:
387,279,44076,2,0,L|393:189,1,80,10|0,0:2|0:2,0:0:0:0:
406,14,44278,5,12,0:1:0:0:
471,302,44481,1,8,0:2:0:0:
469,84,44684,5,2,3:2:0:0:
436,107,44785,1,0,3:2:0:0:
396,118,44886,1,8,3:2:0:0:
360,101,44988,1,0,3:2:0:0:
331,74,45089,5,6,3:3:0:0:
125,217,45292,1,8,0:2:0:0:
159,200,45393,1,8,0:0:0:0:
197,205,45494,5,8,3:2:0:0:
205,190,45596,1,8,3:3:0:0:
208,176,45697,1,8,3:3:0:0:
208,159,45799,1,8,3:3:0:0:
201,142,45900,6,0,P|129:114|55:139,1,160,6|8,3:2|0:2,0:0:0:0:
30,261,46204,1,2,0:2:0:0:
127,296,46305,2,0,P|134:257|126:219,1,80,0|0,3:2|0:2,0:0:0:0:
54,140,46508,2,0,P|49:102|56:60,1,80,8|0,0:2|0:2,0:0:0:0:
205,190,46711,6,0,L|284:197,1,80,2|0,3:2|0:2,0:0:0:0:
135,52,46913,2,0,L|51:61,1,80,10|0,0:2|3:2,0:0:0:0:
284,197,47116,2,0,L|363:204,1,80,2|0,3:2|3:2,0:0:0:0:
214,43,47319,2,0,L|130:52,1,80,10|0,0:2|0:2,0:0:0:0:
363,204,47522,6,0,P|375:169|369:122,1,80,2|0,3:2|0:2,0:0:0:0:
251,274,47724,1,8,0:2:0:0:
338,312,47826,1,0,0:2:0:0:
431,289,47927,2,0,P|455:261|468:215,1,80,0|0,3:2|3:2,0:0:0:0:
255,292,48130,5,8,0:2:0:0:
168,330,48231,1,0,0:2:0:0:
75,307,48332,2,0,P|50:279|37:233,1,80,2|0,3:2|3:2,0:0:0:0:
130,131,48535,2,0,L|136:14,1,80,10|0,0:2|0:2,0:0:0:0:
253,189,48738,2,0,L|245:100,1,80,2|0,3:2|0:2,0:0:0:0:
324,112,48940,2,0,P|287:117|224:99,1,80,10|0,0:2|0:2,0:0:0:0:
75,307,49143,6,0,P|148:274|230:282,1,160,6|8,3:1|0:2,0:0:0:0:
324,353,49447,1,2,0:2:0:0:
405,303,49549,2,0,L|414:213,1,80,0|0,3:2|2:2,0:0:0:0:
245,109,49751,5,8,0:2:0:0:
159,149,49853,1,0,0:2:0:0:
74,105,49954,2,0,L|68:15,1,80,2|0,3:2|0:2,0:0:0:0:
245,109,50157,2,0,L|252:-3,1,80,10|0,0:2|0:2,0:0:0:0:
71,185,50359,2,0,L|74:106,1,80,2|0,3:2|3:2,0:0:0:0:
249,189,50562,2,0,L|245:108,1,80,10|0,0:2|0:2,0:0:0:0:
68,348,50765,5,12,0:1:0:0:
158,30,50967,1,8,0:2:0:0:
2,301,51170,5,2,3:2:0:0:
31,272,51272,1,0,3:2:0:0:
72,267,51373,1,0,3:2:0:0:
247,328,51576,5,10,3:2:0:0:
288,261,51677,1,8,0:0:0:0:
251,193,51778,1,8,0:2:0:0:
4,84,51981,5,8,3:2:0:0:
0,67,52082,1,8,3:3:0:0:
0,53,52184,1,8,3:3:0:0:
5,36,52285,1,8,3:3:0:0:
79,38,52386,6,0,B|129:54|129:54|262:24,1,167.999994873047,6|0,3:2|3:0,0:0:0:0:
242,29,52994,1,10,0:0:0:0:
242,45,53096,1,8,0:0:0:0:
242,61,53197,1,0,3:0:0:0:
395,201,53603,2,0,L|402:83,1,111.999996582031,2|8,0:2|0:0,0:0:0:0:
511,28,54008,5,2,3:2:0:0:
401,89,54211,1,0,3:0:0:0:
512,158,54413,1,2,3:2:0:0:
395,201,54616,1,8,0:0:0:0:
505,269,54819,2,0,L|512:151,1,111.999996582031,2|8,3:2|0:0,0:0:0:0:
441,347,55224,5,8,0:0:0:0:
425,323,55326,1,8,0:0:0:0:
403,306,55427,1,8,0:0:0:0:
377,297,55528,1,8,0:0:0:0:
349,296,55630,6,0,L|189:287,1,143.999995605469,6|0,3:2|3:0,0:0:0:0:
131,327,55934,2,0,L|126:234,1,71.9999978027344,2|8,3:2|0:0,0:0:0:0:
17,155,56238,2,0,L|12:62,1,71.9999978027344,2|8,3:2|0:0,0:0:0:0:
147,165,56440,5,2,3:2:0:0:
154,144,56542,2,0,L|165:55,1,71.9999978027344,8|0,0:2|3:3,0:0:0:0:
282,228,56744,1,2,0:0:0:0:
275,207,56846,2,0,L|264:118,1,71.9999978027344,8|0,0:2|3:3,0:0:0:0:
428,88,57049,1,10,3:3:0:0:
431,66,57150,1,8,3:3:0:0:
368,22,57251,6,0,B|250:11|250:11|312:36,1,160,10|0,3:2|3:0,0:0:0:0:
402,178,57555,2,0,B|520:167|520:167|458:192,1,160,10|0,3:2|3:0,0:0:0:0:
259,310,57859,6,0,L|171:297,1,80,10|0,0:0|0:0,0:0:0:0:
77,168,58062,2,0,L|85:71,1,80,10|0,0:0|0:0,0:0:0:0:
84,89,58873,6,0,P|191:85|223:191,1,207.999990478516,6|8,0:2|0:2,0:0:0:0:
440,126,59177,1,2,0:2:0:0:
385,36,59278,2,0,P|344:86|337:146,1,103.999995239258,2|0,3:2|3:2,0:0:0:0:
225,185,59481,2,0,P|259:222|274:272,1,103.999995239258,10|0,0:2|0:2,0:0:0:0:
496,268,59684,6,0,P|399:259|352:345,1,207.999990478516,2|8,3:2|0:2,0:0:0:0:
164,264,59988,1,2,0:2:0:0:
228,165,60089,2,0,P|263:202|277:252,1,103.999995239258,2|0,3:2|0:2,0:0:0:0:
100,363,60292,2,0,P|64:325|50:275,1,103.999995239258,10|0,0:2|0:2,0:0:0:0:
231,145,60494,6,0,L|236:33,1,103.999995239258,2|0,3:2|0:2,0:0:0:0:
39,169,60697,2,0,L|15:54,1,103.999995239258,10|0,0:2|0:2,0:0:0:0:
277,252,60900,6,0,L|409:218,1,103.999995239258,2|0,3:2|0:2,0:0:0:0:
100,363,61103,2,0,L|-35:361,1,103.999995239258,10|0,0:2|0:2,0:0:0:0:
274,353,61305,6,0,B|205:330|205:330|162:283|162:283|93:260,1,207.999990478516,2|8,3:2|0:2,0:0:0:0:
250,59,61609,1,2,3:2:0:0:
330,136,61711,2,0,B|280:154|280:154|230:144,1,103.999995239258,2|0,3:2|3:2,0:0:0:0:
349,319,61913,2,0,B|399:337|399:337|448:327,1,103.999995239258,10|0,0:2|0:2,0:0:0:0:
442,50,62116,6,0,B|439:121|439:121|405:176|405:176|403:248,1,207.999990478516,6|8,0:1|0:2,0:0:0:0:
214,129,62420,1,2,0:2:0:0:
330,136,62522,2,0,B|280:154|280:154|230:144,1,103.999995239258,2|0,3:2|3:2,0:0:0:0:
95,260,62724,2,0,B|145:242|145:242|194:251,1,103.999995239258,10|0,0:2|0:2,0:0:0:0:
22,367,62927,6,0,L|14:159,1,207.999990478516,2|8,3:2|0:2,0:0:0:0:
183,51,63231,1,2,3:2:0:0:
230,144,63332,2,0,P|183:156|116:131,1,103.999995239258,2|0,3:2|3:2,0:0:0:0:
284,47,63535,2,0,P|334:36|383:50,1,103.999995239258,10|0,0:2|0:2,0:0:0:0:
229,241,63738,6,0,B|211:193|211:193|230:143,1,103.999995239258,2|0,3:2|0:2,0:0:0:0:
425,239,63940,2,0,B|443:191|443:191|424:141,1,103.999995239258,10|0,0:2|0:2,0:0:0:0:
236,330,64143,6,0,B|185:321|185:321|151:280,1,103.999995239258,2|0,3:2|3:2,0:0:0:0:
423,330,64346,2,0,B|473:321|473:321|507:280,1,103.999995239258,10|0,0:2|0:2,0:0:0:0:
327,36,64549,6,0,L|329:196,1,143.999995605469,10|0,0:2|3:2,0:0:0:0:
329,344,64853,1,8,3:2:0:0:
334,359,64954,2,0,L|332:287,1,71.9999978027344,0|0,3:2|0:2,0:0:0:0:
180,345,65157,1,8,0:3:0:0:
179,359,65258,1,8,0:3:0:0:
135,270,65359,6,0,B|238:229|229:328|332:287,1,207.999990478516,6|8,0:2|0:2,0:0:0:0:
402,109,65663,1,2,0:2:0:0:
325,36,65765,2,0,P|300:81|297:132,1,103.999995239258,2|0,3:2|3:2,0:0:0:0:
478,182,65967,2,0,P|502:136|505:83,1,103.999995239258,10|0,0:2|0:2,0:0:0:0:
313,19,66170,6,0,B|210:-22|219:77|116:36,1,207.999990478516,2|8,3:2|0:2,0:0:0:0:
156,263,66474,1,2,3:2:0:0:
255,199,66576,2,0,L|268:64,1,103.999995239258,2|0,3:2|3:2,0:0:0:0:
18,225,66778,2,0,L|5:90,1,103.999995239258,10|0,0:2|0:2,0:0:0:0:
402,340,66981,6,0,L|415:205,1,103.999995239258,2|0,3:2|0:2,0:0:0:0:
166,366,67184,2,0,L|156:262,1,103.999995239258,10|0,0:2|0:2,0:0:0:0:
492,173,67386,6,0,L|505:38,1,103.999995239258,2|0,3:2|3:2,0:0:0:0:
255,199,67589,2,0,L|242:64,1,103.999995239258,10|0,0:2|0:2,0:0:0:0:
504,328,67792,6,0,B|440:317|440:317|381:353|381:353|308:340,1,207.999990478516,2|8,3:2|0:2,0:0:0:0:
141,277,68096,1,2,3:2:0:0:
137,164,68197,2,0,B|160:212|160:212|156:262,1,103.999995239258,2|0,3:2|3:2,0:0:0:0:
0,108,68400,2,0,B|-4:58|-4:58|19:10,1,103.999995239258,10|0,0:2|0:2,0:0:0:0:
245,95,68603,6,0,B|309:84|309:84|368:120|368:120|441:107,1,207.999990478516,6|8,0:1|0:2,0:0:0:0:
294,281,68907,1,2,0:2:0:0:
290,168,69008,2,0,B|313:216|313:216|309:266,1,103.999995239258,2|0,3:2|3:2,0:0:0:0:
174,361,69211,2,0,B|151:313|151:313|155:263,1,103.999995239258,10|0,0:2|0:2,0:0:0:0:
245,95,69413,6,0,B|309:84|309:84|368:120|368:120|441:107,1,207.999990478516,2|8,0:2|0:2,0:0:0:0:
294,281,69717,1,2,3:2:0:0:
290,168,69819,2,0,B|313:216|313:216|309:266,1,103.999995239258,2|0,3:2|3:2,0:0:0:0:
154,129,70022,2,0,B|150:79|150:79|173:31,1,103.999995239258,10|0,0:2|0:2,0:0:0:0:
136,279,70224,6,0,L|-29:269,1,103.999995239258,2|0,3:2|0:2,0:0:0:0:
309,267,70427,2,0,L|474:277,1,103.999995239258,10|0,0:2|0:2,0:0:0:0:
154,129,70630,6,0,L|-11:119,1,103.999995239258,2|0,3:2|3:2,0:0:0:0:
338,102,70832,2,0,L|503:112,1,103.999995239258,10|0,0:2|0:2,0:0:0:0:
225,353,71035,6,0,L|227:261,1,71.9999978027344,2|0,3:2|0:2,0:0:0:0:
242,29,71238,1,8,3:2:0:0:
239,49,71339,1,8,3:2:0:0:
238,81,71440,5,8,0:2:0:0:
267,152,71542,1,8,0:3:0:0:
346,183,71643,1,8,3:3:0:0:
426,149,71744,1,8,3:3:0:0:
338,102,71846,6,0,B|235:61|244:160|141:119,1,207.999990478516,6|8,3:2|0:2,0:0:0:0:
22,241,72150,1,2,0:2:0:0:
22,241,72251,2,0,P|57:216|140:223,1,103.999995239258,0|0,3:2|3:2,0:0:0:0:
285,313,72454,2,0,P|258:268|213:245,1,103.999995239258,8|0,0:2|0:2,0:0:0:0:
400,316,72657,2,0,P|426:271|471:248,1,103.999995239258,0|0,3:2|0:2,0:0:0:0:
511,72,72859,5,10,0:2:0:0:
512,94,72961,1,8,0:2:0:0:
501,118,73062,5,10,0:2:0:0:
419,135,73163,1,8,0:2:0:0:
344,77,73265,1,10,0:2:0:0:
237,63,73366,1,8,0:2:0:0:
134,136,73467,5,12,0:2:0:0:
10,260,75089,6,0,L|216:256,1,192,6|0,3:1|3:0,0:0:0:0:
253,318,75494,2,0,L|258:162,1,128,8|0,0:0|3:0,0:0:0:0:
265,177,75799,2,0,P|245:161|228:158,1,32,0|0,3:0|3:0,0:0:0:0:
272,164,75900,2,0,L|277:8,1,128,0|0,3:0|0:0,0:0:0:0:
489,236,76305,2,0,L|484:80,1,128,10|0,0:0|0:0,0:0:0:0:
468,15,76609,1,8,0:0:0:0:
454,34,76711,6,0,B|408:68|408:68|232:26,1,192,6|0,0:1|3:3,0:0:0:0:
251,114,77116,2,0,L|96:113,1,128,8|0,0:0|3:0,0:0:0:0:
0,245,77522,1,0,3:0:0:0:
18,63,77724,1,0,3:0:0:0:
119,236,77927,1,8,0:0:0:0:
150,238,78028,1,8,0:3:0:0:
182,241,78130,1,8,0:3:0:0:
214,243,78231,1,8,0:3:0:0:
246,246,78332,6,0,B|313:237|313:237|364:259|364:259|432:251,1,192,6|0,3:1|3:0,0:0:0:0:
486,306,78738,2,0,L|481:150,1,128,8|0,0:0|3:0,0:0:0:0:
475,164,79042,2,0,P|499:146|519:143,1,32,0|0,3:0|3:0,0:0:0:0:
467,152,79143,2,0,L|462:-4,1,128,0|0,3:0|0:0,0:0:0:0:
334,87,79549,1,8,0:0:0:0:
325,37,79650,1,8,0:0:0:0:
208,141,79853,1,8,0:0:0:0:
186,94,79954,6,0,B|118:85|118:85|67:107|67:107|0:99,1,192,6|0,3:1|3:0,0:0:0:0:
51,180,80359,2,0,L|56:336,1,128,8|0,0:0|3:0,0:0:0:0:
206,360,80765,5,2,3:3:0:0:
235,20,81069,1,2,0:0:0:0:
313,203,81373,1,8,0:0:0:0:
312,171,81474,1,0,0:0:0:0:
311,147,81576,5,4,3:2:0:0:
199,238,81981,1,8,0:0:0:0:
302,127,82386,1,0,3:2:0:0:
209,256,82792,1,8,0:0:0:0:
287,110,83197,1,0,3:2:0:0:
224,273,83603,1,8,0:0:0:0:
265,96,84008,1,0,3:2:0:0:
245,288,84413,1,8,0:0:0:0:
239,88,84819,1,0,3:2:0:0:
272,296,85224,1,8,0:0:0:0:
208,85,85630,1,0,3:2:0:0:
302,298,86035,1,8,0:0:0:0:
182,101,86440,1,0,3:2:0:0:
329,283,86846,1,8,0:0:0:0:
151,116,87251,1,0,3:2:0:0:
359,267,87657,1,8,0:0:0:0:
192,128,88062,5,4,3:2:0:0:
320,256,88467,1,8,0:0:0:0:
206,105,88873,1,0,3:2:0:0:
305,278,89278,1,8,0:0:0:0:
227,86,89684,1,0,3:2:0:0:
284,297,90089,1,8,0:0:0:0:
256,71,90494,1,0,3:2:0:0:
256,312,90900,1,8,0:0:0:0:
290,64,91305,1,0,3:2:0:0:
221,319,91711,1,8,0:0:0:0:
328,65,92116,1,0,3:2:0:0:
183,318,92522,1,8,0:0:0:0:
359,88,92927,1,0,3:2:0:0:
152,295,93332,1,8,0:0:0:0:
359,243,93535,5,0,3:0:0:0:
356,232,93636,1,0,3:0:0:0:
353,220,93738,1,8,0:0:0:0:
175,57,93940,5,8,3:2:0:0:
181,84,94042,1,8,3:2:0:0:
187,111,94143,5,8,3:0:0:0:
207,103,94244,1,8,3:0:0:0:
221,87,94346,1,12,3:0:0:0:
229,68,94447,1,12,3:0:0:0:
231,46,94549,6,0,L|218:221,1,160,6|8,3:2|0:2,0:0:0:0:
158,339,94853,1,2,0:2:0:0:
97,264,94954,2,0,P|86:219|89:172,1,80,0|0,3:2|0:2,0:0:0:0:
253,294,95157,5,8,0:2:0:0:
343,325,95258,1,0,0:2:0:0:
414,260,95359,2,0,P|412:213|397:169,1,80,2|0,3:2|0:2,0:0:0:0:
343,325,95562,2,0,P|384:347|429:355,1,80,10|0,0:2|3:2,0:0:0:0:
322,231,95765,2,0,P|282:253|251:290,1,80,2|0,0:2|3:2,0:0:0:0:
430,261,95967,2,0,P|429:213|414:168,1,80,10|0,0:2|0:2,0:0:0:0:
316,64,96170,6,0,L|237:47,1,80,2|0,3:2|0:2,0:0:0:0:
156,180,96373,1,8,0:2:0:0:
62,198,96474,1,0,0:2:0:0:
11,116,96576,2,0,L|2:25,1,80,0|0,3:2|3:2,0:0:0:0:
156,180,96778,2,0,L|163:81,1,80,8|0,0:0|0:0,0:0:0:0:
79,290,96981,6,0,L|-14:280,1,80,2|0,3:2|0:2,0:0:0:0:
156,180,97184,2,0,L|245:190,1,80,10|0,0:2|3:2,0:0:0:0:
340,345,97386,2,0,L|260:334,1,80,2|0,3:2|3:2,0:0:0:0:
351,266,97589,2,0,L|340:345,1,80,10|0,0:2|0:2,0:0:0:0:
471,362,97792,5,6,3:1:0:0:
483,267,97893,1,0,0:0:0:0:
443,179,97994,1,8,0:0:0:0:
469,85,98096,1,2,0:2:0:0:
391,28,98197,2,0,L|289:15,1,80,0|0,3:2|2:2,0:0:0:0:
240,156,98400,5,8,0:2:0:0:
151,189,98501,1,0,0:2:0:0:
69,140,98603,2,0,L|69:49,1,80,2|0,3:2|0:2,0:0:0:0:
139,21,98805,2,0,L|61:65,1,80,10|0,0:2|0:2,0:0:0:0:
0,20,99008,2,0,L|78:64,1,80,2|0,0:2|3:2,0:0:0:0:
69,220,99211,2,0,L|69:129,1,80,10|0,0:2|0:2,0:0:0:0:
257,15,99413,5,12,0:1:0:0:
113,350,99616,1,8,0:2:0:0:
387,247,99819,5,2,3:2:0:0:
354,224,99920,1,0,3:2:0:0:
315,213,100022,1,8,3:2:0:0:
277,227,100123,1,0,3:2:0:0:
253,259,100224,5,6,3:3:0:0:
139,21,100427,1,8,0:2:0:0:
145,60,100528,1,8,0:0:0:0:
154,99,100630,5,8,3:2:0:0:
169,91,100731,1,8,3:3:0:0:
183,88,100832,1,8,3:3:0:0:
200,88,100934,1,8,3:3:0:0:
219,91,101035,6,0,P|261:93|309:73,1,80,6|0,3:2|0:2,0:0:0:0:
139,21,101238,2,0,P|97:19|49:39,1,80,8|0,0:2|0:2,0:0:0:0:
216,110,101440,6,0,P|258:112|306:92,1,80,2|0,3:2|3:2,0:0:0:0:
136,40,101643,2,0,P|94:38|46:58,1,80,8|0,0:2|0:2,0:0:0:0:
128,264,101846,6,0,P|126:224|138:186,1,80,2|0,3:2|0:2,0:0:0:0:
213,128,102049,2,0,P|252:126|290:138,1,80,8|0,0:2|3:2,0:0:0:0:
348,213,102251,2,0,P|350:252|338:290,1,80,2|0,3:2|3:2,0:0:0:0:
263,347,102454,2,0,P|223:349|185:337,1,80,8|0,0:2|0:2,0:0:0:0:
138,186,102657,5,2,3:2:0:0:
213,128,102758,1,0,0:0:0:0:
182,39,102859,1,8,0:2:0:0:
88,41,102961,1,0,0:2:0:0:
60,131,103062,2,0,P|22:137|-26:118,1,80,2|0,3:3|3:0,0:0:0:0:
182,39,103265,2,0,P|220:33|268:52,1,80,8|0,0:0|0:0,0:0:0:0:
223,207,103467,6,0,L|213:128,1,80,2|0,3:2|3:2,0:0:0:0:
344,133,103670,2,0,L|355:53,1,80,10|0,0:2|0:2,0:0:0:0:
216,237,103873,2,0,L|173:156,1,80,2|0,3:2|0:2,0:0:0:0:
134,232,104076,2,0,L|184:158,1,80,10|0,0:2|0:2,0:0:0:0:
447,323,104278,6,0,P|396:265|319:271,1,160,6|8,3:1|0:2,0:0:0:0:
209,356,104582,1,2,0:2:0:0:
186,246,104684,2,0,L|179:165,1,80,0|0,3:2|2:2,0:0:0:0:
28,76,104886,5,8,0:2:0:0:
118,112,104988,1,0,0:2:0:0:
209,83,105089,2,0,P|218:44|210:5,1,80,2|0,3:2|0:2,0:0:0:0:
31,154,105292,2,0,P|22:116|28:76,1,80,10|0,0:2|0:2,0:0:0:0:
206,161,105494,2,0,P|214:125|208:82,1,80,2|0,3:2|3:2,0:0:0:0:
35,231,105697,2,0,P|24:195|33:148,1,80,10|0,0:2|0:2,0:0:0:0:
345,48,105900,5,12,0:1:0:0:
153,330,106103,1,8,0:2:0:0:
428,306,106305,5,2,3:2:0:0:
399,277,106407,1,0,3:2:0:0:
358,272,106508,1,0,3:2:0:0:
74,361,106711,5,10,3:2:0:0:
17,306,106812,1,8,0:0:0:0:
35,231,106913,1,8,0:2:0:0:
296,183,107116,5,8,3:2:0:0:
300,166,107217,1,8,3:3:0:0:
300,152,107319,1,8,3:3:0:0:
295,135,107420,1,8,3:3:0:0:
225,102,107522,6,0,B|174:96|174:96|113:120|60:83,1,167.999994873047,6|0,3:2|3:0,0:0:0:0:
63,85,108130,1,10,0:0:0:0:
63,101,108231,1,8,0:0:0:0:
63,117,108332,1,0,3:0:0:0:
185,294,108738,2,0,L|192:176,1,111.999996582031,2|8,0:2|0:0,0:0:0:0:
307,9,109143,5,2,3:2:0:0:
197,70,109346,1,0,3:0:0:0:
308,139,109549,1,2,3:2:0:0:
191,182,109751,1,8,0:0:0:0:
302,251,109954,2,0,L|309:133,1,111.999996582031,2|8,3:2|0:0,0:0:0:0:
504,370,110359,5,8,0:0:0:0:
488,346,110461,1,8,0:0:0:0:
466,329,110562,1,8,0:0:0:0:
440,320,110663,1,8,0:0:0:0:
412,319,110765,6,0,B|363:312|363:312|324:332|324:332|249:324,1,143.999995605469,6|0,3:2|3:0,0:0:0:0:
198,365,111069,2,0,L|193:272,1,71.9999978027344,2|8,3:2|0:0,0:0:0:0:
68,223,111373,2,0,L|63:130,1,71.9999978027344,2|8,3:2|0:0,0:0:0:0:
236,204,111576,5,2,3:2:0:0:
243,183,111677,2,0,L|254:94,1,71.9999978027344,8|0,0:2|3:3,0:0:0:0:
407,265,111880,1,2,0:0:0:0:
400,244,111981,2,0,L|389:155,1,71.9999978027344,8|0,0:2|3:3,0:0:0:0:
498,79,112184,1,10,3:3:0:0:
501,57,112285,1,8,3:3:0:0:
419,29,112386,6,0,B|367:35|301:18|301:18|363:43,1,160,10|0,3:2|3:0,0:0:0:0:
391,172,112690,2,0,B|443:178|509:161|509:161|447:186,1,160,10|0,3:2|3:0,0:0:0:0:
235,203,112994,6,0,L|157:190,1,80,10|0,0:0|0:0,0:0:0:0:
413,273,113197,2,0,L|510:281,1,80,10|0,0:0|0:0,0:0:0:0:
148,290,113501,5,8,3:0:0:0:
150,309,113603,1,2,0:0:0:0:
261,83,113805,1,12,3:0:0:0:
264,102,113907,1,8,3:0:0:0:
311,172,114008,6,0,P|227:123|156:190,1,207.999990478516,6|8,0:2|0:2,0:0:0:0:
46,310,114312,1,2,0:2:0:0:
2,199,114413,2,0,P|33:240|47:289,1,103.999995239258,2|0,3:2|0:2,0:0:0:0:
167,42,114616,2,0,P|123:69|94:112,1,103.999995239258,10|0,0:2|0:2,0:0:0:0:
400,137,114819,6,0,B|358:139|325:121|325:121|276:146|276:146|235:126|192:134,1,207.999990478516,2|8,3:2|0:2,0:0:0:0:
119,254,115123,1,2,0:2:0:0:
217,307,115224,2,0,B|249:268|249:268|223:220,1,103.999995239258,2|0,3:2|3:2,0:0:0:0:
94,111,115427,2,0,B|54:79|54:79|69:28,1,103.999995239258,10|0,0:2|0:2,0:0:0:0:
270,45,115630,6,0,L|154:41,1,103.999995239258,2|0,3:2|0:2,0:0:0:0:
400,137,115832,2,0,L|516:141,1,103.999995239258,10|0,0:2|0:2,0:0:0:0:
223,220,116035,6,0,L|107:216,1,103.999995239258,2|0,3:2|0:2,0:0:0:0:
353,312,116238,2,0,L|469:316,1,103.999995239258,10|0,0:2|0:2,0:0:0:0:
101,334,116440,6,0,B|110:262|110:262|85:202|85:202|93:132,1,207.999990478516,2|8,3:2|0:2,0:0:0:0:
270,45,116744,1,2,3:2:0:0:
314,127,116846,2,0,B|264:145|264:145|210:117,1,103.999995239258,2|0,3:2|0:2,0:0:0:0:
360,312,117049,2,0,B|408:334|408:334|456:315,1,103.999995239258,10|0,0:2|0:2,0:0:0:0:
404,42,117251,6,0,B|394:113|394:113|419:173|419:173|411:243,1,207.999990478516,6|8,0:1|0:2,0:0:0:0:
201,208,117555,1,2,0:2:0:0:
310,216,117657,2,0,B|265:240|265:240|215:222,1,103.999995239258,2|0,3:2|3:2,0:0:0:0:
51,63,117859,2,0,B|101:45|101:45|155:73,1,103.999995239258,10|0,0:2|0:2,0:0:0:0:
81,339,118062,6,0,L|93:132,1,207.999990478516,2|8,3:2|0:2,0:0:0:0:
270,45,118366,1,2,3:2:0:0:
314,127,118467,2,0,B|264:145|264:145|218:121,1,103.999995239258,2|0,3:2|3:2,0:0:0:0:
86,235,118670,2,0,B|136:217|136:217|181:240,1,103.999995239258,10|0,0:2|0:2,0:0:0:0:
403,365,118873,6,0,B|412:261,1,103.999995239258,2|0,3:2|0:2,0:0:0:0:
81,339,119076,2,0,B|87:235,1,103.999995239258,10|0,0:2|0:2,0:0:0:0:
357,202,119278,6,0,P|403:180|453:192,1,103.999995239258,2|0,3:2|3:2,0:0:0:0:
149,185,119481,2,0,P|107:154|57:158,1,103.999995239258,10|0,0:2|0:2,0:0:0:0:
269,44,119684,6,0,L|257:187,1,143.999995605469,10|0,0:2|3:2,0:0:0:0:
234,346,119988,1,8,3:2:0:0:
241,363,120089,2,0,L|247:291,1,71.9999978027344,0|0,3:2|0:2,0:0:0:0:
400,349,120292,1,8,0:3:0:0:
402,363,120393,1,8,0:3:0:0:
444,274,120494,6,0,B|341:233|350:332|247:291,1,207.999990478516,6|8,0:2|0:2,0:0:0:0:
213,142,120799,1,2,0:2:0:0:
290,213,120900,2,0,P|314:167|316:116,1,103.999995239258,2|0,3:2|3:2,0:0:0:0:
109,165,121103,2,0,P|112:114|135:68,1,103.999995239258,10|0,0:2|0:2,0:0:0:0:
33,288,121305,6,0,P|124:259|109:165,1,207.999990478516,2|8,3:2|0:2,0:0:0:0:
32,15,121609,1,2,3:2:0:0:
135,67,121711,2,0,P|186:58|229:30,1,103.999995239258,2|0,3:2|3:2,0:0:0:0:
425,65,121913,2,0,P|374:56|334:25,1,103.999995239258,10|0,0:2|0:2,0:0:0:0:
108,164,122116,6,0,P|156:182|207:175,1,103.999995239258,2|0,3:2|0:2,0:0:0:0:
450,162,122319,2,0,P|401:177|350:171,1,103.999995239258,10|0,0:2|0:2,0:0:0:0:
108,259,122522,6,0,P|140:299|187:318,1,103.999995239258,2|0,3:2|3:2,0:0:0:0:
447,259,122724,2,0,P|413:296|366:317,1,103.999995239258,10|0,0:2|0:2,0:0:0:0:
281,27,122927,6,0,L|277:234,1,207.999990478516,2|8,3:2|0:2,0:0:0:0:
102,144,123231,1,2,3:2:0:0:
207,174,123332,2,0,P|156:182|108:164,1,103.999995239258,2|0,3:2|3:3,0:0:0:0:
274,358,123535,2,0,P|314:326|364:318,1,103.999995239258,10|0,0:2|0:2,0:0:0:0:
508,74,123738,6,0,B|462:114|462:114|448:261,1,207.999990478516,6|8,0:1|0:2,0:0:0:0:
224,284,124042,1,2,0:2:0:0:
207,174,124143,2,0,B|233:202|233:202|236:268,1,103.999995239258,2|0,3:2|3:2,0:0:0:0:
387,36,124346,2,0,B|358:61|358:61|348:126,1,103.999995239258,10|0,0:2|0:2,0:0:0:0:
67,104,124549,6,0,B|131:115|131:115|190:79|190:79|263:92,1,207.999990478516,2|8,0:2|0:2,0:0:0:0:
434,101,124853,1,2,3:2:0:0:
490,199,124954,2,0,B|461:174|461:174|452:109,1,103.999995239258,2|0,3:2|3:2,0:0:0:0:
366,350,125157,2,0,B|394:324|394:324|404:259,1,103.999995239258,10|0,0:2|0:2,0:0:0:0:
143,240,125359,6,0,L|-22:230,1,103.999995239258,2|0,3:2|0:2,0:0:0:0:
301,253,125562,2,0,L|404:259,1,103.999995239258,10|0,0:2|0:2,0:0:0:0:
157,85,125765,6,0,L|53:78,1,103.999995239258,2|0,3:2|3:2,0:0:0:0:
348,102,125967,2,0,L|451:108,1,103.999995239258,10|0,0:2|0:2,0:0:0:0:
221,340,126170,6,0,L|223:248,1,71.9999978027344,2|0,3:2|0:2,0:0:0:0:
251,60,126373,1,8,3:2:0:0:
257,80,126474,1,8,3:2:0:0:
251,112,126576,5,8,0:2:0:0:
223,189,126677,1,8,0:3:0:0:
135,217,126778,1,8,3:3:0:0:
46,181,126880,1,8,3:3:0:0:
57,78,126981,6,0,B|163:46|145:143|251:112,1,207.999990478516,6|8,3:2|0:2,0:0:0:0:
414,71,127285,1,2,0:2:0:0:
414,71,127386,2,0,P|379:46|296:53,1,103.999995239258,0|0,3:2|3:2,0:0:0:0:
309,192,127589,2,0,P|296:150|227:105,1,103.999995239258,8|0,0:2|0:2,0:0:0:0:
149,222,127792,2,0,P|164:181|137:103,1,103.999995239258,0|0,3:2|0:2,0:0:0:0:
2,345,127994,5,10,0:2:0:0:
4,322,128096,1,8,0:2:0:0:
19,301,128197,5,10,0:2:0:0:
105,286,128299,1,8,0:2:0:0:
172,352,128400,1,10,0:2:0:0:
285,372,128501,1,8,0:2:0:0:
384,297,128603,5,12,0:2:0:0:
121,90,143197,5,6,3:2:0:0:
121,90,143400,2,0,L|187:83,2,47.9999985351563,2|2|0,0:0|0:0|3:3,0:0:0:0:
169,85,143805,2,0,L|235:78,2,47.9999985351563,2|2|8,0:0|0:0|0:0,0:0:0:0:
217,80,144211,2,0,L|283:73,2,47.9999985351563,2|2|0,0:0|0:0|3:0,0:0:0:0:
159,173,144616,5,2,0:0:0:0:
159,173,144717,1,2,0:0:0:0:
159,173,144819,1,2,3:0:0:0:
159,173,145022,2,0,L|225:180,2,47.9999985351563,2|2|0,0:0|0:0|3:0,0:0:0:0:
207,178,145427,2,0,L|273:185,2,47.9999985351563,2|2|8,0:0|0:0|0:0,0:0:0:0:
255,183,145832,2,0,L|321:190,2,47.9999985351563,2|0|0,0:0|0:0|3:0,0:0:0:0:
159,173,146238,1,2,0:0:0:0:
48,370,146440,5,6,3:1:0:0:
39,274,146643,1,2,0:0:0:0:
38,264,146744,1,2,0:0:0:0:
37,254,146846,1,0,3:0:0:0:
28,158,147049,1,2,0:0:0:0:
27,148,147150,1,2,0:0:0:0:
26,138,147251,1,8,0:0:0:0:
17,42,147454,1,2,0:0:0:0:
16,32,147555,1,2,0:0:0:0:
15,22,147657,1,0,3:0:0:0:
217,80,147859,5,2,0:0:0:0:
217,80,147961,1,2,0:0:0:0:
217,80,148062,1,2,3:2:0:0:
324,38,148265,1,0,0:0:0:0:
415,110,148467,1,0,3:0:0:0:
398,224,148670,1,0,0:0:0:0:
217,80,148873,5,10,0:0:0:0:
199,193,149076,1,0,0:0:0:0:
290,266,149278,1,0,3:0:0:0:
398,224,149481,1,0,0:0:0:0:
217,80,149684,5,6,3:2:0:0:
217,80,149886,2,0,L|149:73,2,47.9999985351563,2|2|0,0:0|0:0|3:3,0:0:0:0:
169,75,150292,2,0,L|101:68,2,47.9999985351563,2|2|8,0:0|0:0|0:0,0:0:0:0:
121,70,150697,2,0,L|53:63,2,47.9999985351563,2|2|0,0:0|0:0|3:0,0:0:0:0:
224,173,151103,5,2,0:0:0:0:
224,173,151204,1,2,0:0:0:0:
224,173,151305,1,2,3:0:0:0:
224,173,151508,2,0,L|292:166,2,47.9999985351563,2|2|0,0:0|0:0|3:0,0:0:0:0:
272,168,151913,2,0,L|340:161,2,47.9999985351563,2|2|8,0:0|0:0|0:0,0:0:0:0:
320,163,152319,2,0,L|388:156,2,47.9999985351563,2|0|0,0:0|0:0|3:0,0:0:0:0:
224,173,152724,1,2,0:0:0:0:
346,380,152927,5,6,3:1:0:0:
355,284,153130,1,2,0:0:0:0:
356,274,153231,1,2,0:0:0:0:
357,264,153332,1,0,3:0:0:0:
447,231,153535,1,2,0:0:0:0:
448,221,153636,1,2,0:0:0:0:
477,208,153738,5,12,0:1:0:0:
448,116,153940,1,2,0:0:0:0:
449,106,154042,1,2,0:0:0:0:
450,96,154143,1,0,3:0:0:0:
318,72,154346,5,2,0:0:0:0:
317,62,154447,1,2,0:0:0:0:
316,52,154549,1,2,3:0:0:0:
236,136,154751,2,0,L|136:124,1,95.9999970703126,8|0,0:0|0:0,0:0:0:0:
64,124,155055,1,8,0:0:0:0:
72,146,155157,5,8,3:3:0:0:
71,159,155258,1,8,3:3:0:0:
69,171,155359,1,8,3:3:0:0:
80,193,155461,5,8,0:0:0:0:
119,208,155562,1,8,0:0:0:0:
142,244,155663,1,8,0:0:0:0:
136,287,155765,1,8,0:0:0:0:
144,306,155866,5,12,3:3:0:0:
167,307,155967,1,12,3:3:0:0:
191,309,156069,1,12,3:3:0:0:
265,343,156170,6,0,B|316:362|316:362|448:348,1,167.999994873047,6|0,3:2|3:0,0:0:0:0:
428,350,156778,1,10,0:0:0:0:
428,334,156880,1,8,0:0:0:0:
428,318,156981,1,0,3:0:0:0:
224,224,157386,2,0,L|216:108,1,111.999996582031,2|8,0:2|0:0,0:0:0:0:
0,79,157792,5,2,3:2:0:0:
98,164,157994,1,0,3:0:0:0:
216,112,158197,1,2,3:2:0:0:
320,188,158400,1,8,0:0:0:0:
437,135,158603,2,0,L|446:17,1,111.999996582031,2|8,3:2|0:0,0:0:0:0:
481,281,159008,5,8,0:0:0:0:
465,257,159109,1,8,0:0:0:0:
443,240,159211,1,8,0:0:0:0:
417,231,159312,1,8,0:0:0:0:
389,230,159413,6,0,L|213:217,1,167.999994873047,6|0,3:2|3:0,0:0:0:0:
221,217,160022,1,10,0:0:0:0:
218,232,160123,1,8,0:0:0:0:
215,248,160224,1,0,3:0:0:0:
11,70,160832,5,10,0:0:0:0:
14,55,160934,1,8,0:0:0:0:
17,39,161035,1,0,3:0:0:0:
94,245,161339,1,2,3:0:0:0:
234,76,161643,1,10,0:0:0:0:
115,120,161846,5,10,3:0:0:0:
213,202,162049,1,0,3:0:0:0:
222,216,162150,2,0,L|354:209,1,111.999996582031,8|8,3:3|3:0,0:0:0:0:
416,232,162454,1,8,0:0:0:0:
413,193,162555,1,8,0:0:0:0:
421,154,162657,6,0,B|447:130|458:100|451:63|424:35|424:35|406:76,1,167.999994873047,6|0,3:2|3:0,0:0:0:0:
410,66,163265,1,10,0:0:0:0:
395,63,163366,1,8,0:0:0:0:
379,60,163467,1,0,3:0:0:0:
201,90,163772,1,8,3:0:0:0:
189,79,163873,2,0,P|131:60|68:70,1,111.999996582031,10|8,3:0|0:0,0:0:0:0:
1,243,164278,5,2,3:0:0:0:
120,179,164481,1,0,0:0:0:0:
184,298,164684,1,2,3:0:0:0:
304,234,164886,1,8,0:0:0:0:
368,354,165089,2,0,L|495:349,1,111.999996582031,2|8,3:0|0:0,0:0:0:0:
512,184,165494,5,8,0:0:0:0:
488,167,165596,1,8,0:0:0:0:
471,146,165697,1,8,0:0:0:0:
462,120,165799,1,8,0:0:0:0:
461,92,165900,6,0,P|405:59|310:77,1,143.999995605469,6|0,3:2|3:0,0:0:0:0:
252,111,166204,2,0,L|244:18,1,71.9999978027344,2|8,3:2|0:0,0:0:0:0:
377,223,166508,2,0,L|380:128,1,71.9999978027344,2|8,3:2|0:0,0:0:0:0:
266,285,166711,5,2,3:2:0:0:
273,264,166812,2,0,L|263:174,1,71.9999978027344,8|0,0:2|3:3,0:0:0:0:
133,241,167015,1,2,0:0:0:0:
140,220,167116,2,0,L|143:128,1,71.9999978027344,8|0,0:2|3:3,0:0:0:0:
34,94,167319,1,10,3:3:0:0:
31,72,167420,1,8,3:3:0:0:
104,26,167522,6,0,B|162:43|222:15|222:15|199:46,1,160,14|0,3:1|3:0,0:0:0:0:
133,241,167826,2,0,B|75:258|15:230|15:230|37:261,1,160,10|0,3:2|3:0,0:0:0:0:
271,352,168130,6,0,L|280:269,1,80,10|0,0:0|0:0,0:0:0:0:
58,361,168332,1,2,3:0:0:0:
43,341,168434,2,0,L|36:247,1,80,8|0,0:0|3:0,0:0:0:0:
318,67,168738,5,8,0:0:0:0:
298,101,168839,1,8,3:0:0:0:
263,120,168940,1,8,3:0:0:0:
224,119,169042,1,8,3:0:0:0:
190,100,169143,6,0,B|132:59|68:89|68:89|88:94|108:113,1,176.000005371094,10|0,3:1|3:0,0:0:0:0:
285,200,169447,2,0,B|343:159|407:189|407:189|387:194|367:213,1,176.000005371094,10|0,3:1|3:0,0:0:0:0:
122,278,169751,6,0,P|80:264|10:264,1,88.000002685547,10|0,3:1|0:0,0:0:0:0:
313,349,169954,2,0,P|355:335|425:335,1,88.000002685547,10|0,3:1|0:0,0:0:0:0:
52,23,170359,6,0,B|31:53|31:109|56:148|114:179|114:179|114:120|138:85|144:103|166:57|144:23,1,352.000010742188,2|6,0:0|3:2,0:0:0:0:
145,25,171170,2,0,P|88:33|46:21,2,95.9999970703126,2|0|0,0:0|0:0|0:0,0:0:0:0:
145,25,171880,1,0,3:0:0:0:
148,43,171981,5,10,0:0:0:0:
165,137,172184,1,0,0:0:0:0:
226,209,172386,1,0,3:0:0:0:
314,240,172589,1,0,0:0:0:0:
405,222,172792,1,0,3:0:0:0:
475,161,172994,1,0,0:0:0:0:
505,73,173197,1,0,3:0:0:0:
505,73,173501,1,0,3:0:0:0:
508,55,173603,5,10,0:0:0:0:
416,106,173805,1,0,0:0:0:0:
489,246,174008,1,4,3:1:0:0:
395,295,174211,1,0,0:0:0:0:
394,314,174312,1,0,3:0:0:0:
393,333,174413,5,2,0:0:0:0:
495,355,174616,1,0,0:0:0:0:
489,246,174819,1,0,3:0:0:0:
489,246,175123,1,0,3:0:0:0:
486,228,175224,5,10,0:0:0:0:
395,295,175427,1,0,0:0:0:0:
287,252,175630,1,0,3:0:0:0:
178,288,175832,1,0,0:0:0:0:
162,276,175934,1,0,0:0:0:0:
145,265,176035,1,0,3:0:0:0:
29,265,176238,1,0,0:0:0:0:
0,91,176440,6,0,B|34:72|73:81|73:81|108:110|152:100,1,160,14|0,0:1|0:0,0:0:0:0:
227,71,176744,1,8,0:0:0:0:
230,51,176846,1,10,0:0:0:0:
365,143,177049,1,12,3:0:0:0:
368,163,177150,1,8,3:0:0:0:
431,69,177251,6,0,B|351:60|351:60|301:79|301:79|205:69,1,207.999990478516,6|8,0:2|0:2,0:0:0:0:
140,205,177555,1,2,0:2:0:0:
220,259,177657,2,0,B|247:215|247:215|229:167,1,103.999995239258,2|0,3:2|0:2,0:0:0:0:
50,242,177859,2,0,B|32:194|32:194|60:151,1,103.999995239258,10|0,0:2|0:2,0:0:0:0:
172,352,178062,6,0,B|252:348|252:348|298:321|298:321|395:316,1,207.999990478516,2|8,3:2|0:2,0:0:0:0:
483,122,178366,1,2,0:2:0:0:
512,228,178467,2,0,B|473:193|473:193|478:141,1,103.999995239258,2|0,3:2|3:2,0:0:0:0:
294,135,178670,2,0,B|332:100|332:100|327:48,1,103.999995239258,10|0,0:2|0:2,0:0:0:0:
408,230,178873,6,0,L|516:227,1,103.999995239258,2|0,3:2|0:2,0:0:0:0:
327,48,179076,2,0,L|223:50,1,103.999995239258,10|0,0:2|0:2,0:0:0:0:
304,233,179278,6,0,L|412:230,1,103.999995239258,2|0,3:2|0:2,0:0:0:0:
223,50,179481,2,0,L|115:53,1,103.999995239258,10|0,0:2|0:2,0:0:0:0:
171,265,179684,6,0,B|206:313|206:313|214:164,1,207.999990478516,2|8,3:2|0:2,0:0:0:0:
32,81,179988,1,2,3:2:0:0:
0,161,180089,2,0,B|49:176|49:176|92:147,1,103.999995239258,2|0,3:2|0:2,0:0:0:0:
270,102,180292,2,0,B|227:72|227:72|177:88,1,103.999995239258,10|0,0:2|0:2,0:0:0:0:
205,372,180494,6,0,B|214:165,1,207.999990478516,6|8,0:1|0:2,0:0:0:0:
364,54,180799,1,2,0:2:0:0:
411,157,180900,2,0,P|372:123|361:73,1,103.999995239258,2|0,3:2|3:2,0:0:0:0:
318,316,181103,2,0,P|356:281|365:231,1,103.999995239258,10|0,0:2|0:2,0:0:0:0:
507,338,181305,6,0,B|450:307|403:345|403:345|342:356|317:314,1,207.999990478516,2|8,3:2|0:2,0:0:0:0:
120,219,181609,1,2,3:2:0:0:
118,312,181711,2,0,P|167:301|201:262,1,103.999995239258,2|0,3:2|3:2,0:0:0:0:
323,147,181913,2,0,P|273:136|239:97,1,103.999995239258,10|0,0:2|0:2,0:0:0:0:
30,56,182116,6,0,P|78:71|126:54,1,103.999995239258,2|0,3:2|0:2,0:0:0:0:
29,153,182319,2,0,P|13:104|30:56,1,103.999995239258,8|0,0:2|0:2,0:0:0:0:
276,231,182522,6,0,P|314:197|323:147,1,103.999995239258,2|0,3:2|3:2,0:0:0:0:
239,97,182724,2,0,P|273:136|323:147,1,103.999995239258,10|0,0:2|0:2,0:0:0:0:
457,331,182927,6,0,L|305:314,1,143.999995605469,10|0,0:2|3:2,0:0:0:0:
204,357,183231,1,0,3:2:0:0:
209,372,183332,2,0,L|207:300,1,71.9999978027344,8|0,3:2|3:2,0:0:0:0:
54,241,183535,1,8,0:3:0:0:
53,227,183636,1,8,0:3:0:0:
10,317,183738,6,0,B|113:358|104:259|207:300,1,207.999990478516,6|8,0:2|0:2,0:0:0:0:
383,309,184042,1,2,0:2:0:0:
408,207,184143,2,0,P|375:245|366:296,1,103.999995239258,2|0,3:2|0:2,0:0:0:0:
493,155,184346,2,0,P|484:104|450:65,1,103.999995239258,10|0,0:2|0:2,0:0:0:0:
309,89,184549,6,0,B|237:87|237:87|182:53|182:53|111:50,1,207.999990478516,2|8,3:2|0:2,0:0:0:0:
0,169,184853,1,2,0:2:0:0:
79,235,184954,2,0,B|120:205|120:205|103:154,1,103.999995239258,2|0,3:2|3:2,0:0:0:0:
231,380,185157,2,0,B|190:350|190:350|207:299,1,103.999995239258,10|0,0:2|0:2,0:0:0:0:
409,204,185359,6,0,L|521:200,1,103.999995239258,2|0,3:2|0:2,0:0:0:0:
224,200,185562,2,0,L|112:204,1,103.999995239258,10|0,0:2|0:2,0:0:0:0:
409,306,185765,6,0,L|521:302,1,103.999995239258,2|0,3:2|0:2,0:0:0:0:
206,299,185967,2,0,L|94:303,1,103.999995239258,10|0,0:2|0:2,0:0:0:0:
317,91,186170,6,0,B|302:162|302:162|323:223|323:223|310:293,1,207.999990478516,2|8,3:2|0:2,0:0:0:0:
100,384,186474,1,2,3:2:0:0:
25,268,186576,2,0,B|11:142,1,103.999995239258,2|0,3:2|0:2,0:0:0:0:
208,144,186778,2,0,B|231:18,1,103.999995239258,10|0,0:2|0:2,0:0:0:0:
512,96,186981,6,0,B|479:105|438:82|438:82|389:107|389:107|358:86|314:91,1,207.999990478516,6|8,0:1|0:2,0:0:0:0:
310,293,187285,1,2,0:2:0:0:
441,262,187386,2,0,B|465:217|465:217|447:167,1,103.999995239258,2|0,3:2|3:2,0:0:0:0:
202,239,187589,2,0,B|184:189|184:189|208:144,1,103.999995239258,10|0,0:2|0:2,0:0:0:0:
403,339,187792,6,0,B|310:293|310:293|210:325,1,207.999990478516,2|8,3:2|0:2,0:0:0:0:
40,374,188096,1,2,3:2:0:0:
0,268,188197,2,0,B|15:157,1,103.999995239258,2|0,3:2|3:2,0:0:0:0:
207,143,188400,2,0,B|208:28,1,103.999995239258,10|0,0:2|0:2,0:0:0:0:
211,325,188603,6,0,B|225:214,1,103.999995239258,2|0,3:2|0:2,0:0:0:0:
486,169,188805,2,0,B|506:57,1,103.999995239258,10|0,0:2|0:2,0:0:0:0:
436,348,189008,6,0,B|444:236,1,103.999995239258,2|0,3:2|3:2,0:0:0:0:
207,143,189211,2,0,B|200:30,1,103.999995239258,10|0,0:2|0:2,0:0:0:0:
315,361,189413,6,0,L|333:212,1,143.999995605469,10|0,0:2|3:2,0:0:0:0:
349,40,189717,1,8,3:2:0:0:
342,21,189819,2,0,L|333:100,1,71.9999978027344,0|0,3:2|0:2,0:0:0:0:
443,244,190022,1,8,0:3:0:0:
445,258,190123,1,8,0:3:0:0:
487,169,190224,6,0,B|376:124|385:231|275:187,1,223.999993164063,6|8,0:2|0:2,0:0:0:0:
99,289,190528,1,2,0:2:0:0:
176,360,190630,2,0,P|200:314|197:251,1,111.999996582031,2|0,3:2|3:2,0:0:0:0:
0,322,190832,2,0,P|-2:266|22:217,1,111.999996582031,10|0,0:2|0:2,0:0:0:0:
174,69,191035,6,0,B|233:51|279:92|279:92|344:100|381:46,1,223.999993164063,2|8,3:2|0:2,0:0:0:0:
315,287,191339,1,2,3:2:0:0:
198,255,191440,2,0,P|218:204|210:148,1,111.999996582031,2|0,3:2|3:2,0:0:0:0:
424,241,191643,2,0,P|399:192|402:136,1,111.999996582031,10|0,0:2|0:2,0:0:0:0:
171,303,191846,6,0,P|214:268|234:217,1,111.999996582031,2|0,3:2|0:2,0:0:0:0:
455,287,192049,2,0,P|409:256|384:207,1,111.999996582031,10|0,0:2|0:2,0:0:0:0:
124,331,192251,6,0,P|178:322|222:288,1,111.999996582031,2|0,3:2|3:2,0:0:0:0:
504,311,192454,2,0,P|448:307|402:277,1,111.999996582031,10|0,0:2|0:2,0:0:0:0:
304,22,192657,6,0,L|308:245,1,223.999993164063,2|8,3:2|0:2,0:0:0:0:
108,118,192961,1,2,3:2:0:0:
222,120,193062,2,0,P|172:143|117:138,1,111.999996582031,2|0,3:2|3:3,0:0:0:0:
392,135,193265,2,0,P|442:112|497:117,1,111.999996582031,10|0,0:2|0:2,0:0:0:0:
319,351,193467,6,0,B|330:281|330:281|291:217|291:217|305:140,1,223.999993164063,6|8,0:1|0:2,0:0:0:0:
108,118,193772,1,2,0:2:0:0:
130,233,193873,2,0,B|99:200|99:200|96:134,1,111.999996582031,2|0,3:2|3:2,0:0:0:0:
305,140,194076,2,0,B|336:106|336:106|339:40,1,111.999996582031,10|0,0:2|0:2,0:0:0:0:
38,29,194278,6,0,B|106:17|106:17|170:55|170:55|248:41,1,223.999993164063,2|8,0:2|0:2,0:0:0:0:
432,148,194582,1,2,3:2:0:0:
472,38,194684,2,0,B|435:66|435:66|422:130,1,111.999996582031,2|0,3:2|3:2,0:0:0:0:
239,197,194886,2,0,B|275:225|275:225|288:289,1,111.999996582031,10|0,0:2|0:2,0:0:0:0:
502,363,195089,6,0,L|512:237,1,111.999996582031,2|0,3:2|0:2,0:0:0:0:
288,290,195292,2,0,L|278:164,1,111.999996582031,10|0,0:2|0:2,0:0:0:0:
510,251,195494,6,0,L|520:124,1,111.999996582031,2|0,3:2|3:2,0:0:0:0:
279,178,195697,2,0,L|269:52,1,111.999996582031,10|0,0:2|0:2,0:0:0:0:
391,351,195900,6,0,L|396:259,1,71.9999978027344,2|0,3:2|0:2,0:0:0:0:
395,21,196103,1,8,3:2:0:0:
401,41,196204,1,8,3:2:0:0:
395,73,196305,5,8,0:2:0:0:
367,150,196407,1,8,0:3:0:0:
279,178,196508,1,8,3:3:0:0:
190,142,196609,1,8,3:3:0:0:
185,35,196711,6,0,B|298:0|279:106|395:73,1,223.999993164063,6|8,3:2|0:2,0:0:0:0:
482,254,197015,1,2,0:2:0:0:
482,254,197116,2,0,P|490:211|437:126,1,111.999996582031,0|0,3:2|3:2,0:0:0:0:
399,320,197319,2,0,P|439:306|487:217,1,111.999996582031,8|0,0:2|0:2,0:0:0:0:
300,281,197522,2,0,P|332:309|433:306,1,111.999996582031,0|0,3:2|0:2,0:0:0:0:
393,95,197724,5,10,0:2:0:0:
394,73,197826,1,8,0:2:0:0:
388,42,197927,5,10,0:2:0:0:
293,31,198028,1,8,0:2:0:0:
227,91,198130,1,10,0:2:0:0:
114,96,198231,1,8,0:2:0:0:
25,15,198332,5,12,0:2:0:0:
43,298,199954,6,0,P|30:249|45:187,1,95.9999970703126,6|0,3:2|0:2,0:0:0:0:
132,268,200157,2,0,P|88:293|24:294,1,95.9999970703126,8|0,0:2|0:2,0:0:0:0:
302,159,200359,2,0,P|315:110|300:48,1,95.9999970703126,0|0,3:2|0:2,0:0:0:0:
213,129,200562,2,0,P|256:154|320:155,1,95.9999970703126,8|0,0:2|0:2,0:0:0:0:
382,323,200765,6,0,P|369:274|384:212,1,95.9999970703126,2|0,3:2|0:2,0:0:0:0:
456,134,200967,1,8,0:2:0:0:
512,205,201069,2,0,P|447:273|373:222,1,191.999994140625,2|0,3:2|0:2,0:0:0:0:
456,134,201373,2,0,P|469:85|454:23,1,95.9999970703126,10|0,0:2|0:2,0:0:0:0:
301,159,201576,6,0,P|260:142|192:146,1,95.9999970703126,4|0,3:3|0:2,0:0:0:0:
43,223,201778,2,0,P|90:223|135:205,1,95.9999970703126,8|0,0:2|0:2,0:0:0:0:
424,316,201981,5,2,3:2:0:0:
374,254,202082,1,0,3:2:0:0:
296,245,202184,1,8,3:2:0:0:
234,294,202285,1,0,3:2:0:0:
136,342,202386,6,0,P|92:334|46:296,1,95.9999970703126,2|0,3:2|0:2,0:0:0:0:
73,131,202589,1,8,0:2:0:0:
56,140,202690,2,0,P|31:103|19:48,2,95.9999970703126,2|0|0,3:2|3:2|0:2,0:0:0:0:
208,141,202994,2,0,P|233:104|245:49,1,95.9999970703126,8|0,0:2|0:2,0:0:0:0:
437,147,203197,6,0,P|410:107|400:60,1,95.9999970703126,6|0,3:1|0:2,0:0:0:0:
494,72,203400,2,0,P|472:114|437:147,1,95.9999970703126,8|0,0:2|0:2,0:0:0:0:
244,251,203603,2,0,P|269:210|309:182,1,95.9999970703126,0|0,3:2|0:2,0:0:0:0:
335,274,203805,2,0,P|286:270|243:251,1,95.9999970703126,8|0,0:2|0:2,2:0:0:0:
457,269,204008,6,0,P|399:194|306:183,1,191.999994140625,2|8,3:2|0:2,0:0:0:0:
306,356,204312,2,0,P|398:343|456:269,1,191.999994140625,2|0,3:2|3:2,3:0:0:0:
308,183,204616,2,0,P|279:181|211:155,1,95.9999970703126,10|0,0:2|0:2,0:0:0:0:
57,283,204819,5,6,3:3:0:0:
44,193,204920,1,0,0:2:0:0:
113,128,205022,1,8,0:2:0:0:
198,166,205123,1,0,0:2:0:0:
199,269,205224,5,2,3:2:0:0:
184,169,205326,1,0,0:2:0:0:
261,106,205427,1,8,0:2:0:0:
356,140,205528,1,0,0:2:0:0:
329,237,205630,5,6,3:3:0:0:
309,236,205731,1,0,0:2:0:0:
429,213,205832,5,10,0:2:0:0:
447,218,205934,1,0,0:2:0:0:
393,309,206035,5,10,3:2:0:0:
297,356,206136,5,10,3:2:0:0:
203,304,206238,5,10,3:2:0:0:
190,199,206339,5,10,3:2:0:0:
276,100,206440,6,0,P|291:49|275:-7,1,95.9999970703126,6|0,3:2|0:2,0:0:0:0:
200,48,206643,2,0,P|231:83|276:100,1,95.9999970703126,8|0,0:2|0:2,0:0:0:0:
434,108,206846,2,0,P|419:57|435:1,1,95.9999970703126,0|0,3:2|0:2,0:0:0:0:
511,56,207049,2,0,P|479:91|434:108,1,95.9999970703126,8|0,0:2|0:2,0:0:0:0:
274,220,207251,6,0,P|313:194|361:189,1,95.9999970703126,2|0,3:2|0:2,0:0:0:0:
272,310,207454,1,8,0:2:0:0:
203,253,207555,2,0,B|178:208|205:161|205:161|257:173|274:221,1,191.999994140625,2|0,3:2|0:2,0:0:0:0:
189,340,207859,2,0,P|144:355|96:347,1,95.9999970703126,8|0,0:2|0:2,0:0:0:0:
9,130,208062,6,0,P|34:86|36:13,1,95.9999970703126,4|0,3:3|0:2,0:0:0:0:
54,259,208265,2,0,P|79:215|141:177,1,95.9999970703126,8|0,0:2|0:2,0:0:0:0:
350,233,208467,5,2,3:2:0:0:
273,220,208569,1,0,3:2:0:0:
243,145,208670,1,8,3:2:0:0:
280,76,208772,1,0,3:2:0:0:
385,100,208873,6,0,P|426:104|483:90,1,95.9999970703126,2|0,3:2|0:2,0:0:0:0:
452,292,209076,1,8,0:2:0:0:
438,278,209177,2,0,P|434:230|446:184,2,95.9999970703126,2|0|0,3:2|3:2|0:2,0:0:0:0:
290,372,209481,2,0,P|269:328|236:294,1,95.9999970703126,8|0,0:2|0:2,0:0:0:0:
69,247,209684,6,0,P|115:234|154:208,1,95.9999970703126,6|0,3:1|0:2,0:0:0:0:
70,154,209886,2,0,P|59:200|69:247,1,95.9999970703126,8|0,0:2|0:2,0:0:0:0:
311,102,210089,2,0,P|264:89|225:63,1,95.9999970703126,0|0,3:2|0:2,0:0:0:0:
311,9,210292,2,0,P|321:55|311:102,1,95.9999970703126,8|0,3:2|0:2,0:0:0:0:
315,272,210494,6,0,B|303:225|254:203|254:203|224:247|236:294,1,191.999994140625,2|8,3:2|0:2,0:0:0:0:
396,294,210799,2,0,B|407:247|377:203|377:203|328:225|316:272,1,191.999994140625,2|0,3:2|3:2,0:0:0:0:
421,372,211103,2,0,P|456:354|482:298,1,95.9999970703126,10|0,0:2|0:2,0:0:0:0:
427,46,211305,5,6,3:3:0:0:
443,133,211407,1,0,0:2:0:0:
378,204,211508,1,8,0:2:0:0:
288,170,211609,1,0,0:2:0:0:
281,67,211711,5,2,3:2:0:0:
302,166,211812,1,0,0:2:0:0:
227,235,211913,1,8,0:2:0:0:
129,205,212015,1,0,0:2:0:0:
120,87,212116,6,0,B|93:156|129:205|129:205|122:277|65:312|65:312|130:319|156:364,2,360.000013732911,6|2|2,3:1|3:0|3:0,0:0:0:0:
442,343,212927,6,0,L|516:337,2,55.9999982910157,2|2|2,0:0|0:0|0:0,0:0:0:0:
