osu file format v14

[General]
AudioFilename: audio.mp3
AudioLeadIn: 0
PreviewTime: 58366
Countdown: 0
SampleSet: Soft
StackLeniency: 0.7
Mode: 0
LetterboxInBreaks: 0
WidescreenStoryboard: 1

[Editor]
DistanceSpacing: 1
BeatDivisor: 4
GridSize: 8
TimelineZoom: 1.2

[Metadata]
Title:Ouka Enbu
TitleUnicode:桜花演武
Artist:Mitsuki Nakae
ArtistUnicode:中恵光城
Creator:Lasse
Version:Normal
Source:
Tags:ABSOLUTE CASTAWAY 刀心幻戯 憶 toushin gengi m3-40 Mirash Komore
BeatmapID:1460611
BeatmapSetID:688552

[Difficulty]
HPDrainRate:4
CircleSize:3.2
OverallDifficulty:4
ApproachRate:5
SliderMultiplier:1.28
SliderTickRate:1

[Events]
//Background and Video events
0,0,"bg.jpg",0,0
//Break Periods
2,81776,86862
2,130224,141997
//Storyboard Layer 0 (Background)
//Storyboard Layer 1 (Fail)
//Storyboard Layer 2 (Pass)
//Storyboard Layer 3 (Foreground)
//Storyboard Sound Samples

[TimingPoints]
495,405.405405405405,4,2,4,50,1,0
495,-125,4,2,4,50,0,0
13467,-102.040816326531,4,2,4,80,0,0
26440,-125,4,2,1,60,0,0
39413,-111.111111111111,4,2,4,70,0,0
52386,-125,4,2,1,60,0,0
55630,-111.111111111111,4,2,1,70,0,0
57251,-100,4,2,4,70,0,0
58163,-100,4,2,4,50,0,0
58873,-92.5925925925926,4,2,4,80,0,1
64549,-92.5925925925926,4,2,4,70,0,0
65359,-92.5925925925926,4,2,4,80,0,1
71035,-92.5925925925926,4,2,4,70,0,0
71846,-92.5925925925926,4,2,4,80,0,1
73467,-92.5925925925926,4,2,4,70,0,0
75089,-133.333333333333,4,2,4,60,0,0
81576,-142.857142857143,4,2,1,60,0,0
88062,-142.857142857143,4,2,1,62,0,0
93738,-125,4,2,1,66,0,0
94549,-111.111111111111,4,2,4,70,0,0
107522,-125,4,2,1,60,0,0
110765,-111.111111111111,4,2,1,70,0,0
112386,-100,4,2,4,70,0,0
113197,-100,4,2,4,70,0,0
113603,-111.111111111111,4,2,4,70,0,0
114008,-92.5925925925926,4,2,4,80,0,1
119684,-92.5925925925926,4,2,4,70,0,0
120494,-92.5925925925926,4,2,4,80,0,1
126170,-92.5925925925926,4,2,4,70,0,0
126981,-92.5925925925926,4,2,4,80,0,1
128603,-100,4,2,4,70,0,0
143197,-142.857142857143,4,2,4,54,0,0
149684,-142.857142857143,4,2,4,56,0,0
155055,-142.857142857143,4,2,1,65,0,0
155157,-142.857142857143,4,2,1,56,0,0
155461,-142.857142857143,4,2,1,65,0,0
155866,-142.857142857143,4,2,1,60,0,0
156170,-125,4,2,1,60,0,0
165900,-111.111111111111,4,2,1,70,0,0
167522,-100,4,2,4,70,0,0
169143,-95.2380952380952,4,2,4,70,0,0
170359,-95.2380952380952,4,2,1,50,0,0
170765,-125,4,2,4,60,0,0
171170,-125,4,2,4,50,0,0
176440,-125,4,2,4,65,0,0
176744,-125,4,2,4,70,0,0
177251,-92.5925925925926,4,2,4,80,0,1
182927,-92.5925925925926,4,2,4,70,0,0
183738,-92.5925925925926,4,2,4,80,0,1
189413,-92.5925925925926,4,2,4,70,0,0
190224,-92.5925925925926,4,2,4,80,0,1
195900,-92.5925925925926,4,2,4,70,0,0
196711,-92.5925925925926,4,2,4,80,0,1
198332,-90.9090909090909,4,2,4,70,0,0
199954,-102.040816326531,4,2,4,70,0,0
212116,-102.040816326531,4,2,4,80,0,0
212927,-111.111111111111,4,2,4,50,0,0
213028,-102.040816326531,4,2,4,40,0,0
213130,-102.040816326531,4,2,4,30,0,0

[Colours]
Combo1 : 250,180,240
Combo2 : 110,190,225
Combo3 : 255,230,130
Combo4 : 150,230,140

[HitObjects]
72,92,495,6,0,B|97:71|129:66|129:66|149:105|148:147|140:134|128:178|139:204,1,204.8,4|0,0:3|0:0,0:0:0:0:
271,359,2116,1,2,0:3:0:0:
475,365,2927,1,0,0:0:0:0:
376,185,3738,6,0,B|351:159|360:118|360:118|397:90|394:49|376:17|341:17,1,204.8,4|0,0:3|0:0,0:0:0:0:
153,94,5359,2,0,L|41:85,1,102.4,2|2,0:0|0:0,0:0:0:0:
5,179,6170,2,0,P|23:224|22:290,1,102.4,2|2,0:0|0:0,0:0:0:0:
103,342,6981,6,0,B|219:350|219:350|261:330|268:261,1,204.8,4|0,0:3|0:0,0:0:0:0:
207,82,8603,1,2,0:0:0:0:
403,24,9413,1,0,0:0:0:0:
461,220,10224,6,0,B|432:216|400:229|400:229|378:228|357:221|357:221|328:227|300:254|297:310,1,204.8,4|0,0:3|0:0,0:0:0:0:
105,360,11846,2,0,L|92:242,1,102.4,2|2,0:0|0:0,0:0:0:0:
48,165,12657,2,0,L|54:45,1,102.4,2|0,0:0|0:3,0:0:0:0:
192,80,13467,6,0,L|336:65,1,125.439998851563,6|0,3:2|3:2,0:0:0:0:
447,111,14278,2,0,L|446:211,2,94.0799991386719,2|2|10,3:2|3:2|0:2,0:0:0:0:
496,62,15089,1,4,3:3:0:0:
372,0,15494,1,2,3:2:0:0:
250,64,15900,2,0,P|190:50|141:52,2,94.0799991386719,2|2|8,3:2|3:2|0:2,0:0:0:0:
281,125,16711,6,0,L|289:266,1,125.439998851563,6|0,3:1|3:2,0:0:0:0:
340,303,17319,1,8,0:2:0:0:
340,303,17522,2,0,P|392:287|438:292,2,94.0799991386719,2|2|10,3:2|3:2|0:2,0:0:0:0:
302,361,18332,1,6,3:3:0:0:
163,359,18738,1,2,3:2:0:0:
66,259,19143,1,6,3:3:0:0:
68,119,19549,1,10,3:2:0:0:
168,21,19954,6,0,L|320:16,1,125.439998851563,6|0,3:2|3:2,0:0:0:0:
414,78,20765,2,0,P|462:57|520:54,2,94.0799991386719,2|2|8,3:2|3:2|0:2,0:0:0:0:
400,145,21576,1,4,3:3:0:0:
474,260,21981,1,2,3:2:0:0:
356,332,22386,2,0,P|296:318|247:320,2,94.0799991386719,2|2|8,3:2|3:2|0:2,0:0:0:0:
414,369,23197,6,0,L|417:243,1,125.439998851563,6|0,3:1|3:2,0:0:0:0:
374,198,23805,1,8,3:2:0:0:
374,198,24008,2,0,B|374:174|367:157|367:157|380:130|384:97,2,94.0799991386719,2|2|10,3:2|3:2|0:2,0:0:0:0:
315,233,24819,1,6,3:3:0:0:
231,342,25224,1,2,3:2:0:0:
119,261,25630,2,0,L|6:256,2,94.0799991386719,6|2|2,3:1|3:0|3:0,0:0:0:0:
169,223,26440,5,6,0:0:0:0:
347,323,27251,2,0,P|398:323|446:340,1,102.4,2|8,3:0|3:2,0:0:0:0:
496,250,28062,1,2,3:0:0:0:
396,70,28873,2,0,P|344:69|296:52,1,102.4,0|8,3:0|3:2,0:0:0:0:
195,70,29684,5,4,3:2:0:0:
378,159,30494,2,0,P|403:211|383:255,1,102.4,0|8,3:0|3:2,0:0:0:0:
295,294,31305,2,0,L|179:284,2,102.4,2|2|2,3:2|3:3|3:0,0:0:0:0:
380,350,32522,1,10,3:2:0:0:
472,306,32927,6,0,L|476:194,1,102.4,6|8,3:2|3:2,0:0:0:0:
435,109,33738,2,0,P|382:89|328:97,1,102.4,0|8,3:3|3:2,0:0:0:0:
253,152,34549,2,0,L|239:43,2,102.4,2|8|0,3:0|3:2|3:0,0:0:0:0:
257,254,35765,1,8,3:2:0:0:
174,315,36170,6,0,P|114:325|56:299,1,102.4,6|8,3:2|3:2,0:0:0:0:
17,227,36981,2,0,L|11:116,1,102.4,0|8,3:0|3:2,0:0:0:0:
76,45,37792,2,0,P|124:31|174:42,1,102.4,2|10,3:2|3:2,0:0:0:0:
248,113,38603,1,10,3:2:0:0:
347,137,39008,1,10,0:3:0:0:
452,108,39413,6,0,B|489:124|489:124|511:152|501:195,1,115.199996484375,6|0,3:2|3:2,0:0:0:0:
471,253,40022,1,8,0:2:0:0:
471,253,40224,2,0,L|340:240,1,115.199996484375,2|2,3:2|0:2,0:0:0:0:
241,188,41035,2,0,L|110:175,1,115.199996484375,2|0,3:2|3:2,0:0:0:0:
67,173,41643,1,8,0:2:0:0:
67,173,41846,2,0,B|30:189|30:189|8:217|17:260,1,115.199996484375,2|2,3:2|3:2,0:0:0:0:
119,335,42657,6,0,L|240:325,1,115.199996484375,6|0,3:1|3:2,0:0:0:0:
291,352,43265,1,8,0:2:0:0:
291,352,43467,2,0,P|270:296|312:241,1,115.199996484375,2|2,3:2|0:2,0:0:0:0:
409,196,44278,1,12,0:1:0:0:
409,196,44481,1,8,0:2:0:0:
409,196,44684,2,0,P|434:146|413:94,2,115.199996484375,2|6|8,3:2|3:3|3:2,0:0:0:0:
295,250,45900,6,0,B|171:243,1,115.199996484375,6|0,3:2|3:2,0:0:0:0:
121,254,46508,1,8,0:2:0:0:
121,254,46711,2,0,P|95:204|116:152,1,115.199996484375,2|2,3:2|3:2,0:0:0:0:
216,75,47522,2,0,B|340:71,1,115.199996484375,2|0,3:2|3:2,0:0:0:0:
396,56,48130,1,8,0:2:0:0:
396,56,48332,2,0,P|426:103|409:157,1,115.199996484375,2|2,3:2|3:2,0:0:0:0:
302,223,49143,6,0,B|293:271|293:271|301:302|301:302|293:335,1,115.199996484375,6|0,3:1|3:2,0:0:0:0:
239,363,49751,1,8,0:2:0:0:
239,363,49954,2,0,L|121:354,1,115.199996484375,2|2,3:2|3:2,0:0:0:0:
24,295,50765,1,12,0:1:0:0:
24,295,50967,1,8,0:2:0:0:
24,295,51170,2,0,B|16:261|16:261|24:230|24:230|15:182,2,115.199996484375,2|10|8,3:2|3:2|3:2,0:0:0:0:
124,354,52386,6,0,L|296:347,2,153.6,6|10|2,3:2|0:0|0:2,0:0:0:0:
50,282,54008,2,0,P|26:220|85:97,1,204.8,2|2,3:2|3:2,0:0:0:0:
169,51,55224,1,8,0:0:0:0:
279,86,55630,6,0,L|379:70,2,86.3999973632813,6|2|2,3:2|3:2|3:2,0:0:0:0:
251,136,56440,2,0,L|267:236,2,86.3999973632813,2|2|10,3:2|0:0|3:3,0:0:0:0:
201,108,57251,6,0,P|156:104|105:128,1,96,10|10,3:2|3:2,0:0:0:0:
78,214,57859,1,10,0:0:0:0:
78,214,58062,1,10,0:0:0:0:
272,348,58873,6,0,L|440:345,1,138.240003375,6|2,0:2|3:2,0:0:0:0:
484,355,59481,1,10,0:2:0:0:
484,355,59684,2,0,B|469:302|469:302|488:269|479:220,1,138.240003375,2|2,3:2|3:2,0:0:0:0:
413,99,60494,1,2,3:2:0:0:
291,165,60900,1,2,3:2:0:0:
225,43,61305,2,0,P|146:26|72:41,1,138.240003375,2|2,3:2|3:2,0:0:0:0:
16,151,62116,6,0,L|9:293,1,138.240003375,6|2,0:1|3:2,0:0:0:0:
54,349,62724,1,10,0:2:0:0:
54,349,62927,2,0,P|115:330|197:337,1,138.240003375,2|2,3:2|3:2,0:0:0:0:
323,364,63738,2,0,L|328:220,1,138.240003375,2|2,3:2|3:2,0:0:0:0:
421,123,64549,1,10,0:2:0:0:
319,29,64954,1,0,3:2:0:0:
225,131,65359,6,0,B|187:160|187:160|126:168|87:128,1,138.240003375,6|2,0:2|3:2,0:0:0:0:
46,177,65967,1,10,0:2:0:0:
46,177,66170,2,0,L|41:31,1,138.240003375,2|2,3:2|3:2,0:0:0:0:
177,15,66981,1,2,3:2:0:0:
238,138,67386,1,2,3:2:0:0:
363,81,67792,2,0,P|431:70|497:88,1,138.240003375,2|2,3:2|3:2,0:0:0:0:
427,208,68603,6,0,B|415:250|415:250|435:291|414:348,1,138.240003375,6|2,0:1|3:2,0:0:0:0:
351,349,69211,1,10,0:2:0:0:
351,349,69413,2,0,P|290:330|208:337,1,138.240003375,2|2,0:2|3:2,0:0:0:0:
81,360,70224,2,0,B|93:318|93:318|73:277|91:225,1,138.240003375,2|2,3:2|3:2,0:0:0:0:
205,148,71035,1,2,3:2:0:0:
325,219,71440,1,8,0:2:0:0:
447,154,71846,6,0,B|464:102|447:62|447:62|396:42,1,138.240003375,6|0,3:2|3:2,0:0:0:0:
343,66,72454,1,8,0:2:0:0:
343,66,72657,2,0,L|203:55,1,138.240003375,0|10,3:2|0:2,0:0:0:0:
55,26,73467,1,12,0:2:0:0:
54,346,75089,6,0,B|68:250|68:250|121:213|169:256,1,192.000007324219,6|0,3:1|3:0,0:0:0:0:
223,315,76305,1,10,0:0:0:0:
315,290,76711,2,0,B|416:285,1,96.0000036621095,6|8,0:1|0:0,0:0:0:0:
482,221,77522,2,0,P|495:155|485:117,1,96.0000036621095,0|8,3:0|0:0,0:0:0:0:
406,79,78332,6,0,B|336:74|336:74|275:37|275:37|215:57,1,192.000007324219,6|0,3:1|3:0,0:0:0:0:
181,138,79549,1,8,0:0:0:0:
229,220,79954,2,0,B|243:270|243:270|219:317,1,96.0000036621095,6|8,3:1|0:0,0:0:0:0:
127,320,80765,2,0,L|34:309,2,72.0000027465821,2|2|8,3:3|0:0|0:0,0:0:0:0:
163,369,81576,5,4,3:2:0:0:
388,97,88062,5,4,3:2:0:0:
161,60,89684,1,0,3:2:0:0:
124,287,91305,1,0,3:2:0:0:
351,324,92927,1,0,3:2:0:0:
256,192,93738,2,0,L|142:178,1,102.4,8|8,0:0|3:0,0:0:0:0:
52,229,94549,6,0,B|11:218|11:218|-8:180|6:141,1,115.199996484375,6|0,3:2|3:2,0:0:0:0:
31,92,95157,1,8,0:2:0:0:
31,92,95359,2,0,L|162:79,1,115.199996484375,2|2,3:2|0:2,0:0:0:0:
265,36,96170,2,0,L|396:49,1,115.199996484375,2|0,3:2|3:2,0:0:0:0:
446,64,96778,1,8,0:0:0:0:
446,64,96981,2,0,B|457:96|438:134|438:134|397:145,1,115.199996484375,2|2,3:2|3:2,0:0:0:0:
281,194,97792,6,0,L|160:184,1,115.199996484375,6|0,3:1|3:2,0:0:0:0:
110,207,98400,1,8,0:2:0:0:
110,206,98603,2,0,B|78:255|78:255|96:310,1,115.199996484375,2|2,3:2|0:2,0:0:0:0:
226,349,99413,1,12,0:1:0:0:
226,349,99616,1,8,0:2:0:0:
226,349,99819,2,0,B|274:317|274:317|329:335,2,115.199996484375,2|6|8,3:2|3:3|3:2,0:0:0:0:
95,308,101035,6,0,B|85:179,1,115.199996484375,6|2,3:2|3:2,0:0:0:0:
96,134,101643,1,8,0:2:0:0:
96,133,101846,2,0,P|147:108|202:120,1,115.199996484375,2|2,3:2|3:2,0:0:0:0:
283,217,102657,2,0,P|336:234|390:214,1,115.199996484375,2|2,3:2|3:3,0:0:0:0:
438,172,103265,1,8,0:0:0:0:
438,172,103467,2,0,B|447:57,1,115.199996484375,2|2,3:2|3:2,0:0:0:0:
320,62,104278,6,0,B|287:54|287:54|256:62|256:62|208:53,1,115.199996484375,6|0,3:1|3:2,0:0:0:0:
149,52,104886,1,8,0:2:0:0:
149,52,105089,2,0,P|119:101|119:164,1,115.199996484375,2|2,3:2|3:2,0:0:0:0:
242,216,105900,1,12,0:1:0:0:
242,216,106103,1,8,0:2:0:0:
242,216,106305,2,0,B|275:208|275:208|306:216|306:216|354:207,2,115.199996484375,2|10|8,3:2|3:2|3:2,0:0:0:0:
117,157,107522,6,0,B|91:112|110:56|110:56|63:19,2,153.6,6|10|2,3:2|0:0|0:2,0:0:0:0:
201,99,109143,2,0,B|245:35|245:35|331:17|369:78,1,204.8,2|2,3:2|3:2,0:0:0:0:
399,161,110359,1,8,0:0:0:0:
290,199,110765,6,0,L|190:183,2,86.3999973632813,6|2|2,3:2|3:2|3:2,0:0:0:0:
319,248,111576,2,0,L|303:348,2,86.3999973632813,2|2|10,3:2|0:0|3:3,0:0:0:0:
368,219,112386,6,0,B|413:203|413:203|476:216,1,96,10|10,3:2|3:2,0:0:0:0:
505,128,112994,1,10,0:0:0:0:
505,128,113197,2,0,B|520:81|507:47|507:47|479:33|456:27,1,128,10|2,0:0|0:0,0:0:0:0:
329,61,114008,6,0,B|304:47|273:43|273:43|229:66|174:40,1,138.240003375,6|2,0:2|3:2,0:0:0:0:
136,26,114616,1,10,0:2:0:0:
136,26,114819,2,0,P|159:80|144:161,1,138.240003375,2|2,3:2|3:2,0:0:0:0:
48,254,115630,1,2,3:2:0:0:
111,378,116035,1,2,3:2:0:0:
248,356,116440,2,0,L|401:354,1,138.240003375,2|2,3:2|3:2,0:0:0:0:
475,248,117251,6,0,P|493:186|468:106,1,138.240003375,6|2,0:1|3:2,0:0:0:0:
419,85,117859,1,10,0:2:0:0:
419,85,118062,2,0,B|378:78|347:98|347:98|316:96|276:73,1,138.240003375,2|2,3:2|3:2,0:0:0:0:
190,178,118873,2,0,B|186:220|215:247|215:247|221:284|198:317,1,138.240003375,2|2,3:2|3:2,0:0:0:0:
82,370,119684,1,10,0:2:0:0:
2,256,120089,1,0,3:2:0:0:
80,142,120494,6,0,B|94:102|73:68|73:68|78:31|99:13,1,138.240003375,6|2,0:2|3:2,0:0:0:0:
170,34,121103,1,10,0:2:0:0:
170,34,121305,2,0,B|216:50|216:50|314:41,1,138.240003375,2|2,3:2|3:2,0:0:0:0:
440,11,122116,1,2,3:2:0:0:
469,145,122522,1,2,3:2:0:0:
335,174,122927,2,0,B|245:165|245:165|199:181,1,138.240003375,2|2,3:2|3:2,0:0:0:0:
120,296,123738,6,0,B|209:304|209:304|255:288,1,138.240003375,6|2,0:1|3:2,0:0:0:0:
326,311,124346,1,10,0:2:0:0:
326,311,124549,2,0,L|335:166,1,138.240003375,2|2,0:2|3:2,0:0:0:0:
247,65,125359,2,0,B|204:55|204:55|154:67|154:67|113:58,1,138.240003375,2|2,3:2|3:2,0:0:0:0:
15,156,126170,1,2,3:2:0:0:
54,290,126576,1,8,0:2:0:0:
189,323,126981,6,0,B|232:313|232:313|281:325|281:325|323:316,1,138.240003375,6|0,3:2|3:2,0:0:0:0:
394,338,127589,1,8,0:2:0:0:
394,338,127792,2,0,L|400:200,1,138.240003375,0|10,3:2|0:2,0:0:0:0:
461,73,128603,1,12,0:2:0:0:
202,286,143197,6,0,L|194:95,1,179.19999453125,6|8,3:2|0:0,0:0:0:0:
310,286,144819,2,0,L|318:95,1,179.19999453125,2|8,3:0|0:0,0:0:0:0:
202,286,146440,6,0,L|187:95,1,179.19999453125,6|8,3:1|0:0,0:0:0:0:
310,286,148062,2,0,L|324:95,1,179.19999453125,2|10,3:2|0:0,0:0:0:0:
474,10,149684,5,6,3:2:0:0:
390,168,150494,1,8,0:0:0:0:
256,48,151305,1,2,3:0:0:0:
122,168,152116,1,8,0:0:0:0:
256,286,152927,5,6,3:1:0:0:
390,168,153738,1,12,0:1:0:0:
489,317,154549,2,0,P|423:298|372:312,1,111.999996582031,2|8,3:0|0:0,0:0:0:0:
300,345,155461,2,0,P|244:349|191:331,1,111.999996582031,8|12,0:0|3:3,0:0:0:0:
154,296,156170,6,0,B|108:274|56:300|56:300|-18:289,2,153.6,6|10|2,3:2|0:0|0:2,0:0:0:0:
247,254,157792,2,0,B|274:216|264:168|264:168|214:120|235:56,1,204.8,2|2,3:2|3:2,0:0:0:0:
322,14,159008,1,8,0:0:0:0:
410,65,159413,6,0,B|428:120|378:168|378:168|368:216|395:254,1,204.8,6|0,3:2|3:0,0:0:0:0:
456,357,161035,2,0,P|413:347|360:349,2,76.8,0|2|10,3:0|3:0|0:0,0:0:0:0:
496,325,161846,1,10,3:0:0:0:
369,163,162657,6,0,L|374:0,2,153.6,6|10|10,3:2|0:0|3:0,0:0:0:0:
351,264,164278,2,0,B|313:224|258:236|258:236|215:275|156:247,1,204.8,2|2,3:0|3:0,0:0:0:0:
99,169,165494,1,8,0:0:0:0:
202,117,165900,6,0,L|302:101,2,86.3999973632813,6|2|2,3:2|3:2|3:2,0:0:0:0:
148,97,166711,2,0,L|132:-3,2,86.3999973632813,2|2|10,3:2|0:0|3:3,0:0:0:0:
128,151,167522,6,0,B|78:162|78:162|55:204,2,96,14|10|10,3:1|3:2|0:0,0:0:0:0:
182,171,168332,2,0,L|338:157,1,128,2|8,3:0|0:0,0:0:0:0:
442,112,169143,6,0,B|428:152|428:152|435:212,1,100.799996923828,10|10,3:1|3:1,0:0:0:0:
463,306,169751,1,10,3:1:0:0:
463,306,169954,1,10,3:1:0:0:
340,360,170359,6,0,B|309:344|293:313|293:313|309:282|340:267,1,134.399995898438,2|6,0:0|3:2,0:0:0:0:
427,213,171170,2,0,P|436:163|419:115,1,102.4,2|0,0:0|0:0,0:0:0:0:
343,46,171981,2,0,B|289:56|242:33|242:33|216:81|156:67|156:67|100:37|44:67,1,307.2,10|0,0:0|3:0,0:0:0:0:
11,154,173603,6,0,L|12:263,1,102.4,10|4,0:0|3:1,0:0:0:0:
69,341,174413,2,0,P|112:351|180:327,1,102.4,2|0,0:0|0:0,0:0:0:0:
226,252,175224,2,0,B|269:224|324:250|324:250|351:207|410:208|410:208|469:235|508:188,1,307.2,10|14,0:0|0:1,0:0:0:0:
487,86,176846,1,10,0:0:0:0:
364,60,177251,6,0,B|318:43|318:43|270:69|211:39,1,138.240003375,6|2,0:2|3:2,0:0:0:0:
172,25,177859,1,10,0:2:0:0:
172,25,178062,2,0,B|129:20|88:45|88:45|24:37,1,138.240003375,2|2,3:2|3:2,0:0:0:0:
1,172,178873,1,2,3:2:0:0:
70,294,179278,1,2,3:2:0:0:
205,331,179684,2,0,L|358:329,1,138.240003375,2|2,3:2|3:2,0:0:0:0:
456,249,180494,6,0,P|474:187|449:107,1,138.240003375,6|2,0:1|3:2,0:0:0:0:
407,77,181103,1,10,0:2:0:0:
407,77,181305,2,0,B|364:72|320:90|320:90|303:76|264:65,1,138.240003375,2|2,3:2|3:2,0:0:0:0:
190,177,182116,2,0,B|191:218|215:246|215:246|213:282|189:316,1,138.240003375,2|2,3:2|3:2,0:0:0:0:
70,365,182927,1,10,0:2:0:0:
7,241,183332,1,8,3:2:0:0:
89,129,183738,6,0,B|92:113|110:95|110:95|105:79|108:51|108:51|126:22|161:19,1,138.240003375,6|2,0:2|3:2,0:0:0:0:
215,57,184346,1,10,0:2:0:0:
215,57,184549,2,0,B|355:68,1,138.240003375,2|2,3:2|3:2,0:0:0:0:
490,55,185359,1,2,3:2:0:0:
502,193,185765,1,2,3:2:0:0:
366,207,186170,2,0,B|226:196,1,138.240003375,2|2,3:2|3:2,0:0:0:0:
89,204,186981,6,0,P|55:265|82:346,1,138.240003375,6|2,0:1|3:2,0:0:0:0:
137,360,187589,1,10,0:2:0:0:
137,360,187792,2,0,B|177:341|177:341|217:359|269:349,1,138.240003375,2|2,3:2|3:2,0:0:0:0:
404,376,188603,2,0,B|423:336|423:336|405:296|414:243,1,138.240003375,2|2,3:2|3:2,0:0:0:0:
469,117,189413,1,10,0:2:0:0:
367,26,189819,1,0,3:2:0:0:
248,94,190224,6,0,B|215:129|215:129|193:172|214:231,1,138.240003375,6|2,0:2|3:2,0:0:0:0:
237,286,190832,1,10,0:2:0:0:
237,286,191035,2,0,L|94:272,1,138.240003375,2|2,3:2|3:2,0:0:0:0:
1,175,191846,1,2,3:2:0:0:
63,52,192251,1,2,3:2:0:0:
199,72,192657,2,0,L|337:56,1,138.240003375,2|2,3:2|3:2,0:0:0:0:
474,48,193467,6,0,B|429:65|429:65|408:111|432:166,1,138.240003375,6|2,0:1|3:2,0:0:0:0:
431,226,194076,1,10,0:2:0:0:
431,226,194278,2,0,B|438:271|406:310|406:310|358:315,1,138.240003375,2|2,0:2|3:2,0:0:0:0:
245,234,195089,2,0,B|238:189|270:150|270:150|247:107,1,138.240003375,2|2,3:2|3:2,0:0:0:0:
134,27,195900,1,2,3:2:0:0:
23,110,196305,1,8,0:2:0:0:
67,241,196711,6,0,B|79:289|67:333|67:333|108:360,1,138.240003375,6|0,3:2|3:2,0:0:0:0:
172,335,197319,1,8,0:2:0:0:
172,335,197522,2,0,L|312:324,1,138.240003375,0|10,3:2|0:2,0:0:0:0:
463,345,198332,1,12,0:2:0:0:
409,71,199954,6,0,L|265:56,1,125.439998851563,6|0,3:2|3:2,0:0:0:0:
149,87,200765,2,0,B|115:77|86:87|86:87|31:78,2,94.0799991386719,2|2|10,3:2|3:2|0:2,0:0:0:0:
190,141,201576,1,4,3:3:0:0:
144,271,201981,1,2,3:2:0:0:
266,334,202386,2,0,B|300:324|329:334|329:334|384:325,2,94.0799991386719,2|2|8,3:2|3:2|0:2,0:0:0:0:
202,361,203197,6,0,L|196:220,1,125.439998851563,6|0,3:1|3:2,0:0:0:0:
171,177,203805,1,8,0:2:0:0:
171,177,204008,2,0,P|119:161|73:166,2,94.0799991386719,2|2|10,3:2|3:2|0:2,0:0:0:0:
227,136,204819,1,6,3:3:0:0:
284,261,205224,1,2,3:2:0:0:
421,275,205630,1,6,3:3:0:0:
501,163,206035,1,10,3:2:0:0:
444,38,206440,6,0,L|294:24,1,125.439998851563,6|0,3:2|3:2,0:0:0:0:
199,94,207251,2,0,P|151:73|93:70,2,94.0799991386719,2|2|8,3:2|3:2|0:2,0:0:0:0:
228,156,208062,1,4,3:3:0:0:
364,136,208467,1,2,3:2:0:0:
434,254,208873,2,0,L|439:354,2,94.0799991386719,2|2|8,3:2|3:2|0:2,0:0:0:0:
401,193,209684,6,0,P|360:181|266:190,1,125.439998851563,6|0,3:1|3:2,0:0:0:0:
216,210,210292,1,8,3:2:0:0:
216,210,210494,2,0,B|216:186|223:169|223:169|210:142|207:119,2,94.0799991386719,2|2|10,3:2|3:2|0:2,0:0:0:0:
190,274,211305,1,6,3:3:0:0:
65,334,211711,1,2,3:2:0:0:
18,204,212116,2,0,L|23:90,2,94.0799991386719,6|2|2,3:1|3:0|3:0,0:0:0:0:
58,249,212927,6,0,P|89:235|121:232,1,57.5999982421876,2|2,0:0|0:0,0:0:0:0:
