osu file format v14

[General]
AudioFilename: audio.mp3
AudioLeadIn: 0
PreviewTime: 58366
Countdown: 0
SampleSet: Soft
StackLeniency: 0.4
Mode: 0
LetterboxInBreaks: 0
WidescreenStoryboard: 1

[Editor]
DistanceSpacing: 0.4
BeatDivisor: 4
GridSize: 32
TimelineZoom: 2.2

[Metadata]
Title:Ouka Enbu
TitleUnicode:桜花演武
Artist:Mitsuki Nakae
ArtistUnicode:中恵光城
Creator:Lasse
Version:Insane
Source:
Tags:ABSOLUTE CASTAWAY 刀心幻戯 憶 toushin gengi m3-40 Mirash Komore
BeatmapID:1458529
BeatmapSetID:688552

[Difficulty]
HPDrainRate:5
CircleSize:3.8
OverallDifficulty:7.4
ApproachRate:9
SliderMultiplier:2.8
SliderTickRate:1

[Events]
//Background and Video events
0,0,"bg.jpg",0,0
//Break Periods
2,130224,142597
//Storyboard Layer 0 (Background)
//Storyboard Layer 1 (Fail)
//Storyboard Layer 2 (Pass)
//Storyboard Layer 3 (Foreground)
//Storyboard Sound Samples

[TimingPoints]
495,405.405405405405,4,2,4,50,1,0
495,-166.666666666667,4,2,4,50,0,0
13113,-166.666666666667,4,2,1,5,0,0
13467,-100,4,2,4,80,0,0
25630,-90.9090909090909,4,2,4,80,0,0
26440,-166.666666666667,4,2,1,60,0,0
39413,-111.111111111111,4,2,4,70,0,0
52386,-142.857142857143,4,2,1,60,0,0
55630,-111.111111111111,4,2,1,70,0,0
57251,-100,4,2,4,70,0,0
58163,-100,4,2,4,50,0,0
58873,-90.9090909090909,4,2,4,80,0,1
64549,-125,4,2,4,70,0,0
65359,-90.9090909090909,4,2,4,80,0,1
71035,-125,4,2,4,70,0,0
71846,-90.9090909090909,4,2,4,80,0,1
73467,-90.9090909090909,4,2,4,70,0,0
75089,-133.333333333333,4,2,4,60,0,0
81576,-125,4,2,1,60,0,0
88062,-125,4,2,1,62,0,0
93738,-125,4,2,1,66,0,0
94549,-111.111111111111,4,2,4,70,0,0
107522,-142.857142857143,4,2,1,60,0,0
110765,-111.111111111111,4,2,1,70,0,0
112386,-100,4,2,4,70,0,0
114008,-90.9090909090909,4,2,4,80,0,1
119684,-125,4,2,4,70,0,0
120494,-90.9090909090909,4,2,4,80,0,1
126170,-111.111111111111,4,2,4,70,0,0
126981,-90.9090909090909,4,2,4,80,0,1
128603,-100,4,2,4,70,0,0
143197,-166.666666666667,4,2,4,54,0,0
149684,-166.666666666667,4,2,4,56,0,0
155055,-166.666666666667,4,2,1,65,0,0
155157,-166.666666666667,4,2,1,56,0,0
155461,-166.666666666667,4,2,1,65,0,0
155866,-166.666666666667,4,2,1,60,0,0
156170,-142.857142857143,4,2,1,60,0,0
165900,-111.111111111111,4,2,1,70,0,0
167522,-100,4,2,4,70,0,0
169143,-90.9090909090909,4,2,4,70,0,0
170359,-90.9090909090909,4,2,1,50,0,0
170765,-166.666666666667,4,2,4,60,0,0
171170,-166.666666666667,4,2,4,50,0,0
176440,-100,4,2,4,65,0,0
176744,-166.666666666667,4,2,4,70,0,0
177251,-90.9090909090909,4,2,4,80,0,1
182927,-125,4,2,4,70,0,0
183738,-90.9090909090909,4,2,4,80,0,1
189413,-125,4,2,4,70,0,0
190224,-86.9565217391304,4,2,4,80,0,1
195900,-111.111111111111,4,2,4,70,0,0
196711,-86.9565217391304,4,2,4,80,0,1
198332,-100,4,2,4,70,0,0
199954,-95.2380952380952,4,2,4,70,0,0
212116,-86.9565217391304,4,2,4,80,0,0
212927,-142.857142857143,4,2,4,50,0,0
213028,-142.857142857143,4,2,4,40,0,0
213130,-142.857142857143,4,2,4,30,0,0

[Colours]
Combo1 : 250,180,240
Combo2 : 110,190,225
Combo3 : 255,230,130
Combo4 : 150,230,140

[HitObjects]
99,73,495,6,0,P|123:108|133:149,1,83.9999974365235,4|0,0:3|0:0,0:0:0:0:
226,148,900,2,0,P|217:188|195:224,1,83.9999974365235,0|0,0:0|0:0,0:0:0:0:
262,289,1305,2,0,P|226:311|186:322,1,83.9999974365235,0|0,0:0|0:0,0:0:0:0:
214,358,1609,2,0,P|172:349|136:329,1,83.9999974365235,0|0,0:0|0:0,0:0:0:0:
110,290,1913,1,0,0:0:0:0:
133,180,2116,5,2,0:3:0:0:
211,226,2319,1,0,0:0:0:0:
304,201,2522,1,0,0:0:0:0:
304,201,2623,1,0,0:0:0:0:
304,201,2927,2,0,L|421:209,1,83.9999974365235,0|0,0:0|0:0,0:0:0:0:
361,244,3231,2,0,L|478:252,1,83.9999974365235,0|0,0:0|0:0,0:0:0:0:
461,293,3535,1,0,0:0:0:0:
499,184,3738,6,0,P|480:127|485:77,1,83.9999974365235,4|0,0:3|0:0,0:0:0:0:
389,122,4143,2,0,P|401:63|430:22,1,83.9999974365235,0|0,0:0|0:0,0:0:0:0:
500,16,4549,1,0,0:0:0:0:
484,107,4751,1,0,0:0:0:0:
484,107,4853,1,0,0:0:0:0:
417,47,5055,1,0,0:0:0:0:
417,47,5157,1,0,0:0:0:0:
311,73,5359,6,0,L|252:63,2,41.9999987182618,2|0|0,0:0|0:0|0:0,0:0:0:0:
270,66,5765,2,0,L|211:56,2,41.9999987182618,2|0|0,0:0|0:0|0:0,0:0:0:0:
240,164,6170,2,0,L|181:174,2,41.9999987182618,2|0|0,0:0|0:0|0:0,0:0:0:0:
229,59,6576,2,0,L|170:49,2,41.9999987182618,2|0|0,0:0|0:0|0:0,0:0:0:0:
198,171,6981,6,0,P|221:205|231:245,1,83.9999974365235,4|0,0:3|0:0,0:0:0:0:
310,294,7386,2,0,P|317:252|338:217,1,83.9999974365235,0|0,0:0|0:0,0:0:0:0:
426,186,7792,2,0,P|468:177|504:157,1,83.9999974365235,0|0,0:0|0:0,0:0:0:0:
469,125,8096,2,0,P|427:116|391:96,1,83.9999974365235,0|0,0:0|0:0,0:0:0:0:
382,51,8400,1,0,0:0:0:0:
272,30,8603,5,2,0:0:0:0:
239,116,8805,1,0,0:0:0:0:
147,102,9008,1,0,0:0:0:0:
147,102,9109,1,0,0:0:0:0:
147,102,9413,2,0,L|32:109,1,83.9999974365235,0|0,0:0|0:0,0:0:0:0:
37,145,9717,2,0,L|120:150,1,83.9999974365235,0|0,0:0|0:0,0:0:0:0:
136,193,10022,1,0,0:0:0:0:
37,248,10224,6,0,P|22:286|25:330,1,83.9999974365235,4|0,0:3|0:0,0:0:0:0:
106,372,10630,2,0,P|140:349|182:343,1,83.9999974365235,0|0,0:0|0:0,0:0:0:0:
270,368,11035,1,0,0:0:0:0:
337,306,11238,1,0,0:0:0:0:
337,306,11339,1,0,0:0:0:0:
425,346,11542,1,0,0:0:0:0:
425,346,11643,1,0,0:0:0:0:
464,243,11846,6,0,L|467:194,2,41.9999987182618,2|0|0,0:0|0:0|0:0,0:0:0:0:
360,184,12251,2,0,L|357:135,2,41.9999987182618,2|0|0,0:0|0:0|0:0,0:0:0:0:
466,201,12657,2,0,L|469:152,2,41.9999987182618,2|0|0,0:0|0:0|0:0,0:0:0:0:
357,142,13062,2,0,L|354:108,1,20.9999993591309,0|0,0:3|0:0,0:0:0:0:
181,205,13467,6,0,P|150:195|93:192,1,70,6|0,3:2|0:2,0:0:0:0:
66,120,13670,2,0,P|76:89|78:32,1,70,8|0,0:2|0:2,0:0:0:0:
151,6,13873,2,0,P|182:16|238:18,1,70,0|0,3:2|0:2,0:0:0:0:
266,90,14076,2,0,P|256:121|253:177,1,70,8|0,0:2|0:2,0:0:0:0:
366,211,14278,6,0,P|320:160|252:158,1,140,2|8,3:2|0:2,0:0:0:0:
253,264,14582,2,0,P|298:213|366:211,1,140,2|0,3:2|0:2,0:0:0:0:
443,249,14886,2,0,P|478:254|513:247,1,70,10|0,0:2|0:2,0:0:0:0:
335,359,15089,6,0,L|332:290,1,70,4|0,3:3|0:2,0:0:0:0:
253,264,15292,2,0,L|249:194,1,70,8|0,0:2|0:2,0:0:0:0:
316,138,15494,1,2,3:2:0:0:
334,84,15596,1,0,3:2:0:0:
306,35,15697,1,8,3:2:0:0:
250,31,15799,1,0,3:2:0:0:
209,68,15900,6,0,B|151:91|105:56|105:56|132:39,1,140,2|8,3:2|0:2,0:0:0:0:
148,154,16204,2,0,B|98:114|105:56|105:56|134:72,1,140,2|0,3:2|0:2,0:0:0:0:
43,142,16508,2,0,P|48:115|78:75,1,70,8|0,0:2|0:2,0:0:0:0:
209,68,16711,6,0,L|297:57,1,70,6|0,3:1|0:2,0:0:0:0:
341,3,16913,2,0,L|378:83,1,70,8|0,0:2|0:2,0:0:0:0:
443,108,17116,2,0,L|378:168,1,70,0|0,3:2|0:2,0:0:0:0:
374,237,17319,2,0,L|296:194,1,70,8|0,0:2|0:2,0:0:0:0:
179,231,17522,6,0,B|228:227|228:227|265:205|265:205|313:203,1,140,2|8,3:2|0:2,0:0:0:0:
292,306,17826,2,0,B|257:272|257:272|215:262|215:262|178:230,1,140,2|0,3:2|3:2,0:0:0:0:
92,265,18130,2,0,L|-4:258,1,70,10|0,0:2|0:2,0:0:0:0:
1,178,18332,5,6,3:3:0:0:
31,162,18434,1,0,0:2:0:0:
50,133,18535,1,8,0:2:0:0:
53,99,18636,1,0,0:2:0:0:
81,124,18738,5,2,3:2:0:0:
97,94,18839,1,0,0:2:0:0:
126,75,18940,1,8,0:2:0:0:
160,72,19042,1,0,0:2:0:0:
204,98,19143,5,6,3:3:0:0:
216,100,19244,1,0,0:2:0:0:
264,93,19346,5,10,0:2:0:0:
276,95,19447,1,0,0:2:0:0:
312,129,19549,5,10,3:2:0:0:
352,137,19650,1,10,3:2:0:0:
390,120,19751,1,10,3:2:0:0:
401,79,19853,1,10,3:2:0:0:
392,38,19954,6,0,P|360:23|305:20,1,70,6|0,3:2|0:2,0:0:0:0:
247,48,20157,2,0,P|212:52|178:45,1,70,8|0,0:2|0:2,0:0:0:0:
101,79,20359,2,0,P|97:114|83:146,1,70,0|0,3:2|0:2,0:0:0:0:
90,228,20562,2,0,P|110:255|122:288,1,70,8|0,0:2|0:2,0:0:0:0:
0,343,20765,6,0,B|11:245|11:245|18:270|30:282,1,140,2|8,3:2|0:2,0:0:0:0:
122,288,21069,2,0,B|109:191|109:191|103:216|91:228,1,140,2|0,3:2|0:2,0:0:0:0:
28,168,21373,2,0,L|18:91,1,70,8|0,0:2|0:2,0:0:0:0:
104,27,21576,6,0,P|135:14|172:10,1,70,4|0,3:3|0:2,0:0:0:0:
250,35,21778,2,0,P|282:48|316:52,1,70,8|0,0:2|0:2,0:0:0:0:
396,25,21981,1,2,3:2:0:0:
434,67,22082,1,0,3:2:0:0:
428,123,22184,1,8,3:2:0:0:
379,150,22285,1,0,3:2:0:0:
326,133,22386,6,0,B|257:145|257:145|280:211,1,140,2|8,3:2|0:2,0:0:0:0:
234,289,22690,2,0,B|303:277|303:277|280:211,1,140,2|0,3:2|0:2,0:0:0:0:
189,212,22994,2,0,L|105:199,1,70,8|0,0:2|0:2,0:0:0:0:
73,304,23197,6,0,P|94:317|121:365,1,70,6|0,3:1|0:2,0:0:0:0:
204,350,23400,2,0,P|213:316|234:289,1,70,8|0,0:2|0:2,0:0:0:0:
318,284,23603,2,0,P|342:308|355:341,1,70,0|0,3:2|0:2,0:0:0:0:
438,352,23805,2,0,P|453:321|480:299,1,70,8|0,3:2|0:2,0:0:0:0:
465,173,24008,6,0,P|498:233|480:299,1,140,2|8,3:2|0:2,0:0:0:0:
413,243,24312,2,0,P|403:181|465:173,1,140,2|0,3:2|3:2,0:0:0:0:
413,243,24616,2,0,L|320:224,1,70,10|0,0:2|0:2,0:0:0:0:
257,271,24819,5,6,3:3:0:0:
269,238,24920,1,0,0:2:0:0:
268,203,25022,1,8,0:2:0:0:
257,171,25123,1,0,0:2:0:0:
219,174,25224,5,2,3:2:0:0:
209,140,25326,1,0,0:2:0:0:
212,105,25427,1,8,0:2:0:0:
227,74,25528,1,0,0:2:0:0:
263,64,25630,6,0,B|302:59|331:81|331:81|372:111|406:98|427:63|408:26|364:19|346:54,2,231.000007049561,6|2|2,3:1|3:0|3:0,0:0:0:0:
150,58,26440,6,0,L|37:50,1,83.9999974365235,6|0,0:0|0:0,0:0:0:0:
5,132,26846,2,0,P|28:172|26:242,1,83.9999974365235,0|0,3:0|0:0,0:0:0:0:
3,288,27251,1,2,3:0:0:0:
68,340,27454,1,0,0:0:0:0:
149,254,27657,1,8,3:2:0:0:
229,277,27859,1,0,0:0:0:0:
341,241,28062,6,0,L|346:147,1,83.9999974365235,2|0,3:0|0:0,0:0:0:0:
350,150,28366,1,0,0:0:0:0:
356,144,28467,2,0,L|361:50,1,83.9999974365235,0|0,3:0|0:0,0:0:0:0:
433,17,28873,1,0,3:0:0:0:
487,85,29076,1,0,0:0:0:0:
360,60,29278,1,8,3:2:0:0:
360,60,29684,6,0,L|300:52,2,41.9999987182618,4|0|0,3:2|0:0|0:0,0:0:0:0:
415,122,30089,2,0,P|437:175|428:230,1,83.9999974365235,0|0,3:0|0:0,0:0:0:0:
433,208,30393,1,0,0:0:0:0:
430,216,30494,2,0,L|426:315,1,83.9999974365235,0|0,3:0|0:0,0:0:0:0:
311,350,30900,2,0,L|307:266,1,83.9999974365235,8|0,3:2|0:0,0:0:0:0:
256,160,31305,5,2,3:2:0:0:
188,314,31711,1,2,3:3:0:0:
34,246,32116,1,2,3:0:0:0:
102,92,32522,1,10,3:2:0:0:
145,203,32724,1,8,0:0:0:0:
150,196,32826,1,8,0:0:0:0:
155,189,32927,6,0,P|199:184|256:214,1,83.9999974365235,6|0,3:2|0:0,0:0:0:0:
317,241,33332,2,0,P|358:246|397:232,1,83.9999974365235,8|0,3:2|0:0,0:0:0:0:
402,226,33636,1,0,0:0:0:0:
406,218,33738,2,0,L|413:115,1,83.9999974365235,0|0,3:3|0:0,0:0:0:0:
302,88,34143,2,0,L|295:-15,1,83.9999974365235,8|8,3:2|0:0,0:0:0:0:
290,10,34447,1,8,0:0:0:0:
284,15,34549,6,0,P|244:36|198:28,1,83.9999974365235,2|0,3:0|0:0,0:0:0:0:
100,77,34954,2,0,P|59:56|13:64,1,83.9999974365235,8|0,3:2|0:0,0:0:0:0:
17,68,35258,1,0,0:0:0:0:
13,75,35359,2,0,L|8:188,1,83.9999974365235,0|0,3:0|0:0,0:0:0:0:
72,255,35765,1,8,3:2:0:0:
77,248,35866,2,0,P|118:227|164:235,1,83.9999974365235,8|8,0:0|0:0,0:0:0:0:
199,252,36170,6,0,L|205:158,1,83.9999974365235,6|0,3:2|0:0,0:0:0:0:
270,68,36576,1,8,3:2:0:0:
347,127,36778,1,0,0:0:0:0:
353,121,36880,1,0,0:0:0:0:
359,116,36981,2,0,P|399:102|447:104,1,83.9999974365235,0|0,3:0|0:0,0:0:0:0:
509,186,37386,2,0,L|505:291,1,83.9999974365235,8|8,3:2|0:0,0:0:0:0:
503,278,37690,1,8,0:0:0:0:
501,286,37792,6,0,L|407:279,1,83.9999974365235,2|0,3:2|3:0,0:0:0:0:
325,322,38197,2,0,L|231:315,1,83.9999974365235,10|0,3:2|3:0,0:0:0:0:
148,355,38603,1,10,3:2:0:0:
74,289,38805,1,8,0:0:0:0:
74,280,38907,1,8,0:0:0:0:
73,271,39008,5,10,0:3:0:0:
61,248,39109,1,8,0:3:0:0:
60,222,39211,1,12,0:3:0:0:
73,200,39312,1,12,0:3:0:0:
96,190,39413,6,0,L|233:180,1,125.999996154785,6|8,3:2|0:2,0:0:0:0:
297,226,39717,1,2,0:2:0:0:
297,226,39819,2,0,L|303:144,1,62.9999980773926,0|0,3:2|0:2,0:0:0:0:
342,83,40022,5,8,0:2:0:0:
342,83,40123,1,0,0:2:0:0:
342,83,40224,2,0,L|260:77,1,62.9999980773926,2|0,3:2|0:2,0:0:0:0:
202,33,40427,2,0,L|120:27,1,62.9999980773926,10|0,0:2|3:2,0:0:0:0:
62,72,40630,2,0,P|51:104|52:133,1,62.9999980773926,2|0,0:2|3:2,0:0:0:0:
66,219,40832,2,0,P|66:250|56:279,1,62.9999980773926,10|0,0:2|0:2,0:0:0:0:
9,367,41035,6,0,P|58:335|126:350,1,125.999996154785,2|8,3:2|0:2,0:0:0:0:
211,374,41339,1,0,0:2:0:0:
211,374,41440,2,0,L|216:290,1,62.9999980773926,0|0,3:2|3:2,0:0:0:0:
286,257,41643,5,8,0:2:0:0:
286,257,41744,1,0,0:2:0:0:
286,257,41846,2,0,P|359:266|394:299,1,62.9999980773926,2|0,3:2|0:2,0:0:0:0:
433,239,42049,2,0,P|414:213|405:183,1,62.9999980773926,10|0,0:2|3:2,0:0:0:0:
344,121,42251,2,0,P|299:179|253:193,1,62.9999980773926,2|0,3:2|3:2,0:0:0:0:
221,172,42454,2,0,P|202:146|193:116,1,62.9999980773926,10|0,0:2|0:2,0:0:0:0:
203,15,42657,6,0,P|229:69|193:117,1,125.999996154785,6|8,3:1|0:2,0:0:0:0:
111,142,42961,1,2,0:2:0:0:
111,142,43062,2,0,L|41:130,1,62.9999980773926,0|0,3:2|2:2,0:0:0:0:
0,207,43265,5,8,0:2:0:0:
0,207,43366,1,0,0:2:0:0:
0,207,43467,2,0,P|29:271|27:294,1,62.9999980773926,2|0,3:2|0:2,0:0:0:0:
96,318,43670,2,0,L|184:313,1,62.9999980773926,10|0,0:2|0:2,0:0:0:0:
240,279,43873,2,0,P|269:215|267:192,1,62.9999980773926,2|0,0:2|3:2,0:0:0:0:
225,146,44076,2,0,L|212:66,1,62.9999980773926,10|0,0:2|0:2,0:0:0:0:
300,6,44278,5,12,0:1:0:0:
328,154,44481,1,8,0:2:0:0:
401,23,44684,1,2,3:2:0:0:
397,38,44785,1,0,3:2:0:0:
394,53,44886,1,8,3:2:0:0:
390,69,44988,1,0,3:2:0:0:
387,83,45089,6,0,P|438:118|495:98,1,125.999996154785,6|8,3:3|0:2,0:0:0:0:
487,261,45494,1,8,3:2:0:0:
491,246,45596,1,8,3:3:0:0:
494,231,45697,1,8,3:3:0:0:
498,215,45799,1,8,3:3:0:0:
500,200,45900,6,0,P|449:165|392:185,1,125.999996154785,6|8,3:2|0:2,0:0:0:0:
321,239,46204,1,2,0:2:0:0:
321,239,46305,2,0,L|255:232,1,62.9999980773926,0|0,3:2|0:2,0:0:0:0:
179,272,46508,2,0,L|113:265,1,62.9999980773926,8|0,0:2|0:2,0:0:0:0:
242,378,46711,6,0,P|250:348|247:317,1,62.9999980773926,2|0,3:2|0:2,0:0:0:0:
179,272,46913,2,0,P|170:241|173:210,1,62.9999980773926,10|0,0:2|3:2,0:0:0:0:
237,149,47116,2,0,P|253:122|258:91,1,62.9999980773926,2|0,3:2|3:2,0:0:0:0:
332,43,47319,2,0,P|358:26|389:21,1,62.9999980773926,10|0,0:2|0:2,0:0:0:0:
496,36,47522,6,0,B|435:60|435:60|389:20,1,125.999996154785,2|8,3:2|0:2,0:0:0:0:
370,117,47826,1,0,0:2:0:0:
370,117,47927,2,0,P|380:144|388:194,1,62.9999980773926,0|0,3:2|3:2,0:0:0:0:
473,227,48130,5,8,0:2:0:0:
473,227,48231,1,0,0:2:0:0:
473,227,48332,2,0,P|463:254|455:304,1,62.9999980773926,2|0,3:2|3:2,0:0:0:0:
388,345,48535,2,0,L|321:337,1,62.9999980773926,10|0,0:2|0:2,0:0:0:0:
239,360,48738,2,0,P|206:354|172:352,1,62.9999980773926,2|0,3:2|0:2,0:0:0:0:
99,309,48940,2,0,P|88:279|82:248,1,62.9999980773926,10|0,0:2|0:2,0:0:0:0:
151,163,49143,6,0,B|227:172|227:172|268:146,1,125.999996154785,6|8,3:1|0:2,0:0:0:0:
332,84,49447,1,2,0:2:0:0:
332,84,49549,2,0,L|336:-11,1,62.9999980773926,0|0,3:2|2:2,0:0:0:0:
224,76,49751,5,8,0:2:0:0:
224,76,49853,1,0,0:2:0:0:
224,76,49954,2,0,L|213:0,1,62.9999980773926,2|0,3:2|0:2,0:0:0:0:
134,51,50157,2,0,L|62:39,1,62.9999980773926,10|0,0:2|0:2,0:0:0:0:
7,100,50359,2,0,L|14:171,1,62.9999980773926,2|0,3:2|3:2,0:0:0:0:
67,233,50562,2,0,L|55:309,1,62.9999980773926,10|0,0:2|0:2,0:0:0:0:
165,359,50765,5,12,0:1:0:0:
153,209,50967,1,8,0:2:0:0:
264,305,51170,1,2,3:2:0:0:
264,305,51272,1,0,3:2:0:0:
264,305,51373,1,0,3:2:0:0:
245,156,51576,5,10,3:2:0:0:
243,185,51677,1,8,0:0:0:0:
241,214,51778,1,8,0:2:0:0:
344,277,51981,5,8,3:2:0:0:
345,262,52082,1,8,3:3:0:0:
346,248,52184,1,8,3:3:0:0:
347,233,52285,1,8,3:3:0:0:
348,219,52386,6,0,B|405:235|405:235|498:213,1,146.999995513916,6|0,3:2|3:0,0:0:0:0:
490,214,52994,2,0,L|493:157,2,48.9999985046387,10|8|0,0:0|0:0|3:0,0:0:0:0:
309,134,53603,2,0,L|303:18,1,97.9999970092774,2|8,0:2|0:0,0:0:0:0:
199,72,54008,5,2,3:2:0:0:
166,70,54211,1,0,3:0:0:0:
133,68,54413,1,2,3:2:0:0:
101,66,54616,1,8,0:0:0:0:
27,130,54819,2,0,L|33:246,1,97.9999970092774,2|8,3:2|0:0,0:0:0:0:
104,303,55224,5,8,0:0:0:0:
106,310,55326,1,8,0:0:0:0:
109,319,55427,1,8,0:0:0:0:
111,327,55528,1,8,0:0:0:0:
114,336,55630,6,0,P|173:313|235:316,1,125.999996154785,6|0,3:2|3:0,0:0:0:0:
321,358,55934,2,0,L|325:285,1,62.9999980773926,2|8,3:2|0:0,0:0:0:0:
433,232,56238,2,0,L|429:159,1,62.9999980773926,2|8,3:2|0:0,0:0:0:0:
344,123,56440,5,2,3:2:0:0:
344,123,56542,2,0,L|348:50,1,62.9999980773926,8|0,0:2|3:3,0:0:0:0:
257,174,56744,1,2,0:0:0:0:
257,174,56846,2,0,L|247:90,1,62.9999980773926,8|0,0:2|3:3,0:0:0:0:
162,115,57049,2,0,L|172:31,1,62.9999980773926,10|8,3:3|3:3,0:0:0:0:
35,44,57251,6,0,B|75:65|75:65|168:52,1,140,10|0,3:2|3:0,0:0:0:0:
89,90,57555,2,0,B|67:130|67:130|80:223,1,140,10|0,3:2|3:0,0:0:0:0:
166,275,57859,6,0,L|172:180,1,70,10|0,0:0|0:0,0:0:0:0:
253,181,58062,2,0,L|247:86,1,70,10|0,0:0|0:0,0:0:0:0:
484,48,58873,6,0,P|413:26|355:73,1,154.000004699707,6|8,0:2|0:2,0:0:0:0:
327,161,59177,1,2,0:2:0:0:
241,195,59278,2,0,P|206:198|157:175,1,77.0000023498536,2|0,3:2|3:2,0:0:0:0:
313,252,59481,2,0,P|348:249|397:272,1,77.0000023498536,10|0,0:2|0:2,0:0:0:0:
505,321,59684,6,0,P|431:323|387:263,1,154.000004699707,2|8,3:2|0:2,0:0:0:0:
414,175,59988,1,2,0:2:0:0:
486,118,60089,2,0,L|487:31,1,77.0000023498536,2|0,3:2|0:2,0:0:0:0:
395,22,60292,2,0,L|369:103,1,77.0000023498536,10|0,0:2|0:2,0:0:0:0:
288,135,60494,6,0,L|283:57,1,77.0000023498536,2|0,3:2|0:2,0:0:0:0:
203,10,60697,2,0,L|194:87,1,77.0000023498536,10|0,0:2|0:2,0:0:0:0:
109,125,60900,6,0,L|102:24,1,77.0000023498536,2|0,3:2|0:2,0:0:0:0:
12,30,61103,2,0,L|3:110,1,77.0000023498536,10|0,0:2|0:2,0:0:0:0:
1,190,61305,6,0,B|54:186|54:186|96:206|96:206|149:203,1,154.000004699707,2|8,3:2|0:2,0:0:0:0:
238,239,61609,1,2,3:2:0:0:
326,209,61711,2,0,B|363:204|363:204|400:217,1,77.0000023498536,2|0,3:2|3:2,0:0:0:0:
406,309,61913,2,0,B|369:314|369:314|331:300,1,77.0000023498536,10|0,0:2|0:2,0:0:0:0:
238,239,62116,6,0,B|239:185|239:185|263:145|263:145|264:92,1,154.000004699707,6|8,0:1|0:2,0:0:0:0:
193,30,62420,1,2,0:2:0:0:
109,70,62522,2,0,B|72:75|72:75|34:61,1,77.0000023498536,2|0,3:2|3:2,0:0:0:0:
22,153,62724,2,0,B|27:190|27:190|13:227,1,77.0000023498536,10|0,0:2|0:2,0:0:0:0:
63,320,62927,6,0,B|165:302|165:302|212:335,1,154.000004699707,2|8,3:2|0:2,0:0:0:0:
296,355,63231,1,2,3:2:0:0:
379,315,63332,2,0,P|390:294|392:236,1,77.0000023498536,2|0,3:2|3:2,0:0:0:0:
358,155,63535,2,0,P|347:134|345:76,1,77.0000023498536,10|0,0:2|0:2,0:0:0:0:
264,218,63738,6,0,P|235:193|198:181,1,77.0000023498536,2|0,3:2|0:2,0:0:0:0:
108,200,63940,2,0,P|71:188|42:163,1,77.0000023498536,10|0,0:2|0:2,0:0:0:0:
20,68,64143,6,0,P|58:65|91:47,1,77.0000023498536,2|0,3:2|3:2,0:0:0:0:
182,62,64346,2,0,P|215:44|253:41,1,77.0000023498536,10|0,0:2|0:2,0:0:0:0:
343,81,64549,6,0,L|471:76,1,112,10|0,0:2|3:2,0:0:0:0:
455,77,64954,2,0,L|450:141,1,56,0|0,3:2|0:2,0:0:0:0:
442,209,65157,1,8,0:3:0:0:
442,225,65258,1,8,0:3:0:0:
441,241,65359,6,0,B|363:217|370:280|294:257,1,154.000004699707,6|8,0:2|0:2,0:0:0:0:
215,206,65663,1,2,0:2:0:0:
126,233,65765,2,0,P|109:268|107:359,1,77.0000023498536,2|0,3:2|3:2,0:0:0:0:
166,370,65967,2,0,P|210:363|252:345,1,77.0000023498536,10|0,0:2|0:2,0:0:0:0:
293,257,66170,6,0,B|244:250|244:250|219:302|240:353,1,154.000004699707,2|8,3:2|0:2,0:0:0:0:
327,379,66474,1,2,3:2:0:0:
414,333,66576,2,0,L|423:205,1,77.0000023498536,2|0,3:2|3:2,0:0:0:0:
460,173,66778,2,0,L|452:49,1,77.0000023498536,10|0,0:2|0:2,0:0:0:0:
360,178,66981,6,0,L|284:162,1,77.0000023498536,2|0,3:2|0:2,0:0:0:0:
194,187,67184,2,0,L|118:171,1,77.0000023498536,10|0,0:2|0:2,0:0:0:0:
104,61,67386,6,0,L|206:40,1,77.0000023498536,2|0,3:2|3:2,0:0:0:0:
272,42,67589,2,0,L|374:21,1,77.0000023498536,10|0,0:2|0:2,0:0:0:0:
463,47,67792,6,0,B|453:100|453:100|479:144|479:144|471:191,1,154.000004699707,2|8,3:2|0:2,0:0:0:0:
442,280,68096,1,2,3:2:0:0:
361,325,68197,2,0,B|325:308|325:308|289:319,1,77.0000023498536,2|0,3:2|3:2,0:0:0:0:
203,355,68400,2,0,B|168:368|168:368|130:355,1,77.0000023498536,10|0,0:2|0:2,0:0:0:0:
42,287,68603,6,0,B|33:233|33:233|60:190|60:190|53:143,1,154.000004699707,6|8,0:1|0:2,0:0:0:0:
100,62,68907,1,2,0:2:0:0:
184,99,69008,2,0,B|219:110|219:110|255:93,1,77.0000023498536,2|0,3:2|3:2,0:0:0:0:
334,143,69211,2,0,B|369:131|369:131|405:148,1,77.0000023498536,10|0,0:2|0:2,0:0:0:0:
434,235,69413,6,0,B|405:262|405:262|405:126,1,154.000004699707,2|8,0:2|0:2,0:0:0:0:
447,65,69717,1,2,3:2:0:0:
368,14,69819,2,0,B|275:4,1,77.0000023498536,2|0,3:2|3:2,0:0:0:0:
210,52,70022,2,0,B|117:42,1,77.0000023498536,10|0,0:2|0:2,0:0:0:0:
29,21,70224,6,0,P|43:51|45:97,1,77.0000023498536,2|0,3:2|0:2,0:0:0:0:
95,172,70427,2,0,P|81:202|79:248,1,77.0000023498536,10|0,0:2|0:2,0:0:0:0:
136,322,70630,6,0,B|229:312,1,77.0000023498536,2|0,3:2|3:2,0:0:0:0:
297,351,70832,2,0,B|390:341,1,77.0000023498536,10|0,0:2|0:2,0:0:0:0:
464,285,71035,6,0,L|466:142,1,112,2|8,3:2|3:2,0:0:0:0:
352,21,71440,1,8,0:2:0:0:
349,75,71542,1,8,0:3:0:0:
311,114,71643,1,8,3:3:0:0:
257,118,71744,1,8,3:3:0:0:
214,84,71846,6,0,B|137:61|143:119|66:96,1,154.000004699707,6|8,3:2|0:2,0:0:0:0:
1,163,72150,1,2,0:2:0:0:
1,163,72251,2,0,P|14:200|17:238,1,77.0000023498536,0|0,3:2|3:2,0:0:0:0:
108,252,72454,2,0,P|120:215|142:183,1,77.0000023498536,8|0,0:2|0:2,0:0:0:0:
235,185,72657,2,0,P|256:216|269:253,1,77.0000023498536,0|0,3:2|0:2,0:0:0:0:
235,352,72859,5,10,0:2:0:0:
235,352,72961,1,8,0:2:0:0:
235,352,73062,5,10,0:2:0:0:
211,312,73163,1,8,0:2:0:0:
226,268,73265,1,10,0:2:0:0:
269,253,73366,1,8,0:2:0:0:
310,272,73467,5,12,0:2:0:0:
421,215,75089,6,0,L|430:57,1,157.500006008148,6|0,3:1|3:0,0:0:0:0:
398,86,75494,2,0,P|347:86|301:62,1,105.000004005432,8|0,0:0|3:0,0:0:0:0:
293,52,75799,2,0,L|263:80,1,26.2500010013581,0|0,3:0|3:0,0:0:0:0:
283,46,75900,2,0,P|224:33|168:45,1,105.000004005432,0|0,3:0|0:0,0:0:0:0:
118,108,76305,2,0,L|114:254,1,105.000004005432,10|0,0:0|0:0,0:0:0:0:
121,254,76609,1,8,0:0:0:0:
132,294,76711,6,0,B|179:318|179:318|292:308,1,157.500006008148,6|0,0:1|3:3,0:0:0:0:
319,329,77116,2,0,L|324:212,1,105.000004005432,8|0,0:0|3:0,0:0:0:0:
389,116,77522,1,0,3:0:0:0:
449,227,77724,1,0,3:0:0:0:
323,224,77927,1,8,0:0:0:0:
299,221,78028,1,8,0:3:0:0:
277,219,78130,1,8,0:3:0:0:
254,218,78231,1,8,0:3:0:0:
231,215,78332,6,0,B|182:207|182:207|137:170|180:90,1,157.500006008148,6|0,3:1|3:0,0:0:0:0:
197,74,78738,2,0,L|60:64,1,105.000004005432,8|0,0:0|3:0,0:0:0:0:
88,76,79042,2,0,P|60:67|43:56,1,26.2500010013581,0|0,3:0|3:0,0:0:0:0:
85,86,79143,2,0,L|79:232,1,105.000004005432,0|0,3:0|0:0,0:0:0:0:
129,296,79549,1,8,0:0:0:0:
161,269,79650,2,0,P|210:253|261:263,1,105.000004005432,8|8,0:0|0:0,0:0:0:0:
295,288,79954,6,0,B|350:280|350:280|392:298|392:298|447:292,1,157.500006008148,6|0,3:1|3:0,0:0:0:0:
481,316,80359,2,0,L|485:167,1,105.000004005432,8|0,0:0|3:0,0:0:0:0:
390,103,80765,5,2,3:3:0:0:
295,288,81069,1,2,0:0:0:0:
182,113,81373,1,8,0:0:0:0:
179,154,81474,1,0,0:0:0:0:
176,195,81576,5,4,3:2:0:0:
336,189,81981,1,8,0:0:0:0:
177,174,82386,1,0,3:2:0:0:
334,209,82792,1,8,0:0:0:0:
185,154,83197,1,0,3:2:0:0:
326,229,83603,1,8,0:0:0:0:
197,137,84008,1,0,3:2:0:0:
314,246,84413,1,8,0:0:0:0:
213,124,84819,1,0,3:2:0:0:
298,259,85224,1,8,0:0:0:0:
232,115,85630,1,0,3:2:0:0:
279,268,86035,1,8,0:0:0:0:
252,111,86440,1,0,3:2:0:0:
259,272,86846,1,8,0:0:0:0:
273,113,87251,1,0,3:2:0:0:
238,270,87657,1,8,0:0:0:0:
277,91,88062,5,4,3:2:0:0:
234,292,88467,1,8,0:0:0:0:
250,88,88873,1,0,3:2:0:0:
261,295,89278,1,8,0:0:0:0:
224,93,89684,1,0,3:2:0:0:
287,290,90089,1,8,0:0:0:0:
200,105,90494,1,0,3:2:0:0:
311,278,90900,1,8,0:0:0:0:
179,122,91305,1,0,3:2:0:0:
332,261,91711,1,8,0:0:0:0:
164,144,92116,1,0,3:2:0:0:
347,239,92522,1,8,0:0:0:0:
155,170,92927,1,0,3:2:0:0:
356,213,93332,1,8,0:0:0:0:
287,121,93535,5,0,3:0:0:0:
284,112,93636,1,0,3:0:0:0:
281,101,93738,1,8,0:0:0:0:
379,63,93940,5,8,3:2:0:0:
395,69,94042,1,8,3:2:0:0:
410,69,94143,1,8,3:0:0:0:
426,63,94244,1,8,3:0:0:0:
436,51,94346,1,12,3:0:0:0:
442,37,94447,1,12,3:0:0:0:
444,20,94549,6,0,L|436:164,1,125.999996154785,6|8,3:2|0:2,0:0:0:0:
502,206,94853,1,2,0:2:0:0:
502,206,94954,2,0,P|490:239|484:279,1,62.9999980773926,0|0,3:2|0:2,0:0:0:0:
409,336,95157,5,8,0:2:0:0:
409,336,95258,1,0,0:2:0:0:
409,336,95359,2,0,P|406:304|399:273,1,62.9999980773926,2|0,3:2|0:2,0:0:0:0:
357,195,95562,2,0,P|328:181|297:171,1,62.9999980773926,10|0,0:2|3:2,0:0:0:0:
209,169,95765,2,0,P|182:187|159:208,1,62.9999980773926,2|0,0:2|3:2,0:0:0:0:
112,284,95967,2,0,P|114:315|121:346,1,62.9999980773926,10|0,0:2|0:2,0:0:0:0:
234,367,96170,6,0,P|181:334|121:346,1,125.999996154785,2|8,3:2|0:2,0:0:0:0:
30,371,96474,1,0,0:2:0:0:
30,371,96576,2,0,L|33:290,1,62.9999980773926,0|0,3:2|3:2,0:0:0:0:
4,224,96778,2,0,L|-6:152,1,62.9999980773926,8|0,0:0|0:0,0:0:0:0:
20,76,96981,6,0,P|47:60|78:54,1,62.9999980773926,2|0,3:2|0:2,0:0:0:0:
160,86,97184,2,0,P|187:101|218:107,1,62.9999980773926,10|0,0:2|3:2,0:0:0:0:
299,140,97386,2,0,P|329:132|360:134,1,62.9999980773926,2|0,3:2|3:2,0:0:0:0:
439,175,97589,2,0,P|469:168|497:153,1,62.9999980773926,10|0,0:2|0:2,0:0:0:0:
465,8,97792,5,6,3:1:0:0:
462,23,97893,1,0,0:0:0:0:
459,38,97994,1,8,0:0:0:0:
456,54,98096,1,2,0:2:0:0:
453,69,98197,2,0,L|383:57,1,62.9999980773926,0|0,3:2|2:2,0:0:0:0:
296,28,98400,5,8,0:2:0:0:
296,28,98501,1,0,0:2:0:0:
296,28,98603,2,0,L|225:36,1,62.9999980773926,2|0,3:2|0:2,0:0:0:0:
147,57,98805,2,0,L|60:44,1,62.9999980773926,10|0,0:2|0:2,0:0:0:0:
10,92,99008,2,0,P|-1:121|0:152,1,62.9999980773926,2|0,0:2|3:2,0:0:0:0:
57,218,99211,2,0,L|144:231,1,62.9999980773926,10|0,0:2|0:2,0:0:0:0:
220,160,99413,5,12,0:1:0:0:
217,311,99616,1,8,0:2:0:0:
309,191,99819,1,2,3:2:0:0:
305,206,99920,1,0,3:2:0:0:
302,221,100022,1,8,3:2:0:0:
298,237,100123,1,0,3:2:0:0:
295,251,100224,6,0,P|346:286|403:266,1,125.999996154785,6|8,3:3|0:2,0:0:0:0:
473,132,100630,1,8,3:2:0:0:
477,117,100731,1,8,3:3:0:0:
480,102,100832,1,8,3:3:0:0:
484,86,100934,1,8,3:3:0:0:
486,71,101035,6,0,P|454:56|412:54,1,62.9999980773926,6|0,3:2|0:2,0:0:0:0:
346,89,101238,2,0,P|314:84|286:70,1,62.9999980773926,8|0,0:2|0:2,0:0:0:0:
200,84,101440,2,0,P|168:69|126:67,1,62.9999980773926,2|0,3:2|3:2,0:0:0:0:
68,116,101643,2,0,P|36:111|8:97,1,62.9999980773926,8|0,0:2|0:2,0:0:0:0:
120,6,101846,6,0,P|133:34|140:64,1,62.9999980773926,2|0,3:2|0:2,0:0:0:0:
147,153,102049,2,0,P|135:182|130:213,1,62.9999980773926,8|0,0:2|3:2,0:0:0:0:
215,236,102251,2,0,P|226:206|230:175,1,62.9999980773926,2|0,3:2|3:2,0:0:0:0:
286,109,102454,2,0,P|307:85|333:68,1,62.9999980773926,8|0,0:2|0:2,0:0:0:0:
422,155,102657,5,2,3:2:0:0:
407,154,102758,1,0,0:0:0:0:
391,153,102859,1,8,0:2:0:0:
375,152,102961,1,0,0:2:0:0:
360,151,103062,2,0,L|365:222,1,62.9999980773926,2|0,3:3|3:0,0:0:0:0:
435,267,103265,2,0,L|430:338,1,62.9999980773926,8|0,0:0|0:0,0:0:0:0:
347,358,103467,6,0,P|317:346|286:342,1,62.9999980773926,2|0,3:2|3:2,0:0:0:0:
200,365,103670,2,0,P|168:361|139:349,1,62.9999980773926,10|0,0:2|0:2,0:0:0:0:
100,269,103873,2,0,P|96:237|84:208,1,62.9999980773926,2|0,3:2|0:2,0:0:0:0:
32,136,104076,2,0,P|35:104|47:75,1,62.9999980773926,10|0,0:2|0:2,0:0:0:0:
159,106,104278,6,0,B|106:113|106:113|66:106|46:74,1,125.999996154785,6|8,3:1|0:2,0:0:0:0:
0,151,104582,1,2,0:2:0:0:
0,151,104684,2,0,L|-8:227,1,62.9999980773926,0|0,3:2|2:2,0:0:0:0:
68,283,104886,5,8,0:2:0:0:
68,283,104988,1,0,0:2:0:0:
68,283,105089,2,0,P|103:282|140:293,1,62.9999980773926,2|0,3:2|0:2,0:0:0:0:
207,330,105292,2,0,P|237:337|268:335,1,62.9999980773926,10|0,0:2|0:2,0:0:0:0:
350,303,105494,2,0,L|357:225,1,62.9999980773926,2|0,3:2|3:2,0:0:0:0:
313,161,105697,2,0,L|306:83,1,62.9999980773926,10|0,0:2|0:2,0:0:0:0:
441,27,105900,5,12,0:1:0:0:
402,164,106103,1,8,0:2:0:0:
353,21,106305,1,2,3:2:0:0:
353,21,106407,1,0,3:2:0:0:
353,21,106508,1,0,3:2:0:0:
227,104,106711,5,10,3:2:0:0:
199,99,106812,1,8,0:0:0:0:
170,93,106913,1,8,0:2:0:0:
80,166,107116,5,8,3:2:0:0:
81,151,107217,1,8,3:3:0:0:
82,137,107319,1,8,3:3:0:0:
83,122,107420,1,8,3:3:0:0:
84,108,107522,6,0,B|141:124|141:124|234:102,1,146.999995513916,6|0,3:2|3:0,0:0:0:0:
226,103,108130,2,0,L|229:46,2,48.9999985046387,10|8|0,0:0|0:0|3:0,0:0:0:0:
421,124,108738,2,0,L|425:9,1,97.9999970092774,2|8,0:2|0:0,0:0:0:0:
326,60,109143,5,2,3:2:0:0:
293,58,109346,1,0,3:0:0:0:
260,56,109549,1,2,3:2:0:0:
228,54,109751,1,8,0:0:0:0:
150,114,109954,2,0,L|156:230,1,97.9999970092774,2|8,3:2|0:0,0:0:0:0:
244,251,110359,5,8,0:0:0:0:
252,249,110461,1,8,0:0:0:0:
261,248,110562,1,8,0:0:0:0:
269,246,110663,1,8,0:0:0:0:
278,243,110765,6,0,P|322:291|304:356,1,125.999996154785,6|0,3:2|3:0,0:0:0:0:
225,363,111069,2,0,L|159:357,1,62.9999980773926,2|8,3:2|0:0,0:0:0:0:
56,281,111373,2,0,L|48:208,1,62.9999980773926,2|8,3:2|0:0,0:0:0:0:
141,191,111576,5,2,3:2:0:0:
141,191,111677,2,0,L|145:118,1,62.9999980773926,8|0,0:2|3:3,0:0:0:0:
248,210,111880,1,2,0:0:0:0:
248,210,111981,2,0,L|238:126,1,62.9999980773926,8|0,0:2|3:3,0:0:0:0:
348,219,112184,2,0,L|358:135,1,62.9999980773926,10|8,3:3|3:3,0:0:0:0:
476,176,112386,6,0,B|436:197|436:197|381:201|350:148,1,140,10|0,3:2|3:0,0:0:0:0:
398,82,112690,2,0,B|449:81|473:131|473:131|475:176,1,140,10|0,3:2|3:0,0:0:0:0:
423,241,112994,6,0,L|418:340,1,70,10|0,0:0|0:0,0:0:0:0:
334,360,113197,2,0,L|329:261,1,70,10|0,0:0|0:0,0:0:0:0:
238,151,113501,5,8,3:0:0:0:
238,151,113603,1,2,0:0:0:0:
158,236,113805,1,12,3:0:0:0:
154,223,113907,1,8,3:0:0:0:
150,210,114008,6,0,B|119:293|150:334|150:334|177:299,1,154.000004699707,6|8,0:2|0:2,0:0:0:0:
255,291,114312,1,2,0:2:0:0:
339,326,114413,2,0,L|423:312,1,77.0000023498536,2|0,3:2|0:2,0:0:0:0:
473,240,114616,2,0,P|479:195|471:162,1,77.0000023498536,10|0,0:2|0:2,0:0:0:0:
382,128,114819,6,0,B|344:133|314:108|314:108|266:87|231:118,1,154.000004699707,2|8,3:2|0:2,0:0:0:0:
163,171,115123,1,2,0:2:0:0:
76,138,115224,2,0,L|59:40,1,77.0000023498536,2|0,3:2|3:2,0:0:0:0:
140,10,115427,2,0,L|152:86,1,77.0000023498536,10|0,0:2|0:2,0:0:0:0:
237,113,115630,6,0,L|261:16,1,77.0000023498536,2|0,3:2|0:2,0:0:0:0:
347,45,115832,2,0,L|356:123,1,77.0000023498536,10|0,0:2|0:2,0:0:0:0:
292,189,116035,6,0,L|309:293,1,77.0000023498536,2|0,3:2|0:2,0:0:0:0:
397,263,116238,2,0,L|409:187,1,77.0000023498536,10|0,0:2|0:2,0:0:0:0:
503,147,116440,6,0,B|452:129|452:129|407:137|407:137|356:121,1,154.000004699707,2|8,3:2|0:2,0:0:0:0:
271,81,116744,1,2,3:2:0:0:
191,130,116846,2,0,B|154:135|154:135|117:122,1,77.0000023498536,2|0,3:2|0:2,0:0:0:0:
34,80,117049,2,0,B|25:121|25:121|-1:144,1,77.0000023498536,10|0,0:2|0:2,0:0:0:0:
61,261,117251,6,0,B|73:208|73:208|104:174|104:174|116:122,1,154.000004699707,6|8,0:1|0:2,0:0:0:0:
165,42,117555,1,2,0:2:0:0:
253,77,117657,2,0,B|290:82|290:82|328:68,1,77.0000023498536,2|0,3:2|3:2,0:0:0:0:
417,50,117859,2,0,B|454:54|454:54|486:77,1,77.0000023498536,10|0,0:2|0:2,0:0:0:0:
493,182,118062,6,0,B|452:156|452:156|394:176|347:151,1,154.000004699707,2|8,3:2|0:2,0:0:0:0:
257,169,118366,1,2,3:2:0:0:
192,234,118467,2,0,P|184:270|188:317,1,77.0000023498536,2|0,3:2|3:2,0:0:0:0:
108,360,118670,2,0,P|72:352|25:356,1,77.0000023498536,10|0,0:2|0:2,0:0:0:0:
4,265,118873,6,0,P|21:232|29:185,1,77.0000023498536,2|0,3:2|0:2,0:0:0:0:
61,106,119076,2,0,P|43:73|35:26,1,77.0000023498536,10|0,0:2|0:2,0:0:0:0:
155,101,119278,6,0,P|188:82|226:79,1,77.0000023498536,2|0,3:2|3:2,0:0:0:0:
309,122,119481,2,0,P|347:119|380:101,1,77.0000023498536,10|0,0:2|0:2,0:0:0:0:
405,9,119684,6,0,B|371:29|371:29|384:127,1,112,10|0,0:2|3:2,0:0:0:0:
381,101,120089,2,0,L|376:165,1,56,0|0,3:2|0:2,0:0:0:0:
348,233,120292,1,8,0:3:0:0:
348,249,120393,1,8,0:3:0:0:
349,265,120494,6,0,B|383:298|383:298|447:317|483:273,1,154.000004699707,6|8,0:2|0:2,0:0:0:0:
510,186,120799,1,2,0:2:0:0:
456,114,120900,2,0,P|419:102|381:100,1,77.0000023498536,2|0,3:2|3:2,0:0:0:0:
294,132,121103,2,0,P|255:130|219:118,1,77.0000023498536,10|0,0:2|0:2,0:0:0:0:
177,47,121305,6,0,B|176:31|187:11|187:11|228:57|219:120,1,154.000004699707,2|8,3:2|0:2,0:0:0:0:
193,207,121609,1,2,3:2:0:0:
110,250,121711,2,0,P|74:256|33:243,1,77.0000023498536,2|0,3:2|3:2,0:0:0:0:
40,153,121913,2,0,P|76:147|117:160,1,77.0000023498536,10|0,0:2|0:2,0:0:0:0:
193,207,122116,6,0,P|229:213|270:200,1,77.0000023498536,2|0,3:2|0:2,0:0:0:0:
263,110,122319,2,0,P|227:104|186:117,1,77.0000023498536,10|0,0:2|0:2,0:0:0:0:
114,158,122522,6,0,P|78:164|37:151,1,77.0000023498536,2|0,3:2|3:2,0:0:0:0:
44,61,122724,2,0,P|80:55|121:68,1,77.0000023498536,10|0,0:2|0:2,0:0:0:0:
214,106,122927,6,0,B|265:110|265:110|311:89|311:89|378:98,1,154.000004699707,2|8,3:2|0:2,0:0:0:0:
454,77,123231,1,2,3:2:0:0:
494,159,123332,2,0,B|499:198|499:198|481:236,1,77.0000023498536,2|0,3:2|3:3,0:0:0:0:
415,294,123535,2,0,B|376:299|376:299|338:281,1,77.0000023498536,10|0,0:2|0:2,0:0:0:0:
265,217,123738,6,0,B|214:213|214:213|168:234|168:234|101:225,1,154.000004699707,6|8,0:1|0:2,0:0:0:0:
28,260,124042,1,2,0:2:0:0:
76,338,124143,2,0,B|108:355|108:355|146:345,1,77.0000023498536,2|0,3:2|3:2,0:0:0:0:
236,323,124346,2,0,B|270:303|270:303|306:312,1,77.0000023498536,10|0,0:2|0:2,0:0:0:0:
431,343,124549,6,0,B|418:359|402:370|402:370|378:327|400:249,1,154.000004699707,2|8,0:2|0:2,0:0:0:0:
445,179,124853,1,2,3:2:0:0:
408,93,124954,2,0,P|382:79|317:75,1,77.0000023498536,2|0,3:2|3:2,0:0:0:0:
243,80,125157,2,0,P|195:74|170:59,1,77.0000023498536,10|0,0:2|0:2,0:0:0:0:
66,36,125359,6,0,P|80:66|82:112,1,77.0000023498536,2|0,3:2|0:2,0:0:0:0:
24,181,125562,2,0,P|10:211|8:257,1,77.0000023498536,10|0,0:2|0:2,0:0:0:0:
82,309,125765,6,0,B|160:297,1,77.0000023498536,2|0,3:2|3:2,0:0:0:0:
233,350,125967,2,0,L|325:353,1,77.0000023498536,10|0,0:2|0:2,0:0:0:0:
348,240,126170,6,0,B|317:272|317:272|310:353,1,125.999996154785,2|8,3:2|3:2,0:0:0:0:
491,288,126576,1,8,0:2:0:0:
483,235,126677,1,8,0:3:0:0:
440,200,126778,1,8,3:3:0:0:
386,201,126880,1,8,3:3:0:0:
348,240,126981,6,0,B|302:233|302:233|262:192|288:111,1,154.000004699707,6|8,3:2|0:2,0:0:0:0:
221,62,127285,1,2,0:2:0:0:
221,62,127386,2,0,P|182:54|148:38,1,77.0000023498536,0|0,3:2|3:2,0:0:0:0:
76,97,127589,2,0,P|97:128|109:165,1,77.0000023498536,8|0,0:2|0:2,0:0:0:0:
200,184,127792,2,0,P|179:215|166:252,1,77.0000023498536,0|0,3:2|0:2,0:0:0:0:
199,351,127994,5,10,0:2:0:0:
199,351,128096,1,8,0:2:0:0:
199,351,128197,5,10,0:2:0:0:
223,311,128299,1,8,0:2:0:0:
208,267,128400,1,10,0:2:0:0:
165,252,128501,1,8,0:2:0:0:
124,271,128603,5,12,0:2:0:0:
54,237,143197,5,6,3:2:0:0:
54,237,143400,2,0,L|52:191,2,41.9999987182618,2|2|0,0:0|0:0|3:3,0:0:0:0:
52,195,143805,2,0,L|50:149,2,41.9999987182618,2|2|8,0:0|0:0|0:0,0:0:0:0:
50,153,144211,2,0,L|48:107,2,41.9999987182618,2|2|0,0:0|0:0|3:0,0:0:0:0:
54,237,144616,1,2,0:0:0:0:
149,187,144819,5,2,3:0:0:0:
149,187,145022,2,0,L|212:183,2,41.9999987182618,2|2|0,0:0|0:0|3:0,0:0:0:0:
190,184,145427,2,0,L|253:180,2,41.9999987182618,2|2|8,0:0|0:0|0:0,0:0:0:0:
231,181,145832,2,0,L|294:177,2,41.9999987182618,2|0|0,0:0|0:0|3:0,0:0:0:0:
149,187,146238,1,2,0:0:0:0:
184,85,146440,5,6,3:1:0:0:
184,85,146643,2,0,L|184:17,2,41.9999987182618,2|2|0,0:0|0:0|3:0,0:0:0:0:
149,187,147049,1,2,0:0:0:0:
149,199,147150,1,2,0:0:0:0:
148,211,147251,1,8,0:0:0:0:
101,122,147454,2,0,P|78:117|55:115,2,41.9999987182618,2|2|0,0:0|0:0|3:0,0:0:0:0:
184,85,147859,1,2,0:0:0:0:
272,133,148062,6,0,L|277:37,1,83.9999974365235,2|0,3:2|0:0,0:0:0:0:
377,44,148467,2,0,L|386:131,1,83.9999974365235,0|0,3:0|0:0,0:0:0:0:
465,189,148873,5,10,0:0:0:0:
465,225,149076,1,0,0:0:0:0:
465,261,149278,1,0,3:0:0:0:
465,297,149481,1,0,0:0:0:0:
373,352,149684,5,6,3:2:0:0:
373,352,149886,2,0,L|315:347,2,41.9999987182618,2|2|0,0:0|0:0|3:3,0:0:0:0:
331,348,150292,2,0,L|273:343,2,41.9999987182618,2|2|8,0:0|0:0|0:0,0:0:0:0:
289,344,150697,2,0,L|231:339,2,41.9999987182618,2|2|0,0:0|0:0|3:0,0:0:0:0:
373,352,151103,1,2,0:0:0:0:
340,257,151305,5,2,3:0:0:0:
340,257,151508,2,0,L|339:194,2,41.9999987182618,2|2|0,0:0|0:0|3:0,0:0:0:0:
339,215,151913,2,0,L|338:152,2,41.9999987182618,2|2|8,0:0|0:0|0:0,0:0:0:0:
338,173,152319,2,0,L|337:110,2,41.9999987182618,2|0|0,0:0|0:0|3:0,0:0:0:0:
340,257,152724,1,2,0:0:0:0:
247,196,152927,5,6,3:1:0:0:
247,196,153130,2,0,L|184:188,2,41.9999987182618,2|2|0,0:0|0:0|3:0,0:0:0:0:
338,173,153535,1,2,0:0:0:0:
354,171,153636,1,2,0:0:0:0:
369,169,153738,1,12,0:1:0:0:
451,111,153940,2,0,L|459:48,2,41.9999987182618,2|2|0,0:0|0:0|3:0,0:0:0:0:
460,211,154346,1,2,0:0:0:0:
369,169,154549,5,2,3:0:0:0:
324,258,154751,2,0,L|220:251,1,83.9999974365235,8|0,0:0|0:0,0:0:0:0:
229,265,155055,1,8,0:0:0:0:
219,278,155157,1,8,3:3:0:0:
209,291,155258,1,8,3:3:0:0:
199,304,155359,2,0,L|145:303,1,41.9999987182618,8|8,3:3|0:0,0:0:0:0:
77,334,155562,5,8,0:0:0:0:
81,317,155663,1,8,0:0:0:0:
80,300,155765,1,8,0:0:0:0:
72,285,155866,1,12,3:3:0:0:
64,269,155967,1,12,3:3:0:0:
63,252,156069,1,12,3:3:0:0:
67,235,156170,6,0,B|76:183|76:183|44:146|58:94,1,146.999995513916,6|0,3:2|3:0,0:0:0:0:
57,95,156778,2,0,L|54:38,2,48.9999985046387,10|8|0,0:0|0:0|3:0,0:0:0:0:
252,105,157386,2,0,L|365:97,1,97.9999970092774,2|8,0:2|0:0,0:0:0:0:
449,148,157792,5,2,3:2:0:0:
442,181,157994,1,0,3:0:0:0:
435,213,158197,1,2,3:2:0:0:
429,244,158400,1,8,0:0:0:0:
355,308,158603,2,0,L|242:300,1,97.9999970092774,2|8,3:2|0:0,0:0:0:0:
158,285,159008,5,8,0:0:0:0:
176,273,159109,1,8,0:0:0:0:
187,257,159211,1,8,0:0:0:0:
195,238,159312,1,8,0:0:0:0:
196,217,159413,6,0,L|189:58,1,146.999995513916,6|0,3:2|3:0,0:0:0:0:
189,70,160022,2,0,L|191:16,2,48.9999985046387,10|8|0,0:0|0:0|3:0,0:0:0:0:
6,277,160832,5,10,0:0:0:0:
9,263,160934,1,8,0:0:0:0:
11,249,161035,1,0,3:0:0:0:
88,106,161339,1,2,3:0:0:0:
173,244,161643,1,10,0:0:0:0:
219,146,161846,5,10,3:0:0:0:
281,235,162049,1,0,3:0:0:0:
292,225,162150,2,0,P|334:216|407:242,1,97.9999970092774,8|8,3:3|3:0,0:0:0:0:
399,235,162454,1,8,0:0:0:0:
409,244,162555,1,8,0:0:0:0:
417,256,162657,6,0,B|447:214|447:214|457:168|425:125,1,146.999995513916,6|0,3:2|3:0,0:0:0:0:
424,124,163265,2,0,L|428:64,2,48.9999985046387,10|8|0,0:0|0:0|3:0,0:0:0:0:
278,128,163772,1,8,3:0:0:0:
269,116,163873,2,0,P|211:97|158:103,1,97.9999970092774,10|8,3:0|0:0,0:0:0:0:
61,83,164278,5,2,3:0:0:0:
68,116,164481,1,0,0:0:0:0:
75,148,164684,1,2,3:0:0:0:
81,179,164886,1,8,0:0:0:0:
155,243,165089,2,0,P|173:286|176:349,1,97.9999970092774,2|8,3:0|0:0,0:0:0:0:
281,362,165494,5,8,0:0:0:0:
283,355,165596,1,8,0:0:0:0:
286,346,165697,1,8,0:0:0:0:
288,338,165799,1,8,0:0:0:0:
291,329,165900,6,0,P|350:322|412:349,1,125.999996154785,6|0,3:2|3:0,0:0:0:0:
486,373,166204,2,0,L|490:310,1,62.9999980773926,2|8,3:2|0:0,0:0:0:0:
427,207,166508,2,0,L|423:134,1,62.9999980773926,2|8,3:2|0:0,0:0:0:0:
327,184,166711,5,2,3:2:0:0:
327,184,166812,2,0,L|331:111,1,62.9999980773926,8|0,0:2|3:3,0:0:0:0:
238,210,167015,1,2,0:0:0:0:
238,210,167116,2,0,L|228:126,1,62.9999980773926,8|0,0:2|3:3,0:0:0:0:
136,178,167319,2,0,L|146:94,1,62.9999980773926,10|8,3:3|3:3,0:0:0:0:
12,94,167522,6,0,B|102:88|102:88|143:115,1,140,14|0,3:1|3:0,0:0:0:0:
230,147,167826,2,0,B|271:119|271:119|361:125,1,140,10|0,3:2|3:0,0:0:0:0:
432,183,168130,6,0,L|431:261,1,70,10|0,0:0|0:0,0:0:0:0:
324,287,168332,1,2,3:0:0:0:
324,287,168434,2,0,L|317:198,1,70,8|0,0:0|3:0,0:0:0:0:
224,271,168738,5,8,0:0:0:0:
196,267,168839,1,8,3:0:0:0:
168,263,168940,1,8,3:0:0:0:
140,259,169042,1,8,3:0:0:0:
112,255,169143,6,0,B|72:245|29:256|29:256|-3:228|20:182,1,154.000004699707,10|0,3:1|3:0,0:0:0:0:
111,162,169447,2,0,B|152:162|190:184|190:184|229:165|218:115,1,154.000004699707,10|0,3:1|3:0,0:0:0:0:
211,25,169751,6,0,P|174:9|134:7,1,77.0000023498536,10|0,3:1|0:0,0:0:0:0:
39,32,169954,2,0,P|23:71|21:111,1,77.0000023498536,10|0,3:1|0:0,0:0:0:0:
21,105,170359,6,0,B|2:130|2:179|24:213|74:239|74:239|74:188|95:158|100:174|119:134|100:105,1,308.000009399414,2|6,0:0|3:2,0:0:0:0:
99,103,171170,2,0,L|205:108,2,83.9999974365235,2|0|0,0:0|0:0|0:0,0:0:0:0:
99,103,171880,1,0,3:0:0:0:
90,117,171981,6,0,P|82:158|87:199,1,83.9999974365235,10|0,0:0|0:0,0:0:0:0:
138,266,172386,1,0,3:0:0:0:
216,299,172589,1,0,0:0:0:0:
300,288,172792,1,0,3:0:0:0:
367,236,172994,1,0,0:0:0:0:
400,158,173197,1,0,3:0:0:0:
400,158,173501,1,0,3:0:0:0:
409,144,173603,6,0,P|416:102|411:61,1,83.9999974365235,10|0,0:0|0:0,0:0:0:0:
312,16,174008,2,0,P|273:32|241:59,1,83.9999974365235,4|0,3:1|0:0,0:0:0:0:
239,75,174312,1,0,3:0:0:0:
240,91,174413,1,2,0:0:0:0:
299,150,174616,1,0,0:0:0:0:
293,233,174819,1,0,3:0:0:0:
293,233,175123,1,0,3:0:0:0:
291,249,175224,6,0,P|251:257|210:246,1,83.9999974365235,10|0,0:0|0:0,0:0:0:0:
154,183,175630,1,0,3:0:0:0:
181,104,175832,1,0,0:0:0:0:
181,87,175934,1,0,0:0:0:0:
181,70,176035,1,0,3:0:0:0:
121,10,176238,1,0,0:0:0:0:
44,94,176440,6,0,B|95:88|95:88|139:108|187:84,1,140,14|0,0:1|0:0,0:0:0:0:
254,58,176744,1,8,0:0:0:0:
257,41,176846,1,10,0:0:0:0:
380,98,177049,1,12,3:0:0:0:
395,87,177150,1,8,3:0:0:0:
409,76,177251,6,0,B|390:114|390:114|383:228,1,154.000004699707,6|8,0:2|0:2,0:0:0:0:
359,314,177555,1,2,0:2:0:0:
272,281,177657,2,0,P|237:272|187:275,1,77.0000023498536,2|0,3:2|0:2,0:0:0:0:
113,315,177859,2,0,P|74:316|37:307,1,77.0000023498536,10|0,0:2|0:2,0:0:0:0:
0,203,178062,6,0,B|26:169|26:169|1:120|25:59,1,154.000004699707,2|8,3:2|0:2,0:0:0:0:
111,28,178366,1,2,0:2:0:0:
200,51,178467,2,0,L|294:40,1,77.0000023498536,2|0,3:2|3:2,0:0:0:0:
358,85,178670,2,0,L|434:76,1,77.0000023498536,10|0,0:2|0:2,0:0:0:0:
274,210,178873,6,0,P|270:171|279:134,1,77.0000023498536,2|0,3:2|0:2,0:0:0:0:
358,85,179076,2,0,P|377:118|383:155,1,77.0000023498536,10|0,0:2|0:2,0:0:0:0:
360,237,179278,6,0,P|356:275|365:312,1,77.0000023498536,2|0,3:2|0:2,0:0:0:0:
448,354,179481,2,0,P|467:320|473:283,1,77.0000023498536,10|0,0:2|0:2,0:0:0:0:
492,184,179684,6,0,B|445:181|400:210|400:210|396:184|383:156,1,154.000004699707,2|8,3:2|0:2,0:0:0:0:
312,94,179988,1,2,3:2:0:0:
223,123,180089,2,0,P|205:163|209:210,1,77.0000023498536,2|0,3:2|0:2,0:0:0:0:
258,271,180292,2,0,P|265:314|249:358,1,77.0000023498536,10|0,0:2|0:2,0:0:0:0:
112,307,180494,6,0,B|166:302|166:302|204:276|204:276|257:271,1,154.000004699707,6|8,0:1|0:2,0:0:0:0:
346,299,180799,1,2,0:2:0:0:
423,247,180900,2,0,B|433:211|433:211|424:171,1,77.0000023498536,2|0,3:2|3:2,0:0:0:0:
509,134,181103,2,0,B|490:101|490:101|456:79,1,77.0000023498536,10|0,0:2|0:2,0:0:0:0:
352,94,181305,6,0,B|297:83|297:83|251:103|195:77,1,154.000004699707,2|8,3:2|0:2,0:0:0:0:
128,22,181609,1,2,3:2:0:0:
48,68,181711,2,0,P|29:107|31:149,1,77.0000023498536,2|0,3:2|3:2,0:0:0:0:
89,210,181913,2,0,L|171:201,1,77.0000023498536,10|0,0:2|0:2,0:0:0:0:
275,165,182116,6,0,P|240:255|283:335,1,154.000004699707,2|8,3:2|0:2,0:0:0:0:
338,349,182420,1,0,0:2:0:0:
428,325,182522,2,0,P|462:235|419:155,1,154.000004699707,2|10,3:2|0:2,0:0:0:0:
364,141,182826,1,0,0:2:0:0:
275,165,182927,6,0,B|229:182|229:182|141:160,1,112,10|8,0:2|3:2,0:0:0:0:
168,167,183332,2,0,L|163:103,1,56,8|0,3:2|3:2,0:0:0:0:
7,128,183535,1,8,0:3:0:0:
11,112,183636,1,8,0:3:0:0:
16,95,183738,6,0,B|92:72|85:135|163:111,1,154.000004699707,6|8,0:2|0:2,0:0:0:0:
242,62,184042,1,2,0:2:0:0:
312,121,184143,2,0,L|324:197,1,77.0000023498536,2|0,3:2|0:2,0:0:0:0:
416,199,184346,2,0,L|428:123,1,77.0000023498536,10|0,0:2|0:2,0:0:0:0:
494,278,184549,6,0,B|480:194|480:194|444:173|402:209,1,154.000004699707,2|8,3:2|0:2,0:0:0:0:
358,271,184853,1,2,0:2:0:0:
297,340,184954,2,0,L|217:332,1,77.0000023498536,2|0,3:2|3:2,0:0:0:0:
129,352,185157,2,0,L|52:344,1,77.0000023498536,10|0,0:2|0:2,0:0:0:0:
149,191,185359,6,0,P|163:226|160:264,1,77.0000023498536,2|0,3:2|0:2,0:0:0:0:
69,242,185562,2,0,P|54:205|57:168,1,77.0000023498536,10|0,0:2|0:2,0:0:0:0:
139,118,185765,6,0,P|152:152|149:190,1,77.0000023498536,2|0,3:2|0:2,0:0:0:0:
57,169,185967,2,0,P|42:132|45:95,1,77.0000023498536,10|0,0:2|0:2,0:0:0:0:
106,27,186170,6,0,B|159:23|159:23|201:43|201:43|254:40,1,154.000004699707,2|8,3:2|0:2,0:0:0:0:
332,91,186474,1,2,3:2:0:0:
411,42,186576,2,0,B|448:37|448:37|485:50,1,77.0000023498536,2|0,3:2|0:2,0:0:0:0:
506,139,186778,2,0,B|493:242,1,77.0000023498536,10|0,0:2|0:2,0:0:0:0:
412,283,186981,6,0,B|359:275|359:275|316:293|316:293|262:285,1,154.000004699707,6|8,0:1|0:2,0:0:0:0:
174,274,187285,1,2,0:2:0:0:
109,207,187386,2,0,B|101:167|101:167|111:131,1,77.0000023498536,2|0,3:2|3:2,0:0:0:0:
203,121,187589,2,0,B|220:157|220:157|219:194,1,77.0000023498536,10|0,0:2|0:2,0:0:0:0:
174,274,187792,6,0,B|221:217|221:217|263:285,1,154.000004699707,2|8,3:2|0:2,0:0:0:0:
338,339,188096,1,2,3:2:0:0:
412,283,188197,2,0,L|424:204,1,77.0000023498536,2|0,3:2|3:2,0:0:0:0:
462,122,188400,2,0,L|450:45,1,77.0000023498536,10|0,0:2|0:2,0:0:0:0:
369,127,188603,6,0,P|340:102|303:90,1,77.0000023498536,2|0,3:2|0:2,0:0:0:0:
211,82,188805,2,0,P|176:98|138:100,1,77.0000023498536,10|0,0:2|0:2,0:0:0:0:
103,186,189008,6,0,P|128:214|141:250,1,77.0000023498536,2|0,3:2|3:2,0:0:0:0:
212,312,189211,2,0,P|246:329|284:332,1,77.0000023498536,10|0,0:2|0:2,0:0:0:0:
314,229,189413,6,0,B|290:259|290:259|284:335,1,112,10|0,0:2|3:2,0:0:0:0:
284,332,189819,2,0,L|347:337,1,56,0|0,3:2|0:2,0:0:0:0:
438,366,190022,1,8,0:3:0:0:
453,367,190123,1,8,0:3:0:0:
469,367,190224,6,0,B|498:353|498:353|523:277|473:225,1,161.000003070831,6|8,0:2|0:2,0:0:0:0:
397,178,190528,1,2,0:2:0:0:
313,228,190630,2,0,P|273:232|230:214,1,80.5000015354157,2|0,3:2|3:2,0:0:0:0:
185,135,190832,2,0,P|222:121|262:125,1,80.5000015354157,10|0,0:2|0:2,0:0:0:0:
338,30,191035,6,0,B|294:18|294:18|253:64|262:127,1,161.000003070831,2|8,3:2|0:2,0:0:0:0:
235,218,191339,1,2,3:2:0:0:
144,250,191440,2,0,P|108:256|67:243,1,80.5000015354157,2|0,3:2|3:2,0:0:0:0:
77,146,191643,2,0,P|113:140|154:153,1,80.5000015354157,10|0,0:2|0:2,0:0:0:0:
235,218,191846,6,0,P|273:231|313:226,1,80.5000015354157,2|0,3:2|0:2,0:0:0:0:
339,132,192049,2,0,P|301:119|261:124,1,80.5000015354157,10|0,0:2|0:2,0:0:0:0:
312,226,192251,6,0,P|350:239|390:234,1,80.5000015354157,2|0,3:2|3:2,0:0:0:0:
416,140,192454,2,0,P|378:127|338:132,1,80.5000015354157,10|0,0:2|0:2,0:0:0:0:
442,285,192657,6,0,B|452:178|452:178|415:139,1,161.000003070831,2|8,3:2|0:2,0:0:0:0:
328,95,192961,1,2,3:2:0:0:
259,162,193062,2,0,B|159:150,1,80.5000015354157,2|0,3:2|3:3,0:0:0:0:
93,106,193265,2,0,B|76:68|76:68|92:32,1,80.5000015354157,10|0,0:2|0:2,0:0:0:0:
194,2,193467,6,0,B|245:-2|245:-2|291:19|291:19|355:13,1,161.000003070831,6|8,0:1|0:2,0:0:0:0:
447,25,193772,1,2,0:2:0:0:
504,102,193873,2,0,B|491:186,1,80.5000015354157,2|0,3:2|3:2,0:0:0:0:
412,237,194076,2,0,B|377:216|377:216|331:222,1,80.5000015354157,10|0,0:2|0:2,0:0:0:0:
297,307,194278,6,0,B|328:338|328:338|338:213,1,161.000003070831,2|8,0:2|0:2,0:0:0:0:
295,133,194582,1,2,3:2:0:0:
197,147,194684,2,0,P|158:142|121:125,1,80.5000015354157,2|0,3:2|3:2,0:0:0:0:
159,31,194886,2,0,P|199:35|235:52,1,80.5000015354157,10|0,0:2|0:2,0:0:0:0:
295,133,195089,6,0,P|334:140|375:134,1,80.5000015354157,2|0,3:2|0:2,0:0:0:0:
406,38,195292,2,0,P|366:29|327:36,1,80.5000015354157,10|0,0:2|0:2,0:0:0:0:
235,52,195494,6,0,P|195:47|158:30,1,80.5000015354157,2|0,3:2|3:2,0:0:0:0:
121,125,195697,2,0,P|160:129|197:146,1,80.5000015354157,10|0,0:2|0:2,0:0:0:0:
137,235,195900,6,0,B|106:203|106:203|98:157|121:124,1,125.999996154785,2|8,3:2|3:2,0:0:0:0:
247,276,196305,1,8,0:2:0:0:
300,268,196407,1,8,0:3:0:0:
335,225,196508,1,8,3:3:0:0:
334,171,196609,1,8,3:3:0:0:
295,133,196711,6,0,B|305:21|305:21|339:81,1,161.000003070831,6|8,3:2|0:2,0:0:0:0:
424,101,197015,1,2,0:2:0:0:
424,101,197116,2,0,L|510:92,1,80.5000015354157,0|0,3:2|3:2,0:0:0:0:
505,189,197319,2,0,L|424:197,1,80.5000015354157,8|0,0:2|0:2,0:0:0:0:
429,294,197522,2,0,L|509:285,1,80.5000015354157,0|0,3:2|0:2,0:0:0:0:
399,373,197724,5,10,0:2:0:0:
399,373,197826,1,8,0:2:0:0:
399,373,197927,5,10,0:2:0:0:
432,340,198028,1,8,0:2:0:0:
429,294,198130,1,10,0:2:0:0:
391,268,198231,1,8,0:2:0:0:
347,276,198332,5,12,0:2:0:0:
138,343,199954,6,0,P|103:329|67:327,1,73.4999977569581,6|0,3:2|0:2,0:0:0:0:
20,251,200157,2,0,P|33:216|35:180,1,73.4999977569581,8|0,0:2|0:2,0:0:0:0:
112,133,200359,2,0,P|146:146|182:148,1,73.4999977569581,0|0,3:2|0:2,0:0:0:0:
230,225,200562,2,0,P|216:259|214:295,1,73.4999977569581,8|0,0:2|0:2,0:0:0:0:
340,263,200765,6,0,P|297:208|229:225,1,146.999995513916,2|8,3:2|0:2,0:0:0:0:
182,148,201069,2,0,P|224:93|292:110,1,146.999995513916,2|0,3:2|0:2,0:0:0:0:
367,157,201373,2,0,P|402:162|436:147,1,73.4999977569581,10|0,0:2|0:2,0:0:0:0:
424,38,201576,6,0,P|389:33|355:48,1,73.4999977569581,4|0,3:3|0:2,0:0:0:0:
292,110,201778,2,0,P|256:115|222:101,1,73.4999977569581,8|0,0:2|0:2,0:0:0:0:
119,30,201981,1,2,3:2:0:0:
173,14,202082,1,0,3:2:0:0:
220,44,202184,1,8,3:2:0:0:
223,101,202285,1,0,3:2:0:0:
182,140,202386,6,0,B|146:196|188:244|188:244|195:231|203:208,1,146.999995513916,2|8,3:2|0:2,0:0:0:0:
264,262,202690,2,0,B|229:200|171:215|171:215|178:231|188:244,1,146.999995513916,2|0,3:2|0:2,0:0:0:0:
264,262,202994,2,0,P|302:269|348:252,1,73.4999977569581,8|0,0:2|0:2,0:0:0:0:
174,321,203197,6,0,L|96:309,1,73.4999977569581,6|0,3:1|0:2,0:0:0:0:
21,345,203400,2,0,L|8:267,1,73.4999977569581,8|0,0:2|0:2,0:0:0:0:
8,183,203603,2,0,L|20:110,1,73.4999977569581,0|0,3:2|0:2,0:0:0:0:
104,134,203805,2,0,L|176:122,1,73.4999977569581,8|0,0:2|0:2,0:0:0:0:
317,152,204008,6,0,B|288:146|260:144|260:144|234:127|234:127|198:126|175:122,1,146.999995513916,2|8,3:2|0:2,0:0:0:0:
188,217,204312,2,0,B|214:203|240:194|240:194|261:171|261:171|296:161|316:151,1,146.999995513916,2|0,3:2|3:2,0:0:0:0:
405,143,204616,2,0,L|422:61,1,73.4999977569581,10|0,0:2|0:2,0:0:0:0:
327,24,204819,5,6,3:3:0:0:
292,19,204920,1,0,0:2:0:0:
257,14,205022,1,8,0:2:0:0:
222,10,205123,1,0,0:2:0:0:
192,44,205224,5,2,3:2:0:0:
157,39,205326,1,0,0:2:0:0:
122,35,205427,1,8,0:2:0:0:
88,31,205528,1,0,0:2:0:0:
47,63,205630,5,6,3:3:0:0:
49,75,205731,1,0,0:2:0:0:
86,110,205832,5,10,0:2:0:0:
84,122,205934,1,0,0:2:0:0:
47,158,206035,5,10,3:2:0:0:
55,201,206136,1,10,3:2:0:0:
63,244,206238,1,10,3:2:0:0:
71,287,206339,1,10,3:2:0:0:
79,330,206440,6,0,L|163:320,1,73.4999977569581,6|0,3:2|0:2,0:0:0:0:
215,258,206643,2,0,L|225:174,1,73.4999977569581,8|0,0:2|0:2,0:0:0:0:
312,188,206846,2,0,L|320:260,1,73.4999977569581,0|0,3:2|0:2,0:0:0:0:
384,324,207049,2,0,L|456:332,1,73.4999977569581,8|0,0:2|0:2,0:0:0:0:
509,254,207251,6,0,B|483:160|483:160|431:140,1,146.999995513916,2|8,3:2|0:2,0:0:0:0:
312,188,207555,2,0,B|408:184|408:184|440:138,1,146.999995513916,2|0,3:2|0:2,0:0:0:0:
387,68,207859,2,0,L|312:58,1,73.4999977569581,8|0,0:2|0:2,0:0:0:0:
227,78,208062,6,0,P|210:121|218:163,1,73.4999977569581,4|0,3:3|0:2,0:0:0:0:
235,232,208265,2,0,P|235:268|220:301,1,73.4999977569581,8|0,0:2|0:2,0:0:0:0:
104,349,208467,1,2,3:2:0:0:
120,294,208569,1,0,3:2:0:0:
172,271,208670,1,8,3:2:0:0:
220,301,208772,1,0,3:2:0:0:
231,355,208873,6,0,B|325:362|325:362|369:315,1,146.999995513916,2|8,3:2|0:2,0:0:0:0:
437,278,209177,2,0,B|343:285|343:285|299:238,1,146.999995513916,2|0,3:2|0:2,0:0:0:0:
343,165,209481,2,0,L|352:84,1,73.4999977569581,8|0,0:2|0:2,0:0:0:0:
303,0,209684,6,0,P|274:21|255:52,1,73.4999977569581,6|0,3:1|0:2,0:0:0:0:
174,19,209886,2,0,P|168:55|177:90,1,73.4999977569581,8|0,0:2|0:2,0:0:0:0:
95,124,210089,2,0,P|116:153|147:172,1,73.4999977569581,0|0,3:2|0:2,0:0:0:0:
113,254,210292,2,0,P|149:259|184:250,1,73.4999977569581,8|0,3:2|0:2,0:0:0:0:
312,255,210494,6,0,P|249:222|183:250,1,146.999995513916,2|8,3:2|0:2,0:0:0:0:
246,308,210799,2,0,P|309:320|312:255,1,146.999995513916,2|0,3:2|3:2,0:0:0:0:
246,194,211103,2,0,L|239:86,1,73.4999977569581,10|0,0:2|0:2,0:0:0:0:
301,52,211305,5,6,3:3:0:0:
336,47,211407,1,0,0:2:0:0:
371,42,211508,1,8,0:2:0:0:
406,38,211609,1,0,0:2:0:0:
445,5,211711,5,2,3:2:0:0:
450,40,211812,1,0,0:2:0:0:
454,75,211913,1,8,0:2:0:0:
458,109,212015,1,0,0:2:0:0:
502,144,212116,6,0,B|465:175|466:226|466:226|467:281|457:306|457:306|441:268|412:255,2,241.500004606247,6|2|2,3:1|3:0|3:0,0:0:0:0:
301,52,212927,6,0,L|245:44,2,48.9999985046387,2|2|2,0:0|0:0|0:0,0:0:0:0:
