osu file format v14

[General]
AudioFilename: audio.mp3
AudioLeadIn: 0
PreviewTime: 46585
Countdown: 0
SampleSet: Soft
StackLeniency: 0.6
Mode: 0
LetterboxInBreaks: 0
WidescreenStoryboard: 1

[Editor]
DistanceSpacing: 1
BeatDivisor: 4
GridSize: 16
TimelineZoom: 1

[Metadata]
Title:Fuyu ni Saku Hana
TitleUnicode:冬に咲く華
Artist:Mitsuki Kotono
ArtistUnicode:美月琴音
Creator:suyuko
Version:Stixy's Normal
Source:彼女のセイイキ
Tags:j-pop feng female vocal jpop pop eroge jap japanese video game kanojo no seiiki op opening vn visual novel game feng9th rosiie stixy pikaqours pika nofc
BeatmapID:2626667
BeatmapSetID:1262077

[Difficulty]
HPDrainRate:3
CircleSize:3
OverallDifficulty:4
ApproachRate:5.2
SliderMultiplier:0.999999999999999
SliderTickRate:1

[Events]
//Background and Video events
0,0,"bg.jpg",0,0
//Break Periods
//Storyboard Layer 0 (Background)
//Storyboard Layer 1 (Fail)
//Storyboard Layer 2 (Pass)
//Storyboard Layer 3 (Foreground)
//Storyboard Layer 4 (Overlay)
//Storyboard Sound Samples

[TimingPoints]
174,352.941176470588,4,2,1,70,1,0
5644,-100,4,2,1,70,0,0
11468,-125,4,2,1,50,0,0
24173,-125,4,2,1,55,0,0
26997,-125,4,2,1,60,0,0
28409,-100,4,2,1,60,0,0
34056,-100,4,2,1,65,0,0
42526,-100,4,2,1,70,0,0
48173,-90.9090909090909,4,2,1,85,0,1
90526,-100,4,2,1,50,0,0
92468,-100,4,2,1,60,0,0
98997,-100,4,2,1,70,0,0
101821,-100,4,2,1,80,0,0
109056,-100,4,2,1,40,0,0

[Colours]
Combo1 : 255,191,255
Combo2 : 128,128,255
Combo3 : 0,255,255

[HitObjects]
73,11,5821,6,0,L|54:117,1,99.9999999999999,6|0,1:2|1:2,0:0:0:0:
112,191,6526,1,0,1:2:0:0:
61,277,6879,1,0,1:2:0:0:
134,342,7232,2,0,P|183:352|228:333,1,99.9999999999999,2|2,1:2|1:2,0:0:0:0:
303,266,7938,2,0,P|348:246|396:256,1,99.9999999999999,2|2,1:2|1:2,0:0:0:0:
449,269,8468,1,8,0:2:0:0:
449,269,8644,6,0,B|432:231|432:231|446:212|446:212|429:166,1,99.9999999999999,6|0,1:2|1:2,0:0:0:0:
395,86,9350,2,0,L|330:97,1,50,8|8,0:2|0:2,0:0:0:0:
304,66,9703,2,0,L|254:74,1,50,8|8,0:2|0:2,0:0:0:0:
205,65,10056,1,10,0:2:0:0:
111,29,10409,1,10,0:3:0:0:
45,104,10762,1,10,0:3:0:0:
94,190,11115,1,10,0:3:0:0:
187,165,11468,6,0,B|309:125|288:244|410:204,1,240,6|2,1:2|0:0,0:0:0:0:
444,175,12703,2,0,P|473:83|412:10,1,200,2|0,0:0|0:0,0:0:0:0:
334,50,13938,1,2,0:0:0:0:
255,10,14291,6,0,L|168:25,1,79.9999999999999,2|2,0:0|0:0,0:0:0:0:
145,55,14821,2,0,L|158:133,1,79.9999999999999,2|2,0:0|0:0,0:0:0:0:
172,176,15350,1,2,0:0:0:0:
254,206,15703,2,0,L|411:178,1,160,0|0,0:0|0:0,0:0:0:0:
460,251,16762,2,0,L|468:305,1,40,2|2,0:0|0:0,0:0:0:0:
440,326,17115,5,2,0:0:0:0:
440,326,17821,2,0,P|403:341|363:339,1,79.9999999999999,2|2,0:0|0:0,0:0:0:0:
327,313,18350,2,0,P|274:301|213:336,1,120,2|2,0:0|0:0,0:0:0:0:
188,362,19056,1,2,0:0:0:0:
72,299,19585,1,2,0:0:0:0:
122,227,19938,6,0,B|156:178|156:178|113:67,1,160,2|0,0:0|0:0,0:0:0:0:
180,19,20997,2,0,L|229:27,1,40,2|2,0:0|0:0,0:0:0:0:
261,38,21350,1,2,0:0:0:0:
261,38,22056,2,0,L|329:25,2,59.9999999999999,2|2|2,0:0|0:0|0:0,0:0:0:0:
253,81,22762,6,0,B|281:133|281:133|260:175|260:175|291:228,1,160,2|0,0:0|0:0,0:0:0:0:
243,297,23821,1,2,0:0:0:0:
312,350,24173,2,0,L|401:333,1,79.9999999999999,2|2,0:0|0:0,0:0:0:0:
418,300,24703,1,2,0:0:0:0:
510,206,25232,2,0,L|500:152,1,40,2|2,0:0|0:0,0:0:0:0:
467,139,25585,6,0,L|388:153,1,79.9999999999999,2|2,0:0|0:0,0:0:0:0:
344,161,26115,1,2,0:0:0:0:
256,60,26644,2,0,L|248:20,1,40,2|2,0:0|0:0,0:0:0:0:
204,3,26997,1,0,0:0:0:0:
204,3,27703,2,0,L|125:17,1,79.9999999999999,2|2,0:0|0:0,0:0:0:0:
98,52,28232,1,0,1:0:0:0:
97,52,28409,6,0,P|91:100|114:144,1,99.9999999999999,6|0,1:2|1:2,0:0:0:0:
190,209,29115,1,0,1:2:0:0:
142,298,29468,1,2,1:2:0:0:
142,298,29644,2,0,B|219:272|206:348|283:322,1,150,2|0,0:0|1:2,0:0:0:0:
358,258,30526,1,0,1:2:0:0:
430,326,30879,2,0,L|484:316,1,50,2|2,1:2|0:0,0:0:0:0:
509,277,31232,6,0,L|491:176,1,99.9999999999999,2|0,1:2|1:2,0:0:0:0:
512,77,31938,1,0,1:2:0:0:
417,43,32291,1,2,1:2:0:0:
417,43,32468,2,0,L|318:60,1,99.9999999999999,2|8,0:0|0:0,0:0:0:0:
274,36,32997,1,8,0:0:0:0:
218,120,33350,1,8,0:0:0:0:
218,120,33526,2,0,L|229:187,1,50,10|10,0:0|0:0,0:0:0:0:
254,210,33879,1,10,0:0:0:0:
254,210,34056,6,0,P|212:227|154:217,1,99.9999999999999,6|10,1:2|0:2,0:0:0:0:
67,178,34762,2,0,L|48:65,1,99.9999999999999,2|10,1:2|0:2,0:0:0:0:
90,49,35291,2,0,B|167:23|154:99|231:73,1,150,2|8,0:0|0:2,0:0:0:0:
306,9,36173,2,0,L|355:17,1,50,0|0,1:2|1:2,0:0:0:0:
403,31,36526,1,10,0:2:0:0:
374,126,36879,6,0,B|390:165|390:165|380:184|380:184|396:220,1,99.9999999999999,2|10,1:2|0:2,0:0:0:0:
434,248,37409,2,0,B|418:287|418:287|428:306|428:306|413:339,1,99.9999999999999,2|0,1:2|1:2,0:0:0:0:
383,380,37938,1,10,0:2:0:0:
300,322,38291,2,0,L|290:265,1,50,4|0,1:2|1:2,0:0:0:0:
260,233,38644,1,14,0:2:0:0:
178,291,38997,2,0,L|76:273,1,99.9999999999999,10|8,0:2|0:2,0:0:0:0:
42,249,39526,1,2,1:2:0:0:
42,249,39703,6,0,L|59:147,1,99.9999999999999,6|0,1:2|0:0,0:0:0:0:
73,51,40409,2,0,L|-1:38,2,74.9999999999999,2|2|2,0:0|0:0|0:0,0:0:0:0:
115,23,41115,2,0,L|213:5,1,99.9999999999999,2|2,0:0|0:0,0:0:0:0:
255,38,41644,1,2,1:2:0:0:
255,38,41821,1,12,0:2:0:0:
351,16,42173,2,0,L|406:25,1,50,10|0,0:2|1:2,0:0:0:0:
444,48,42526,6,0,B|460:82|460:82|446:108|446:108|470:158,1,99.9999999999999,6|2,1:2|1:2,0:0:0:0:
493,232,43232,2,0,B|477:266|477:266|491:292|491:292|467:342,1,99.9999999999999,0|8,1:2|0:2,0:0:0:0:
392,376,43938,1,8,0:2:0:0:
318,308,44291,1,8,0:2:0:0:
232,365,44644,2,0,L|175:355,1,50,14|8,0:2|0:2,0:0:0:0:
139,330,44997,2,0,L|89:338,1,50,8|10,0:2|0:2,0:0:0:0:
47,312,45350,5,6,1:2:0:0:
83,218,45703,2,0,L|72:157,1,50,8|10,0:2|0:2,0:0:0:0:
113,137,46056,2,0,L|133:21,1,99.9999999999999,2|0,1:2|1:2,0:0:0:0:
174,15,46585,1,2,1:2:0:0:
174,15,46762,1,6,1:2:0:0:
173,16,48173,6,0,B|138:12|138:12|111:29|111:29|69:22,1,110.000003356934,6|8,1:2|0:2,0:0:0:0:
25,55,48703,1,2,1:2:0:0:
25,55,48879,2,0,L|37:120,1,55.0000016784668,2|2,1:2|1:2,0:0:0:0:
76,145,49232,1,10,0:2:0:0:
76,145,49409,2,0,L|53:263,1,110.000003356934,6|0,1:2|1:2,0:0:0:0:
82,289,49938,1,10,0:2:0:0:
145,375,50291,2,0,P|198:380|248:353,1,110.000003356934,2|10,1:2|0:2,0:0:0:0:
309,269,50997,6,0,B|342:243|342:243|411:256,1,110.000003356934,6|8,1:2|0:2,0:0:0:0:
460,275,51526,1,2,1:2:0:0:
460,275,51703,2,0,L|448:342,2,55.0000016784668,2|0|8,1:2|1:2|0:2,0:0:0:0:
486,226,52232,2,0,B|467:187|467:187|483:161|483:161|466:126,1,110.000003356934,4|0,1:2|1:2,0:0:0:0:
472,73,52762,1,8,0:2:0:0:
374,21,53115,2,0,L|315:31,1,55.0000016784668,0|0,1:2|1:2,0:0:0:0:
286,74,53468,1,8,0:2:0:0:
277,183,53821,6,0,L|300:314,1,110.000003356934,4|10,1:2|0:2,0:0:0:0:
253,325,54350,1,2,1:2:0:0:
253,325,54526,2,0,L|197:335,1,55.0000016784668,2|2,1:2|1:2,0:0:0:0:
157,307,54879,1,8,0:2:0:0:
157,307,55056,2,0,P|101:300|53:327,1,110.000003356934,2|0,1:2|1:2,0:0:0:0:
13,360,55585,1,10,0:2:0:0:
0,255,55938,1,2,1:2:0:0:
91,194,56291,2,0,L|100:133,1,55.0000016784668,10|2,0:2|0:2,0:0:0:0:
128,93,56644,6,0,L|236:112,1,110.000003356934,2|12,1:2|0:2,0:0:0:0:
291,94,57173,1,2,1:2:0:0:
291,94,57350,2,0,L|301:34,2,55.0000016784668,2|0|8,1:2|1:2|0:2,0:0:0:0:
321,140,57879,2,0,B|340:180|340:180|329:205|329:205|352:243,1,110.000003356934,4|0,1:2|1:2,0:0:0:0:
376,285,58409,1,8,0:2:0:0:
484,303,58762,2,0,L|467:395,2,82.5000025177002,10|10|10,0:2|0:2|0:2,0:0:0:0:
508,253,59468,6,0,B|501:215|501:215|519:182|519:182|509:134,1,110.000003356934,6|10,1:2|0:2,0:0:0:0:
472,109,59997,2,0,B|434:116|434:116|401:98|401:98|367:104,1,110.000003356934,2|2,1:2|1:2,0:0:0:0:
279,38,60703,2,0,P|225:34|178:66,1,110.000003356934,2|0,1:2|1:2,0:0:0:0:
142,103,61232,1,10,0:2:0:0:
142,103,61409,2,0,L|163:226,1,110.000003356934,2|2,1:2|1:2,0:0:0:0:
78,284,62115,1,2,0:2:0:0:
78,284,62291,6,0,L|58:175,1,110.000003356934,6|10,1:2|0:2,0:0:0:0:
13,142,62821,2,0,L|33:33,1,110.000003356934,2|2,1:2|1:2,0:0:0:0:
90,23,63350,1,8,0:2:0:0:
90,23,63526,2,0,B|133:12|133:12|154:27|154:27|200:12,1,110.000003356934,6|0,1:2|1:2,0:0:0:0:
246,21,64056,1,8,0:2:0:0:
317,103,64409,2,0,L|298:195,2,82.5000025177002,2|2|2,1:2|0:2|0:2,0:0:0:0:
345,55,65115,6,0,P|392:35|464:64,1,110.000003356934,6|8,1:2|0:2,0:0:0:0:
492,149,65821,2,0,L|480:212,1,55.0000016784668,0|0,1:2|1:2,0:0:0:0:
502,259,66173,1,10,0:2:0:0:
502,259,66350,2,0,B|483:297|483:297|494:326|494:326|473:363,1,110.000003356934,2|0,1:2|1:2,0:0:0:0:
428,381,66879,1,8,0:2:0:0:
341,312,67232,2,0,L|358:211,2,82.5000025177002,2|2|2,1:2|0:2|0:2,0:0:0:0:
289,331,67938,6,0,L|170:310,1,110.000003356934,6|8,1:2|0:2,0:0:0:0:
127,326,68468,1,10,0:2:0:0:
127,326,68644,2,0,B|107:288|107:288|118:258|118:258|104:217,1,110.000003356934,2|10,1:2|0:2,0:0:0:0:
147,187,69173,2,0,L|255:206,1,110.000003356934,6|0,1:2|1:2,0:0:0:0:
304,180,69703,1,8,0:2:0:0:
270,75,70056,2,0,L|280:14,1,55.0000016784668,8|8,0:2|0:2,0:0:0:0:
330,1,70409,2,0,L|390:11,1,55.0000016784668,0|8,1:2|0:2,0:0:0:0:
421,50,70762,6,0,L|400:164,1,110.000003356934,4|8,1:2|0:2,0:0:0:0:
466,247,71468,2,0,L|477:308,1,55.0000016784668,2|2,1:2|1:2,0:0:0:0:
442,345,71821,1,10,0:2:0:0:
442,345,71997,2,0,B|399:336|399:336|377:355|377:355|333:344,1,110.000003356934,6|0,1:2|1:2,0:0:0:0:
286,339,72526,1,10,0:2:0:0:
336,241,72879,2,0,P|342:187|317:139,1,110.000003356934,2|10,1:2|0:2,0:0:0:0:
224,78,73585,6,0,P|170:71|122:96,1,110.000003356934,6|8,1:2|0:2,0:0:0:0:
89,141,74115,1,2,1:2:0:0:
89,141,74291,2,0,L|97:206,1,55.0000016784668,2|8,1:2|0:2,0:0:0:0:
64,242,74644,1,8,0:2:0:0:
64,242,74821,2,0,L|78:359,1,110.000003356934,4|0,1:2|1:2,0:0:0:0:
123,382,75350,1,8,0:2:0:0:
214,320,75703,2,0,L|285:307,1,55.0000016784668,8|8,0:2|0:2,0:0:0:0:
319,329,76056,2,0,L|373:319,1,55.0000016784668,8|8,0:2|1:3,0:0:0:0:
414,283,76409,6,0,P|420:229|395:181,1,110.000003356934,4|8,1:2|0:2,0:0:0:0:
352,155,76938,1,2,1:2:0:0:
352,155,77115,2,0,L|363:88,2,55.0000016784668,2|2|10,1:2|1:2|0:2,0:0:0:0:
302,175,77644,2,0,B|260:168|260:168|238:187|238:187|194:176,1,110.000003356934,2|0,1:2|1:2,0:0:0:0:
154,152,78173,1,10,0:2:0:0:
197,53,78526,1,2,1:2:0:0:
96,14,78879,2,0,L|32:25,1,55.0000016784668,10|2,0:2|1:2,0:0:0:0:
14,71,79232,6,0,L|35:192,1,110.000003356934,2|12,1:2|0:2,0:0:0:0:
72,218,79762,1,2,1:2:0:0:
72,218,79938,1,2,1:2:0:0:
29,321,80291,1,8,0:2:0:0:
29,321,80468,2,0,P|95:329|147:297,1,110.000003356934,4|0,1:2|1:2,0:0:0:0:
168,268,80997,1,8,0:2:0:0:
277,287,81350,2,0,L|294:389,2,82.5000025177002,10|10|10,0:2|0:3|0:2,0:0:0:0:
314,246,82056,6,0,P|318:185|275:135,1,110.000003356934,6|2,1:2|1:2,0:0:0:0:
249,110,82585,1,2,1:2:0:0:
331,36,82938,1,2,1:2:0:0:
429,91,83291,2,0,B|412:132|412:132|423:163|423:163|403:209,1,110.000003356934,10|0,0:2|1:2,0:0:0:0:
431,243,83821,1,0,1:2:0:0:
377,339,84173,2,0,L|458:349,2,82.5000025177002,2|2|2,1:2|0:0|1:2,0:0:0:0:
336,301,84879,6,0,P|290:292|238:324,1,110.000003356934,6|2,1:2|1:2,0:0:0:0:
201,364,85409,1,2,1:2:0:0:
101,318,85762,1,10,0:2:0:0:
174,236,86115,2,0,B|150:203|150:203|161:172|161:172|133:128,1,110.000003356934,6|2,1:2|1:2,0:0:0:0:
112,94,86644,1,2,1:2:0:0:
199,27,86997,2,0,L|254:17,1,55.0000016784668,10|0,0:2|1:2,0:0:0:0:
304,37,87350,2,0,L|359:27,1,55.0000016784668,10|8,0:2|0:2,0:0:0:0:
409,48,87703,6,0,L|430:177,1,110.000003356934,10|2,0:2|1:2,0:0:0:0:
398,203,88232,1,14,0:2:0:0:
461,292,88585,1,2,1:2:0:0:
461,292,88762,2,0,P|419:314|346:295,1,110.000003356934,14|0,0:2|1:2,0:0:0:0:
309,278,89291,1,12,0:2:0:0:
332,170,89644,1,2,1:2:0:0:
332,170,89821,2,0,L|318:97,1,55.0000016784668,10|10,0:2|0:2,0:0:0:0:
276,84,90173,2,0,L|262:11,1,55.0000016784668,10|10,0:2|0:2,0:0:0:0:
221,12,90526,5,2,0:2:0:0:
221,12,92468,2,0,L|59:41,1,150,10|8,3:3|3:3,0:0:0:0:
40,133,93350,6,0,B|67:180|67:180|51:226|51:226|89:284,1,150,4|8,1:2|1:2,0:0:0:0:
221,303,94409,1,10,0:2:0:0:
295,236,94762,6,0,B|397:201|380:302|482:267,1,200,6|6,1:2|1:2,0:0:0:0:
481,268,96173,2,0,L|446:70,1,200,6|6,1:2|1:2,0:0:0:0:
311,17,97409,1,10,1:2:0:0:
311,17,97585,5,6,1:2:0:0:
240,88,97938,1,10,0:2:0:0:
156,33,98291,2,0,L|102:42,1,50,10|0,0:2|1:2,0:0:0:0:
75,80,98644,2,0,L|21:89,1,50,10|8,0:2|0:2,0:0:0:0:
2,133,98997,6,0,L|23:252,1,99.9999999999999,6|8,1:2|0:2,0:0:0:0:
95,296,99703,2,0,L|144:287,1,50,0|0,1:2|1:2,0:0:0:0:
189,308,100056,1,8,0:2:0:0:
257,224,100409,6,0,B|242:192|242:192|258:163|258:163|237:114,1,99.9999999999999,2|12,1:2|0:2,0:0:0:0:
300,47,101115,2,0,L|368:36,1,50,8|0,1:2|0:0,0:0:0:0:
394,60,101468,2,0,L|404:128,1,50,8|0,0:2|0:0,0:0:0:0:
439,142,101821,5,6,1:2:0:0:
507,214,102173,1,0,1:2:0:0:
473,308,102526,2,0,L|374:325,1,99.9999999999999,10|8,0:2|0:2,0:0:0:0:
295,263,103232,1,10,0:2:0:0:
329,169,103585,1,8,0:2:0:0:
233,128,103938,2,0,L|183:136,1,50,10|8,0:2|0:2,0:0:0:0:
150,174,104291,1,8,0:2:0:0:
150,174,104468,1,8,0:2:0:0:
45,354,105350,5,14,0:2:0:0:
256,192,105526,12,0,109056,0:0:0:0:
