osu file format v14

[General]
AudioFilename: audio.mp3
AudioLeadIn: 0
PreviewTime: 46585
Countdown: 0
SampleSet: Soft
StackLeniency: 0.4
Mode: 0
LetterboxInBreaks: 0
WidescreenStoryboard: 1

[Editor]
DistanceSpacing: 1
BeatDivisor: 4
GridSize: 32
TimelineZoom: 1.78

[Metadata]
Title:Fuyu ni Saku Hana
TitleUnicode:冬に咲く華
Artist:Mitsuki Kotono
ArtistUnicode:美月琴音
Creator:suyuko
Version:PikA's Insane
Source:彼女のセイイキ
Tags:j-pop feng female vocal jpop pop eroge jap japanese video game kanojo no seiiki op opening vn visual novel game feng9th rosiie stixy pikaqours pika nofc
BeatmapID:2624354
BeatmapSetID:1262077

[Difficulty]
HPDrainRate:5
CircleSize:4
OverallDifficulty:8
ApproachRate:9
SliderMultiplier:1.7
SliderTickRate:1

[Events]
//Background and Video events
0,0,"bg.jpg",0,0
//Break Periods
2,39903,41044
//Storyboard Layer 0 (Background)
//Storyboard Layer 1 (Fail)
//Storyboard Layer 2 (Pass)
//Storyboard Layer 3 (Foreground)
//Storyboard Layer 4 (Overlay)
//Storyboard Sound Samples

[TimingPoints]
174,352.941176470588,4,2,1,70,1,0
5644,-125,4,2,1,70,0,0
5821,-125,4,2,1,70,0,0
8644,-111.111111111111,4,2,1,70,0,0
11468,-166.666666666667,4,2,1,50,0,0
24173,-166.666666666667,4,2,1,55,0,0
26997,-166.666666666667,4,2,1,60,0,0
28409,-111.111111111111,4,2,1,60,0,0
34056,-111.111111111111,4,2,1,65,0,0
42526,-125,4,2,1,70,0,0
48173,-100,4,2,1,85,0,1
82056,-111.111111111111,4,2,1,85,0,1
87703,-100,4,2,1,85,0,1
90526,-166.666666666667,4,2,1,50,0,0
92468,-166.666666666667,4,2,1,60,0,0
93350,-142.857142857143,4,2,1,60,0,0
98997,-111.111111111111,4,2,1,70,0,0
101821,-111.111111111111,4,2,1,80,0,0
105350,-499.999999999997,4,2,1,80,0,0
109056,-499.999999999997,4,2,1,40,0,0

[Colours]
Combo1 : 255,191,255
Combo2 : 128,128,255
Combo3 : 0,255,255

[HitObjects]
58,72,5644,5,0,1:2:0:0:
58,72,5732,1,0,1:2:0:0:
58,72,5821,1,6,1:2:0:0:
74,166,5997,1,0,0:0:0:0:
155,116,6173,2,0,P|197:109|237:102,1,68,0|0,1:2|0:0,0:0:0:0:
305,150,6526,2,0,P|342:156|380:162,1,68,0|0,1:2|0:0,0:0:0:0:
457,118,6879,1,0,1:2:0:0:
501,213,7056,1,2,0:0:0:0:
501,213,7144,1,2,0:0:0:0:
501,213,7232,6,0,P|491:252|481:291,1,68,2|0,1:2|0:0,0:0:0:0:
407,335,7585,2,0,P|398:302|390:269,1,68,2|0,1:2|0:0,0:0:0:0:
330,194,7938,2,0,B|254:170|254:170|231:192|199:200,1,136,2|2,1:2|1:2,0:0:0:0:
116,294,8468,1,8,0:2:0:0:
116,294,8556,1,8,0:3:0:0:
116,294,8644,6,0,P|126:334|136:373,1,76.4999976654053,6|0,1:2|0:0,0:0:0:0:
256,341,8997,2,0,P|265:303|274:266,1,76.4999976654053,0|0,1:2|1:2,0:0:0:0:
314,103,9350,1,8,0:2:0:0:
376,244,9526,1,8,0:2:0:0:
222,168,9703,1,8,0:2:0:0:
413,112,9879,1,8,0:2:0:0:
275,249,10056,6,0,P|235:268|180:260,1,76.4999976654053,10|10,0:2|0:3,0:0:0:0:
55,200,10409,1,10,0:3:0:0:
222,168,10585,1,10,0:3:0:0:
116,270,10762,1,10,0:3:0:0:
142,184,10938,1,10,0:3:0:0:
205,252,11115,2,0,P|197:293|187:340,1,76.4999976654053,10|10,0:3|0:3,0:0:0:0:
356,364,11468,6,0,P|347:320|309:158,1,203.999993774414,6|0,1:2|0:0,0:0:0:0:
284,5,12526,2,0,P|258:11|230:18,1,50.9999984436036,2|2,0:0|0:0,0:0:0:0:
175,74,12879,6,0,P|126:51|74:55,2,101.999996887207,2|0|0,0:0|0:0|0:0,0:0:0:0:
230,227,13938,2,0,P|223:258|218:281,1,50.9999984436036,2|2,0:0|0:0,0:0:0:0:
156,329,14291,6,0,P|200:356|264:343,1,101.999996887207,2|2,0:0|0:0,0:0:0:0:
316,305,14821,2,0,P|366:301|408:327,1,101.999996887207,2|2,0:0|0:0,0:0:0:0:
473,378,15350,1,2,0:0:0:0:
442,217,15703,6,0,B|416:183|416:183|444:115,1,101.999996887207,0|0,0:0|0:0,0:0:0:0:
313,23,16409,2,0,P|282:24|258:32,1,50.9999984436036,0|0,0:0|0:0,0:0:0:0:
200,82,16762,1,2,0:0:0:0:
200,82,16938,6,0,P|139:69|84:58,1,101.999996887207,2|0,0:0|0:0,0:0:0:0:
10,197,17644,1,2,0:0:0:0:
62,259,17821,2,0,P|66:280|71:308,2,50.9999984436036,2|2|2,0:0|0:0|0:0,0:0:0:0:
117,198,18350,6,0,P|182:197|218:229,1,101.999996887207,2|0,0:0|0:0,0:0:0:0:
262,286,18879,1,2,0:0:0:0:
262,286,19056,2,0,P|316:273|369:263,1,101.999996887207,2|0,0:0|0:0,0:0:0:0:
436,297,19585,2,0,P|443:266|446:247,1,50.9999984436036,2|0,0:0|0:0,0:0:0:0:
411,173,19938,6,0,B|388:116|388:116|409:74,2,101.999996887207,2|0|0,0:0|0:0|0:0,0:0:0:0:
342,321,20997,2,0,P|336:292|330:266,1,50.9999984436036,2|2,0:0|0:0,0:0:0:0:
275,210,21350,2,0,P|283:157|293:96,1,101.999996887207,2|0,0:0|0:0,0:0:0:0:
156,15,22056,2,0,P|122:14|76:36,2,76.4999976654053,2|2|2,0:0|0:0|0:0,0:0:0:0:
228,51,22762,6,0,P|280:42|329:35,2,101.999996887207,2|0|0,0:0|0:0|0:0,0:0:0:0:
102,156,23821,2,0,P|97:188|91:225,1,50.9999984436036,2|0,0:0|0:0,0:0:0:0:
32,258,24173,2,0,P|86:286|134:276,1,101.999996887207,2|2,0:0|0:0,0:0:0:0:
198,244,24703,1,2,0:0:0:0:
406,374,25232,2,0,P|411:346|417:319,1,50.9999984436036,2|2,0:0|0:0,0:0:0:0:
466,259,25585,6,0,P|461:233|446:156,1,101.999996887207,2|2,0:0|0:0,0:0:0:0:
387,102,26115,2,0,P|335:91|283:122,1,101.999996887207,2|0,0:0|0:0,0:0:0:0:
241,175,26644,2,0,P|234:206|226:236,1,50.9999984436036,2|2,0:0|0:0,0:0:0:0:
153,274,26997,6,0,P|140:200|123:106,1,152.999995330811,0|0,0:0|0:0,0:0:0:0:
58,61,27703,2,0,P|100:36|163:46,1,101.999996887207,2|2,0:0|0:0,0:0:0:0:
255,165,28232,1,0,1:0:0:0:
255,165,28321,1,0,1:0:0:0:
255,165,28409,6,0,P|294:166|335:146,1,76.4999976654053,6|0,1:2|0:0,0:0:0:0:
303,12,28762,2,0,P|282:45|279:90,1,76.4999976654053,0|0,1:2|0:0,0:0:0:0:
411,130,29115,2,0,P|392:95|355:70,1,76.4999976654053,0|0,1:2|0:0,0:0:0:0:
255,165,29468,2,0,P|273:199|310:224,1,76.4999976654053,2|2,1:2|0:0,0:0:0:0:
471,219,29821,6,0,P|428:228|376:241,1,76.4999976654053,0|0,1:2|0:0,0:0:0:0:
289,303,30173,2,0,P|332:312|384:325,1,76.4999976654053,0|0,1:2|0:0,0:0:0:0:
214,368,30526,2,0,P|171:377|119:390,1,76.4999976654053,0|0,1:2|0:0,0:0:0:0:
0,312,30879,1,2,1:2:0:0:
0,312,31056,1,2,0:0:0:0:
118,227,31232,6,0,P|109:265|101:303,1,76.4999976654053,2|0,1:2|0:0,0:0:0:0:
233,211,31585,2,0,P|225:173|216:136,1,76.4999976654053,0|0,1:2|0:0,0:0:0:0:
70,89,31938,2,0,P|61:126|53:163,1,76.4999976654053,0|0,1:2|0:0,0:0:0:0:
170,56,32291,1,2,1:2:0:0:
170,56,32468,1,2,0:0:0:0:
233,211,32644,5,8,0:0:0:0:
318,74,32821,1,8,0:0:0:0:
157,146,32997,1,8,0:0:0:0:
349,211,33173,1,8,0:0:0:0:
249,20,33350,1,8,0:0:0:0:
243,233,33526,1,10,0:0:0:0:
408,71,33703,2,0,P|429:75|452:80,3,38.2499988327027,10|8|10|8,0:0|0:0|0:0|0:0,0:0:0:0:
378,89,34056,5,6,1:2:0:0:
512,160,34232,1,0,1:2:0:0:
430,263,34409,2,0,P|423:224|414:180,1,76.4999976654053,10|2,0:2|1:2,0:0:0:0:
396,179,34673,1,8,0:2:0:0:
396,179,34762,1,2,1:2:0:0:
348,304,34938,1,0,1:2:0:0:
282,182,35115,2,0,P|275:217|266:260,1,76.4999976654053,10|2,0:2|0:0,0:0:0:0:
130,356,35468,5,2,1:2:0:0:
178,209,35644,1,0,1:2:0:0:
221,337,35821,1,8,0:2:0:0:
99,255,35997,1,0,1:2:0:0:
99,255,36085,1,8,0:2:0:0:
99,255,36173,2,0,P|85:215|88:178,1,76.4999976654053,0|0,1:2|1:2,0:0:0:0:
145,57,36526,1,10,0:2:0:0:
25,115,36703,1,2,0:0:0:0:
176,159,36879,6,0,P|245:147|282:142,1,76.4999976654053,2|0,1:2|1:2,0:0:0:0:
357,133,37232,1,10,0:2:0:0:
392,249,37409,1,2,1:2:0:0:
392,249,37497,1,8,0:2:0:0:
392,249,37585,2,0,P|346:236|308:225,1,76.4999976654053,0|0,1:2|1:2,0:0:0:0:
443,153,37938,1,10,0:2:0:0:
490,270,38115,1,2,1:2:0:0:
490,270,38203,1,0,1:2:0:0:
490,270,38291,2,0,P|477:316|466:354,1,76.4999976654053,4|0,1:2|1:2,0:0:0:0:
356,384,38644,5,14,0:2:0:0:
285,320,38821,1,0,1:2:0:0:
285,320,38909,1,0,1:2:0:0:
285,320,38997,2,0,P|248:310|221:303,2,50.9999984436036,10|0|10,0:2|1:2|0:2,0:0:0:0:
183,245,39350,2,0,P|156:250|126:257,2,50.9999984436036,8|2|0,0:2|1:2|1:2,0:0:0:0:
74,207,39703,5,6,1:2:0:0:
74,207,41644,6,0,P|69:232|64:258,2,38.2499988327027,2|0|12,1:2|1:2|0:2,0:0:0:0:
127,93,41997,1,2,1:2:0:0:
196,205,42173,1,10,0:2:0:0:
196,205,42262,1,8,0:2:0:0:
196,205,42350,2,0,P|201:230|206:256,2,38.2499988327027,0|0|6,1:2|1:2|1:2,0:0:0:0:
386,23,42879,6,0,P|378:62|369:107,1,68,2|0,1:2|1:2,0:0:0:0:
248,132,43232,2,0,P|240:93|231:48,1,68,0|8,1:2|0:2,0:0:0:0:
394,179,43585,2,0,P|386:218|377:263,1,68,8|8,0:2|0:2,0:0:0:0:
265,384,43938,5,8,0:2:0:0:
214,213,44115,1,8,0:2:0:0:
350,347,44291,1,8,0:2:0:0:
394,179,44468,1,8,0:2:0:0:
214,309,44644,1,14,0:2:0:0:
459,259,44821,1,8,0:2:0:0:
459,259,44909,1,10,0:2:0:0:
459,259,44997,2,0,L|504:267,3,34,8|8|10|8,0:2|0:2|0:2|0:2,0:0:0:0:
312,203,45350,5,6,1:2:0:0:
453,113,45526,1,0,1:2:0:0:
453,113,45615,1,8,0:2:0:0:
453,113,45703,2,0,L|464:60,3,34,8|8|10|8,0:2|0:2|0:2|0:2,0:0:0:0:
357,36,46056,2,0,L|363:69,3,34,2|8|8|8,1:2|0:0|0:2|0:2,0:0:0:0:
270,75,46409,2,0,L|264:109,1,34,0|8,1:2|0:2,0:0:0:0:
204,166,46585,1,2,1:2:0:0:
208,185,46673,1,0,1:2:0:0:
212,204,46762,1,6,1:2:0:0:
32,283,47997,5,2,0:2:0:0:
32,283,48085,1,2,0:2:0:0:
32,283,48173,6,0,B|70:259|126:288|102:304|149:340|206:299,1,170,6|8,1:2|0:2,0:0:0:0:
317,249,48703,1,2,1:2:0:0:
317,249,48791,1,8,0:2:0:0:
317,249,48879,1,2,1:2:0:0:
162,223,49056,1,2,1:2:0:0:
273,331,49232,1,10,0:2:0:0:
278,161,49409,6,0,P|270:111|248:-10,1,170,6|0,1:2|1:2,0:0:0:0:
111,61,49938,2,0,P|99:111|89:155,1,85,10|0,0:2|1:2,0:0:0:0:
88,178,50203,1,10,0:2:0:0:
88,178,50291,1,2,1:2:0:0:
128,321,50468,1,0,1:2:0:0:
243,256,50644,2,0,P|206:235|164:236,1,85,10|0,0:2|0:0,0:0:0:0:
309,351,50997,6,0,P|393:363|465:284,1,170,6|8,1:2|0:2,0:0:0:0:
481,156,51526,1,2,1:2:0:0:
481,156,51615,1,8,0:2:0:0:
481,156,51703,1,2,1:2:0:0:
367,265,51879,1,0,1:2:0:0:
322,115,52056,1,8,0:2:0:0:
211,233,52232,6,0,B|171:186|171:186|222:71,1,170,4|0,1:2|1:2,0:0:0:0:
392,23,52762,1,8,0:2:0:0:
330,156,52938,1,0,1:2:0:0:
330,156,53026,1,8,0:2:0:0:
330,156,53115,2,0,L|319:103,2,42.5,0|8|0,1:2|0:2|1:2,0:0:0:0:
382,291,53468,2,0,B|311:323|311:323|264:305,1,127.5,8|0,0:2|0:0,0:0:0:0:
233,292,53821,6,0,B|173:302|173:302|128:276|128:276|52:290,1,170,4|10,1:2|0:2,0:0:0:0:
168,131,54350,1,2,1:2:0:0:
168,131,54438,1,8,0:2:0:0:
168,131,54526,2,0,P|192:167|190:229,1,85,2|2,1:2|1:2,0:0:0:0:
45,123,54879,1,8,0:2:0:0:
206,36,55056,6,0,P|282:48|377:67,1,170,2|0,1:2|1:2,0:0:0:0:
459,164,55585,2,0,P|414:172|355:184,1,85,10|0,0:2|1:2,0:0:0:0:
347,194,55850,1,8,0:2:0:0:
347,194,55938,1,2,1:2:0:0:
494,258,56115,1,0,1:2:0:0:
316,292,56291,1,10,0:2:0:0:
459,164,56468,1,2,0:2:0:0:
373,356,56644,6,0,P|293:373|233:316,1,170,2|12,1:2|0:2,0:0:0:0:
161,205,57173,1,2,1:2:0:0:
161,205,57262,1,8,0:2:0:0:
161,205,57350,2,0,P|202:183|248:185,1,85,2|0,1:2|1:2,0:0:0:0:
362,273,57703,1,8,0:2:0:0:
369,91,57879,6,0,B|262:56|262:56|212:86,1,170,4|0,1:2|1:2,0:0:0:0:
77,187,58409,2,0,P|122:197|162:205,1,85,8|0,0:2|1:2,0:0:0:0:
128,55,58762,1,10,0:2:0:0:
4,88,58938,1,8,0:2:0:0:
4,88,59026,1,10,0:2:0:0:
4,88,59115,2,0,P|9:119|12:133,1,42.5,8|8,0:2|0:2,0:0:0:0:
77,187,59291,2,0,P|72:216|70:230,1,42.5,10|8,0:2|0:2,0:0:0:0:
39,310,59468,6,0,B|81:338|133:303|112:295|159:258|201:279,1,170,6|10,1:2|0:2,0:0:0:0:
343,304,59997,1,2,1:2:0:0:
343,304,60085,1,8,0:2:0:0:
343,304,60173,1,0,1:2:0:0:
214,358,60350,2,0,P|204:316|194:275,1,85,2|8,1:2|0:2,0:0:0:0:
378,137,60703,6,0,P|361:210|341:310,1,170,2|0,1:2|1:2,0:0:0:0:
274,132,61232,1,10,0:2:0:0:
452,225,61409,1,2,1:2:0:0:
452,225,61497,1,8,0:2:0:0:
452,225,61585,1,0,1:2:0:0:
294,285,61762,2,0,P|251:294|209:304,1,85,2|8,1:2|0:2,0:0:0:0:
63,210,62115,1,2,0:2:0:0:
124,334,62291,6,0,B|97:225|97:225|126:209|141:161,1,170,6|10,1:2|0:2,0:0:0:0:
264,99,62821,1,2,1:2:0:0:
264,99,62909,1,8,0:2:0:0:
264,99,62997,1,0,1:2:0:0:
130,8,63173,2,0,P|140:55|150:103,1,85,2|8,1:2|0:2,0:0:0:0:
336,191,63526,6,0,B|369:90|369:90|337:34,1,170,6|0,1:2|1:2,0:0:0:0:
236,186,64056,1,8,0:2:0:0:
442,174,64232,1,0,1:2:0:0:
442,174,64321,1,10,0:2:0:0:
442,174,64409,2,0,L|456:225,2,42.5,2|8|0,1:2|0:2|1:2,0:0:0:0:
347,64,64762,1,8,0:2:0:0:
512,128,64938,1,2,0:2:0:0:
342,217,65115,6,0,B|285:197|237:186|237:186|213:210|254:249,1,170,6|8,1:2|0:2,0:0:0:0:
344,353,65644,1,0,1:2:0:0:
344,353,65732,1,8,0:2:0:0:
344,353,65821,2,0,P|394:348|430:321,1,85,0|0,1:2|1:2,0:0:0:0:
382,147,66173,1,10,0:2:0:0:
263,287,66350,6,0,P|184:269|88:248,1,170,2|0,1:2|1:2,0:0:0:0:
21,112,66879,1,8,0:2:0:0:
172,53,67056,1,0,1:2:0:0:
172,53,67144,1,8,0:2:0:0:
172,53,67232,2,0,P|179:123|136:178,2,127.5,2|2|2,1:2|0:2|0:2,0:0:0:0:
346,13,67938,6,0,B|308:62|308:62|352:180,1,170,6|8,1:2|0:2,0:0:0:0:
405,288,68468,1,10,0:2:0:0:
405,288,68556,1,8,0:2:0:0:
405,288,68644,2,0,L|415:238,1,42.5,2|0,1:2|1:2,0:0:0:0:
475,187,68821,2,0,L|466:145,1,42.5,0|8,1:2|0:2,0:0:0:0:
402,77,68997,1,10,0:2:0:0:
275,228,69173,6,0,P|163:227|128:175,1,170,6|0,1:2|1:2,0:0:0:0:
116,15,69703,1,8,0:2:0:0:
218,147,69879,1,0,1:2:0:0:
38,134,70056,1,8,0:2:0:0:
228,41,70232,1,8,0:2:0:0:
228,41,70321,1,8,0:2:0:0:
228,41,70409,2,0,L|283:55,1,42.5,0|8,1:2|0:2,0:0:0:0:
327,118,70585,2,0,L|368:107,1,42.5,8|8,0:2|0:2,0:0:0:0:
425,18,70762,6,0,P|408:90|385:210,1,170,4|8,1:2|0:2,0:0:0:0:
361,332,71291,1,2,1:2:0:0:
361,332,71379,1,8,0:2:0:0:
361,332,71468,1,2,1:2:0:0:
280,196,71644,1,2,1:2:0:0:
422,259,71821,1,10,0:2:0:0:
222,269,71997,6,0,B|176:225|176:225|213:110,1,170,6|0,1:2|1:2,0:0:0:0:
373,31,72526,2,0,P|333:57|286:61,1,85,10|2,0:2|1:2,0:0:0:0:
268,54,72791,1,8,0:2:0:0:
268,54,72879,1,2,1:2:0:0:
117,5,73056,1,2,1:2:0:0:
208,123,73232,2,0,P|219:168|229:210,1,85,10|0,0:2|1:2,0:0:0:0:
239,239,73497,1,8,0:2:0:0:
239,239,73585,6,0,P|165:215|88:289,1,170,6|8,1:2|0:2,0:0:0:0:
52,380,74115,1,2,1:2:0:0:
180,309,74291,1,2,1:2:0:0:
180,309,74379,1,0,0:0:0:0:
180,309,74468,2,0,L|166:358,2,42.5,8|8|8,0:2|0:2|0:2,0:0:0:0:
300,151,74821,6,0,B|343:253|343:253|303:300,1,170,4|0,1:2|1:2,0:0:0:0:
208,172,75350,2,0,P|208:127|237:81,1,85,8|0,0:2|1:2,0:0:0:0:
341,0,75703,1,8,0:2:0:0:
341,142,75879,2,0,P|324:146|300:150,3,42.5,8|8|8|8,0:2|0:2|0:2|0:2,0:0:0:0:
404,87,76232,2,0,P|424:91|445:95,1,42.5,8|8,1:3|1:3,0:0:0:0:
498,171,76409,6,0,B|510:235|510:235|493:275|493:275|502:345,1,170,4|8,1:2|0:2,0:0:0:0:
335,248,76938,1,2,1:2:0:0:
335,248,77026,1,10,0:2:0:0:
335,248,77115,2,0,P|371:224|433:226,1,85,2|2,1:2|1:2,0:0:0:0:
334,350,77468,1,10,0:2:0:0:
237,200,77644,6,0,P|158:150|76:179,1,170,2|0,1:2|1:2,0:0:0:0:
128,340,78173,2,0,P|136:296|147:252,1,85,10|0,0:2|1:2,0:0:0:0:
153,242,78438,1,10,0:2:0:0:
153,242,78526,1,2,1:2:0:0:
223,372,78703,1,0,1:2:0:0:
290,240,78879,1,10,0:2:0:0:
365,373,79056,1,2,1:2:0:0:
365,373,79144,1,8,0:2:0:0:
365,373,79232,6,0,P|385:279|399:212,1,127.5,2|0,1:2|0:2,0:0:0:0:
403,210,79585,1,12,0:0:0:0:
317,100,79762,1,2,1:2:0:0:
317,100,79850,1,8,0:2:0:0:
317,100,79938,2,0,L|247:84,2,42.5,2|8|0,1:2|0:2|1:2,0:0:0:0:
458,138,80291,1,8,0:2:0:0:
308,195,80468,6,0,B|270:245|270:245|318:361,1,170,4|0,1:2|1:2,0:0:0:0:
446,281,80997,2,0,P|408:258|361:259,1,85,8|2,0:2|1:2,0:0:0:0:
212,357,81350,1,10,0:2:0:0:
401,382,81526,1,0,1:2:0:0:
401,382,81615,1,10,0:3:0:0:
401,382,81703,2,0,P|393:352|389:336,1,42.5,8|8,0:3|1:2,0:0:0:0:
316,292,81879,2,0,P|324:262|328:246,1,42.5,10|8,0:2|0:2,0:0:0:0:
384,186,82056,6,0,P|368:101|350:15,1,152.999995330811,6|2,1:2|1:2,0:0:0:0:
176,87,82585,1,2,1:2:0:0:
176,87,82673,1,2,1:2:0:0:
176,87,82762,1,0,1:2:0:0:
245,161,82938,2,0,P|257:117|266:82,1,76.4999976654053,2|0,1:2|1:2,0:0:0:0:
52,14,83291,6,0,P|71:101|87:187,1,152.999995330811,10|0,0:2|1:2,0:0:0:0:
187,310,83821,1,0,1:2:0:0:
244,162,83997,1,0,1:2:0:0:
110,248,84173,2,0,P|50:248|-2:201,2,114.749996498108,2|0|2,1:2|0:0|1:2,0:0:0:0:
244,162,84879,6,0,B|339:133|339:133|363:158|406:176,1,152.999995330811,6|2,1:2|1:2,0:0:0:0:
338,312,85409,2,0,P|326:259|316:213,1,76.4999976654053,2|0,1:2|1:2,0:0:0:0:
419,84,85762,1,10,0:2:0:0:
463,222,85938,1,0,1:2:0:0:
316,117,86115,6,0,P|261:76|172:99,1,152.999995330811,6|2,1:2|1:2,0:0:0:0:
66,196,86644,1,2,1:2:0:0:
237,172,86821,1,8,0:2:0:0:
76,95,86997,1,10,0:2:0:0:
161,252,87173,1,0,1:2:0:0:
188,75,87350,2,0,P|193:54|203:20,3,38.2499988327027,10|8|8|8,0:2|0:2|0:2|0:2,0:0:0:0:
315,87,87703,6,0,P|324:129|335:182,1,85,10|2,0:2|1:2,0:0:0:0:
461,47,88056,1,2,1:2:0:0:
493,217,88232,6,0,P|483:260|473:312,1,85,14|0,0:2|1:2,0:0:0:0:
409,126,88585,1,2,1:2:0:0:
302,258,88762,6,0,P|312:301|322:353,1,85,14|0,0:2|1:2,0:0:0:0:
381,215,89115,1,0,1:2:0:0:
216,302,89291,5,12,0:2:0:0:
405,338,89468,1,0,0:0:0:0:
304,170,89644,1,2,1:2:0:0:
156,365,89821,5,10,0:2:0:0:
156,365,89909,1,8,0:2:0:0:
156,365,89997,2,0,P|121:354|104:350,1,42.5,10|8,0:2|0:2,0:0:0:0:
58,278,90173,1,10,0:2:0:0:
58,278,90262,1,8,0:2:0:0:
58,278,90350,2,0,P|86:271|107:266,1,42.5,10|8,0:2|0:2,0:0:0:0:
162,203,90526,6,0,P|174:153|188:100,1,101.999996887207,2|0,0:2|0:0,0:0:0:0:
157,26,91056,1,2,0:0:0:0:
157,26,91232,2,0,P|204:24|254:57,1,101.999996887207,2|0,0:0|0:0,0:0:0:0:
313,117,91762,1,2,0:0:0:0:
313,117,91938,2,0,P|355:143|405:142,1,101.999996887207,2|2,0:0|0:0,0:0:0:0:
457,72,92468,6,0,P|445:135|429:234,1,152.999995330811,10|8,3:3|3:3,0:0:0:0:
325,359,93350,6,0,P|260:364|210:327,1,118.999996368408,4|2,1:2|0:2,0:0:0:0:
134,287,93879,2,0,P|126:230|114:167,1,118.999996368408,8|2,1:2|1:2,0:0:0:0:
61,96,94409,1,10,0:2:0:0:
61,96,94585,1,2,1:2:0:0:
138,40,94762,6,0,B|193:26|251:15|251:15|239:63|215:77,1,178.499994552612,6|2,1:2|0:2,0:0:0:0:
166,147,95468,2,0,P|217:115|288:135,1,118.999996368408,6|2,1:2|0:2,0:0:0:0:
364,288,96173,2,0,P|304:272|228:256,1,118.999996368408,6|0,1:2|0:0,0:0:0:0:
183,192,96703,1,2,0:2:0:0:
183,192,96791,1,2,0:2:0:0:
183,192,96879,2,0,P|151:251|166:311,1,118.999996368408,6|0,1:2|0:0,0:0:0:0:
268,360,97409,1,10,1:2:0:0:
268,360,97497,1,10,0:2:0:0:
268,360,97585,6,0,P|289:355|313:348,3,29.7499990921021,6|0|0|0,1:2|1:2|1:2|1:2,0:0:0:0:
301,271,97938,2,0,P|315:274|329:278,3,29.7499990921021,10|0|0|0,0:2|1:2|1:2|1:2,0:0:0:0:
348,197,98291,2,0,P|362:193|376:189,3,29.7499990921021,10|0|0|0,0:2|1:2|1:2|1:2,0:0:0:0:
436,130,98644,1,10,0:2:0:0:
430,100,98732,1,8,0:2:0:0:
423,70,98821,1,8,0:2:0:0:
416,40,98909,1,8,0:2:0:0:
405,2,98997,6,0,P|362:2|318:25,1,76.4999976654053,6|0,1:2|1:2,0:0:0:0:
260,141,99350,1,8,0:2:0:0:
168,39,99526,2,0,P|164:19|159:-5,2,38.2499988327027,0|8|0,1:2|0:2|1:2,0:0:0:0:
200,211,99879,1,0,1:2:0:0:
258,49,100056,1,8,0:2:0:0:
121,166,100232,1,2,1:2:0:0:
121,166,100321,1,2,0:0:0:0:
121,166,100409,6,0,P|71:175|34:183,1,76.4999976654053,2|0,1:2|1:2,0:0:0:0:
103,338,100762,1,12,0:2:0:0:
199,217,100938,1,0,1:2:0:0:
199,217,101026,1,8,0:2:0:0:
199,217,101115,2,0,P|226:223|248:227,2,50.9999984436036,8|8|8,1:2|0:2|0:2,0:0:0:0:
301,300,101468,2,0,P|326:295|350:289,2,50.9999984436036,8|8|8,0:2|1:3|1:3,0:0:0:0:
417,223,101821,6,0,P|456:233|504:243,1,76.4999976654053,6|0,1:2|1:2,0:0:0:0:
360,148,102173,2,0,P|320:157|273:168,1,76.4999976654053,0|10,1:2|0:2,0:0:0:0:
155,250,102526,5,10,0:2:0:0:
194,107,102703,1,8,0:2:0:0:
250,326,102879,5,10,0:2:0:0:
285,165,103056,1,8,0:2:0:0:
419,324,103232,5,10,0:2:0:0:
381,116,103409,1,8,0:2:0:0:
327,289,103585,5,8,0:2:0:0:
415,107,103762,1,10,0:2:0:0:
254,230,103938,5,10,0:2:0:0:
443,97,104115,1,8,0:2:0:0:
215,146,104291,5,8,0:2:0:0:
471,88,104468,1,8,0:2:0:0:
210,64,105350,5,14,0:2:0:0:
256,192,105438,12,0,109056,0:0:0:0:
