osu file format v14

[General]
AudioFilename: audio.mp3
AudioLeadIn: 0
PreviewTime: 48174
Countdown: 0
SampleSet: None
StackLeniency: 0
Mode: 3
LetterboxInBreaks: 0
SpecialStyle: 0
WidescreenStoryboard: 0

[Editor]
Bookmarks: 55410
DistanceSpacing: 2.2
BeatDivisor: 4
GridSize: 4
TimelineZoom: 1.9

[Metadata]
Title:Fuyu ni Saku Hana
TitleUnicode:冬に咲く華
Artist:Mitsuki Kotono
ArtistUnicode:美月琴音
Creator:ssapgosu
Version:ssapflower
Source:彼女のセイイキ
Tags:Riana Amamya kanojo no seiiki japanese pop jpop j-pop rock jrock j-rock video game feng eroge op opening theme visual novel vn
BeatmapID:4537961
BeatmapSetID:2153275

[Difficulty]
HPDrainRate:8
CircleSize:7
OverallDifficulty:8
ApproachRate:5
SliderMultiplier:1.4
SliderTickRate:1

[Events]
//Background and Video events
0,0,"bg2.jpg",0,0
//Break Periods
//Storyboard Layer 0 (Background)
//Storyboard Layer 1 (Fail)
//Storyboard Layer 2 (Pass)
//Storyboard Layer 3 (Foreground)
//Storyboard Layer 4 (Overlay)
//Storyboard Sound Samples

[TimingPoints]
175,352.941176470588,4,2,1,40,1,0
48174,-100,4,2,1,40,0,1
65116,-100,4,2,1,40,0,0
70763,-100,4,2,1,40,0,1
82057,-100,4,2,1,40,0,0

[HitObjects]
402,192,175,5,0,0:0:0:0:
329,192,527,1,0,0:0:0:0:
182,192,880,1,0,0:0:0:0:
109,192,1233,1,0,0:0:0:0:
256,192,1586,1,0,0:0:0:0:
475,192,1939,1,0,0:0:0:0:
402,192,2292,1,0,0:0:0:0:
256,192,2645,1,0,0:0:0:0:
109,192,2998,1,0,0:0:0:0:
256,192,3527,1,0,0:0:0:0:
329,192,3616,1,0,0:0:0:0:
402,192,3704,1,0,0:0:0:0:
475,192,3792,1,0,0:0:0:0:
182,192,3880,1,0,0:0:0:0:
256,192,3969,1,0,0:0:0:0:
329,192,4057,1,0,0:0:0:0:
402,192,4145,1,0,0:0:0:0:
109,192,4233,1,0,0:0:0:0:
182,192,4322,1,0,0:0:0:0:
256,192,4410,1,0,0:0:0:0:
475,192,4410,1,0,0:0:0:0:
182,192,4763,1,0,0:0:0:0:
36,192,5116,1,0,0:0:0:0:
402,192,5469,1,0,0:0:0:0:
182,192,5469,1,0,0:0:0:0:
329,192,5645,1,0,0:0:0:0:
109,192,5645,1,0,0:0:0:0:
256,192,5733,1,0,0:0:0:0:
182,192,5822,1,0,0:0:0:0:
36,192,5822,1,0,0:0:0:0:
402,192,5822,1,0,0:0:0:0:
475,192,5822,1,0,0:0:0:0:
109,192,6174,1,0,0:0:0:0:
256,192,6174,1,0,0:0:0:0:
475,192,6174,1,0,0:0:0:0:
109,192,6351,1,0,0:0:0:0:
329,192,6527,1,0,0:0:0:0:
182,192,6527,1,0,0:0:0:0:
36,192,6527,1,0,0:0:0:0:
329,192,6704,1,0,0:0:0:0:
182,192,6880,1,0,0:0:0:0:
402,192,6880,1,0,0:0:0:0:
109,192,6880,1,0,0:0:0:0:
182,192,7057,1,0,0:0:0:0:
402,192,7233,1,0,0:0:0:0:
256,192,7233,1,0,0:0:0:0:
36,192,7233,1,0,0:0:0:0:
402,192,7410,1,0,0:0:0:0:
182,192,7586,1,0,0:0:0:0:
329,192,7586,1,0,0:0:0:0:
109,192,7586,1,0,0:0:0:0:
182,192,7763,1,0,0:0:0:0:
329,192,7939,1,0,0:0:0:0:
36,192,7939,1,0,0:0:0:0:
475,192,7939,1,0,0:0:0:0:
329,192,8116,1,0,0:0:0:0:
109,192,8292,1,0,0:0:0:0:
256,192,8292,1,0,0:0:0:0:
402,192,8292,1,0,0:0:0:0:
475,192,8292,1,0,0:0:0:0:
109,192,8469,1,0,0:0:0:0:
329,192,8469,1,0,0:0:0:0:
182,192,8557,1,0,0:0:0:0:
256,192,8645,1,0,0:0:0:0:
36,192,8645,1,0,0:0:0:0:
402,192,8645,1,0,0:0:0:0:
475,192,8645,1,0,0:0:0:0:
182,192,8822,1,0,0:0:0:0:
329,192,8822,1,0,0:0:0:0:
36,192,8998,1,0,0:0:0:0:
109,192,8998,1,0,0:0:0:0:
475,192,8998,1,0,0:0:0:0:
109,192,9174,1,0,0:0:0:0:
182,192,9174,1,0,0:0:0:0:
402,192,9174,1,0,0:0:0:0:
182,192,9351,1,0,0:0:0:0:
256,192,9351,1,0,0:0:0:0:
475,192,9351,1,0,0:0:0:0:
256,192,9527,1,0,0:0:0:0:
109,192,9527,1,0,0:0:0:0:
402,192,9527,1,0,0:0:0:0:
36,192,9704,1,0,0:0:0:0:
109,192,9704,1,0,0:0:0:0:
329,192,9704,1,0,0:0:0:0:
329,192,9880,1,0,0:0:0:0:
182,192,9880,1,0,0:0:0:0:
402,192,9880,1,0,0:0:0:0:
402,192,10057,1,0,0:0:0:0:
475,192,10057,1,0,0:0:0:0:
256,192,10057,1,0,0:0:0:0:
109,192,10057,1,0,0:0:0:0:
182,192,10233,1,0,0:0:0:0:
36,192,10233,1,0,0:0:0:0:
329,192,10410,1,0,0:0:0:0:
475,192,10410,1,0,0:0:0:0:
256,192,10586,1,0,0:0:0:0:
402,192,10586,1,0,0:0:0:0:
182,192,10763,1,0,0:0:0:0:
36,192,10763,1,0,0:0:0:0:
256,192,10939,1,0,0:0:0:0:
109,192,10939,1,0,0:0:0:0:
182,192,11116,5,0,0:0:0:0:
402,192,11116,1,0,0:0:0:0:
329,192,11292,1,0,0:0:0:0:
475,192,11469,1,0,0:0:0:0:
36,192,11469,1,0,0:0:0:0:
182,192,11469,1,0,0:0:0:0:
256,192,11822,1,0,0:0:0:0:
109,192,12174,1,0,0:0:0:0:
329,192,12174,1,0,0:0:0:0:
182,192,12527,1,0,0:0:0:0:
256,192,12704,1,0,0:0:0:0:
36,192,12880,1,0,0:0:0:0:
329,192,12880,1,0,0:0:0:0:
182,192,13233,1,0,0:0:0:0:
109,192,13586,1,0,0:0:0:0:
402,192,13586,1,0,0:0:0:0:
329,192,13939,1,0,0:0:0:0:
182,192,14116,1,0,0:0:0:0:
329,192,14292,1,0,0:0:0:0:
36,192,14292,1,0,0:0:0:0:
256,192,14645,1,0,0:0:0:0:
402,192,14822,1,0,0:0:0:0:
329,192,14998,1,0,0:0:0:0:
182,192,14998,1,0,0:0:0:0:
36,192,15174,1,0,0:0:0:0:
402,192,15351,1,0,0:0:0:0:
109,192,15351,1,0,0:0:0:0:
182,192,15704,1,0,0:0:0:0:
329,192,15704,1,0,0:0:0:0:
256,192,16057,1,0,0:0:0:0:
402,192,16410,1,0,0:0:0:0:
109,192,16410,1,0,0:0:0:0:
329,192,16763,1,0,0:0:0:0:
256,192,16939,1,0,0:0:0:0:
475,192,17116,1,0,0:0:0:0:
182,192,17116,1,0,0:0:0:0:
256,192,17469,1,0,0:0:0:0:
402,192,17645,1,0,0:0:0:0:
329,192,17822,1,0,0:0:0:0:
109,192,17822,1,0,0:0:0:0:
256,192,17998,1,0,0:0:0:0:
329,192,18174,1,0,0:0:0:0:
109,192,18174,1,0,0:0:0:0:
402,192,18351,1,0,0:0:0:0:
36,192,18527,1,0,0:0:0:0:
182,192,18527,1,0,0:0:0:0:
475,192,18527,1,0,0:0:0:0:
329,192,18880,1,0,0:0:0:0:
329,192,19057,1,0,0:0:0:0:
182,192,19233,1,0,0:0:0:0:
402,192,19233,1,0,0:0:0:0:
256,192,19586,1,0,0:0:0:0:
329,192,19939,1,0,0:0:0:0:
109,192,19939,1,0,0:0:0:0:
182,192,20292,1,0,0:0:0:0:
109,192,20645,1,0,0:0:0:0:
402,192,20645,1,0,0:0:0:0:
36,192,20998,1,0,0:0:0:0:
109,192,21174,1,0,0:0:0:0:
182,192,21351,1,0,0:0:0:0:
329,192,21351,1,0,0:0:0:0:
475,192,21351,1,0,0:0:0:0:
256,192,21704,1,0,0:0:0:0:
109,192,22057,1,0,0:0:0:0:
329,192,22057,1,0,0:0:0:0:
475,192,22057,1,0,0:0:0:0:
182,192,22322,1,0,0:0:0:0:
329,192,22410,1,0,0:0:0:0:
256,192,22586,1,0,0:0:0:0:
36,192,22763,1,0,0:0:0:0:
109,192,22763,1,0,0:0:0:0:
402,192,22763,1,0,0:0:0:0:
182,192,23116,1,0,0:0:0:0:
109,192,23469,1,0,0:0:0:0:
329,192,23469,1,0,0:0:0:0:
475,192,23469,1,0,0:0:0:0:
256,192,23822,1,0,0:0:0:0:
329,192,24174,1,0,0:0:0:0:
475,192,24174,1,0,0:0:0:0:
182,192,24174,1,0,0:0:0:0:
182,192,24527,1,0,0:0:0:0:
402,192,24527,1,0,0:0:0:0:
182,192,24704,1,0,0:0:0:0:
329,192,24880,1,0,0:0:0:0:
475,192,24880,1,0,0:0:0:0:
109,192,24880,1,0,0:0:0:0:
109,192,25233,1,0,0:0:0:0:
256,192,25233,1,0,0:0:0:0:
329,192,25410,1,0,0:0:0:0:
182,192,25586,1,0,0:0:0:0:
36,192,25586,1,0,0:0:0:0:
402,192,25586,1,0,0:0:0:0:
256,192,25939,1,0,0:0:0:0:
182,192,26116,1,0,0:0:0:0:
109,192,26292,1,0,0:0:0:0:
329,192,26292,1,0,0:0:0:0:
475,192,26292,1,0,0:0:0:0:
182,192,26645,1,0,0:0:0:0:
329,192,26645,1,0,0:0:0:0:
109,192,26822,1,0,0:0:0:0:
36,192,26998,1,0,0:0:0:0:
256,192,26998,1,0,0:0:0:0:
402,192,27020,1,0,0:0:0:0:
475,192,27042,1,0,0:0:0:0:
402,192,27704,1,0,0:0:0:0:
329,192,28057,1,0,0:0:0:0:
109,192,28233,1,0,0:0:0:0:
256,192,28322,1,0,0:0:0:0:
36,192,28410,1,0,0:0:0:0:
402,192,28410,1,0,0:0:0:0:
475,192,28410,1,0,0:0:0:0:
109,192,28763,1,0,0:0:0:0:
329,192,28763,1,0,0:0:0:0:
402,192,28763,1,0,0:0:0:0:
109,192,28939,1,0,0:0:0:0:
182,192,29116,1,0,0:0:0:0:
329,192,29116,1,0,0:0:0:0:
475,192,29116,1,0,0:0:0:0:
182,192,29292,1,0,0:0:0:0:
109,192,29469,1,0,0:0:0:0:
256,192,29469,1,0,0:0:0:0:
402,192,29469,1,0,0:0:0:0:
109,192,29645,1,0,0:0:0:0:
329,192,29822,1,0,0:0:0:0:
182,192,29822,1,0,0:0:0:0:
36,192,29822,1,0,0:0:0:0:
329,192,29998,1,0,0:0:0:0:
402,192,30174,1,0,0:0:0:0:
109,192,30174,1,0,0:0:0:0:
182,192,30174,1,0,0:0:0:0:
402,192,30351,1,0,0:0:0:0:
256,192,30527,1,0,0:0:0:0:
109,192,30527,1,0,0:0:0:0:
36,192,30527,1,0,0:0:0:0:
256,192,30704,1,0,0:0:0:0:
329,192,30880,1,0,0:0:0:0:
182,192,30880,1,0,0:0:0:0:
36,192,30880,1,0,0:0:0:0:
329,192,31057,1,0,0:0:0:0:
182,192,31233,1,0,0:0:0:0:
402,192,31233,1,0,0:0:0:0:
475,192,31233,1,0,0:0:0:0:
182,192,31410,1,0,0:0:0:0:
109,192,31586,1,0,0:0:0:0:
402,192,31586,1,0,0:0:0:0:
329,192,31586,1,0,0:0:0:0:
109,192,31763,1,0,0:0:0:0:
256,192,31939,1,0,0:0:0:0:
402,192,31939,1,0,0:0:0:0:
475,192,31939,1,0,0:0:0:0:
256,192,32116,1,0,0:0:0:0:
329,192,32292,1,0,0:0:0:0:
36,192,32292,1,0,0:0:0:0:
182,192,32292,1,0,0:0:0:0:
329,192,32469,1,0,0:0:0:0:
109,192,32645,1,0,0:0:0:0:
256,192,32645,1,0,0:0:0:0:
475,192,32645,1,0,0:0:0:0:
402,192,32822,1,0,0:0:0:0:
475,192,32822,1,0,0:0:0:0:
182,192,32822,1,0,0:0:0:0:
329,192,32998,1,0,0:0:0:0:
402,192,32998,1,0,0:0:0:0:
109,192,32998,1,0,0:0:0:0:
256,192,33174,1,0,0:0:0:0:
329,192,33174,1,0,0:0:0:0:
475,192,33174,1,0,0:0:0:0:
36,192,33174,1,0,0:0:0:0:
36,192,33351,1,0,0:0:0:0:
402,192,33351,1,0,0:0:0:0:
475,192,33351,1,0,0:0:0:0:
256,192,33351,1,0,0:0:0:0:
182,192,33351,1,0,0:0:0:0:
36,192,33527,1,0,0:0:0:0:
109,192,33527,1,0,0:0:0:0:
329,192,33527,1,0,0:0:0:0:
402,192,33527,1,0,0:0:0:0:
256,192,33704,1,0,0:0:0:0:
402,192,33704,1,0,0:0:0:0:
475,192,33704,1,0,0:0:0:0:
36,192,33792,1,0,0:0:0:0:
182,192,33792,1,0,0:0:0:0:
329,192,33880,1,0,0:0:0:0:
475,192,33880,1,0,0:0:0:0:
256,192,33969,1,0,0:0:0:0:
109,192,33969,1,0,0:0:0:0:
402,192,34057,1,0,0:0:0:0:
475,192,34057,1,0,0:0:0:0:
329,192,34057,1,0,0:0:0:0:
36,192,34057,1,0,0:0:0:0:
256,192,34233,1,0,0:0:0:0:
402,192,34233,1,0,0:0:0:0:
109,192,34233,1,0,0:0:0:0:
36,192,34410,1,0,0:0:0:0:
329,192,34410,1,0,0:0:0:0:
109,192,34410,1,0,0:0:0:0:
256,192,34586,1,0,0:0:0:0:
402,192,34586,1,0,0:0:0:0:
329,192,34763,1,0,0:0:0:0:
475,192,34763,1,0,0:0:0:0:
36,192,34763,1,0,0:0:0:0:
402,192,34939,1,0,0:0:0:0:
256,192,34939,1,0,0:0:0:0:
36,192,34939,1,0,0:0:0:0:
402,192,35116,1,0,0:0:0:0:
475,192,35116,1,0,0:0:0:0:
182,192,35116,1,0,0:0:0:0:
256,192,35292,1,0,0:0:0:0:
109,192,35292,1,0,0:0:0:0:
182,192,35469,1,0,0:0:0:0:
329,192,35469,1,0,0:0:0:0:
475,192,35469,1,0,0:0:0:0:
36,192,35645,1,0,0:0:0:0:
182,192,35645,1,0,0:0:0:0:
402,192,35645,1,0,0:0:0:0:
36,192,35822,1,0,0:0:0:0:
109,192,35822,1,0,0:0:0:0:
329,192,35822,1,0,0:0:0:0:
475,192,35822,1,0,0:0:0:0:
256,192,35998,1,0,0:0:0:0:
402,192,35998,1,0,0:0:0:0:
182,192,36086,1,0,0:0:0:0:
109,192,36086,1,0,0:0:0:0:
329,192,36174,1,0,0:0:0:0:
475,192,36174,1,0,0:0:0:0:
36,192,36174,1,0,0:0:0:0:
329,192,36351,1,0,0:0:0:0:
182,192,36351,1,0,0:0:0:0:
109,192,36351,1,0,0:0:0:0:
182,192,36527,1,0,0:0:0:0:
256,192,36527,1,0,0:0:0:0:
402,192,36527,1,0,0:0:0:0:
475,192,36527,1,0,0:0:0:0:
329,192,36704,1,0,0:0:0:0:
109,192,36704,1,0,0:0:0:0:
36,192,36880,1,0,0:0:0:0:
182,192,36880,1,0,0:0:0:0:
402,192,36880,1,0,0:0:0:0:
182,192,37057,1,0,0:0:0:0:
36,192,37057,1,0,0:0:0:0:
329,192,37057,1,0,0:0:0:0:
256,192,37233,1,0,0:0:0:0:
402,192,37233,1,0,0:0:0:0:
475,192,37233,1,0,0:0:0:0:
109,192,37233,1,0,0:0:0:0:
36,192,37410,1,0,0:0:0:0:
256,192,37410,1,0,0:0:0:0:
109,192,37586,1,0,0:0:0:0:
329,192,37586,1,0,0:0:0:0:
475,192,37586,1,0,0:0:0:0:
329,192,37763,1,0,0:0:0:0:
475,192,37763,1,0,0:0:0:0:
182,192,37763,1,0,0:0:0:0:
256,192,37939,1,0,0:0:0:0:
109,192,37939,1,0,0:0:0:0:
36,192,37939,1,0,0:0:0:0:
402,192,37939,1,0,0:0:0:0:
256,192,38116,1,0,0:0:0:0:
475,192,38116,1,0,0:0:0:0:
329,192,38292,1,0,0:0:0:0:
475,192,38292,1,0,0:0:0:0:
109,192,38292,1,0,0:0:0:0:
182,192,38292,1,0,0:0:0:0:
36,192,38469,1,0,0:0:0:0:
109,192,38469,1,0,0:0:0:0:
402,192,38469,1,0,0:0:0:0:
256,192,38469,1,0,0:0:0:0:
36,192,38645,1,0,0:0:0:0:
182,192,38645,1,0,0:0:0:0:
402,192,38645,1,0,0:0:0:0:
475,192,38645,1,0,0:0:0:0:
329,192,38645,1,0,0:0:0:0:
109,192,38822,1,0,0:0:0:0:
256,192,38822,1,0,0:0:0:0:
329,192,38910,1,0,0:0:0:0:
402,192,38998,1,0,0:0:0:0:
182,192,38998,1,0,0:0:0:0:
475,192,38998,1,0,0:0:0:0:
36,192,38998,1,0,0:0:0:0:
182,192,39116,1,0,0:0:0:0:
329,192,39116,1,0,0:0:0:0:
329,192,39233,1,0,0:0:0:0:
109,192,39233,1,0,0:0:0:0:
36,192,39233,1,0,0:0:0:0:
109,192,39351,1,0,0:0:0:0:
402,192,39351,1,0,0:0:0:0:
475,192,39351,1,0,0:0:0:0:
256,192,39351,1,0,0:0:0:0:
182,192,39469,1,0,0:0:0:0:
329,192,39469,1,0,0:0:0:0:
256,192,39586,1,0,0:0:0:0:
402,192,39586,1,0,0:0:0:0:
36,192,39704,1,0,0:0:0:0:
109,192,39704,1,0,0:0:0:0:
475,192,39704,1,0,0:0:0:0:
329,192,39704,1,0,0:0:0:0:
109,192,40057,1,0,0:0:0:0:
182,192,40057,1,0,0:0:0:0:
329,192,40410,1,0,0:0:0:0:
109,192,40586,1,0,0:0:0:0:
256,192,40674,1,0,0:0:0:0:
329,192,40763,1,0,0:0:0:0:
402,192,40763,1,0,0:0:0:0:
182,192,40939,1,0,0:0:0:0:
256,192,41027,1,0,0:0:0:0:
402,192,41027,1,0,0:0:0:0:
109,192,41116,1,0,0:0:0:0:
182,192,41469,1,0,0:0:0:0:
402,192,41469,1,0,0:0:0:0:
329,192,41469,1,0,0:0:0:0:
36,192,41645,1,0,0:0:0:0:
109,192,41645,1,0,0:0:0:0:
256,192,41645,1,0,0:0:0:0:
182,192,41733,1,0,0:0:0:0:
329,192,41733,1,0,0:0:0:0:
256,192,41822,1,0,0:0:0:0:
402,192,41822,1,0,0:0:0:0:
475,192,41822,1,0,0:0:0:0:
36,192,41822,1,0,0:0:0:0:
36,192,41998,1,0,0:0:0:0:
329,192,41998,1,0,0:0:0:0:
182,192,41998,1,0,0:0:0:0:
109,192,42174,1,0,0:0:0:0:
182,192,42174,1,0,0:0:0:0:
402,192,42174,1,0,0:0:0:0:
475,192,42174,1,0,0:0:0:0:
329,192,42263,1,0,0:0:0:0:
256,192,42263,1,0,0:0:0:0:
36,192,42351,1,0,0:0:0:0:
109,192,42351,1,0,0:0:0:0:
402,192,42351,1,0,0:0:0:0:
182,192,42439,1,0,0:0:0:0:
256,192,42439,1,0,0:0:0:0:
329,192,42527,1,0,0:0:0:0:
475,192,42527,1,0,0:0:0:0:
36,192,42527,1,0,0:0:0:0:
109,192,42527,1,0,0:0:0:0:
109,192,42880,1,0,0:0:0:0:
182,192,42880,1,0,0:0:0:0:
329,192,42880,1,0,0:0:0:0:
109,192,43057,1,0,0:0:0:0:
402,192,43057,1,0,0:0:0:0:
475,192,43057,1,0,0:0:0:0:
36,192,43057,1,0,0:0:0:0:
182,192,43233,1,0,0:0:0:0:
36,192,43233,1,0,0:0:0:0:
329,192,43233,1,0,0:0:0:0:
109,192,43410,1,0,0:0:0:0:
182,192,43410,1,0,0:0:0:0:
402,192,43410,1,0,0:0:0:0:
109,192,43586,1,0,0:0:0:0:
36,192,43586,1,0,0:0:0:0:
256,192,43586,1,0,0:0:0:0:
36,192,43763,1,0,0:0:0:0:
182,192,43763,1,0,0:0:0:0:
329,192,43763,1,0,0:0:0:0:
109,192,43939,1,0,0:0:0:0:
402,192,43939,1,0,0:0:0:0:
475,192,43939,1,0,0:0:0:0:
256,192,43939,1,0,0:0:0:0:
475,192,44116,1,0,0:0:0:0:
329,192,44116,1,0,0:0:0:0:
182,192,44116,1,0,0:0:0:0:
475,192,44292,1,0,0:0:0:0:
402,192,44292,1,0,0:0:0:0:
256,192,44292,1,0,0:0:0:0:
36,192,44292,1,0,0:0:0:0:
329,192,44469,1,0,0:0:0:0:
402,192,44469,1,0,0:0:0:0:
182,192,44469,1,0,0:0:0:0:
475,192,44645,1,0,0:0:0:0:
36,192,44645,1,0,0:0:0:0:
109,192,44645,1,0,0:0:0:0:
256,192,44645,1,0,0:0:0:0:
329,192,44822,1,0,0:0:0:0:
402,192,44910,1,0,0:0:0:0:
475,192,44910,1,0,0:0:0:0:
182,192,44998,1,0,0:0:0:0:
36,192,44998,1,0,0:0:0:0:
109,192,44998,1,0,0:0:0:0:
256,192,45086,1,0,0:0:0:0:
402,192,45086,1,0,0:0:0:0:
36,192,45174,1,0,0:0:0:0:
109,192,45174,1,0,0:0:0:0:
182,192,45263,1,0,0:0:0:0:
329,192,45263,1,0,0:0:0:0:
402,192,45351,1,0,0:0:0:0:
475,192,45351,1,0,0:0:0:0:
256,192,45351,1,0,0:0:0:0:
182,192,45527,1,0,0:0:0:0:
329,192,45616,1,0,0:0:0:0:
402,192,45616,1,0,0:0:0:0:
36,192,45704,1,0,0:0:0:0:
182,192,45704,1,0,0:0:0:0:
329,192,45792,1,0,0:0:0:0:
475,192,45792,1,0,0:0:0:0:
256,192,45880,1,0,0:0:0:0:
109,192,45880,1,0,0:0:0:0:
329,192,45969,1,0,0:0:0:0:
402,192,45969,1,0,0:0:0:0:
182,192,46057,1,0,0:0:0:0:
36,192,46057,1,0,0:0:0:0:
109,192,46057,1,0,0:0:0:0:
475,192,46145,1,0,0:0:0:0:
256,192,46233,1,0,0:0:0:0:
402,192,46233,1,0,0:0:0:0:
182,192,46322,1,0,0:0:0:0:
36,192,46322,1,0,0:0:0:0:
329,192,46410,1,0,0:0:0:0:
475,192,46410,1,0,0:0:0:0:
109,192,46498,1,0,0:0:0:0:
256,192,46498,1,0,0:0:0:0:
36,192,46586,1,0,0:0:0:0:
182,192,46586,1,0,0:0:0:0:
402,192,46586,1,0,0:0:0:0:
329,192,46674,1,0,0:0:0:0:
256,192,46763,1,0,0:0:0:0:
402,192,46763,1,0,0:0:0:0:
475,192,46763,1,0,0:0:0:0:
109,192,46763,1,0,0:0:0:0:
36,192,46763,1,0,0:0:0:0:
182,192,47116,5,0,0:0:0:0:
329,192,47292,1,0,0:0:0:0:
109,192,47645,1,0,0:0:0:0:
109,192,47822,1,0,0:0:0:0:
256,192,47998,1,0,0:0:0:0:
329,192,48086,1,0,0:0:0:0:
36,192,48174,5,0,0:0:0:0:
182,192,48174,1,0,0:0:0:0:
402,192,48174,1,0,0:0:0:0:
475,192,48174,1,0,0:0:0:0:
109,192,48174,1,0,0:0:0:0:
256,192,48527,1,0,0:0:0:0:
402,192,48527,1,0,0:0:0:0:
109,192,48527,1,0,0:0:0:0:
36,192,48527,1,0,0:0:0:0:
475,192,48527,1,0,0:0:0:0:
182,192,48704,1,0,0:0:0:0:
329,192,48704,1,0,0:0:0:0:
109,192,48792,1,0,0:0:0:0:
256,192,48792,1,0,0:0:0:0:
36,192,48880,1,0,0:0:0:0:
475,192,48880,1,0,0:0:0:0:
182,192,48880,1,0,0:0:0:0:
402,192,48880,1,0,0:0:0:0:
109,192,49057,1,0,0:0:0:0:
329,192,49057,1,0,0:0:0:0:
475,192,49057,1,0,0:0:0:0:
182,192,49233,1,0,0:0:0:0:
402,192,49233,1,0,0:0:0:0:
36,192,49233,1,0,0:0:0:0:
256,192,49410,1,0,0:0:0:0:
475,192,49410,1,0,0:0:0:0:
402,192,49410,1,0,0:0:0:0:
182,192,49498,1,0,0:0:0:0:
329,192,49498,1,0,0:0:0:0:
256,192,49586,1,0,0:0:0:0:
36,192,49586,1,0,0:0:0:0:
109,192,49674,1,0,0:0:0:0:
329,192,49674,1,0,0:0:0:0:
402,192,49763,1,0,0:0:0:0:
182,192,49763,1,0,0:0:0:0:
475,192,49763,1,0,0:0:0:0:
475,192,49939,1,0,0:0:0:0:
402,192,49939,1,0,0:0:0:0:
329,192,49939,1,0,0:0:0:0:
36,192,49939,1,0,0:0:0:0:
109,192,50027,1,0,0:0:0:0:
256,192,50027,1,0,0:0:0:0:
182,192,50116,1,0,0:0:0:0:
329,192,50116,1,0,0:0:0:0:
256,192,50204,1,0,0:0:0:0:
402,192,50204,1,0,0:0:0:0:
475,192,50292,1,0,0:0:0:0:
109,192,50292,1,0,0:0:0:0:
182,192,50292,1,0,0:0:0:0:
402,192,50380,1,0,0:0:0:0:
36,192,50469,1,0,0:0:0:0:
109,192,50469,1,0,0:0:0:0:
329,192,50469,1,0,0:0:0:0:
256,192,50557,1,0,0:0:0:0:
36,192,50645,1,0,0:0:0:0:
475,192,50645,1,0,0:0:0:0:
182,192,50645,1,0,0:0:0:0:
402,192,50645,1,0,0:0:0:0:
256,192,50822,1,0,0:0:0:0:
329,192,50910,1,0,0:0:0:0:
36,192,50998,1,0,0:0:0:0:
475,192,50998,1,0,0:0:0:0:
402,192,50998,1,0,0:0:0:0:
109,192,51086,1,0,0:0:0:0:
256,192,51086,1,0,0:0:0:0:
182,192,51174,1,0,0:0:0:0:
329,192,51174,1,0,0:0:0:0:
256,192,51263,1,0,0:0:0:0:
402,192,51263,1,0,0:0:0:0:
182,192,51351,1,0,0:0:0:0:
475,192,51351,1,0,0:0:0:0:
36,192,51351,1,0,0:0:0:0:
475,192,51527,1,0,0:0:0:0:
109,192,51527,1,0,0:0:0:0:
402,192,51527,1,0,0:0:0:0:
256,192,51616,1,0,0:0:0:0:
329,192,51616,1,0,0:0:0:0:
36,192,51704,1,0,0:0:0:0:
402,192,51704,1,0,0:0:0:0:
475,192,51704,1,0,0:0:0:0:
182,192,51704,1,0,0:0:0:0:
182,192,51880,1,0,0:0:0:0:
329,192,51880,1,0,0:0:0:0:
109,192,51880,1,0,0:0:0:0:
402,192,52057,1,0,0:0:0:0:
36,192,52057,1,0,0:0:0:0:
109,192,52057,1,0,0:0:0:0:
256,192,52057,1,0,0:0:0:0:
36,192,52233,1,0,0:0:0:0:
475,192,52233,1,0,0:0:0:0:
329,192,52233,1,0,0:0:0:0:
182,192,52233,1,0,0:0:0:0:
256,192,52322,1,0,0:0:0:0:
402,192,52322,1,0,0:0:0:0:
182,192,52410,1,0,0:0:0:0:
329,192,52410,1,0,0:0:0:0:
109,192,52498,1,0,0:0:0:0:
256,192,52498,1,0,0:0:0:0:
36,192,52586,1,0,0:0:0:0:
402,192,52586,1,0,0:0:0:0:
329,192,52763,1,0,0:0:0:0:
402,192,52763,1,0,0:0:0:0:
475,192,52763,1,0,0:0:0:0:
182,192,52763,1,0,0:0:0:0:
256,192,52851,1,0,0:0:0:0:
36,192,52851,1,0,0:0:0:0:
329,192,52939,1,0,0:0:0:0:
109,192,52939,1,0,0:0:0:0:
182,192,53027,1,0,0:0:0:0:
402,192,53027,1,0,0:0:0:0:
109,192,53116,1,0,0:0:0:0:
36,192,53116,1,0,0:0:0:0:
329,192,53204,1,0,0:0:0:0:
475,192,53204,1,0,0:0:0:0:
182,192,53292,1,0,0:0:0:0:
36,192,53292,1,0,0:0:0:0:
256,192,53292,1,0,0:0:0:0:
109,192,53469,1,0,0:0:0:0:
182,192,53469,1,0,0:0:0:0:
329,192,53469,1,0,0:0:0:0:
402,192,53469,1,0,0:0:0:0:
475,192,53469,1,0,0:0:0:0:
36,192,53822,1,0,0:0:0:0:
182,192,53822,1,0,0:0:0:0:
329,192,53822,1,0,0:0:0:0:
475,192,53822,1,0,0:0:0:0:
256,192,54174,1,0,0:0:0:0:
402,192,54174,1,0,0:0:0:0:
109,192,54174,1,0,0:0:0:0:
475,192,54174,1,0,0:0:0:0:
36,192,54174,1,0,0:0:0:0:
329,192,54351,1,0,0:0:0:0:
182,192,54351,1,0,0:0:0:0:
402,192,54439,1,0,0:0:0:0:
256,192,54439,1,0,0:0:0:0:
475,192,54527,1,0,0:0:0:0:
36,192,54527,1,0,0:0:0:0:
329,192,54527,1,0,0:0:0:0:
109,192,54527,1,0,0:0:0:0:
182,192,54704,1,0,0:0:0:0:
402,192,54704,1,0,0:0:0:0:
36,192,54704,1,0,0:0:0:0:
329,192,54880,1,0,0:0:0:0:
109,192,54880,1,0,0:0:0:0:
475,192,54880,1,0,0:0:0:0:
256,192,55057,1,0,0:0:0:0:
36,192,55057,1,0,0:0:0:0:
109,192,55057,1,0,0:0:0:0:
329,192,55145,1,0,0:0:0:0:
182,192,55145,1,0,0:0:0:0:
256,192,55233,1,0,0:0:0:0:
475,192,55233,1,0,0:0:0:0:
402,192,55322,1,0,0:0:0:0:
182,192,55322,1,0,0:0:0:0:
109,192,55410,1,0,0:0:0:0:
329,192,55410,1,0,0:0:0:0:
36,192,55410,1,0,0:0:0:0:
36,192,55586,1,0,0:0:0:0:
109,192,55586,1,0,0:0:0:0:
182,192,55586,1,0,0:0:0:0:
475,192,55586,1,0,0:0:0:0:
402,192,55674,1,0,0:0:0:0:
256,192,55674,1,0,0:0:0:0:
329,192,55763,1,0,0:0:0:0:
182,192,55763,1,0,0:0:0:0:
256,192,55851,1,0,0:0:0:0:
109,192,55851,1,0,0:0:0:0:
36,192,55939,1,0,0:0:0:0:
402,192,55939,1,0,0:0:0:0:
329,192,55939,1,0,0:0:0:0:
109,192,56027,1,0,0:0:0:0:
475,192,56116,1,0,0:0:0:0:
402,192,56116,1,0,0:0:0:0:
182,192,56116,1,0,0:0:0:0:
475,192,56292,1,0,0:0:0:0:
36,192,56292,1,0,0:0:0:0:
329,192,56292,1,0,0:0:0:0:
109,192,56292,1,0,0:0:0:0:
256,192,56380,1,0,0:0:0:0:
402,192,56469,1,0,0:0:0:0:
182,192,56469,1,0,0:0:0:0:
329,192,56557,1,0,0:0:0:0:
109,192,56557,1,0,0:0:0:0:
475,192,56645,1,0,0:0:0:0:
36,192,56645,1,0,0:0:0:0:
182,192,56645,1,0,0:0:0:0:
402,192,56733,1,0,0:0:0:0:
256,192,56733,1,0,0:0:0:0:
329,192,56822,1,0,0:0:0:0:
182,192,56822,1,0,0:0:0:0:
256,192,56910,1,0,0:0:0:0:
109,192,56910,1,0,0:0:0:0:
329,192,56998,1,0,0:0:0:0:
36,192,56998,1,0,0:0:0:0:
475,192,56998,1,0,0:0:0:0:
109,192,57174,1,0,0:0:0:0:
256,192,57174,1,0,0:0:0:0:
182,192,57263,1,0,0:0:0:0:
329,192,57263,1,0,0:0:0:0:
475,192,57351,1,0,0:0:0:0:
109,192,57351,1,0,0:0:0:0:
36,192,57351,1,0,0:0:0:0:
402,192,57351,1,0,0:0:0:0:
329,192,57527,1,0,0:0:0:0:
182,192,57527,1,0,0:0:0:0:
475,192,57527,1,0,0:0:0:0:
109,192,57704,1,0,0:0:0:0:
475,192,57704,1,0,0:0:0:0:
402,192,57704,1,0,0:0:0:0:
256,192,57704,1,0,0:0:0:0:
109,192,57880,1,0,0:0:0:0:
36,192,57880,1,0,0:0:0:0:
182,192,57880,1,0,0:0:0:0:
402,192,57880,1,0,0:0:0:0:
256,192,57969,1,0,0:0:0:0:
329,192,58057,1,0,0:0:0:0:
402,192,58145,1,0,0:0:0:0:
475,192,58233,1,0,0:0:0:0:
182,192,58233,1,0,0:0:0:0:
36,192,58233,1,0,0:0:0:0:
182,192,58410,1,0,0:0:0:0:
109,192,58410,1,0,0:0:0:0:
36,192,58410,1,0,0:0:0:0:
329,192,58410,1,0,0:0:0:0:
475,192,58586,1,0,0:0:0:0:
402,192,58586,1,0,0:0:0:0:
109,192,58586,1,0,0:0:0:0:
329,192,58763,1,0,0:0:0:0:
402,192,58763,1,0,0:0:0:0:
36,192,58763,1,0,0:0:0:0:
182,192,58763,1,0,0:0:0:0:
329,192,58939,1,0,0:0:0:0:
475,192,58939,1,0,0:0:0:0:
36,192,59027,1,0,0:0:0:0:
109,192,59027,1,0,0:0:0:0:
475,192,59116,1,0,0:0:0:0:
256,192,59116,1,0,0:0:0:0:
402,192,59116,1,0,0:0:0:0:
182,192,59204,1,0,0:0:0:0:
109,192,59204,1,0,0:0:0:0:
329,192,59292,1,0,0:0:0:0:
402,192,59292,1,0,0:0:0:0:
256,192,59380,1,0,0:0:0:0:
182,192,59380,1,0,0:0:0:0:
36,192,59469,1,0,0:0:0:0:
475,192,59469,1,0,0:0:0:0:
329,192,59469,1,0,0:0:0:0:
109,192,59469,1,0,0:0:0:0:
36,192,59822,1,0,0:0:0:0:
109,192,59822,1,0,0:0:0:0:
475,192,59822,1,0,0:0:0:0:
402,192,59822,1,0,0:0:0:0:
109,192,59998,1,0,0:0:0:0:
182,192,59998,1,0,0:0:0:0:
329,192,59998,1,0,0:0:0:0:
256,192,60086,1,0,0:0:0:0:
402,192,60086,1,0,0:0:0:0:
109,192,60174,1,0,0:0:0:0:
36,192,60174,1,0,0:0:0:0:
329,192,60174,1,0,0:0:0:0:
475,192,60174,1,0,0:0:0:0:
36,192,60351,1,0,0:0:0:0:
182,192,60351,1,0,0:0:0:0:
402,192,60351,1,0,0:0:0:0:
329,192,60439,1,0,0:0:0:0:
109,192,60527,1,0,0:0:0:0:
475,192,60527,1,0,0:0:0:0:
256,192,60527,1,0,0:0:0:0:
402,192,60527,1,0,0:0:0:0:
256,192,60704,1,0,0:0:0:0:
36,192,60704,1,0,0:0:0:0:
329,192,60792,1,0,0:0:0:0:
182,192,60880,1,0,0:0:0:0:
402,192,60880,1,0,0:0:0:0:
329,192,60969,1,0,0:0:0:0:
256,192,61057,1,0,0:0:0:0:
109,192,61057,1,0,0:0:0:0:
36,192,61057,1,0,0:0:0:0:
402,192,61233,1,0,0:0:0:0:
475,192,61233,1,0,0:0:0:0:
36,192,61233,1,0,0:0:0:0:
182,192,61233,1,0,0:0:0:0:
329,192,61410,1,0,0:0:0:0:
402,192,61410,1,0,0:0:0:0:
182,192,61410,1,0,0:0:0:0:
256,192,61498,1,0,0:0:0:0:
109,192,61498,1,0,0:0:0:0:
402,192,61586,1,0,0:0:0:0:
475,192,61586,1,0,0:0:0:0:
182,192,61586,1,0,0:0:0:0:
36,192,61586,1,0,0:0:0:0:
329,192,61763,1,0,0:0:0:0:
475,192,61763,1,0,0:0:0:0:
109,192,61763,1,0,0:0:0:0:
182,192,61851,1,0,0:0:0:0:
402,192,61939,1,0,0:0:0:0:
256,192,61939,1,0,0:0:0:0:
36,192,61939,1,0,0:0:0:0:
109,192,61939,1,0,0:0:0:0:
402,192,62116,1,0,0:0:0:0:
182,192,62116,1,0,0:0:0:0:
109,192,62204,1,0,0:0:0:0:
256,192,62292,1,0,0:0:0:0:
36,192,62292,1,0,0:0:0:0:
475,192,62292,1,0,0:0:0:0:
182,192,62380,1,0,0:0:0:0:
109,192,62469,1,0,0:0:0:0:
182,192,62557,1,0,0:0:0:0:
36,192,62645,1,0,0:0:0:0:
475,192,62645,1,0,0:0:0:0:
402,192,62645,1,0,0:0:0:0:
256,192,62645,1,0,0:0:0:0:
109,192,62822,1,0,0:0:0:0:
182,192,62822,1,0,0:0:0:0:
329,192,62822,1,0,0:0:0:0:
256,192,62910,1,0,0:0:0:0:
402,192,62910,1,0,0:0:0:0:
109,192,62998,1,0,0:0:0:0:
36,192,62998,1,0,0:0:0:0:
329,192,62998,1,0,0:0:0:0:
475,192,62998,1,0,0:0:0:0:
36,192,63174,1,0,0:0:0:0:
182,192,63174,1,0,0:0:0:0:
402,192,63174,1,0,0:0:0:0:
329,192,63263,1,0,0:0:0:0:
109,192,63351,1,0,0:0:0:0:
475,192,63351,1,0,0:0:0:0:
256,192,63351,1,0,0:0:0:0:
402,192,63351,1,0,0:0:0:0:
329,192,63527,1,0,0:0:0:0:
36,192,63527,1,0,0:0:0:0:
109,192,63527,1,0,0:0:0:0:
475,192,63527,1,0,0:0:0:0:
256,192,63616,1,0,0:0:0:0:
182,192,63704,1,0,0:0:0:0:
402,192,63704,1,0,0:0:0:0:
256,192,63792,1,0,0:0:0:0:
329,192,63880,1,0,0:0:0:0:
109,192,63880,1,0,0:0:0:0:
36,192,63880,1,0,0:0:0:0:
402,192,63969,1,0,0:0:0:0:
475,192,64057,1,0,0:0:0:0:
36,192,64057,1,0,0:0:0:0:
182,192,64057,1,0,0:0:0:0:
256,192,64057,1,0,0:0:0:0:
329,192,64233,1,0,0:0:0:0:
402,192,64233,1,0,0:0:0:0:
182,192,64233,1,0,0:0:0:0:
256,192,64322,1,0,0:0:0:0:
109,192,64322,1,0,0:0:0:0:
182,192,64410,1,0,0:0:0:0:
36,192,64410,1,0,0:0:0:0:
329,192,64410,1,0,0:0:0:0:
402,192,64498,1,0,0:0:0:0:
475,192,64498,1,0,0:0:0:0:
109,192,64586,1,0,0:0:0:0:
256,192,64586,1,0,0:0:0:0:
36,192,64763,1,0,0:0:0:0:
475,192,64763,1,0,0:0:0:0:
182,192,64763,1,0,0:0:0:0:
402,192,64851,1,0,0:0:0:0:
109,192,64939,1,0,0:0:0:0:
329,192,64939,1,0,0:0:0:0:
182,192,65027,1,0,0:0:0:0:
475,192,65116,1,0,0:0:0:0:
329,192,65116,1,0,0:0:0:0:
402,192,65116,1,0,0:0:0:0:
36,192,65116,1,0,0:0:0:0:
109,192,65116,1,0,0:0:0:0:
256,192,65204,1,0,0:0:0:0:
402,192,65292,1,0,0:0:0:0:
182,192,65292,1,0,0:0:0:0:
329,192,65380,1,0,0:0:0:0:
36,192,65469,1,0,0:0:0:0:
475,192,65469,1,0,0:0:0:0:
256,192,65469,1,0,0:0:0:0:
109,192,65557,1,0,0:0:0:0:
182,192,65557,1,0,0:0:0:0:
329,192,65645,1,0,0:0:0:0:
475,192,65645,1,0,0:0:0:0:
36,192,65733,1,0,0:0:0:0:
109,192,65733,1,0,0:0:0:0:
256,192,65822,1,0,0:0:0:0:
402,192,65822,1,0,0:0:0:0:
182,192,65822,1,0,0:0:0:0:
475,192,65910,1,0,0:0:0:0:
109,192,65998,1,0,0:0:0:0:
256,192,65998,1,0,0:0:0:0:
36,192,66174,1,0,0:0:0:0:
182,192,66174,1,0,0:0:0:0:
402,192,66174,1,0,0:0:0:0:
475,192,66174,1,0,0:0:0:0:
256,192,66263,1,0,0:0:0:0:
109,192,66351,1,0,0:0:0:0:
329,192,66351,1,0,0:0:0:0:
36,192,66439,1,0,0:0:0:0:
182,192,66527,1,0,0:0:0:0:
402,192,66527,1,0,0:0:0:0:
475,192,66527,1,0,0:0:0:0:
36,192,66704,1,0,0:0:0:0:
109,192,66704,1,0,0:0:0:0:
256,192,66704,1,0,0:0:0:0:
182,192,66880,1,0,0:0:0:0:
329,192,66880,1,0,0:0:0:0:
475,192,66880,1,0,0:0:0:0:
256,192,67057,1,0,0:0:0:0:
402,192,67057,1,0,0:0:0:0:
182,192,67145,1,0,0:0:0:0:
329,192,67145,1,0,0:0:0:0:
109,192,67233,1,0,0:0:0:0:
36,192,67233,1,0,0:0:0:0:
475,192,67233,1,0,0:0:0:0:
402,192,67322,1,0,0:0:0:0:
329,192,67410,1,0,0:0:0:0:
182,192,67410,1,0,0:0:0:0:
109,192,67498,1,0,0:0:0:0:
256,192,67586,1,0,0:0:0:0:
402,192,67586,1,0,0:0:0:0:
475,192,67586,1,0,0:0:0:0:
182,192,67674,1,0,0:0:0:0:
329,192,67763,1,0,0:0:0:0:
402,192,67763,1,0,0:0:0:0:
109,192,67851,1,0,0:0:0:0:
256,192,67851,1,0,0:0:0:0:
36,192,67939,1,0,0:0:0:0:
182,192,67939,1,0,0:0:0:0:
475,192,67939,1,0,0:0:0:0:
402,192,68027,1,0,0:0:0:0:
329,192,68116,1,0,0:0:0:0:
109,192,68116,1,0,0:0:0:0:
402,192,68204,1,0,0:0:0:0:
182,192,68292,1,0,0:0:0:0:
256,192,68292,1,0,0:0:0:0:
475,192,68292,1,0,0:0:0:0:
36,192,68380,1,0,0:0:0:0:
329,192,68469,1,0,0:0:0:0:
402,192,68469,1,0,0:0:0:0:
256,192,68557,1,0,0:0:0:0:
109,192,68557,1,0,0:0:0:0:
402,192,68645,1,0,0:0:0:0:
475,192,68645,1,0,0:0:0:0:
36,192,68645,1,0,0:0:0:0:
329,192,68822,1,0,0:0:0:0:
36,192,68910,1,0,0:0:0:0:
182,192,68910,1,0,0:0:0:0:
475,192,68998,1,0,0:0:0:0:
256,192,68998,1,0,0:0:0:0:
402,192,68998,1,0,0:0:0:0:
256,192,69174,1,0,0:0:0:0:
475,192,69174,1,0,0:0:0:0:
329,192,69174,1,0,0:0:0:0:
36,192,69174,1,0,0:0:0:0:
182,192,69263,1,0,0:0:0:0:
109,192,69351,1,0,0:0:0:0:
329,192,69351,1,0,0:0:0:0:
182,192,69439,1,0,0:0:0:0:
256,192,69527,1,0,0:0:0:0:
475,192,69527,1,0,0:0:0:0:
36,192,69527,1,0,0:0:0:0:
402,192,69616,1,0,0:0:0:0:
329,192,69704,1,0,0:0:0:0:
109,192,69704,1,0,0:0:0:0:
36,192,69704,1,0,0:0:0:0:
182,192,69792,1,0,0:0:0:0:
256,192,69880,1,0,0:0:0:0:
402,192,69880,1,0,0:0:0:0:
475,192,69880,1,0,0:0:0:0:
329,192,69969,1,0,0:0:0:0:
182,192,69969,1,0,0:0:0:0:
36,192,70057,1,0,0:0:0:0:
109,192,70057,1,0,0:0:0:0:
256,192,70057,1,0,0:0:0:0:
109,192,70233,1,0,0:0:0:0:
36,192,70233,1,0,0:0:0:0:
475,192,70233,1,0,0:0:0:0:
182,192,70322,1,0,0:0:0:0:
329,192,70322,1,0,0:0:0:0:
402,192,70410,1,0,0:0:0:0:
475,192,70410,1,0,0:0:0:0:
36,192,70410,1,0,0:0:0:0:
256,192,70498,1,0,0:0:0:0:
109,192,70498,1,0,0:0:0:0:
329,192,70586,1,0,0:0:0:0:
402,192,70586,1,0,0:0:0:0:
182,192,70674,1,0,0:0:0:0:
109,192,70674,1,0,0:0:0:0:
256,192,70763,1,0,0:0:0:0:
329,192,70763,1,0,0:0:0:0:
475,192,70763,1,0,0:0:0:0:
402,192,70763,1,0,0:0:0:0:
36,192,70763,1,0,0:0:0:0:
256,192,71116,1,0,0:0:0:0:
402,192,71116,1,0,0:0:0:0:
109,192,71116,1,0,0:0:0:0:
475,192,71116,1,0,0:0:0:0:
36,192,71116,1,0,0:0:0:0:
182,192,71292,1,0,0:0:0:0:
329,192,71292,1,0,0:0:0:0:
109,192,71380,1,0,0:0:0:0:
256,192,71380,1,0,0:0:0:0:
36,192,71469,1,0,0:0:0:0:
475,192,71469,1,0,0:0:0:0:
182,192,71469,1,0,0:0:0:0:
402,192,71469,1,0,0:0:0:0:
329,192,71645,1,0,0:0:0:0:
36,192,71645,1,0,0:0:0:0:
109,192,71645,1,0,0:0:0:0:
109,192,71822,1,0,0:0:0:0:
182,192,71822,1,0,0:0:0:0:
402,192,71822,1,0,0:0:0:0:
256,192,71998,1,0,0:0:0:0:
475,192,71998,1,0,0:0:0:0:
402,192,71998,1,0,0:0:0:0:
182,192,72086,1,0,0:0:0:0:
329,192,72086,1,0,0:0:0:0:
256,192,72174,1,0,0:0:0:0:
36,192,72174,1,0,0:0:0:0:
109,192,72263,1,0,0:0:0:0:
329,192,72263,1,0,0:0:0:0:
402,192,72351,1,0,0:0:0:0:
182,192,72351,1,0,0:0:0:0:
475,192,72351,1,0,0:0:0:0:
475,192,72527,1,0,0:0:0:0:
329,192,72527,1,0,0:0:0:0:
36,192,72527,1,0,0:0:0:0:
402,192,72527,1,0,0:0:0:0:
109,192,72616,1,0,0:0:0:0:
256,192,72616,1,0,0:0:0:0:
182,192,72704,1,0,0:0:0:0:
329,192,72704,1,0,0:0:0:0:
256,192,72792,1,0,0:0:0:0:
402,192,72792,1,0,0:0:0:0:
475,192,72880,1,0,0:0:0:0:
109,192,72880,1,0,0:0:0:0:
182,192,72880,1,0,0:0:0:0:
402,192,72969,1,0,0:0:0:0:
36,192,73057,1,0,0:0:0:0:
109,192,73057,1,0,0:0:0:0:
329,192,73057,1,0,0:0:0:0:
256,192,73145,1,0,0:0:0:0:
36,192,73233,1,0,0:0:0:0:
475,192,73233,1,0,0:0:0:0:
182,192,73233,1,0,0:0:0:0:
402,192,73233,1,0,0:0:0:0:
109,192,73322,1,0,0:0:0:0:
256,192,73322,1,0,0:0:0:0:
182,192,73410,1,0,0:0:0:0:
329,192,73410,1,0,0:0:0:0:
256,192,73498,1,0,0:0:0:0:
36,192,73586,1,0,0:0:0:0:
475,192,73586,1,0,0:0:0:0:
402,192,73586,1,0,0:0:0:0:
182,192,73674,1,0,0:0:0:0:
329,192,73674,1,0,0:0:0:0:
109,192,73763,1,0,0:0:0:0:
256,192,73763,1,0,0:0:0:0:
182,192,73851,1,0,0:0:0:0:
36,192,73851,1,0,0:0:0:0:
475,192,73939,1,0,0:0:0:0:
256,192,73939,1,0,0:0:0:0:
402,192,73939,1,0,0:0:0:0:
329,192,73939,1,0,0:0:0:0:
36,192,74116,1,0,0:0:0:0:
402,192,74116,1,0,0:0:0:0:
182,192,74116,1,0,0:0:0:0:
256,192,74204,1,0,0:0:0:0:
475,192,74292,1,0,0:0:0:0:
109,192,74292,1,0,0:0:0:0:
36,192,74292,1,0,0:0:0:0:
329,192,74292,1,0,0:0:0:0:
182,192,74469,1,0,0:0:0:0:
329,192,74469,1,0,0:0:0:0:
109,192,74469,1,0,0:0:0:0:
402,192,74557,1,0,0:0:0:0:
475,192,74557,1,0,0:0:0:0:
36,192,74645,1,0,0:0:0:0:
109,192,74645,1,0,0:0:0:0:
256,192,74645,1,0,0:0:0:0:
36,192,74822,1,0,0:0:0:0:
475,192,74822,1,0,0:0:0:0:
329,192,74822,1,0,0:0:0:0:
182,192,74822,1,0,0:0:0:0:
256,192,74910,1,0,0:0:0:0:
182,192,74998,1,0,0:0:0:0:
109,192,75086,1,0,0:0:0:0:
36,192,75174,1,0,0:0:0:0:
402,192,75174,1,0,0:0:0:0:
256,192,75174,1,0,0:0:0:0:
329,192,75351,1,0,0:0:0:0:
402,192,75351,1,0,0:0:0:0:
475,192,75351,1,0,0:0:0:0:
182,192,75351,1,0,0:0:0:0:
256,192,75439,1,0,0:0:0:0:
36,192,75527,1,0,0:0:0:0:
109,192,75527,1,0,0:0:0:0:
329,192,75527,1,0,0:0:0:0:
402,192,75616,1,0,0:0:0:0:
36,192,75704,1,0,0:0:0:0:
182,192,75704,1,0,0:0:0:0:
475,192,75704,1,0,0:0:0:0:
109,192,75704,1,0,0:0:0:0:
256,192,75880,1,0,0:0:0:0:
402,192,75880,1,0,0:0:0:0:
182,192,75969,1,0,0:0:0:0:
36,192,75969,1,0,0:0:0:0:
475,192,76057,1,0,0:0:0:0:
329,192,76057,1,0,0:0:0:0:
109,192,76057,1,0,0:0:0:0:
256,192,76145,1,0,0:0:0:0:
402,192,76145,1,0,0:0:0:0:
36,192,76233,1,0,0:0:0:0:
182,192,76233,1,0,0:0:0:0:
329,192,76322,1,0,0:0:0:0:
402,192,76322,1,0,0:0:0:0:
36,192,76410,1,0,0:0:0:0:
109,192,76410,1,0,0:0:0:0:
475,192,76410,1,0,0:0:0:0:
256,192,76410,1,0,0:0:0:0:
256,192,76763,1,0,0:0:0:0:
402,192,76763,1,0,0:0:0:0:
109,192,76763,1,0,0:0:0:0:
36,192,76763,1,0,0:0:0:0:
475,192,76763,1,0,0:0:0:0:
329,192,76939,1,0,0:0:0:0:
182,192,76939,1,0,0:0:0:0:
402,192,77027,1,0,0:0:0:0:
256,192,77027,1,0,0:0:0:0:
475,192,77116,1,0,0:0:0:0:
36,192,77116,1,0,0:0:0:0:
329,192,77116,1,0,0:0:0:0:
109,192,77116,1,0,0:0:0:0:
182,192,77292,1,0,0:0:0:0:
475,192,77292,1,0,0:0:0:0:
402,192,77292,1,0,0:0:0:0:
402,192,77469,1,0,0:0:0:0:
329,192,77469,1,0,0:0:0:0:
109,192,77469,1,0,0:0:0:0:
256,192,77645,1,0,0:0:0:0:
36,192,77645,1,0,0:0:0:0:
109,192,77645,1,0,0:0:0:0:
329,192,77733,1,0,0:0:0:0:
182,192,77733,1,0,0:0:0:0:
256,192,77822,1,0,0:0:0:0:
475,192,77822,1,0,0:0:0:0:
402,192,77910,1,0,0:0:0:0:
182,192,77910,1,0,0:0:0:0:
109,192,77998,1,0,0:0:0:0:
329,192,77998,1,0,0:0:0:0:
36,192,77998,1,0,0:0:0:0:
36,192,78174,1,0,0:0:0:0:
109,192,78174,1,0,0:0:0:0:
182,192,78174,1,0,0:0:0:0:
475,192,78174,1,0,0:0:0:0:
402,192,78263,1,0,0:0:0:0:
256,192,78263,1,0,0:0:0:0:
329,192,78351,1,0,0:0:0:0:
182,192,78351,1,0,0:0:0:0:
256,192,78439,1,0,0:0:0:0:
109,192,78439,1,0,0:0:0:0:
36,192,78527,1,0,0:0:0:0:
475,192,78527,1,0,0:0:0:0:
329,192,78527,1,0,0:0:0:0:
109,192,78616,1,0,0:0:0:0:
182,192,78704,1,0,0:0:0:0:
329,192,78704,1,0,0:0:0:0:
402,192,78704,1,0,0:0:0:0:
475,192,78880,1,0,0:0:0:0:
36,192,78880,1,0,0:0:0:0:
109,192,78880,1,0,0:0:0:0:
256,192,78880,1,0,0:0:0:0:
329,192,78969,1,0,0:0:0:0:
402,192,79057,1,0,0:0:0:0:
182,192,79057,1,0,0:0:0:0:
329,192,79145,1,0,0:0:0:0:
109,192,79145,1,0,0:0:0:0:
475,192,79233,1,0,0:0:0:0:
36,192,79233,1,0,0:0:0:0:
182,192,79233,1,0,0:0:0:0:
402,192,79322,1,0,0:0:0:0:
256,192,79322,1,0,0:0:0:0:
329,192,79410,1,0,0:0:0:0:
182,192,79410,1,0,0:0:0:0:
256,192,79498,1,0,0:0:0:0:
109,192,79498,1,0,0:0:0:0:
329,192,79586,1,0,0:0:0:0:
36,192,79586,1,0,0:0:0:0:
475,192,79586,1,0,0:0:0:0:
182,192,79763,1,0,0:0:0:0:
402,192,79763,1,0,0:0:0:0:
109,192,79851,1,0,0:0:0:0:
475,192,79939,1,0,0:0:0:0:
36,192,79939,1,0,0:0:0:0:
329,192,79939,1,0,0:0:0:0:
256,192,80027,1,0,0:0:0:0:
402,192,80027,1,0,0:0:0:0:
182,192,80116,1,0,0:0:0:0:
109,192,80116,1,0,0:0:0:0:
402,192,80292,1,0,0:0:0:0:
256,192,80292,1,0,0:0:0:0:
182,192,80292,1,0,0:0:0:0:
475,192,80469,1,0,0:0:0:0:
109,192,80469,1,0,0:0:0:0:
36,192,80469,1,0,0:0:0:0:
329,192,80469,1,0,0:0:0:0:
402,192,80469,1,0,0:0:0:0:
256,192,80557,1,0,0:0:0:0:
329,192,80645,1,0,0:0:0:0:
402,192,80733,1,0,0:0:0:0:
475,192,80822,1,0,0:0:0:0:
182,192,80822,1,0,0:0:0:0:
182,192,80998,1,0,0:0:0:0:
109,192,80998,1,0,0:0:0:0:
36,192,80998,1,0,0:0:0:0:
329,192,80998,1,0,0:0:0:0:
475,192,81174,1,0,0:0:0:0:
402,192,81174,1,0,0:0:0:0:
109,192,81174,1,0,0:0:0:0:
329,192,81351,1,0,0:0:0:0:
402,192,81351,1,0,0:0:0:0:
36,192,81351,1,0,0:0:0:0:
182,192,81351,1,0,0:0:0:0:
329,192,81527,1,0,0:0:0:0:
475,192,81527,1,0,0:0:0:0:
36,192,81616,1,0,0:0:0:0:
109,192,81616,1,0,0:0:0:0:
475,192,81704,1,0,0:0:0:0:
256,192,81704,1,0,0:0:0:0:
402,192,81704,1,0,0:0:0:0:
182,192,81792,1,0,0:0:0:0:
109,192,81792,1,0,0:0:0:0:
329,192,81880,1,0,0:0:0:0:
402,192,81880,1,0,0:0:0:0:
256,192,81969,1,0,0:0:0:0:
182,192,81969,1,0,0:0:0:0:
36,192,82057,1,0,0:0:0:0:
475,192,82057,1,0,0:0:0:0:
329,192,82057,1,0,0:0:0:0:
109,192,82057,1,0,0:0:0:0:
329,192,82410,1,0,0:0:0:0:
475,192,82410,1,0,0:0:0:0:
109,192,82410,1,0,0:0:0:0:
182,192,82586,1,0,0:0:0:0:
475,192,82586,1,0,0:0:0:0:
36,192,82763,1,0,0:0:0:0:
256,192,82763,1,0,0:0:0:0:
475,192,82763,1,0,0:0:0:0:
109,192,82939,1,0,0:0:0:0:
475,192,82939,1,0,0:0:0:0:
475,192,83116,1,0,0:0:0:0:
36,192,83116,1,0,0:0:0:0:
182,192,83116,1,0,0:0:0:0:
109,192,83292,1,0,0:0:0:0:
329,192,83292,1,0,0:0:0:0:
402,192,83292,1,0,0:0:0:0:
182,192,83292,1,0,0:0:0:0:
36,192,83469,1,0,0:0:0:0:
109,192,83469,1,0,0:0:0:0:
256,192,83469,1,0,0:0:0:0:
475,192,83469,1,0,0:0:0:0:
36,192,83645,1,0,0:0:0:0:
182,192,83645,1,0,0:0:0:0:
329,192,83645,1,0,0:0:0:0:
36,192,83822,1,0,0:0:0:0:
256,192,83822,1,0,0:0:0:0:
402,192,83822,1,0,0:0:0:0:
109,192,83998,1,0,0:0:0:0:
329,192,83998,1,0,0:0:0:0:
36,192,83998,1,0,0:0:0:0:
36,192,84174,1,0,0:0:0:0:
182,192,84174,1,0,0:0:0:0:
475,192,84174,1,0,0:0:0:0:
329,192,84351,1,0,0:0:0:0:
109,192,84351,1,0,0:0:0:0:
182,192,84351,1,0,0:0:0:0:
475,192,84527,1,0,0:0:0:0:
402,192,84527,1,0,0:0:0:0:
36,192,84527,1,0,0:0:0:0:
109,192,84527,1,0,0:0:0:0:
36,192,84704,1,0,0:0:0:0:
256,192,84704,1,0,0:0:0:0:
182,192,84880,1,0,0:0:0:0:
402,192,84880,1,0,0:0:0:0:
475,192,84880,1,0,0:0:0:0:
109,192,84880,1,0,0:0:0:0:
402,192,85057,1,0,0:0:0:0:
36,192,85057,1,0,0:0:0:0:
402,192,85233,1,0,0:0:0:0:
256,192,85233,1,0,0:0:0:0:
109,192,85233,1,0,0:0:0:0:
182,192,85410,1,0,0:0:0:0:
402,192,85410,1,0,0:0:0:0:
109,192,85586,1,0,0:0:0:0:
402,192,85586,1,0,0:0:0:0:
36,192,85586,1,0,0:0:0:0:
182,192,85763,1,0,0:0:0:0:
402,192,85763,1,0,0:0:0:0:
475,192,85763,1,0,0:0:0:0:
329,192,85763,1,0,0:0:0:0:
256,192,85939,1,0,0:0:0:0:
36,192,85939,1,0,0:0:0:0:
109,192,85939,1,0,0:0:0:0:
402,192,86116,1,0,0:0:0:0:
329,192,86116,1,0,0:0:0:0:
182,192,86116,1,0,0:0:0:0:
36,192,86116,1,0,0:0:0:0:
475,192,86204,1,0,0:0:0:0:
402,192,86292,1,0,0:0:0:0:
329,192,86380,1,0,0:0:0:0:
256,192,86469,1,0,0:0:0:0:
36,192,86469,1,0,0:0:0:0:
109,192,86469,1,0,0:0:0:0:
109,192,86645,1,0,0:0:0:0:
182,192,86645,1,0,0:0:0:0:
402,192,86645,1,0,0:0:0:0:
475,192,86822,1,0,0:0:0:0:
329,192,86822,1,0,0:0:0:0:
182,192,86822,1,0,0:0:0:0:
36,192,86998,1,0,0:0:0:0:
109,192,86998,1,0,0:0:0:0:
256,192,86998,1,0,0:0:0:0:
329,192,87086,1,0,0:0:0:0:
256,192,87174,1,0,0:0:0:0:
475,192,87174,1,0,0:0:0:0:
182,192,87263,1,0,0:0:0:0:
402,192,87263,1,0,0:0:0:0:
475,192,87351,1,0,0:0:0:0:
329,192,87351,1,0,0:0:0:0:
36,192,87351,1,0,0:0:0:0:
109,192,87439,1,0,0:0:0:0:
256,192,87439,1,0,0:0:0:0:
402,192,87527,1,0,0:0:0:0:
475,192,87527,1,0,0:0:0:0:
329,192,87616,1,0,0:0:0:0:
182,192,87616,1,0,0:0:0:0:
109,192,87704,1,0,0:0:0:0:
36,192,87704,1,0,0:0:0:0:
402,192,87704,1,0,0:0:0:0:
256,192,87704,1,0,0:0:0:0:
109,192,87880,1,0,0:0:0:0:
36,192,87880,1,0,0:0:0:0:
329,192,87880,1,0,0:0:0:0:
36,192,88057,1,0,0:0:0:0:
109,192,88057,1,0,0:0:0:0:
256,192,88057,1,0,0:0:0:0:
402,192,88233,1,0,0:0:0:0:
475,192,88233,1,0,0:0:0:0:
182,192,88233,1,0,0:0:0:0:
402,192,88410,1,0,0:0:0:0:
475,192,88410,1,0,0:0:0:0:
256,192,88410,1,0,0:0:0:0:
402,192,88586,1,0,0:0:0:0:
475,192,88586,1,0,0:0:0:0:
109,192,88586,1,0,0:0:0:0:
329,192,88763,1,0,0:0:0:0:
36,192,88763,1,0,0:0:0:0:
109,192,88763,1,0,0:0:0:0:
182,192,88939,1,0,0:0:0:0:
256,192,88939,1,0,0:0:0:0:
402,192,88939,1,0,0:0:0:0:
475,192,89116,1,0,0:0:0:0:
256,192,89116,1,0,0:0:0:0:
329,192,89116,1,0,0:0:0:0:
36,192,89292,1,0,0:0:0:0:
329,192,89292,1,0,0:0:0:0:
402,192,89292,1,0,0:0:0:0:
182,192,89292,1,0,0:0:0:0:
256,192,89469,1,0,0:0:0:0:
182,192,89557,1,0,0:0:0:0:
109,192,89645,1,0,0:0:0:0:
329,192,89645,1,0,0:0:0:0:
475,192,89645,1,0,0:0:0:0:
36,192,89822,1,0,0:0:0:0:
109,192,89822,1,0,0:0:0:0:
256,192,89822,1,0,0:0:0:0:
402,192,89822,1,0,0:0:0:0:
475,192,89910,1,0,0:0:0:0:
182,192,89998,1,0,0:0:0:0:
329,192,89998,1,0,0:0:0:0:
402,192,90086,1,0,0:0:0:0:
475,192,90086,1,0,0:0:0:0:
109,192,90174,1,0,0:0:0:0:
256,192,90174,1,0,0:0:0:0:
36,192,90174,1,0,0:0:0:0:
329,192,90263,1,0,0:0:0:0:
402,192,90263,1,0,0:0:0:0:
36,192,90351,1,0,0:0:0:0:
182,192,90351,1,0,0:0:0:0:
256,192,90439,1,0,0:0:0:0:
329,192,90439,1,0,0:0:0:0:
109,192,90527,1,0,0:0:0:0:
402,192,90527,1,0,0:0:0:0:
329,192,91057,1,0,0:0:0:0:
329,192,91233,1,0,0:0:0:0:
109,192,91763,1,0,0:0:0:0:
182,192,91939,1,0,0:0:0:0:
329,192,92292,1,0,0:0:0:0:
402,192,92469,1,0,0:0:0:0:
109,192,92469,1,0,0:0:0:0:
36,192,92469,1,0,0:0:0:0:
475,192,92822,1,0,0:0:0:0:
109,192,92998,1,0,0:0:0:0:
182,192,92998,1,0,0:0:0:0:
402,192,93174,1,0,0:0:0:0:
36,192,93351,1,0,0:0:0:0:
182,192,93351,1,0,0:0:0:0:
109,192,93351,1,0,0:0:0:0:
329,192,93527,1,0,0:0:0:0:
329,192,93704,1,0,0:0:0:0:
256,192,93880,1,0,0:0:0:0:
109,192,93880,1,0,0:0:0:0:
36,192,93880,1,0,0:0:0:0:
475,192,93880,1,0,0:0:0:0:
182,192,94233,1,0,0:0:0:0:
256,192,94410,1,0,0:0:0:0:
402,192,94410,1,0,0:0:0:0:
475,192,94410,1,0,0:0:0:0:
329,192,94586,1,0,0:0:0:0:
36,192,94763,1,0,0:0:0:0:
109,192,94763,1,0,0:0:0:0:
256,192,94763,1,0,0:0:0:0:
402,192,94763,1,0,0:0:0:0:
182,192,95116,1,0,0:0:0:0:
402,192,95469,1,0,0:0:0:0:
475,192,95469,1,0,0:0:0:0:
109,192,95469,1,0,0:0:0:0:
256,192,95822,1,0,0:0:0:0:
182,192,96174,1,0,0:0:0:0:
329,192,96174,1,0,0:0:0:0:
36,192,96174,1,0,0:0:0:0:
402,192,96174,1,0,0:0:0:0:
182,192,96704,1,0,0:0:0:0:
329,192,96792,1,0,0:0:0:0:
182,192,96880,1,0,0:0:0:0:
402,192,96880,1,0,0:0:0:0:
475,192,96880,1,0,0:0:0:0:
109,192,96880,1,0,0:0:0:0:
182,192,97410,1,0,0:0:0:0:
36,192,97410,1,0,0:0:0:0:
402,192,97498,1,0,0:0:0:0:
256,192,97498,1,0,0:0:0:0:
109,192,97586,1,0,0:0:0:0:
329,192,97586,1,0,0:0:0:0:
475,192,97586,1,0,0:0:0:0:
182,192,97586,1,0,0:0:0:0:
256,192,97939,1,0,0:0:0:0:
402,192,97939,1,0,0:0:0:0:
475,192,97939,1,0,0:0:0:0:
182,192,98116,1,0,0:0:0:0:
329,192,98116,1,0,0:0:0:0:
109,192,98204,1,0,0:0:0:0:
36,192,98204,1,0,0:0:0:0:
256,192,98292,1,0,0:0:0:0:
402,192,98292,1,0,0:0:0:0:
475,192,98292,1,0,0:0:0:0:
182,192,98469,1,0,0:0:0:0:
329,192,98469,1,0,0:0:0:0:
402,192,98557,1,0,0:0:0:0:
475,192,98557,1,0,0:0:0:0:
109,192,98645,1,0,0:0:0:0:
256,192,98645,1,0,0:0:0:0:
36,192,98645,1,0,0:0:0:0:
329,192,98733,1,0,0:0:0:0:
402,192,98733,1,0,0:0:0:0:
36,192,98822,1,0,0:0:0:0:
182,192,98822,1,0,0:0:0:0:
256,192,98910,1,0,0:0:0:0:
329,192,98910,1,0,0:0:0:0:
109,192,98998,1,0,0:0:0:0:
36,192,98998,1,0,0:0:0:0:
402,192,98998,1,0,0:0:0:0:
475,192,98998,1,0,0:0:0:0:
109,192,99174,1,0,0:0:0:0:
182,192,99174,1,0,0:0:0:0:
329,192,99174,1,0,0:0:0:0:
256,192,99351,1,0,0:0:0:0:
402,192,99351,1,0,0:0:0:0:
475,192,99351,1,0,0:0:0:0:
36,192,99351,1,0,0:0:0:0:
109,192,99527,1,0,0:0:0:0:
182,192,99527,1,0,0:0:0:0:
402,192,99616,1,0,0:0:0:0:
475,192,99616,1,0,0:0:0:0:
109,192,99704,1,0,0:0:0:0:
36,192,99704,1,0,0:0:0:0:
329,192,99704,1,0,0:0:0:0:
182,192,99880,1,0,0:0:0:0:
36,192,99880,1,0,0:0:0:0:
329,192,99880,1,0,0:0:0:0:
256,192,100057,1,0,0:0:0:0:
402,192,100057,1,0,0:0:0:0:
475,192,100057,1,0,0:0:0:0:
109,192,100057,1,0,0:0:0:0:
329,192,100233,1,0,0:0:0:0:
182,192,100233,1,0,0:0:0:0:
402,192,100410,1,0,0:0:0:0:
475,192,100410,1,0,0:0:0:0:
109,192,100410,1,0,0:0:0:0:
36,192,100410,1,0,0:0:0:0:
402,192,100586,1,0,0:0:0:0:
329,192,100586,1,0,0:0:0:0:
182,192,100586,1,0,0:0:0:0:
256,192,100763,1,0,0:0:0:0:
109,192,100763,1,0,0:0:0:0:
36,192,100763,1,0,0:0:0:0:
475,192,100763,1,0,0:0:0:0:
402,192,100939,1,0,0:0:0:0:
329,192,100939,1,0,0:0:0:0:
36,192,101027,1,0,0:0:0:0:
109,192,101027,1,0,0:0:0:0:
402,192,101116,1,0,0:0:0:0:
475,192,101116,1,0,0:0:0:0:
256,192,101116,1,0,0:0:0:0:
182,192,101233,1,0,0:0:0:0:
402,192,101233,1,0,0:0:0:0:
109,192,101233,1,0,0:0:0:0:
182,192,101351,1,0,0:0:0:0:
329,192,101351,1,0,0:0:0:0:
36,192,101351,1,0,0:0:0:0:
475,192,101469,1,0,0:0:0:0:
36,192,101469,1,0,0:0:0:0:
256,192,101469,1,0,0:0:0:0:
109,192,101586,1,0,0:0:0:0:
329,192,101586,1,0,0:0:0:0:
182,192,101704,1,0,0:0:0:0:
402,192,101704,1,0,0:0:0:0:
256,192,101822,1,0,0:0:0:0:
475,192,101822,1,0,0:0:0:0:
109,192,101822,1,0,0:0:0:0:
36,192,101822,1,0,0:0:0:0:
329,192,101822,1,0,0:0:0:0:
182,192,101998,1,0,0:0:0:0:
475,192,101998,1,0,0:0:0:0:
329,192,102174,1,0,0:0:0:0:
109,192,102174,1,0,0:0:0:0:
36,192,102174,1,0,0:0:0:0:
329,192,102351,1,0,0:0:0:0:
475,192,102351,1,0,0:0:0:0:
182,192,102351,1,0,0:0:0:0:
256,192,102527,1,0,0:0:0:0:
109,192,102527,1,0,0:0:0:0:
402,192,102527,1,0,0:0:0:0:
109,192,102704,1,0,0:0:0:0:
329,192,102704,1,0,0:0:0:0:
475,192,102704,1,0,0:0:0:0:
36,192,102880,1,0,0:0:0:0:
182,192,102880,1,0,0:0:0:0:
402,192,102880,1,0,0:0:0:0:
182,192,103057,1,0,0:0:0:0:
329,192,103057,1,0,0:0:0:0:
475,192,103057,1,0,0:0:0:0:
36,192,103233,1,0,0:0:0:0:
256,192,103233,1,0,0:0:0:0:
402,192,103233,1,0,0:0:0:0:
109,192,103410,1,0,0:0:0:0:
329,192,103410,1,0,0:0:0:0:
402,192,103410,1,0,0:0:0:0:
182,192,103586,1,0,0:0:0:0:
475,192,103586,1,0,0:0:0:0:
36,192,103586,1,0,0:0:0:0:
182,192,103763,1,0,0:0:0:0:
256,192,103763,1,0,0:0:0:0:
402,192,103763,1,0,0:0:0:0:
329,192,103939,1,0,0:0:0:0:
109,192,103939,1,0,0:0:0:0:
36,192,103939,1,0,0:0:0:0:
182,192,104116,1,0,0:0:0:0:
329,192,104116,1,0,0:0:0:0:
475,192,104116,1,0,0:0:0:0:
402,192,104292,1,0,0:0:0:0:
256,192,104292,1,0,0:0:0:0:
109,192,104292,1,0,0:0:0:0:
109,192,104469,1,0,0:0:0:0:
329,192,104469,1,0,0:0:0:0:
475,192,104469,1,0,0:0:0:0:
182,192,105351,1,0,0:0:0:0:
329,192,105351,1,0,0:0:0:0:
402,192,105351,1,0,0:0:0:0:
109,192,105351,1,0,0:0:0:0:
475,192,105373,1,0,0:0:0:0:
36,192,105373,1,0,0:0:0:0:
