osu file format v14

[General]
AudioFilename: audio 1.300x.mp3
AudioLeadIn: 0
PreviewTime: 37056
Countdown: 0
SampleSet: None
StackLeniency: 0
Mode: 3
LetterboxInBreaks: 0
SpecialStyle: 0
WidescreenStoryboard: 0

[Editor]
Bookmarks: 55410
DistanceSpacing: 2.2
BeatDivisor: 4
GridSize: 4
TimelineZoom: 1.9

[Metadata]
Title:Fuyu ni Saku Hana
TitleUnicode:冬に咲く華
Artist:Mitsuki Kotono
ArtistUnicode:美月琴音
Creator:ssapgosu
Version:ssapflower 1.3x (221bpm)
Source:彼女のセイイキ
Tags:Riana Amamya kanojo no seiiki japanese pop jpop j-pop rock jrock j-rock video game feng eroge op opening theme visual novel vn osutrainer
BeatmapID:4537959
BeatmapSetID:2153275

[Difficulty]
HPDrainRate:8
CircleSize:7
OverallDifficulty:8
ApproachRate:7.3
SliderMultiplier:1.4
SliderTickRate:1

[Events]
//Background and Video events
0,0,"bg2.jpg",0,0
//Break Periods
//Storyboard Layer 0 (Background)
//Storyboard Layer 1 (Fail)
//Storyboard Layer 2 (Pass)
//Storyboard Layer 3 (Foreground)
//Storyboard Layer 4 (Overlay)
//Storyboard Sound Samples

[TimingPoints]
134,271.493212669683,4,2,1,40,1,0
37056,-100,4,2,1,40,0,1
50089,-100,4,2,1,40,0,0
54433,-100,4,2,1,40,0,1
63120,-100,4,2,1,40,0,0

[HitObjects]
402,192,134,5,0,0:0:0:0:
329,192,405,1,0,0:0:0:0:
182,192,676,1,0,0:0:0:0:
109,192,948,1,0,0:0:0:0:
256,192,1220,1,0,0:0:0:0:
475,192,1491,1,0,0:0:0:0:
402,192,1763,1,0,0:0:0:0:
256,192,2034,1,0,0:0:0:0:
109,192,2306,1,0,0:0:0:0:
256,192,2713,1,0,0:0:0:0:
329,192,2781,1,0,0:0:0:0:
402,192,2849,1,0,0:0:0:0:
475,192,2916,1,0,0:0:0:0:
182,192,2984,1,0,0:0:0:0:
256,192,3053,1,0,0:0:0:0:
329,192,3120,1,0,0:0:0:0:
402,192,3188,1,0,0:0:0:0:
109,192,3256,1,0,0:0:0:0:
182,192,3324,1,0,0:0:0:0:
256,192,3392,1,0,0:0:0:0:
475,192,3392,1,0,0:0:0:0:
182,192,3663,1,0,0:0:0:0:
36,192,3935,1,0,0:0:0:0:
402,192,4206,1,0,0:0:0:0:
182,192,4206,1,0,0:0:0:0:
329,192,4342,1,0,0:0:0:0:
109,192,4342,1,0,0:0:0:0:
256,192,4410,1,0,0:0:0:0:
182,192,4478,1,0,0:0:0:0:
36,192,4478,1,0,0:0:0:0:
402,192,4478,1,0,0:0:0:0:
475,192,4478,1,0,0:0:0:0:
109,192,4749,1,0,0:0:0:0:
256,192,4749,1,0,0:0:0:0:
475,192,4749,1,0,0:0:0:0:
109,192,4885,1,0,0:0:0:0:
329,192,5020,1,0,0:0:0:0:
182,192,5020,1,0,0:0:0:0:
36,192,5020,1,0,0:0:0:0:
329,192,5156,1,0,0:0:0:0:
182,192,5292,1,0,0:0:0:0:
402,192,5292,1,0,0:0:0:0:
109,192,5292,1,0,0:0:0:0:
182,192,5428,1,0,0:0:0:0:
402,192,5563,1,0,0:0:0:0:
256,192,5563,1,0,0:0:0:0:
36,192,5563,1,0,0:0:0:0:
402,192,5700,1,0,0:0:0:0:
182,192,5835,1,0,0:0:0:0:
329,192,5835,1,0,0:0:0:0:
109,192,5835,1,0,0:0:0:0:
182,192,5971,1,0,0:0:0:0:
329,192,6106,1,0,0:0:0:0:
36,192,6106,1,0,0:0:0:0:
475,192,6106,1,0,0:0:0:0:
329,192,6243,1,0,0:0:0:0:
109,192,6378,1,0,0:0:0:0:
256,192,6378,1,0,0:0:0:0:
402,192,6378,1,0,0:0:0:0:
475,192,6378,1,0,0:0:0:0:
109,192,6514,1,0,0:0:0:0:
329,192,6514,1,0,0:0:0:0:
182,192,6582,1,0,0:0:0:0:
256,192,6650,1,0,0:0:0:0:
36,192,6650,1,0,0:0:0:0:
402,192,6650,1,0,0:0:0:0:
475,192,6650,1,0,0:0:0:0:
182,192,6786,1,0,0:0:0:0:
329,192,6786,1,0,0:0:0:0:
36,192,6921,1,0,0:0:0:0:
109,192,6921,1,0,0:0:0:0:
475,192,6921,1,0,0:0:0:0:
109,192,7056,1,0,0:0:0:0:
182,192,7056,1,0,0:0:0:0:
402,192,7056,1,0,0:0:0:0:
182,192,7193,1,0,0:0:0:0:
256,192,7193,1,0,0:0:0:0:
475,192,7193,1,0,0:0:0:0:
256,192,7328,1,0,0:0:0:0:
109,192,7328,1,0,0:0:0:0:
402,192,7328,1,0,0:0:0:0:
36,192,7464,1,0,0:0:0:0:
109,192,7464,1,0,0:0:0:0:
329,192,7464,1,0,0:0:0:0:
329,192,7600,1,0,0:0:0:0:
182,192,7600,1,0,0:0:0:0:
402,192,7600,1,0,0:0:0:0:
402,192,7736,1,0,0:0:0:0:
475,192,7736,1,0,0:0:0:0:
256,192,7736,1,0,0:0:0:0:
109,192,7736,1,0,0:0:0:0:
182,192,7871,1,0,0:0:0:0:
36,192,7871,1,0,0:0:0:0:
329,192,8007,1,0,0:0:0:0:
475,192,8007,1,0,0:0:0:0:
256,192,8143,1,0,0:0:0:0:
402,192,8143,1,0,0:0:0:0:
182,192,8279,1,0,0:0:0:0:
36,192,8279,1,0,0:0:0:0:
256,192,8414,1,0,0:0:0:0:
109,192,8414,1,0,0:0:0:0:
182,192,8550,5,0,0:0:0:0:
402,192,8550,1,0,0:0:0:0:
329,192,8686,1,0,0:0:0:0:
475,192,8822,1,0,0:0:0:0:
36,192,8822,1,0,0:0:0:0:
182,192,8822,1,0,0:0:0:0:
256,192,9093,1,0,0:0:0:0:
109,192,9364,1,0,0:0:0:0:
329,192,9364,1,0,0:0:0:0:
182,192,9636,1,0,0:0:0:0:
256,192,9772,1,0,0:0:0:0:
36,192,9907,1,0,0:0:0:0:
329,192,9907,1,0,0:0:0:0:
182,192,10179,1,0,0:0:0:0:
109,192,10450,1,0,0:0:0:0:
402,192,10450,1,0,0:0:0:0:
329,192,10722,1,0,0:0:0:0:
182,192,10858,1,0,0:0:0:0:
329,192,10993,1,0,0:0:0:0:
36,192,10993,1,0,0:0:0:0:
256,192,11265,1,0,0:0:0:0:
402,192,11401,1,0,0:0:0:0:
329,192,11536,1,0,0:0:0:0:
182,192,11536,1,0,0:0:0:0:
36,192,11672,1,0,0:0:0:0:
402,192,11808,1,0,0:0:0:0:
109,192,11808,1,0,0:0:0:0:
182,192,12080,1,0,0:0:0:0:
329,192,12080,1,0,0:0:0:0:
256,192,12351,1,0,0:0:0:0:
402,192,12623,1,0,0:0:0:0:
109,192,12623,1,0,0:0:0:0:
329,192,12894,1,0,0:0:0:0:
256,192,13030,1,0,0:0:0:0:
475,192,13166,1,0,0:0:0:0:
182,192,13166,1,0,0:0:0:0:
256,192,13437,1,0,0:0:0:0:
402,192,13573,1,0,0:0:0:0:
329,192,13709,1,0,0:0:0:0:
109,192,13709,1,0,0:0:0:0:
256,192,13844,1,0,0:0:0:0:
329,192,13980,1,0,0:0:0:0:
109,192,13980,1,0,0:0:0:0:
402,192,14116,1,0,0:0:0:0:
36,192,14251,1,0,0:0:0:0:
182,192,14251,1,0,0:0:0:0:
475,192,14251,1,0,0:0:0:0:
329,192,14523,1,0,0:0:0:0:
329,192,14659,1,0,0:0:0:0:
182,192,14794,1,0,0:0:0:0:
402,192,14794,1,0,0:0:0:0:
256,192,15066,1,0,0:0:0:0:
329,192,15337,1,0,0:0:0:0:
109,192,15337,1,0,0:0:0:0:
182,192,15609,1,0,0:0:0:0:
109,192,15880,1,0,0:0:0:0:
402,192,15880,1,0,0:0:0:0:
36,192,16152,1,0,0:0:0:0:
109,192,16287,1,0,0:0:0:0:
182,192,16423,1,0,0:0:0:0:
329,192,16423,1,0,0:0:0:0:
475,192,16423,1,0,0:0:0:0:
256,192,16695,1,0,0:0:0:0:
109,192,16966,1,0,0:0:0:0:
329,192,16966,1,0,0:0:0:0:
475,192,16966,1,0,0:0:0:0:
182,192,17170,1,0,0:0:0:0:
329,192,17238,1,0,0:0:0:0:
256,192,17373,1,0,0:0:0:0:
36,192,17510,1,0,0:0:0:0:
109,192,17510,1,0,0:0:0:0:
402,192,17510,1,0,0:0:0:0:
182,192,17781,1,0,0:0:0:0:
109,192,18053,1,0,0:0:0:0:
329,192,18053,1,0,0:0:0:0:
475,192,18053,1,0,0:0:0:0:
256,192,18324,1,0,0:0:0:0:
329,192,18595,1,0,0:0:0:0:
475,192,18595,1,0,0:0:0:0:
182,192,18595,1,0,0:0:0:0:
182,192,18866,1,0,0:0:0:0:
402,192,18866,1,0,0:0:0:0:
182,192,19003,1,0,0:0:0:0:
329,192,19138,1,0,0:0:0:0:
475,192,19138,1,0,0:0:0:0:
109,192,19138,1,0,0:0:0:0:
109,192,19410,1,0,0:0:0:0:
256,192,19410,1,0,0:0:0:0:
329,192,19546,1,0,0:0:0:0:
182,192,19681,1,0,0:0:0:0:
36,192,19681,1,0,0:0:0:0:
402,192,19681,1,0,0:0:0:0:
256,192,19953,1,0,0:0:0:0:
182,192,20089,1,0,0:0:0:0:
109,192,20224,1,0,0:0:0:0:
329,192,20224,1,0,0:0:0:0:
475,192,20224,1,0,0:0:0:0:
182,192,20496,1,0,0:0:0:0:
329,192,20496,1,0,0:0:0:0:
109,192,20632,1,0,0:0:0:0:
36,192,20767,1,0,0:0:0:0:
256,192,20767,1,0,0:0:0:0:
402,192,20784,1,0,0:0:0:0:
475,192,20801,1,0,0:0:0:0:
402,192,21310,1,0,0:0:0:0:
329,192,21582,1,0,0:0:0:0:
109,192,21717,1,0,0:0:0:0:
256,192,21786,1,0,0:0:0:0:
36,192,21853,1,0,0:0:0:0:
402,192,21853,1,0,0:0:0:0:
475,192,21853,1,0,0:0:0:0:
109,192,22125,1,0,0:0:0:0:
329,192,22125,1,0,0:0:0:0:
402,192,22125,1,0,0:0:0:0:
109,192,22260,1,0,0:0:0:0:
182,192,22396,1,0,0:0:0:0:
329,192,22396,1,0,0:0:0:0:
475,192,22396,1,0,0:0:0:0:
182,192,22532,1,0,0:0:0:0:
109,192,22668,1,0,0:0:0:0:
256,192,22668,1,0,0:0:0:0:
402,192,22668,1,0,0:0:0:0:
109,192,22803,1,0,0:0:0:0:
329,192,22940,1,0,0:0:0:0:
182,192,22940,1,0,0:0:0:0:
36,192,22940,1,0,0:0:0:0:
329,192,23075,1,0,0:0:0:0:
402,192,23210,1,0,0:0:0:0:
109,192,23210,1,0,0:0:0:0:
182,192,23210,1,0,0:0:0:0:
402,192,23346,1,0,0:0:0:0:
256,192,23482,1,0,0:0:0:0:
109,192,23482,1,0,0:0:0:0:
36,192,23482,1,0,0:0:0:0:
256,192,23618,1,0,0:0:0:0:
329,192,23753,1,0,0:0:0:0:
182,192,23753,1,0,0:0:0:0:
36,192,23753,1,0,0:0:0:0:
329,192,23890,1,0,0:0:0:0:
182,192,24025,1,0,0:0:0:0:
402,192,24025,1,0,0:0:0:0:
475,192,24025,1,0,0:0:0:0:
182,192,24161,1,0,0:0:0:0:
109,192,24296,1,0,0:0:0:0:
402,192,24296,1,0,0:0:0:0:
329,192,24296,1,0,0:0:0:0:
109,192,24433,1,0,0:0:0:0:
256,192,24568,1,0,0:0:0:0:
402,192,24568,1,0,0:0:0:0:
475,192,24568,1,0,0:0:0:0:
256,192,24704,1,0,0:0:0:0:
329,192,24840,1,0,0:0:0:0:
36,192,24840,1,0,0:0:0:0:
182,192,24840,1,0,0:0:0:0:
329,192,24976,1,0,0:0:0:0:
109,192,25111,1,0,0:0:0:0:
256,192,25111,1,0,0:0:0:0:
475,192,25111,1,0,0:0:0:0:
402,192,25247,1,0,0:0:0:0:
475,192,25247,1,0,0:0:0:0:
182,192,25247,1,0,0:0:0:0:
329,192,25383,1,0,0:0:0:0:
402,192,25383,1,0,0:0:0:0:
109,192,25383,1,0,0:0:0:0:
256,192,25518,1,0,0:0:0:0:
329,192,25518,1,0,0:0:0:0:
475,192,25518,1,0,0:0:0:0:
36,192,25518,1,0,0:0:0:0:
36,192,25654,1,0,0:0:0:0:
402,192,25654,1,0,0:0:0:0:
475,192,25654,1,0,0:0:0:0:
256,192,25654,1,0,0:0:0:0:
182,192,25654,1,0,0:0:0:0:
36,192,25790,1,0,0:0:0:0:
109,192,25790,1,0,0:0:0:0:
329,192,25790,1,0,0:0:0:0:
402,192,25790,1,0,0:0:0:0:
256,192,25926,1,0,0:0:0:0:
402,192,25926,1,0,0:0:0:0:
475,192,25926,1,0,0:0:0:0:
36,192,25993,1,0,0:0:0:0:
182,192,25993,1,0,0:0:0:0:
329,192,26061,1,0,0:0:0:0:
475,192,26061,1,0,0:0:0:0:
256,192,26130,1,0,0:0:0:0:
109,192,26130,1,0,0:0:0:0:
402,192,26197,1,0,0:0:0:0:
475,192,26197,1,0,0:0:0:0:
329,192,26197,1,0,0:0:0:0:
36,192,26197,1,0,0:0:0:0:
256,192,26333,1,0,0:0:0:0:
402,192,26333,1,0,0:0:0:0:
109,192,26333,1,0,0:0:0:0:
36,192,26469,1,0,0:0:0:0:
329,192,26469,1,0,0:0:0:0:
109,192,26469,1,0,0:0:0:0:
256,192,26604,1,0,0:0:0:0:
402,192,26604,1,0,0:0:0:0:
329,192,26740,1,0,0:0:0:0:
475,192,26740,1,0,0:0:0:0:
36,192,26740,1,0,0:0:0:0:
402,192,26876,1,0,0:0:0:0:
256,192,26876,1,0,0:0:0:0:
36,192,26876,1,0,0:0:0:0:
402,192,27012,1,0,0:0:0:0:
475,192,27012,1,0,0:0:0:0:
182,192,27012,1,0,0:0:0:0:
256,192,27147,1,0,0:0:0:0:
109,192,27147,1,0,0:0:0:0:
182,192,27283,1,0,0:0:0:0:
329,192,27283,1,0,0:0:0:0:
475,192,27283,1,0,0:0:0:0:
36,192,27419,1,0,0:0:0:0:
182,192,27419,1,0,0:0:0:0:
402,192,27419,1,0,0:0:0:0:
36,192,27555,1,0,0:0:0:0:
109,192,27555,1,0,0:0:0:0:
329,192,27555,1,0,0:0:0:0:
475,192,27555,1,0,0:0:0:0:
256,192,27690,1,0,0:0:0:0:
402,192,27690,1,0,0:0:0:0:
182,192,27758,1,0,0:0:0:0:
109,192,27758,1,0,0:0:0:0:
329,192,27826,1,0,0:0:0:0:
475,192,27826,1,0,0:0:0:0:
36,192,27826,1,0,0:0:0:0:
329,192,27962,1,0,0:0:0:0:
182,192,27962,1,0,0:0:0:0:
109,192,27962,1,0,0:0:0:0:
182,192,28097,1,0,0:0:0:0:
256,192,28097,1,0,0:0:0:0:
402,192,28097,1,0,0:0:0:0:
475,192,28097,1,0,0:0:0:0:
329,192,28233,1,0,0:0:0:0:
109,192,28233,1,0,0:0:0:0:
36,192,28369,1,0,0:0:0:0:
182,192,28369,1,0,0:0:0:0:
402,192,28369,1,0,0:0:0:0:
182,192,28505,1,0,0:0:0:0:
36,192,28505,1,0,0:0:0:0:
329,192,28505,1,0,0:0:0:0:
256,192,28640,1,0,0:0:0:0:
402,192,28640,1,0,0:0:0:0:
475,192,28640,1,0,0:0:0:0:
109,192,28640,1,0,0:0:0:0:
36,192,28776,1,0,0:0:0:0:
256,192,28776,1,0,0:0:0:0:
109,192,28912,1,0,0:0:0:0:
329,192,28912,1,0,0:0:0:0:
475,192,28912,1,0,0:0:0:0:
329,192,29048,1,0,0:0:0:0:
475,192,29048,1,0,0:0:0:0:
182,192,29048,1,0,0:0:0:0:
256,192,29183,1,0,0:0:0:0:
109,192,29183,1,0,0:0:0:0:
36,192,29183,1,0,0:0:0:0:
402,192,29183,1,0,0:0:0:0:
256,192,29320,1,0,0:0:0:0:
475,192,29320,1,0,0:0:0:0:
329,192,29455,1,0,0:0:0:0:
475,192,29455,1,0,0:0:0:0:
109,192,29455,1,0,0:0:0:0:
182,192,29455,1,0,0:0:0:0:
36,192,29591,1,0,0:0:0:0:
109,192,29591,1,0,0:0:0:0:
402,192,29591,1,0,0:0:0:0:
256,192,29591,1,0,0:0:0:0:
36,192,29726,1,0,0:0:0:0:
182,192,29726,1,0,0:0:0:0:
402,192,29726,1,0,0:0:0:0:
475,192,29726,1,0,0:0:0:0:
329,192,29726,1,0,0:0:0:0:
109,192,29863,1,0,0:0:0:0:
256,192,29863,1,0,0:0:0:0:
329,192,29930,1,0,0:0:0:0:
402,192,29998,1,0,0:0:0:0:
182,192,29998,1,0,0:0:0:0:
475,192,29998,1,0,0:0:0:0:
36,192,29998,1,0,0:0:0:0:
182,192,30089,1,0,0:0:0:0:
329,192,30089,1,0,0:0:0:0:
329,192,30179,1,0,0:0:0:0:
109,192,30179,1,0,0:0:0:0:
36,192,30179,1,0,0:0:0:0:
109,192,30270,1,0,0:0:0:0:
402,192,30270,1,0,0:0:0:0:
475,192,30270,1,0,0:0:0:0:
256,192,30270,1,0,0:0:0:0:
182,192,30360,1,0,0:0:0:0:
329,192,30360,1,0,0:0:0:0:
256,192,30450,1,0,0:0:0:0:
402,192,30450,1,0,0:0:0:0:
36,192,30541,1,0,0:0:0:0:
109,192,30541,1,0,0:0:0:0:
475,192,30541,1,0,0:0:0:0:
329,192,30541,1,0,0:0:0:0:
109,192,30813,1,0,0:0:0:0:
182,192,30813,1,0,0:0:0:0:
329,192,31084,1,0,0:0:0:0:
109,192,31220,1,0,0:0:0:0:
256,192,31287,1,0,0:0:0:0:
329,192,31356,1,0,0:0:0:0:
402,192,31356,1,0,0:0:0:0:
182,192,31491,1,0,0:0:0:0:
256,192,31559,1,0,0:0:0:0:
402,192,31559,1,0,0:0:0:0:
109,192,31627,1,0,0:0:0:0:
182,192,31899,1,0,0:0:0:0:
402,192,31899,1,0,0:0:0:0:
329,192,31899,1,0,0:0:0:0:
36,192,32034,1,0,0:0:0:0:
109,192,32034,1,0,0:0:0:0:
256,192,32034,1,0,0:0:0:0:
182,192,32102,1,0,0:0:0:0:
329,192,32102,1,0,0:0:0:0:
256,192,32170,1,0,0:0:0:0:
402,192,32170,1,0,0:0:0:0:
475,192,32170,1,0,0:0:0:0:
36,192,32170,1,0,0:0:0:0:
36,192,32306,1,0,0:0:0:0:
329,192,32306,1,0,0:0:0:0:
182,192,32306,1,0,0:0:0:0:
109,192,32441,1,0,0:0:0:0:
182,192,32441,1,0,0:0:0:0:
402,192,32441,1,0,0:0:0:0:
475,192,32441,1,0,0:0:0:0:
329,192,32510,1,0,0:0:0:0:
256,192,32510,1,0,0:0:0:0:
36,192,32577,1,0,0:0:0:0:
109,192,32577,1,0,0:0:0:0:
402,192,32577,1,0,0:0:0:0:
182,192,32645,1,0,0:0:0:0:
256,192,32645,1,0,0:0:0:0:
329,192,32713,1,0,0:0:0:0:
475,192,32713,1,0,0:0:0:0:
36,192,32713,1,0,0:0:0:0:
109,192,32713,1,0,0:0:0:0:
109,192,32984,1,0,0:0:0:0:
182,192,32984,1,0,0:0:0:0:
329,192,32984,1,0,0:0:0:0:
109,192,33120,1,0,0:0:0:0:
402,192,33120,1,0,0:0:0:0:
475,192,33120,1,0,0:0:0:0:
36,192,33120,1,0,0:0:0:0:
182,192,33256,1,0,0:0:0:0:
36,192,33256,1,0,0:0:0:0:
329,192,33256,1,0,0:0:0:0:
109,192,33392,1,0,0:0:0:0:
182,192,33392,1,0,0:0:0:0:
402,192,33392,1,0,0:0:0:0:
109,192,33527,1,0,0:0:0:0:
36,192,33527,1,0,0:0:0:0:
256,192,33527,1,0,0:0:0:0:
36,192,33663,1,0,0:0:0:0:
182,192,33663,1,0,0:0:0:0:
329,192,33663,1,0,0:0:0:0:
109,192,33799,1,0,0:0:0:0:
402,192,33799,1,0,0:0:0:0:
475,192,33799,1,0,0:0:0:0:
256,192,33799,1,0,0:0:0:0:
475,192,33935,1,0,0:0:0:0:
329,192,33935,1,0,0:0:0:0:
182,192,33935,1,0,0:0:0:0:
475,192,34070,1,0,0:0:0:0:
402,192,34070,1,0,0:0:0:0:
256,192,34070,1,0,0:0:0:0:
36,192,34070,1,0,0:0:0:0:
329,192,34206,1,0,0:0:0:0:
402,192,34206,1,0,0:0:0:0:
182,192,34206,1,0,0:0:0:0:
475,192,34342,1,0,0:0:0:0:
36,192,34342,1,0,0:0:0:0:
109,192,34342,1,0,0:0:0:0:
256,192,34342,1,0,0:0:0:0:
329,192,34478,1,0,0:0:0:0:
402,192,34546,1,0,0:0:0:0:
475,192,34546,1,0,0:0:0:0:
182,192,34613,1,0,0:0:0:0:
36,192,34613,1,0,0:0:0:0:
109,192,34613,1,0,0:0:0:0:
256,192,34681,1,0,0:0:0:0:
402,192,34681,1,0,0:0:0:0:
36,192,34749,1,0,0:0:0:0:
109,192,34749,1,0,0:0:0:0:
182,192,34817,1,0,0:0:0:0:
329,192,34817,1,0,0:0:0:0:
402,192,34885,1,0,0:0:0:0:
475,192,34885,1,0,0:0:0:0:
256,192,34885,1,0,0:0:0:0:
182,192,35020,1,0,0:0:0:0:
329,192,35089,1,0,0:0:0:0:
402,192,35089,1,0,0:0:0:0:
36,192,35156,1,0,0:0:0:0:
182,192,35156,1,0,0:0:0:0:
329,192,35224,1,0,0:0:0:0:
475,192,35224,1,0,0:0:0:0:
256,192,35292,1,0,0:0:0:0:
109,192,35292,1,0,0:0:0:0:
329,192,35360,1,0,0:0:0:0:
402,192,35360,1,0,0:0:0:0:
182,192,35428,1,0,0:0:0:0:
36,192,35428,1,0,0:0:0:0:
109,192,35428,1,0,0:0:0:0:
475,192,35496,1,0,0:0:0:0:
256,192,35563,1,0,0:0:0:0:
402,192,35563,1,0,0:0:0:0:
182,192,35632,1,0,0:0:0:0:
36,192,35632,1,0,0:0:0:0:
329,192,35700,1,0,0:0:0:0:
475,192,35700,1,0,0:0:0:0:
109,192,35767,1,0,0:0:0:0:
256,192,35767,1,0,0:0:0:0:
36,192,35835,1,0,0:0:0:0:
182,192,35835,1,0,0:0:0:0:
402,192,35835,1,0,0:0:0:0:
329,192,35903,1,0,0:0:0:0:
256,192,35971,1,0,0:0:0:0:
402,192,35971,1,0,0:0:0:0:
475,192,35971,1,0,0:0:0:0:
109,192,35971,1,0,0:0:0:0:
36,192,35971,1,0,0:0:0:0:
182,192,36243,5,0,0:0:0:0:
329,192,36378,1,0,0:0:0:0:
109,192,36650,1,0,0:0:0:0:
109,192,36786,1,0,0:0:0:0:
256,192,36921,1,0,0:0:0:0:
329,192,36989,1,0,0:0:0:0:
36,192,37056,5,0,0:0:0:0:
182,192,37056,1,0,0:0:0:0:
402,192,37056,1,0,0:0:0:0:
475,192,37056,1,0,0:0:0:0:
109,192,37056,1,0,0:0:0:0:
256,192,37328,1,0,0:0:0:0:
402,192,37328,1,0,0:0:0:0:
109,192,37328,1,0,0:0:0:0:
36,192,37328,1,0,0:0:0:0:
475,192,37328,1,0,0:0:0:0:
182,192,37464,1,0,0:0:0:0:
329,192,37464,1,0,0:0:0:0:
109,192,37532,1,0,0:0:0:0:
256,192,37532,1,0,0:0:0:0:
36,192,37600,1,0,0:0:0:0:
475,192,37600,1,0,0:0:0:0:
182,192,37600,1,0,0:0:0:0:
402,192,37600,1,0,0:0:0:0:
109,192,37736,1,0,0:0:0:0:
329,192,37736,1,0,0:0:0:0:
475,192,37736,1,0,0:0:0:0:
182,192,37871,1,0,0:0:0:0:
402,192,37871,1,0,0:0:0:0:
36,192,37871,1,0,0:0:0:0:
256,192,38007,1,0,0:0:0:0:
475,192,38007,1,0,0:0:0:0:
402,192,38007,1,0,0:0:0:0:
182,192,38075,1,0,0:0:0:0:
329,192,38075,1,0,0:0:0:0:
256,192,38143,1,0,0:0:0:0:
36,192,38143,1,0,0:0:0:0:
109,192,38210,1,0,0:0:0:0:
329,192,38210,1,0,0:0:0:0:
402,192,38279,1,0,0:0:0:0:
182,192,38279,1,0,0:0:0:0:
475,192,38279,1,0,0:0:0:0:
475,192,38414,1,0,0:0:0:0:
402,192,38414,1,0,0:0:0:0:
329,192,38414,1,0,0:0:0:0:
36,192,38414,1,0,0:0:0:0:
109,192,38482,1,0,0:0:0:0:
256,192,38482,1,0,0:0:0:0:
182,192,38550,1,0,0:0:0:0:
329,192,38550,1,0,0:0:0:0:
256,192,38618,1,0,0:0:0:0:
402,192,38618,1,0,0:0:0:0:
475,192,38686,1,0,0:0:0:0:
109,192,38686,1,0,0:0:0:0:
182,192,38686,1,0,0:0:0:0:
402,192,38753,1,0,0:0:0:0:
36,192,38822,1,0,0:0:0:0:
109,192,38822,1,0,0:0:0:0:
329,192,38822,1,0,0:0:0:0:
256,192,38890,1,0,0:0:0:0:
36,192,38957,1,0,0:0:0:0:
475,192,38957,1,0,0:0:0:0:
182,192,38957,1,0,0:0:0:0:
402,192,38957,1,0,0:0:0:0:
256,192,39093,1,0,0:0:0:0:
329,192,39161,1,0,0:0:0:0:
36,192,39229,1,0,0:0:0:0:
475,192,39229,1,0,0:0:0:0:
402,192,39229,1,0,0:0:0:0:
109,192,39296,1,0,0:0:0:0:
256,192,39296,1,0,0:0:0:0:
182,192,39364,1,0,0:0:0:0:
329,192,39364,1,0,0:0:0:0:
256,192,39433,1,0,0:0:0:0:
402,192,39433,1,0,0:0:0:0:
182,192,39500,1,0,0:0:0:0:
475,192,39500,1,0,0:0:0:0:
36,192,39500,1,0,0:0:0:0:
475,192,39636,1,0,0:0:0:0:
109,192,39636,1,0,0:0:0:0:
402,192,39636,1,0,0:0:0:0:
256,192,39704,1,0,0:0:0:0:
329,192,39704,1,0,0:0:0:0:
36,192,39772,1,0,0:0:0:0:
402,192,39772,1,0,0:0:0:0:
475,192,39772,1,0,0:0:0:0:
182,192,39772,1,0,0:0:0:0:
182,192,39907,1,0,0:0:0:0:
329,192,39907,1,0,0:0:0:0:
109,192,39907,1,0,0:0:0:0:
402,192,40043,1,0,0:0:0:0:
36,192,40043,1,0,0:0:0:0:
109,192,40043,1,0,0:0:0:0:
256,192,40043,1,0,0:0:0:0:
36,192,40179,1,0,0:0:0:0:
475,192,40179,1,0,0:0:0:0:
329,192,40179,1,0,0:0:0:0:
182,192,40179,1,0,0:0:0:0:
256,192,40247,1,0,0:0:0:0:
402,192,40247,1,0,0:0:0:0:
182,192,40315,1,0,0:0:0:0:
329,192,40315,1,0,0:0:0:0:
109,192,40383,1,0,0:0:0:0:
256,192,40383,1,0,0:0:0:0:
36,192,40450,1,0,0:0:0:0:
402,192,40450,1,0,0:0:0:0:
329,192,40586,1,0,0:0:0:0:
402,192,40586,1,0,0:0:0:0:
475,192,40586,1,0,0:0:0:0:
182,192,40586,1,0,0:0:0:0:
256,192,40654,1,0,0:0:0:0:
36,192,40654,1,0,0:0:0:0:
329,192,40722,1,0,0:0:0:0:
109,192,40722,1,0,0:0:0:0:
182,192,40790,1,0,0:0:0:0:
402,192,40790,1,0,0:0:0:0:
109,192,40858,1,0,0:0:0:0:
36,192,40858,1,0,0:0:0:0:
329,192,40926,1,0,0:0:0:0:
475,192,40926,1,0,0:0:0:0:
182,192,40993,1,0,0:0:0:0:
36,192,40993,1,0,0:0:0:0:
256,192,40993,1,0,0:0:0:0:
109,192,41130,1,0,0:0:0:0:
182,192,41130,1,0,0:0:0:0:
329,192,41130,1,0,0:0:0:0:
402,192,41130,1,0,0:0:0:0:
475,192,41130,1,0,0:0:0:0:
36,192,41401,1,0,0:0:0:0:
182,192,41401,1,0,0:0:0:0:
329,192,41401,1,0,0:0:0:0:
475,192,41401,1,0,0:0:0:0:
256,192,41672,1,0,0:0:0:0:
402,192,41672,1,0,0:0:0:0:
109,192,41672,1,0,0:0:0:0:
475,192,41672,1,0,0:0:0:0:
36,192,41672,1,0,0:0:0:0:
329,192,41808,1,0,0:0:0:0:
182,192,41808,1,0,0:0:0:0:
402,192,41876,1,0,0:0:0:0:
256,192,41876,1,0,0:0:0:0:
475,192,41943,1,0,0:0:0:0:
36,192,41943,1,0,0:0:0:0:
329,192,41943,1,0,0:0:0:0:
109,192,41943,1,0,0:0:0:0:
182,192,42080,1,0,0:0:0:0:
402,192,42080,1,0,0:0:0:0:
36,192,42080,1,0,0:0:0:0:
329,192,42215,1,0,0:0:0:0:
109,192,42215,1,0,0:0:0:0:
475,192,42215,1,0,0:0:0:0:
256,192,42351,1,0,0:0:0:0:
36,192,42351,1,0,0:0:0:0:
109,192,42351,1,0,0:0:0:0:
329,192,42419,1,0,0:0:0:0:
182,192,42419,1,0,0:0:0:0:
256,192,42486,1,0,0:0:0:0:
475,192,42486,1,0,0:0:0:0:
402,192,42555,1,0,0:0:0:0:
182,192,42555,1,0,0:0:0:0:
109,192,42623,1,0,0:0:0:0:
329,192,42623,1,0,0:0:0:0:
36,192,42623,1,0,0:0:0:0:
36,192,42758,1,0,0:0:0:0:
109,192,42758,1,0,0:0:0:0:
182,192,42758,1,0,0:0:0:0:
475,192,42758,1,0,0:0:0:0:
402,192,42826,1,0,0:0:0:0:
256,192,42826,1,0,0:0:0:0:
329,192,42894,1,0,0:0:0:0:
182,192,42894,1,0,0:0:0:0:
256,192,42962,1,0,0:0:0:0:
109,192,42962,1,0,0:0:0:0:
36,192,43030,1,0,0:0:0:0:
402,192,43030,1,0,0:0:0:0:
329,192,43030,1,0,0:0:0:0:
109,192,43097,1,0,0:0:0:0:
475,192,43166,1,0,0:0:0:0:
402,192,43166,1,0,0:0:0:0:
182,192,43166,1,0,0:0:0:0:
475,192,43301,1,0,0:0:0:0:
36,192,43301,1,0,0:0:0:0:
329,192,43301,1,0,0:0:0:0:
109,192,43301,1,0,0:0:0:0:
256,192,43369,1,0,0:0:0:0:
402,192,43437,1,0,0:0:0:0:
182,192,43437,1,0,0:0:0:0:
329,192,43505,1,0,0:0:0:0:
109,192,43505,1,0,0:0:0:0:
475,192,43573,1,0,0:0:0:0:
36,192,43573,1,0,0:0:0:0:
182,192,43573,1,0,0:0:0:0:
402,192,43640,1,0,0:0:0:0:
256,192,43640,1,0,0:0:0:0:
329,192,43709,1,0,0:0:0:0:
182,192,43709,1,0,0:0:0:0:
256,192,43776,1,0,0:0:0:0:
109,192,43776,1,0,0:0:0:0:
329,192,43844,1,0,0:0:0:0:
36,192,43844,1,0,0:0:0:0:
475,192,43844,1,0,0:0:0:0:
109,192,43980,1,0,0:0:0:0:
256,192,43980,1,0,0:0:0:0:
182,192,44048,1,0,0:0:0:0:
329,192,44048,1,0,0:0:0:0:
475,192,44116,1,0,0:0:0:0:
109,192,44116,1,0,0:0:0:0:
36,192,44116,1,0,0:0:0:0:
402,192,44116,1,0,0:0:0:0:
329,192,44251,1,0,0:0:0:0:
182,192,44251,1,0,0:0:0:0:
475,192,44251,1,0,0:0:0:0:
109,192,44387,1,0,0:0:0:0:
475,192,44387,1,0,0:0:0:0:
402,192,44387,1,0,0:0:0:0:
256,192,44387,1,0,0:0:0:0:
109,192,44523,1,0,0:0:0:0:
36,192,44523,1,0,0:0:0:0:
182,192,44523,1,0,0:0:0:0:
402,192,44523,1,0,0:0:0:0:
256,192,44591,1,0,0:0:0:0:
329,192,44659,1,0,0:0:0:0:
402,192,44726,1,0,0:0:0:0:
475,192,44794,1,0,0:0:0:0:
182,192,44794,1,0,0:0:0:0:
36,192,44794,1,0,0:0:0:0:
182,192,44930,1,0,0:0:0:0:
109,192,44930,1,0,0:0:0:0:
36,192,44930,1,0,0:0:0:0:
329,192,44930,1,0,0:0:0:0:
475,192,45066,1,0,0:0:0:0:
402,192,45066,1,0,0:0:0:0:
109,192,45066,1,0,0:0:0:0:
329,192,45202,1,0,0:0:0:0:
402,192,45202,1,0,0:0:0:0:
36,192,45202,1,0,0:0:0:0:
182,192,45202,1,0,0:0:0:0:
329,192,45337,1,0,0:0:0:0:
475,192,45337,1,0,0:0:0:0:
36,192,45405,1,0,0:0:0:0:
109,192,45405,1,0,0:0:0:0:
475,192,45473,1,0,0:0:0:0:
256,192,45473,1,0,0:0:0:0:
402,192,45473,1,0,0:0:0:0:
182,192,45541,1,0,0:0:0:0:
109,192,45541,1,0,0:0:0:0:
329,192,45609,1,0,0:0:0:0:
402,192,45609,1,0,0:0:0:0:
256,192,45676,1,0,0:0:0:0:
182,192,45676,1,0,0:0:0:0:
36,192,45745,1,0,0:0:0:0:
475,192,45745,1,0,0:0:0:0:
329,192,45745,1,0,0:0:0:0:
109,192,45745,1,0,0:0:0:0:
36,192,46016,1,0,0:0:0:0:
109,192,46016,1,0,0:0:0:0:
475,192,46016,1,0,0:0:0:0:
402,192,46016,1,0,0:0:0:0:
109,192,46152,1,0,0:0:0:0:
182,192,46152,1,0,0:0:0:0:
329,192,46152,1,0,0:0:0:0:
256,192,46220,1,0,0:0:0:0:
402,192,46220,1,0,0:0:0:0:
109,192,46287,1,0,0:0:0:0:
36,192,46287,1,0,0:0:0:0:
329,192,46287,1,0,0:0:0:0:
475,192,46287,1,0,0:0:0:0:
36,192,46423,1,0,0:0:0:0:
182,192,46423,1,0,0:0:0:0:
402,192,46423,1,0,0:0:0:0:
329,192,46491,1,0,0:0:0:0:
109,192,46559,1,0,0:0:0:0:
475,192,46559,1,0,0:0:0:0:
256,192,46559,1,0,0:0:0:0:
402,192,46559,1,0,0:0:0:0:
256,192,46695,1,0,0:0:0:0:
36,192,46695,1,0,0:0:0:0:
329,192,46763,1,0,0:0:0:0:
182,192,46830,1,0,0:0:0:0:
402,192,46830,1,0,0:0:0:0:
329,192,46899,1,0,0:0:0:0:
256,192,46966,1,0,0:0:0:0:
109,192,46966,1,0,0:0:0:0:
36,192,46966,1,0,0:0:0:0:
402,192,47102,1,0,0:0:0:0:
475,192,47102,1,0,0:0:0:0:
36,192,47102,1,0,0:0:0:0:
182,192,47102,1,0,0:0:0:0:
329,192,47238,1,0,0:0:0:0:
402,192,47238,1,0,0:0:0:0:
182,192,47238,1,0,0:0:0:0:
256,192,47306,1,0,0:0:0:0:
109,192,47306,1,0,0:0:0:0:
402,192,47373,1,0,0:0:0:0:
475,192,47373,1,0,0:0:0:0:
182,192,47373,1,0,0:0:0:0:
36,192,47373,1,0,0:0:0:0:
329,192,47510,1,0,0:0:0:0:
475,192,47510,1,0,0:0:0:0:
109,192,47510,1,0,0:0:0:0:
182,192,47577,1,0,0:0:0:0:
402,192,47645,1,0,0:0:0:0:
256,192,47645,1,0,0:0:0:0:
36,192,47645,1,0,0:0:0:0:
109,192,47645,1,0,0:0:0:0:
402,192,47781,1,0,0:0:0:0:
182,192,47781,1,0,0:0:0:0:
109,192,47849,1,0,0:0:0:0:
256,192,47916,1,0,0:0:0:0:
36,192,47916,1,0,0:0:0:0:
475,192,47916,1,0,0:0:0:0:
182,192,47984,1,0,0:0:0:0:
109,192,48053,1,0,0:0:0:0:
182,192,48120,1,0,0:0:0:0:
36,192,48188,1,0,0:0:0:0:
475,192,48188,1,0,0:0:0:0:
402,192,48188,1,0,0:0:0:0:
256,192,48188,1,0,0:0:0:0:
109,192,48324,1,0,0:0:0:0:
182,192,48324,1,0,0:0:0:0:
329,192,48324,1,0,0:0:0:0:
256,192,48392,1,0,0:0:0:0:
402,192,48392,1,0,0:0:0:0:
109,192,48460,1,0,0:0:0:0:
36,192,48460,1,0,0:0:0:0:
329,192,48460,1,0,0:0:0:0:
475,192,48460,1,0,0:0:0:0:
36,192,48595,1,0,0:0:0:0:
182,192,48595,1,0,0:0:0:0:
402,192,48595,1,0,0:0:0:0:
329,192,48663,1,0,0:0:0:0:
109,192,48731,1,0,0:0:0:0:
475,192,48731,1,0,0:0:0:0:
256,192,48731,1,0,0:0:0:0:
402,192,48731,1,0,0:0:0:0:
329,192,48866,1,0,0:0:0:0:
36,192,48866,1,0,0:0:0:0:
109,192,48866,1,0,0:0:0:0:
475,192,48866,1,0,0:0:0:0:
256,192,48935,1,0,0:0:0:0:
182,192,49003,1,0,0:0:0:0:
402,192,49003,1,0,0:0:0:0:
256,192,49070,1,0,0:0:0:0:
329,192,49138,1,0,0:0:0:0:
109,192,49138,1,0,0:0:0:0:
36,192,49138,1,0,0:0:0:0:
402,192,49206,1,0,0:0:0:0:
475,192,49274,1,0,0:0:0:0:
36,192,49274,1,0,0:0:0:0:
182,192,49274,1,0,0:0:0:0:
256,192,49274,1,0,0:0:0:0:
329,192,49410,1,0,0:0:0:0:
402,192,49410,1,0,0:0:0:0:
182,192,49410,1,0,0:0:0:0:
256,192,49478,1,0,0:0:0:0:
109,192,49478,1,0,0:0:0:0:
182,192,49546,1,0,0:0:0:0:
36,192,49546,1,0,0:0:0:0:
329,192,49546,1,0,0:0:0:0:
402,192,49613,1,0,0:0:0:0:
475,192,49613,1,0,0:0:0:0:
109,192,49681,1,0,0:0:0:0:
256,192,49681,1,0,0:0:0:0:
36,192,49817,1,0,0:0:0:0:
475,192,49817,1,0,0:0:0:0:
182,192,49817,1,0,0:0:0:0:
402,192,49885,1,0,0:0:0:0:
109,192,49953,1,0,0:0:0:0:
329,192,49953,1,0,0:0:0:0:
182,192,50020,1,0,0:0:0:0:
475,192,50089,1,0,0:0:0:0:
329,192,50089,1,0,0:0:0:0:
402,192,50089,1,0,0:0:0:0:
36,192,50089,1,0,0:0:0:0:
109,192,50089,1,0,0:0:0:0:
256,192,50156,1,0,0:0:0:0:
402,192,50224,1,0,0:0:0:0:
182,192,50224,1,0,0:0:0:0:
329,192,50292,1,0,0:0:0:0:
36,192,50360,1,0,0:0:0:0:
475,192,50360,1,0,0:0:0:0:
256,192,50360,1,0,0:0:0:0:
109,192,50428,1,0,0:0:0:0:
182,192,50428,1,0,0:0:0:0:
329,192,50496,1,0,0:0:0:0:
475,192,50496,1,0,0:0:0:0:
36,192,50563,1,0,0:0:0:0:
109,192,50563,1,0,0:0:0:0:
256,192,50632,1,0,0:0:0:0:
402,192,50632,1,0,0:0:0:0:
182,192,50632,1,0,0:0:0:0:
475,192,50700,1,0,0:0:0:0:
109,192,50767,1,0,0:0:0:0:
256,192,50767,1,0,0:0:0:0:
36,192,50903,1,0,0:0:0:0:
182,192,50903,1,0,0:0:0:0:
402,192,50903,1,0,0:0:0:0:
475,192,50903,1,0,0:0:0:0:
256,192,50971,1,0,0:0:0:0:
109,192,51039,1,0,0:0:0:0:
329,192,51039,1,0,0:0:0:0:
36,192,51106,1,0,0:0:0:0:
182,192,51174,1,0,0:0:0:0:
402,192,51174,1,0,0:0:0:0:
475,192,51174,1,0,0:0:0:0:
36,192,51310,1,0,0:0:0:0:
109,192,51310,1,0,0:0:0:0:
256,192,51310,1,0,0:0:0:0:
182,192,51446,1,0,0:0:0:0:
329,192,51446,1,0,0:0:0:0:
475,192,51446,1,0,0:0:0:0:
256,192,51582,1,0,0:0:0:0:
402,192,51582,1,0,0:0:0:0:
182,192,51650,1,0,0:0:0:0:
329,192,51650,1,0,0:0:0:0:
109,192,51717,1,0,0:0:0:0:
36,192,51717,1,0,0:0:0:0:
475,192,51717,1,0,0:0:0:0:
402,192,51786,1,0,0:0:0:0:
329,192,51853,1,0,0:0:0:0:
182,192,51853,1,0,0:0:0:0:
109,192,51921,1,0,0:0:0:0:
256,192,51989,1,0,0:0:0:0:
402,192,51989,1,0,0:0:0:0:
475,192,51989,1,0,0:0:0:0:
182,192,52056,1,0,0:0:0:0:
329,192,52125,1,0,0:0:0:0:
402,192,52125,1,0,0:0:0:0:
109,192,52193,1,0,0:0:0:0:
256,192,52193,1,0,0:0:0:0:
36,192,52260,1,0,0:0:0:0:
182,192,52260,1,0,0:0:0:0:
475,192,52260,1,0,0:0:0:0:
402,192,52328,1,0,0:0:0:0:
329,192,52396,1,0,0:0:0:0:
109,192,52396,1,0,0:0:0:0:
402,192,52464,1,0,0:0:0:0:
182,192,52532,1,0,0:0:0:0:
256,192,52532,1,0,0:0:0:0:
475,192,52532,1,0,0:0:0:0:
36,192,52600,1,0,0:0:0:0:
329,192,52668,1,0,0:0:0:0:
402,192,52668,1,0,0:0:0:0:
256,192,52736,1,0,0:0:0:0:
109,192,52736,1,0,0:0:0:0:
402,192,52803,1,0,0:0:0:0:
475,192,52803,1,0,0:0:0:0:
36,192,52803,1,0,0:0:0:0:
329,192,52940,1,0,0:0:0:0:
36,192,53007,1,0,0:0:0:0:
182,192,53007,1,0,0:0:0:0:
475,192,53075,1,0,0:0:0:0:
256,192,53075,1,0,0:0:0:0:
402,192,53075,1,0,0:0:0:0:
256,192,53210,1,0,0:0:0:0:
475,192,53210,1,0,0:0:0:0:
329,192,53210,1,0,0:0:0:0:
36,192,53210,1,0,0:0:0:0:
182,192,53279,1,0,0:0:0:0:
109,192,53346,1,0,0:0:0:0:
329,192,53346,1,0,0:0:0:0:
182,192,53414,1,0,0:0:0:0:
256,192,53482,1,0,0:0:0:0:
475,192,53482,1,0,0:0:0:0:
36,192,53482,1,0,0:0:0:0:
402,192,53550,1,0,0:0:0:0:
329,192,53618,1,0,0:0:0:0:
109,192,53618,1,0,0:0:0:0:
36,192,53618,1,0,0:0:0:0:
182,192,53686,1,0,0:0:0:0:
256,192,53753,1,0,0:0:0:0:
402,192,53753,1,0,0:0:0:0:
475,192,53753,1,0,0:0:0:0:
329,192,53822,1,0,0:0:0:0:
182,192,53822,1,0,0:0:0:0:
36,192,53890,1,0,0:0:0:0:
109,192,53890,1,0,0:0:0:0:
256,192,53890,1,0,0:0:0:0:
109,192,54025,1,0,0:0:0:0:
36,192,54025,1,0,0:0:0:0:
475,192,54025,1,0,0:0:0:0:
182,192,54093,1,0,0:0:0:0:
329,192,54093,1,0,0:0:0:0:
402,192,54161,1,0,0:0:0:0:
475,192,54161,1,0,0:0:0:0:
36,192,54161,1,0,0:0:0:0:
256,192,54229,1,0,0:0:0:0:
109,192,54229,1,0,0:0:0:0:
329,192,54296,1,0,0:0:0:0:
402,192,54296,1,0,0:0:0:0:
182,192,54364,1,0,0:0:0:0:
109,192,54364,1,0,0:0:0:0:
256,192,54433,1,0,0:0:0:0:
329,192,54433,1,0,0:0:0:0:
475,192,54433,1,0,0:0:0:0:
402,192,54433,1,0,0:0:0:0:
36,192,54433,1,0,0:0:0:0:
256,192,54704,1,0,0:0:0:0:
402,192,54704,1,0,0:0:0:0:
109,192,54704,1,0,0:0:0:0:
475,192,54704,1,0,0:0:0:0:
36,192,54704,1,0,0:0:0:0:
182,192,54840,1,0,0:0:0:0:
329,192,54840,1,0,0:0:0:0:
109,192,54907,1,0,0:0:0:0:
256,192,54907,1,0,0:0:0:0:
36,192,54976,1,0,0:0:0:0:
475,192,54976,1,0,0:0:0:0:
182,192,54976,1,0,0:0:0:0:
402,192,54976,1,0,0:0:0:0:
329,192,55111,1,0,0:0:0:0:
36,192,55111,1,0,0:0:0:0:
109,192,55111,1,0,0:0:0:0:
109,192,55247,1,0,0:0:0:0:
182,192,55247,1,0,0:0:0:0:
402,192,55247,1,0,0:0:0:0:
256,192,55383,1,0,0:0:0:0:
475,192,55383,1,0,0:0:0:0:
402,192,55383,1,0,0:0:0:0:
182,192,55450,1,0,0:0:0:0:
329,192,55450,1,0,0:0:0:0:
256,192,55518,1,0,0:0:0:0:
36,192,55518,1,0,0:0:0:0:
109,192,55586,1,0,0:0:0:0:
329,192,55586,1,0,0:0:0:0:
402,192,55654,1,0,0:0:0:0:
182,192,55654,1,0,0:0:0:0:
475,192,55654,1,0,0:0:0:0:
475,192,55790,1,0,0:0:0:0:
329,192,55790,1,0,0:0:0:0:
36,192,55790,1,0,0:0:0:0:
402,192,55790,1,0,0:0:0:0:
109,192,55858,1,0,0:0:0:0:
256,192,55858,1,0,0:0:0:0:
182,192,55926,1,0,0:0:0:0:
329,192,55926,1,0,0:0:0:0:
256,192,55993,1,0,0:0:0:0:
402,192,55993,1,0,0:0:0:0:
475,192,56061,1,0,0:0:0:0:
109,192,56061,1,0,0:0:0:0:
182,192,56061,1,0,0:0:0:0:
402,192,56130,1,0,0:0:0:0:
36,192,56197,1,0,0:0:0:0:
109,192,56197,1,0,0:0:0:0:
329,192,56197,1,0,0:0:0:0:
256,192,56265,1,0,0:0:0:0:
36,192,56333,1,0,0:0:0:0:
475,192,56333,1,0,0:0:0:0:
182,192,56333,1,0,0:0:0:0:
402,192,56333,1,0,0:0:0:0:
109,192,56401,1,0,0:0:0:0:
256,192,56401,1,0,0:0:0:0:
182,192,56469,1,0,0:0:0:0:
329,192,56469,1,0,0:0:0:0:
256,192,56536,1,0,0:0:0:0:
36,192,56604,1,0,0:0:0:0:
475,192,56604,1,0,0:0:0:0:
402,192,56604,1,0,0:0:0:0:
182,192,56672,1,0,0:0:0:0:
329,192,56672,1,0,0:0:0:0:
109,192,56740,1,0,0:0:0:0:
256,192,56740,1,0,0:0:0:0:
182,192,56808,1,0,0:0:0:0:
36,192,56808,1,0,0:0:0:0:
475,192,56876,1,0,0:0:0:0:
256,192,56876,1,0,0:0:0:0:
402,192,56876,1,0,0:0:0:0:
329,192,56876,1,0,0:0:0:0:
36,192,57012,1,0,0:0:0:0:
402,192,57012,1,0,0:0:0:0:
182,192,57012,1,0,0:0:0:0:
256,192,57080,1,0,0:0:0:0:
475,192,57147,1,0,0:0:0:0:
109,192,57147,1,0,0:0:0:0:
36,192,57147,1,0,0:0:0:0:
329,192,57147,1,0,0:0:0:0:
182,192,57283,1,0,0:0:0:0:
329,192,57283,1,0,0:0:0:0:
109,192,57283,1,0,0:0:0:0:
402,192,57351,1,0,0:0:0:0:
475,192,57351,1,0,0:0:0:0:
36,192,57419,1,0,0:0:0:0:
109,192,57419,1,0,0:0:0:0:
256,192,57419,1,0,0:0:0:0:
36,192,57555,1,0,0:0:0:0:
475,192,57555,1,0,0:0:0:0:
329,192,57555,1,0,0:0:0:0:
182,192,57555,1,0,0:0:0:0:
256,192,57623,1,0,0:0:0:0:
182,192,57690,1,0,0:0:0:0:
109,192,57758,1,0,0:0:0:0:
36,192,57826,1,0,0:0:0:0:
402,192,57826,1,0,0:0:0:0:
256,192,57826,1,0,0:0:0:0:
329,192,57962,1,0,0:0:0:0:
402,192,57962,1,0,0:0:0:0:
475,192,57962,1,0,0:0:0:0:
182,192,57962,1,0,0:0:0:0:
256,192,58030,1,0,0:0:0:0:
36,192,58097,1,0,0:0:0:0:
109,192,58097,1,0,0:0:0:0:
329,192,58097,1,0,0:0:0:0:
402,192,58166,1,0,0:0:0:0:
36,192,58233,1,0,0:0:0:0:
182,192,58233,1,0,0:0:0:0:
475,192,58233,1,0,0:0:0:0:
109,192,58233,1,0,0:0:0:0:
256,192,58369,1,0,0:0:0:0:
402,192,58369,1,0,0:0:0:0:
182,192,58437,1,0,0:0:0:0:
36,192,58437,1,0,0:0:0:0:
475,192,58505,1,0,0:0:0:0:
329,192,58505,1,0,0:0:0:0:
109,192,58505,1,0,0:0:0:0:
256,192,58573,1,0,0:0:0:0:
402,192,58573,1,0,0:0:0:0:
36,192,58640,1,0,0:0:0:0:
182,192,58640,1,0,0:0:0:0:
329,192,58709,1,0,0:0:0:0:
402,192,58709,1,0,0:0:0:0:
36,192,58776,1,0,0:0:0:0:
109,192,58776,1,0,0:0:0:0:
475,192,58776,1,0,0:0:0:0:
256,192,58776,1,0,0:0:0:0:
256,192,59048,1,0,0:0:0:0:
402,192,59048,1,0,0:0:0:0:
109,192,59048,1,0,0:0:0:0:
36,192,59048,1,0,0:0:0:0:
475,192,59048,1,0,0:0:0:0:
329,192,59183,1,0,0:0:0:0:
182,192,59183,1,0,0:0:0:0:
402,192,59251,1,0,0:0:0:0:
256,192,59251,1,0,0:0:0:0:
475,192,59320,1,0,0:0:0:0:
36,192,59320,1,0,0:0:0:0:
329,192,59320,1,0,0:0:0:0:
109,192,59320,1,0,0:0:0:0:
182,192,59455,1,0,0:0:0:0:
475,192,59455,1,0,0:0:0:0:
402,192,59455,1,0,0:0:0:0:
402,192,59591,1,0,0:0:0:0:
329,192,59591,1,0,0:0:0:0:
109,192,59591,1,0,0:0:0:0:
256,192,59726,1,0,0:0:0:0:
36,192,59726,1,0,0:0:0:0:
109,192,59726,1,0,0:0:0:0:
329,192,59794,1,0,0:0:0:0:
182,192,59794,1,0,0:0:0:0:
256,192,59863,1,0,0:0:0:0:
475,192,59863,1,0,0:0:0:0:
402,192,59930,1,0,0:0:0:0:
182,192,59930,1,0,0:0:0:0:
109,192,59998,1,0,0:0:0:0:
329,192,59998,1,0,0:0:0:0:
36,192,59998,1,0,0:0:0:0:
36,192,60133,1,0,0:0:0:0:
109,192,60133,1,0,0:0:0:0:
182,192,60133,1,0,0:0:0:0:
475,192,60133,1,0,0:0:0:0:
402,192,60202,1,0,0:0:0:0:
256,192,60202,1,0,0:0:0:0:
329,192,60270,1,0,0:0:0:0:
182,192,60270,1,0,0:0:0:0:
256,192,60337,1,0,0:0:0:0:
109,192,60337,1,0,0:0:0:0:
36,192,60405,1,0,0:0:0:0:
475,192,60405,1,0,0:0:0:0:
329,192,60405,1,0,0:0:0:0:
109,192,60473,1,0,0:0:0:0:
182,192,60541,1,0,0:0:0:0:
329,192,60541,1,0,0:0:0:0:
402,192,60541,1,0,0:0:0:0:
475,192,60676,1,0,0:0:0:0:
36,192,60676,1,0,0:0:0:0:
109,192,60676,1,0,0:0:0:0:
256,192,60676,1,0,0:0:0:0:
329,192,60745,1,0,0:0:0:0:
402,192,60813,1,0,0:0:0:0:
182,192,60813,1,0,0:0:0:0:
329,192,60880,1,0,0:0:0:0:
109,192,60880,1,0,0:0:0:0:
475,192,60948,1,0,0:0:0:0:
36,192,60948,1,0,0:0:0:0:
182,192,60948,1,0,0:0:0:0:
402,192,61016,1,0,0:0:0:0:
256,192,61016,1,0,0:0:0:0:
329,192,61084,1,0,0:0:0:0:
182,192,61084,1,0,0:0:0:0:
256,192,61152,1,0,0:0:0:0:
109,192,61152,1,0,0:0:0:0:
329,192,61220,1,0,0:0:0:0:
36,192,61220,1,0,0:0:0:0:
475,192,61220,1,0,0:0:0:0:
182,192,61356,1,0,0:0:0:0:
402,192,61356,1,0,0:0:0:0:
109,192,61423,1,0,0:0:0:0:
475,192,61491,1,0,0:0:0:0:
36,192,61491,1,0,0:0:0:0:
329,192,61491,1,0,0:0:0:0:
256,192,61559,1,0,0:0:0:0:
402,192,61559,1,0,0:0:0:0:
182,192,61627,1,0,0:0:0:0:
109,192,61627,1,0,0:0:0:0:
402,192,61763,1,0,0:0:0:0:
256,192,61763,1,0,0:0:0:0:
182,192,61763,1,0,0:0:0:0:
475,192,61899,1,0,0:0:0:0:
109,192,61899,1,0,0:0:0:0:
36,192,61899,1,0,0:0:0:0:
329,192,61899,1,0,0:0:0:0:
402,192,61899,1,0,0:0:0:0:
256,192,61966,1,0,0:0:0:0:
329,192,62034,1,0,0:0:0:0:
402,192,62102,1,0,0:0:0:0:
475,192,62170,1,0,0:0:0:0:
182,192,62170,1,0,0:0:0:0:
182,192,62306,1,0,0:0:0:0:
109,192,62306,1,0,0:0:0:0:
36,192,62306,1,0,0:0:0:0:
329,192,62306,1,0,0:0:0:0:
475,192,62441,1,0,0:0:0:0:
402,192,62441,1,0,0:0:0:0:
109,192,62441,1,0,0:0:0:0:
329,192,62577,1,0,0:0:0:0:
402,192,62577,1,0,0:0:0:0:
36,192,62577,1,0,0:0:0:0:
182,192,62577,1,0,0:0:0:0:
329,192,62713,1,0,0:0:0:0:
475,192,62713,1,0,0:0:0:0:
36,192,62781,1,0,0:0:0:0:
109,192,62781,1,0,0:0:0:0:
475,192,62849,1,0,0:0:0:0:
256,192,62849,1,0,0:0:0:0:
402,192,62849,1,0,0:0:0:0:
182,192,62916,1,0,0:0:0:0:
109,192,62916,1,0,0:0:0:0:
329,192,62984,1,0,0:0:0:0:
402,192,62984,1,0,0:0:0:0:
256,192,63053,1,0,0:0:0:0:
182,192,63053,1,0,0:0:0:0:
36,192,63120,1,0,0:0:0:0:
475,192,63120,1,0,0:0:0:0:
329,192,63120,1,0,0:0:0:0:
109,192,63120,1,0,0:0:0:0:
329,192,63392,1,0,0:0:0:0:
475,192,63392,1,0,0:0:0:0:
109,192,63392,1,0,0:0:0:0:
182,192,63527,1,0,0:0:0:0:
475,192,63527,1,0,0:0:0:0:
36,192,63663,1,0,0:0:0:0:
256,192,63663,1,0,0:0:0:0:
475,192,63663,1,0,0:0:0:0:
109,192,63799,1,0,0:0:0:0:
475,192,63799,1,0,0:0:0:0:
475,192,63935,1,0,0:0:0:0:
36,192,63935,1,0,0:0:0:0:
182,192,63935,1,0,0:0:0:0:
109,192,64070,1,0,0:0:0:0:
329,192,64070,1,0,0:0:0:0:
402,192,64070,1,0,0:0:0:0:
182,192,64070,1,0,0:0:0:0:
36,192,64206,1,0,0:0:0:0:
109,192,64206,1,0,0:0:0:0:
256,192,64206,1,0,0:0:0:0:
475,192,64206,1,0,0:0:0:0:
36,192,64342,1,0,0:0:0:0:
182,192,64342,1,0,0:0:0:0:
329,192,64342,1,0,0:0:0:0:
36,192,64478,1,0,0:0:0:0:
256,192,64478,1,0,0:0:0:0:
402,192,64478,1,0,0:0:0:0:
109,192,64613,1,0,0:0:0:0:
329,192,64613,1,0,0:0:0:0:
36,192,64613,1,0,0:0:0:0:
36,192,64749,1,0,0:0:0:0:
182,192,64749,1,0,0:0:0:0:
475,192,64749,1,0,0:0:0:0:
329,192,64885,1,0,0:0:0:0:
109,192,64885,1,0,0:0:0:0:
182,192,64885,1,0,0:0:0:0:
475,192,65020,1,0,0:0:0:0:
402,192,65020,1,0,0:0:0:0:
36,192,65020,1,0,0:0:0:0:
109,192,65020,1,0,0:0:0:0:
36,192,65156,1,0,0:0:0:0:
256,192,65156,1,0,0:0:0:0:
182,192,65292,1,0,0:0:0:0:
402,192,65292,1,0,0:0:0:0:
475,192,65292,1,0,0:0:0:0:
109,192,65292,1,0,0:0:0:0:
402,192,65428,1,0,0:0:0:0:
36,192,65428,1,0,0:0:0:0:
402,192,65563,1,0,0:0:0:0:
256,192,65563,1,0,0:0:0:0:
109,192,65563,1,0,0:0:0:0:
182,192,65700,1,0,0:0:0:0:
402,192,65700,1,0,0:0:0:0:
109,192,65835,1,0,0:0:0:0:
402,192,65835,1,0,0:0:0:0:
36,192,65835,1,0,0:0:0:0:
182,192,65971,1,0,0:0:0:0:
402,192,65971,1,0,0:0:0:0:
475,192,65971,1,0,0:0:0:0:
329,192,65971,1,0,0:0:0:0:
256,192,66106,1,0,0:0:0:0:
36,192,66106,1,0,0:0:0:0:
109,192,66106,1,0,0:0:0:0:
402,192,66243,1,0,0:0:0:0:
329,192,66243,1,0,0:0:0:0:
182,192,66243,1,0,0:0:0:0:
36,192,66243,1,0,0:0:0:0:
475,192,66310,1,0,0:0:0:0:
402,192,66378,1,0,0:0:0:0:
329,192,66446,1,0,0:0:0:0:
256,192,66514,1,0,0:0:0:0:
36,192,66514,1,0,0:0:0:0:
109,192,66514,1,0,0:0:0:0:
109,192,66650,1,0,0:0:0:0:
182,192,66650,1,0,0:0:0:0:
402,192,66650,1,0,0:0:0:0:
475,192,66786,1,0,0:0:0:0:
329,192,66786,1,0,0:0:0:0:
182,192,66786,1,0,0:0:0:0:
36,192,66921,1,0,0:0:0:0:
109,192,66921,1,0,0:0:0:0:
256,192,66921,1,0,0:0:0:0:
329,192,66989,1,0,0:0:0:0:
256,192,67056,1,0,0:0:0:0:
475,192,67056,1,0,0:0:0:0:
182,192,67125,1,0,0:0:0:0:
402,192,67125,1,0,0:0:0:0:
475,192,67193,1,0,0:0:0:0:
329,192,67193,1,0,0:0:0:0:
36,192,67193,1,0,0:0:0:0:
109,192,67260,1,0,0:0:0:0:
256,192,67260,1,0,0:0:0:0:
402,192,67328,1,0,0:0:0:0:
475,192,67328,1,0,0:0:0:0:
329,192,67396,1,0,0:0:0:0:
182,192,67396,1,0,0:0:0:0:
109,192,67464,1,0,0:0:0:0:
36,192,67464,1,0,0:0:0:0:
402,192,67464,1,0,0:0:0:0:
256,192,67464,1,0,0:0:0:0:
109,192,67600,1,0,0:0:0:0:
36,192,67600,1,0,0:0:0:0:
329,192,67600,1,0,0:0:0:0:
36,192,67736,1,0,0:0:0:0:
109,192,67736,1,0,0:0:0:0:
256,192,67736,1,0,0:0:0:0:
402,192,67871,1,0,0:0:0:0:
475,192,67871,1,0,0:0:0:0:
182,192,67871,1,0,0:0:0:0:
402,192,68007,1,0,0:0:0:0:
475,192,68007,1,0,0:0:0:0:
256,192,68007,1,0,0:0:0:0:
402,192,68143,1,0,0:0:0:0:
475,192,68143,1,0,0:0:0:0:
109,192,68143,1,0,0:0:0:0:
329,192,68279,1,0,0:0:0:0:
36,192,68279,1,0,0:0:0:0:
109,192,68279,1,0,0:0:0:0:
182,192,68414,1,0,0:0:0:0:
256,192,68414,1,0,0:0:0:0:
402,192,68414,1,0,0:0:0:0:
475,192,68550,1,0,0:0:0:0:
256,192,68550,1,0,0:0:0:0:
329,192,68550,1,0,0:0:0:0:
36,192,68686,1,0,0:0:0:0:
329,192,68686,1,0,0:0:0:0:
402,192,68686,1,0,0:0:0:0:
182,192,68686,1,0,0:0:0:0:
256,192,68822,1,0,0:0:0:0:
182,192,68890,1,0,0:0:0:0:
109,192,68957,1,0,0:0:0:0:
329,192,68957,1,0,0:0:0:0:
475,192,68957,1,0,0:0:0:0:
36,192,69093,1,0,0:0:0:0:
109,192,69093,1,0,0:0:0:0:
256,192,69093,1,0,0:0:0:0:
402,192,69093,1,0,0:0:0:0:
475,192,69161,1,0,0:0:0:0:
182,192,69229,1,0,0:0:0:0:
329,192,69229,1,0,0:0:0:0:
402,192,69296,1,0,0:0:0:0:
475,192,69296,1,0,0:0:0:0:
109,192,69364,1,0,0:0:0:0:
256,192,69364,1,0,0:0:0:0:
36,192,69364,1,0,0:0:0:0:
329,192,69433,1,0,0:0:0:0:
402,192,69433,1,0,0:0:0:0:
36,192,69500,1,0,0:0:0:0:
182,192,69500,1,0,0:0:0:0:
256,192,69568,1,0,0:0:0:0:
329,192,69568,1,0,0:0:0:0:
109,192,69636,1,0,0:0:0:0:
402,192,69636,1,0,0:0:0:0:
329,192,70043,1,0,0:0:0:0:
329,192,70179,1,0,0:0:0:0:
109,192,70586,1,0,0:0:0:0:
182,192,70722,1,0,0:0:0:0:
329,192,70993,1,0,0:0:0:0:
402,192,71130,1,0,0:0:0:0:
109,192,71130,1,0,0:0:0:0:
36,192,71130,1,0,0:0:0:0:
475,192,71401,1,0,0:0:0:0:
109,192,71536,1,0,0:0:0:0:
182,192,71536,1,0,0:0:0:0:
402,192,71672,1,0,0:0:0:0:
36,192,71808,1,0,0:0:0:0:
182,192,71808,1,0,0:0:0:0:
109,192,71808,1,0,0:0:0:0:
329,192,71943,1,0,0:0:0:0:
329,192,72080,1,0,0:0:0:0:
256,192,72215,1,0,0:0:0:0:
109,192,72215,1,0,0:0:0:0:
36,192,72215,1,0,0:0:0:0:
475,192,72215,1,0,0:0:0:0:
182,192,72486,1,0,0:0:0:0:
256,192,72623,1,0,0:0:0:0:
402,192,72623,1,0,0:0:0:0:
475,192,72623,1,0,0:0:0:0:
329,192,72758,1,0,0:0:0:0:
36,192,72894,1,0,0:0:0:0:
109,192,72894,1,0,0:0:0:0:
256,192,72894,1,0,0:0:0:0:
402,192,72894,1,0,0:0:0:0:
182,192,73166,1,0,0:0:0:0:
402,192,73437,1,0,0:0:0:0:
475,192,73437,1,0,0:0:0:0:
109,192,73437,1,0,0:0:0:0:
256,192,73709,1,0,0:0:0:0:
182,192,73980,1,0,0:0:0:0:
329,192,73980,1,0,0:0:0:0:
36,192,73980,1,0,0:0:0:0:
402,192,73980,1,0,0:0:0:0:
182,192,74387,1,0,0:0:0:0:
329,192,74455,1,0,0:0:0:0:
182,192,74523,1,0,0:0:0:0:
402,192,74523,1,0,0:0:0:0:
475,192,74523,1,0,0:0:0:0:
109,192,74523,1,0,0:0:0:0:
182,192,74930,1,0,0:0:0:0:
36,192,74930,1,0,0:0:0:0:
402,192,74998,1,0,0:0:0:0:
256,192,74998,1,0,0:0:0:0:
109,192,75066,1,0,0:0:0:0:
329,192,75066,1,0,0:0:0:0:
475,192,75066,1,0,0:0:0:0:
182,192,75066,1,0,0:0:0:0:
256,192,75337,1,0,0:0:0:0:
402,192,75337,1,0,0:0:0:0:
475,192,75337,1,0,0:0:0:0:
182,192,75473,1,0,0:0:0:0:
329,192,75473,1,0,0:0:0:0:
109,192,75541,1,0,0:0:0:0:
36,192,75541,1,0,0:0:0:0:
256,192,75609,1,0,0:0:0:0:
402,192,75609,1,0,0:0:0:0:
475,192,75609,1,0,0:0:0:0:
182,192,75745,1,0,0:0:0:0:
329,192,75745,1,0,0:0:0:0:
402,192,75813,1,0,0:0:0:0:
475,192,75813,1,0,0:0:0:0:
109,192,75880,1,0,0:0:0:0:
256,192,75880,1,0,0:0:0:0:
36,192,75880,1,0,0:0:0:0:
329,192,75948,1,0,0:0:0:0:
402,192,75948,1,0,0:0:0:0:
36,192,76016,1,0,0:0:0:0:
182,192,76016,1,0,0:0:0:0:
256,192,76084,1,0,0:0:0:0:
329,192,76084,1,0,0:0:0:0:
109,192,76152,1,0,0:0:0:0:
36,192,76152,1,0,0:0:0:0:
402,192,76152,1,0,0:0:0:0:
475,192,76152,1,0,0:0:0:0:
109,192,76287,1,0,0:0:0:0:
182,192,76287,1,0,0:0:0:0:
329,192,76287,1,0,0:0:0:0:
256,192,76423,1,0,0:0:0:0:
402,192,76423,1,0,0:0:0:0:
475,192,76423,1,0,0:0:0:0:
36,192,76423,1,0,0:0:0:0:
109,192,76559,1,0,0:0:0:0:
182,192,76559,1,0,0:0:0:0:
402,192,76627,1,0,0:0:0:0:
475,192,76627,1,0,0:0:0:0:
109,192,76695,1,0,0:0:0:0:
36,192,76695,1,0,0:0:0:0:
329,192,76695,1,0,0:0:0:0:
182,192,76830,1,0,0:0:0:0:
36,192,76830,1,0,0:0:0:0:
329,192,76830,1,0,0:0:0:0:
256,192,76966,1,0,0:0:0:0:
402,192,76966,1,0,0:0:0:0:
475,192,76966,1,0,0:0:0:0:
109,192,76966,1,0,0:0:0:0:
329,192,77102,1,0,0:0:0:0:
182,192,77102,1,0,0:0:0:0:
402,192,77238,1,0,0:0:0:0:
475,192,77238,1,0,0:0:0:0:
109,192,77238,1,0,0:0:0:0:
36,192,77238,1,0,0:0:0:0:
402,192,77373,1,0,0:0:0:0:
329,192,77373,1,0,0:0:0:0:
182,192,77373,1,0,0:0:0:0:
256,192,77510,1,0,0:0:0:0:
109,192,77510,1,0,0:0:0:0:
36,192,77510,1,0,0:0:0:0:
475,192,77510,1,0,0:0:0:0:
402,192,77645,1,0,0:0:0:0:
329,192,77645,1,0,0:0:0:0:
36,192,77713,1,0,0:0:0:0:
109,192,77713,1,0,0:0:0:0:
402,192,77781,1,0,0:0:0:0:
475,192,77781,1,0,0:0:0:0:
256,192,77781,1,0,0:0:0:0:
182,192,77871,1,0,0:0:0:0:
402,192,77871,1,0,0:0:0:0:
109,192,77871,1,0,0:0:0:0:
182,192,77962,1,0,0:0:0:0:
329,192,77962,1,0,0:0:0:0:
36,192,77962,1,0,0:0:0:0:
475,192,78053,1,0,0:0:0:0:
36,192,78053,1,0,0:0:0:0:
256,192,78053,1,0,0:0:0:0:
109,192,78143,1,0,0:0:0:0:
329,192,78143,1,0,0:0:0:0:
182,192,78233,1,0,0:0:0:0:
402,192,78233,1,0,0:0:0:0:
256,192,78324,1,0,0:0:0:0:
475,192,78324,1,0,0:0:0:0:
109,192,78324,1,0,0:0:0:0:
36,192,78324,1,0,0:0:0:0:
329,192,78324,1,0,0:0:0:0:
182,192,78460,1,0,0:0:0:0:
475,192,78460,1,0,0:0:0:0:
329,192,78595,1,0,0:0:0:0:
109,192,78595,1,0,0:0:0:0:
36,192,78595,1,0,0:0:0:0:
329,192,78731,1,0,0:0:0:0:
475,192,78731,1,0,0:0:0:0:
182,192,78731,1,0,0:0:0:0:
256,192,78866,1,0,0:0:0:0:
109,192,78866,1,0,0:0:0:0:
402,192,78866,1,0,0:0:0:0:
109,192,79003,1,0,0:0:0:0:
329,192,79003,1,0,0:0:0:0:
475,192,79003,1,0,0:0:0:0:
36,192,79138,1,0,0:0:0:0:
182,192,79138,1,0,0:0:0:0:
402,192,79138,1,0,0:0:0:0:
182,192,79274,1,0,0:0:0:0:
329,192,79274,1,0,0:0:0:0:
475,192,79274,1,0,0:0:0:0:
36,192,79410,1,0,0:0:0:0:
256,192,79410,1,0,0:0:0:0:
402,192,79410,1,0,0:0:0:0:
109,192,79546,1,0,0:0:0:0:
329,192,79546,1,0,0:0:0:0:
402,192,79546,1,0,0:0:0:0:
182,192,79681,1,0,0:0:0:0:
475,192,79681,1,0,0:0:0:0:
36,192,79681,1,0,0:0:0:0:
182,192,79817,1,0,0:0:0:0:
256,192,79817,1,0,0:0:0:0:
402,192,79817,1,0,0:0:0:0:
329,192,79953,1,0,0:0:0:0:
109,192,79953,1,0,0:0:0:0:
36,192,79953,1,0,0:0:0:0:
182,192,80089,1,0,0:0:0:0:
329,192,80089,1,0,0:0:0:0:
475,192,80089,1,0,0:0:0:0:
402,192,80224,1,0,0:0:0:0:
256,192,80224,1,0,0:0:0:0:
109,192,80224,1,0,0:0:0:0:
109,192,80360,1,0,0:0:0:0:
329,192,80360,1,0,0:0:0:0:
475,192,80360,1,0,0:0:0:0:
182,192,81039,1,0,0:0:0:0:
329,192,81039,1,0,0:0:0:0:
402,192,81039,1,0,0:0:0:0:
109,192,81039,1,0,0:0:0:0:
475,192,81056,1,0,0:0:0:0:
36,192,81056,1,0,0:0:0:0:
