osu file format v14

[General]
AudioFilename: audio 1.150x.mp3
AudioLeadIn: 0
PreviewTime: 41890
Countdown: 0
SampleSet: Soft
StackLeniency: 0
Mode: 3
LetterboxInBreaks: 0
SpecialStyle: 0
WidescreenStoryboard: 0

[Editor]
Bookmarks: 55410
DistanceSpacing: 2.2
BeatDivisor: 4
GridSize: 4
TimelineZoom: 1.9

[Metadata]
Title:Fuyu ni Saku Hana
TitleUnicode:冬に咲く華
Artist:Mitsuki Kotono
ArtistUnicode:美月琴音
Creator:ssapgosu
Version:ssapflower 1.15x (196bpm)
Source:彼女のセイイキ
Tags:Riana Amamya kanojo no seiiki japanese pop jpop j-pop rock jrock j-rock video game feng eroge op opening theme visual novel vn osutrainer
BeatmapID:4537088
BeatmapSetID:2153275

[Difficulty]
HPDrainRate:8
CircleSize:7
OverallDifficulty:8
ApproachRate:6.8
SliderMultiplier:1.4
SliderTickRate:1

[Events]
//Background and Video events
0,0,"bg2.jpg",0,0
//Break Periods
//Storyboard Layer 0 (Background)
//Storyboard Layer 1 (Fail)
//Storyboard Layer 2 (Pass)
//Storyboard Layer 3 (Foreground)
//Storyboard Layer 4 (Overlay)
//Storyboard Sound Samples

[TimingPoints]
152,306.90537084399,4,2,1,40,1,0
41890,-100,4,2,1,40,0,1
56622,-100,4,2,1,40,0,0
61533,-100,4,2,1,40,0,1
71353,-100,4,2,1,40,0,0

[HitObjects]
402,192,152,5,0,0:0:0:0:
329,192,458,1,0,0:0:0:0:
182,192,765,1,0,0:0:0:0:
109,192,1072,1,0,0:0:0:0:
256,192,1379,1,0,0:0:0:0:
475,192,1686,1,0,0:0:0:0:
402,192,1993,1,0,0:0:0:0:
256,192,2300,1,0,0:0:0:0:
109,192,2606,1,0,0:0:0:0:
256,192,3066,1,0,0:0:0:0:
329,192,3144,1,0,0:0:0:0:
402,192,3220,1,0,0:0:0:0:
475,192,3297,1,0,0:0:0:0:
182,192,3373,1,0,0:0:0:0:
256,192,3451,1,0,0:0:0:0:
329,192,3527,1,0,0:0:0:0:
402,192,3604,1,0,0:0:0:0:
109,192,3680,1,0,0:0:0:0:
182,192,3758,1,0,0:0:0:0:
256,192,3834,1,0,0:0:0:0:
475,192,3834,1,0,0:0:0:0:
182,192,4141,1,0,0:0:0:0:
36,192,4448,1,0,0:0:0:0:
402,192,4755,1,0,0:0:0:0:
182,192,4755,1,0,0:0:0:0:
329,192,4908,1,0,0:0:0:0:
109,192,4908,1,0,0:0:0:0:
256,192,4985,1,0,0:0:0:0:
182,192,5062,1,0,0:0:0:0:
36,192,5062,1,0,0:0:0:0:
402,192,5062,1,0,0:0:0:0:
475,192,5062,1,0,0:0:0:0:
109,192,5368,1,0,0:0:0:0:
256,192,5368,1,0,0:0:0:0:
475,192,5368,1,0,0:0:0:0:
109,192,5522,1,0,0:0:0:0:
329,192,5675,1,0,0:0:0:0:
182,192,5675,1,0,0:0:0:0:
36,192,5675,1,0,0:0:0:0:
329,192,5829,1,0,0:0:0:0:
182,192,5982,1,0,0:0:0:0:
402,192,5982,1,0,0:0:0:0:
109,192,5982,1,0,0:0:0:0:
182,192,6136,1,0,0:0:0:0:
402,192,6289,1,0,0:0:0:0:
256,192,6289,1,0,0:0:0:0:
36,192,6289,1,0,0:0:0:0:
402,192,6443,1,0,0:0:0:0:
182,192,6596,1,0,0:0:0:0:
329,192,6596,1,0,0:0:0:0:
109,192,6596,1,0,0:0:0:0:
182,192,6750,1,0,0:0:0:0:
329,192,6903,1,0,0:0:0:0:
36,192,6903,1,0,0:0:0:0:
475,192,6903,1,0,0:0:0:0:
329,192,7057,1,0,0:0:0:0:
109,192,7210,1,0,0:0:0:0:
256,192,7210,1,0,0:0:0:0:
402,192,7210,1,0,0:0:0:0:
475,192,7210,1,0,0:0:0:0:
109,192,7364,1,0,0:0:0:0:
329,192,7364,1,0,0:0:0:0:
182,192,7440,1,0,0:0:0:0:
256,192,7517,1,0,0:0:0:0:
36,192,7517,1,0,0:0:0:0:
402,192,7517,1,0,0:0:0:0:
475,192,7517,1,0,0:0:0:0:
182,192,7671,1,0,0:0:0:0:
329,192,7671,1,0,0:0:0:0:
36,192,7824,1,0,0:0:0:0:
109,192,7824,1,0,0:0:0:0:
475,192,7824,1,0,0:0:0:0:
109,192,7977,1,0,0:0:0:0:
182,192,7977,1,0,0:0:0:0:
402,192,7977,1,0,0:0:0:0:
182,192,8131,1,0,0:0:0:0:
256,192,8131,1,0,0:0:0:0:
475,192,8131,1,0,0:0:0:0:
256,192,8284,1,0,0:0:0:0:
109,192,8284,1,0,0:0:0:0:
402,192,8284,1,0,0:0:0:0:
36,192,8438,1,0,0:0:0:0:
109,192,8438,1,0,0:0:0:0:
329,192,8438,1,0,0:0:0:0:
329,192,8591,1,0,0:0:0:0:
182,192,8591,1,0,0:0:0:0:
402,192,8591,1,0,0:0:0:0:
402,192,8745,1,0,0:0:0:0:
475,192,8745,1,0,0:0:0:0:
256,192,8745,1,0,0:0:0:0:
109,192,8745,1,0,0:0:0:0:
182,192,8898,1,0,0:0:0:0:
36,192,8898,1,0,0:0:0:0:
329,192,9052,1,0,0:0:0:0:
475,192,9052,1,0,0:0:0:0:
256,192,9205,1,0,0:0:0:0:
402,192,9205,1,0,0:0:0:0:
182,192,9359,1,0,0:0:0:0:
36,192,9359,1,0,0:0:0:0:
256,192,9512,1,0,0:0:0:0:
109,192,9512,1,0,0:0:0:0:
182,192,9666,5,0,0:0:0:0:
402,192,9666,1,0,0:0:0:0:
329,192,9819,1,0,0:0:0:0:
475,192,9973,1,0,0:0:0:0:
36,192,9973,1,0,0:0:0:0:
182,192,9973,1,0,0:0:0:0:
256,192,10280,1,0,0:0:0:0:
109,192,10586,1,0,0:0:0:0:
329,192,10586,1,0,0:0:0:0:
182,192,10893,1,0,0:0:0:0:
256,192,11046,1,0,0:0:0:0:
36,192,11200,1,0,0:0:0:0:
329,192,11200,1,0,0:0:0:0:
182,192,11506,1,0,0:0:0:0:
109,192,11813,1,0,0:0:0:0:
402,192,11813,1,0,0:0:0:0:
329,192,12120,1,0,0:0:0:0:
182,192,12274,1,0,0:0:0:0:
329,192,12427,1,0,0:0:0:0:
36,192,12427,1,0,0:0:0:0:
256,192,12734,1,0,0:0:0:0:
402,192,12888,1,0,0:0:0:0:
329,192,13041,1,0,0:0:0:0:
182,192,13041,1,0,0:0:0:0:
36,192,13194,1,0,0:0:0:0:
402,192,13348,1,0,0:0:0:0:
109,192,13348,1,0,0:0:0:0:
182,192,13655,1,0,0:0:0:0:
329,192,13655,1,0,0:0:0:0:
256,192,13962,1,0,0:0:0:0:
402,192,14269,1,0,0:0:0:0:
109,192,14269,1,0,0:0:0:0:
329,192,14576,1,0,0:0:0:0:
256,192,14729,1,0,0:0:0:0:
475,192,14883,1,0,0:0:0:0:
182,192,14883,1,0,0:0:0:0:
256,192,15190,1,0,0:0:0:0:
402,192,15343,1,0,0:0:0:0:
329,192,15497,1,0,0:0:0:0:
109,192,15497,1,0,0:0:0:0:
256,192,15650,1,0,0:0:0:0:
329,192,15803,1,0,0:0:0:0:
109,192,15803,1,0,0:0:0:0:
402,192,15957,1,0,0:0:0:0:
36,192,16110,1,0,0:0:0:0:
182,192,16110,1,0,0:0:0:0:
475,192,16110,1,0,0:0:0:0:
329,192,16417,1,0,0:0:0:0:
329,192,16571,1,0,0:0:0:0:
182,192,16724,1,0,0:0:0:0:
402,192,16724,1,0,0:0:0:0:
256,192,17031,1,0,0:0:0:0:
329,192,17338,1,0,0:0:0:0:
109,192,17338,1,0,0:0:0:0:
182,192,17645,1,0,0:0:0:0:
109,192,17952,1,0,0:0:0:0:
402,192,17952,1,0,0:0:0:0:
36,192,18259,1,0,0:0:0:0:
109,192,18412,1,0,0:0:0:0:
182,192,18566,1,0,0:0:0:0:
329,192,18566,1,0,0:0:0:0:
475,192,18566,1,0,0:0:0:0:
256,192,18873,1,0,0:0:0:0:
109,192,19180,1,0,0:0:0:0:
329,192,19180,1,0,0:0:0:0:
475,192,19180,1,0,0:0:0:0:
182,192,19410,1,0,0:0:0:0:
329,192,19486,1,0,0:0:0:0:
256,192,19640,1,0,0:0:0:0:
36,192,19793,1,0,0:0:0:0:
109,192,19793,1,0,0:0:0:0:
402,192,19793,1,0,0:0:0:0:
182,192,20100,1,0,0:0:0:0:
109,192,20407,1,0,0:0:0:0:
329,192,20407,1,0,0:0:0:0:
475,192,20407,1,0,0:0:0:0:
256,192,20714,1,0,0:0:0:0:
329,192,21020,1,0,0:0:0:0:
475,192,21020,1,0,0:0:0:0:
182,192,21020,1,0,0:0:0:0:
182,192,21327,1,0,0:0:0:0:
402,192,21327,1,0,0:0:0:0:
182,192,21481,1,0,0:0:0:0:
329,192,21634,1,0,0:0:0:0:
475,192,21634,1,0,0:0:0:0:
109,192,21634,1,0,0:0:0:0:
109,192,21941,1,0,0:0:0:0:
256,192,21941,1,0,0:0:0:0:
329,192,22095,1,0,0:0:0:0:
182,192,22248,1,0,0:0:0:0:
36,192,22248,1,0,0:0:0:0:
402,192,22248,1,0,0:0:0:0:
256,192,22555,1,0,0:0:0:0:
182,192,22709,1,0,0:0:0:0:
109,192,22862,1,0,0:0:0:0:
329,192,22862,1,0,0:0:0:0:
475,192,22862,1,0,0:0:0:0:
182,192,23169,1,0,0:0:0:0:
329,192,23169,1,0,0:0:0:0:
109,192,23323,1,0,0:0:0:0:
36,192,23476,1,0,0:0:0:0:
256,192,23476,1,0,0:0:0:0:
402,192,23495,1,0,0:0:0:0:
475,192,23514,1,0,0:0:0:0:
402,192,24090,1,0,0:0:0:0:
329,192,24397,1,0,0:0:0:0:
109,192,24550,1,0,0:0:0:0:
256,192,24627,1,0,0:0:0:0:
36,192,24704,1,0,0:0:0:0:
402,192,24704,1,0,0:0:0:0:
475,192,24704,1,0,0:0:0:0:
109,192,25011,1,0,0:0:0:0:
329,192,25011,1,0,0:0:0:0:
402,192,25011,1,0,0:0:0:0:
109,192,25164,1,0,0:0:0:0:
182,192,25318,1,0,0:0:0:0:
329,192,25318,1,0,0:0:0:0:
475,192,25318,1,0,0:0:0:0:
182,192,25471,1,0,0:0:0:0:
109,192,25625,1,0,0:0:0:0:
256,192,25625,1,0,0:0:0:0:
402,192,25625,1,0,0:0:0:0:
109,192,25778,1,0,0:0:0:0:
329,192,25932,1,0,0:0:0:0:
182,192,25932,1,0,0:0:0:0:
36,192,25932,1,0,0:0:0:0:
329,192,26085,1,0,0:0:0:0:
402,192,26238,1,0,0:0:0:0:
109,192,26238,1,0,0:0:0:0:
182,192,26238,1,0,0:0:0:0:
402,192,26392,1,0,0:0:0:0:
256,192,26545,1,0,0:0:0:0:
109,192,26545,1,0,0:0:0:0:
36,192,26545,1,0,0:0:0:0:
256,192,26699,1,0,0:0:0:0:
329,192,26852,1,0,0:0:0:0:
182,192,26852,1,0,0:0:0:0:
36,192,26852,1,0,0:0:0:0:
329,192,27006,1,0,0:0:0:0:
182,192,27159,1,0,0:0:0:0:
402,192,27159,1,0,0:0:0:0:
475,192,27159,1,0,0:0:0:0:
182,192,27313,1,0,0:0:0:0:
109,192,27466,1,0,0:0:0:0:
402,192,27466,1,0,0:0:0:0:
329,192,27466,1,0,0:0:0:0:
109,192,27620,1,0,0:0:0:0:
256,192,27773,1,0,0:0:0:0:
402,192,27773,1,0,0:0:0:0:
475,192,27773,1,0,0:0:0:0:
256,192,27926,1,0,0:0:0:0:
329,192,28080,1,0,0:0:0:0:
36,192,28080,1,0,0:0:0:0:
182,192,28080,1,0,0:0:0:0:
329,192,28233,1,0,0:0:0:0:
109,192,28386,1,0,0:0:0:0:
256,192,28386,1,0,0:0:0:0:
475,192,28386,1,0,0:0:0:0:
402,192,28540,1,0,0:0:0:0:
475,192,28540,1,0,0:0:0:0:
182,192,28540,1,0,0:0:0:0:
329,192,28693,1,0,0:0:0:0:
402,192,28693,1,0,0:0:0:0:
109,192,28693,1,0,0:0:0:0:
256,192,28846,1,0,0:0:0:0:
329,192,28846,1,0,0:0:0:0:
475,192,28846,1,0,0:0:0:0:
36,192,28846,1,0,0:0:0:0:
36,192,29000,1,0,0:0:0:0:
402,192,29000,1,0,0:0:0:0:
475,192,29000,1,0,0:0:0:0:
256,192,29000,1,0,0:0:0:0:
182,192,29000,1,0,0:0:0:0:
36,192,29153,1,0,0:0:0:0:
109,192,29153,1,0,0:0:0:0:
329,192,29153,1,0,0:0:0:0:
402,192,29153,1,0,0:0:0:0:
256,192,29307,1,0,0:0:0:0:
402,192,29307,1,0,0:0:0:0:
475,192,29307,1,0,0:0:0:0:
36,192,29384,1,0,0:0:0:0:
182,192,29384,1,0,0:0:0:0:
329,192,29460,1,0,0:0:0:0:
475,192,29460,1,0,0:0:0:0:
256,192,29538,1,0,0:0:0:0:
109,192,29538,1,0,0:0:0:0:
402,192,29614,1,0,0:0:0:0:
475,192,29614,1,0,0:0:0:0:
329,192,29614,1,0,0:0:0:0:
36,192,29614,1,0,0:0:0:0:
256,192,29767,1,0,0:0:0:0:
402,192,29767,1,0,0:0:0:0:
109,192,29767,1,0,0:0:0:0:
36,192,29921,1,0,0:0:0:0:
329,192,29921,1,0,0:0:0:0:
109,192,29921,1,0,0:0:0:0:
256,192,30074,1,0,0:0:0:0:
402,192,30074,1,0,0:0:0:0:
329,192,30228,1,0,0:0:0:0:
475,192,30228,1,0,0:0:0:0:
36,192,30228,1,0,0:0:0:0:
402,192,30381,1,0,0:0:0:0:
256,192,30381,1,0,0:0:0:0:
36,192,30381,1,0,0:0:0:0:
402,192,30535,1,0,0:0:0:0:
475,192,30535,1,0,0:0:0:0:
182,192,30535,1,0,0:0:0:0:
256,192,30688,1,0,0:0:0:0:
109,192,30688,1,0,0:0:0:0:
182,192,30842,1,0,0:0:0:0:
329,192,30842,1,0,0:0:0:0:
475,192,30842,1,0,0:0:0:0:
36,192,30995,1,0,0:0:0:0:
182,192,30995,1,0,0:0:0:0:
402,192,30995,1,0,0:0:0:0:
36,192,31149,1,0,0:0:0:0:
109,192,31149,1,0,0:0:0:0:
329,192,31149,1,0,0:0:0:0:
475,192,31149,1,0,0:0:0:0:
256,192,31302,1,0,0:0:0:0:
402,192,31302,1,0,0:0:0:0:
182,192,31379,1,0,0:0:0:0:
109,192,31379,1,0,0:0:0:0:
329,192,31455,1,0,0:0:0:0:
475,192,31455,1,0,0:0:0:0:
36,192,31455,1,0,0:0:0:0:
329,192,31609,1,0,0:0:0:0:
182,192,31609,1,0,0:0:0:0:
109,192,31609,1,0,0:0:0:0:
182,192,31762,1,0,0:0:0:0:
256,192,31762,1,0,0:0:0:0:
402,192,31762,1,0,0:0:0:0:
475,192,31762,1,0,0:0:0:0:
329,192,31916,1,0,0:0:0:0:
109,192,31916,1,0,0:0:0:0:
36,192,32069,1,0,0:0:0:0:
182,192,32069,1,0,0:0:0:0:
402,192,32069,1,0,0:0:0:0:
182,192,32223,1,0,0:0:0:0:
36,192,32223,1,0,0:0:0:0:
329,192,32223,1,0,0:0:0:0:
256,192,32376,1,0,0:0:0:0:
402,192,32376,1,0,0:0:0:0:
475,192,32376,1,0,0:0:0:0:
109,192,32376,1,0,0:0:0:0:
36,192,32530,1,0,0:0:0:0:
256,192,32530,1,0,0:0:0:0:
109,192,32683,1,0,0:0:0:0:
329,192,32683,1,0,0:0:0:0:
475,192,32683,1,0,0:0:0:0:
329,192,32837,1,0,0:0:0:0:
475,192,32837,1,0,0:0:0:0:
182,192,32837,1,0,0:0:0:0:
256,192,32990,1,0,0:0:0:0:
109,192,32990,1,0,0:0:0:0:
36,192,32990,1,0,0:0:0:0:
402,192,32990,1,0,0:0:0:0:
256,192,33144,1,0,0:0:0:0:
475,192,33144,1,0,0:0:0:0:
329,192,33297,1,0,0:0:0:0:
475,192,33297,1,0,0:0:0:0:
109,192,33297,1,0,0:0:0:0:
182,192,33297,1,0,0:0:0:0:
36,192,33451,1,0,0:0:0:0:
109,192,33451,1,0,0:0:0:0:
402,192,33451,1,0,0:0:0:0:
256,192,33451,1,0,0:0:0:0:
36,192,33604,1,0,0:0:0:0:
182,192,33604,1,0,0:0:0:0:
402,192,33604,1,0,0:0:0:0:
475,192,33604,1,0,0:0:0:0:
329,192,33604,1,0,0:0:0:0:
109,192,33758,1,0,0:0:0:0:
256,192,33758,1,0,0:0:0:0:
329,192,33834,1,0,0:0:0:0:
402,192,33911,1,0,0:0:0:0:
182,192,33911,1,0,0:0:0:0:
475,192,33911,1,0,0:0:0:0:
36,192,33911,1,0,0:0:0:0:
182,192,34013,1,0,0:0:0:0:
329,192,34013,1,0,0:0:0:0:
329,192,34115,1,0,0:0:0:0:
109,192,34115,1,0,0:0:0:0:
36,192,34115,1,0,0:0:0:0:
109,192,34218,1,0,0:0:0:0:
402,192,34218,1,0,0:0:0:0:
475,192,34218,1,0,0:0:0:0:
256,192,34218,1,0,0:0:0:0:
182,192,34320,1,0,0:0:0:0:
329,192,34320,1,0,0:0:0:0:
256,192,34422,1,0,0:0:0:0:
402,192,34422,1,0,0:0:0:0:
36,192,34525,1,0,0:0:0:0:
109,192,34525,1,0,0:0:0:0:
475,192,34525,1,0,0:0:0:0:
329,192,34525,1,0,0:0:0:0:
109,192,34832,1,0,0:0:0:0:
182,192,34832,1,0,0:0:0:0:
329,192,35139,1,0,0:0:0:0:
109,192,35292,1,0,0:0:0:0:
256,192,35368,1,0,0:0:0:0:
329,192,35446,1,0,0:0:0:0:
402,192,35446,1,0,0:0:0:0:
182,192,35599,1,0,0:0:0:0:
256,192,35675,1,0,0:0:0:0:
402,192,35675,1,0,0:0:0:0:
109,192,35753,1,0,0:0:0:0:
182,192,36060,1,0,0:0:0:0:
402,192,36060,1,0,0:0:0:0:
329,192,36060,1,0,0:0:0:0:
36,192,36213,1,0,0:0:0:0:
109,192,36213,1,0,0:0:0:0:
256,192,36213,1,0,0:0:0:0:
182,192,36289,1,0,0:0:0:0:
329,192,36289,1,0,0:0:0:0:
256,192,36366,1,0,0:0:0:0:
402,192,36366,1,0,0:0:0:0:
475,192,36366,1,0,0:0:0:0:
36,192,36366,1,0,0:0:0:0:
36,192,36520,1,0,0:0:0:0:
329,192,36520,1,0,0:0:0:0:
182,192,36520,1,0,0:0:0:0:
109,192,36673,1,0,0:0:0:0:
182,192,36673,1,0,0:0:0:0:
402,192,36673,1,0,0:0:0:0:
475,192,36673,1,0,0:0:0:0:
329,192,36750,1,0,0:0:0:0:
256,192,36750,1,0,0:0:0:0:
36,192,36826,1,0,0:0:0:0:
109,192,36826,1,0,0:0:0:0:
402,192,36826,1,0,0:0:0:0:
182,192,36903,1,0,0:0:0:0:
256,192,36903,1,0,0:0:0:0:
329,192,36980,1,0,0:0:0:0:
475,192,36980,1,0,0:0:0:0:
36,192,36980,1,0,0:0:0:0:
109,192,36980,1,0,0:0:0:0:
109,192,37286,1,0,0:0:0:0:
182,192,37286,1,0,0:0:0:0:
329,192,37286,1,0,0:0:0:0:
109,192,37440,1,0,0:0:0:0:
402,192,37440,1,0,0:0:0:0:
475,192,37440,1,0,0:0:0:0:
36,192,37440,1,0,0:0:0:0:
182,192,37593,1,0,0:0:0:0:
36,192,37593,1,0,0:0:0:0:
329,192,37593,1,0,0:0:0:0:
109,192,37747,1,0,0:0:0:0:
182,192,37747,1,0,0:0:0:0:
402,192,37747,1,0,0:0:0:0:
109,192,37900,1,0,0:0:0:0:
36,192,37900,1,0,0:0:0:0:
256,192,37900,1,0,0:0:0:0:
36,192,38054,1,0,0:0:0:0:
182,192,38054,1,0,0:0:0:0:
329,192,38054,1,0,0:0:0:0:
109,192,38207,1,0,0:0:0:0:
402,192,38207,1,0,0:0:0:0:
475,192,38207,1,0,0:0:0:0:
256,192,38207,1,0,0:0:0:0:
475,192,38361,1,0,0:0:0:0:
329,192,38361,1,0,0:0:0:0:
182,192,38361,1,0,0:0:0:0:
475,192,38514,1,0,0:0:0:0:
402,192,38514,1,0,0:0:0:0:
256,192,38514,1,0,0:0:0:0:
36,192,38514,1,0,0:0:0:0:
329,192,38668,1,0,0:0:0:0:
402,192,38668,1,0,0:0:0:0:
182,192,38668,1,0,0:0:0:0:
475,192,38821,1,0,0:0:0:0:
36,192,38821,1,0,0:0:0:0:
109,192,38821,1,0,0:0:0:0:
256,192,38821,1,0,0:0:0:0:
329,192,38975,1,0,0:0:0:0:
402,192,39052,1,0,0:0:0:0:
475,192,39052,1,0,0:0:0:0:
182,192,39128,1,0,0:0:0:0:
36,192,39128,1,0,0:0:0:0:
109,192,39128,1,0,0:0:0:0:
256,192,39205,1,0,0:0:0:0:
402,192,39205,1,0,0:0:0:0:
36,192,39281,1,0,0:0:0:0:
109,192,39281,1,0,0:0:0:0:
182,192,39359,1,0,0:0:0:0:
329,192,39359,1,0,0:0:0:0:
402,192,39435,1,0,0:0:0:0:
475,192,39435,1,0,0:0:0:0:
256,192,39435,1,0,0:0:0:0:
182,192,39588,1,0,0:0:0:0:
329,192,39666,1,0,0:0:0:0:
402,192,39666,1,0,0:0:0:0:
36,192,39742,1,0,0:0:0:0:
182,192,39742,1,0,0:0:0:0:
329,192,39819,1,0,0:0:0:0:
475,192,39819,1,0,0:0:0:0:
256,192,39895,1,0,0:0:0:0:
109,192,39895,1,0,0:0:0:0:
329,192,39973,1,0,0:0:0:0:
402,192,39973,1,0,0:0:0:0:
182,192,40049,1,0,0:0:0:0:
36,192,40049,1,0,0:0:0:0:
109,192,40049,1,0,0:0:0:0:
475,192,40126,1,0,0:0:0:0:
256,192,40202,1,0,0:0:0:0:
402,192,40202,1,0,0:0:0:0:
182,192,40280,1,0,0:0:0:0:
36,192,40280,1,0,0:0:0:0:
329,192,40356,1,0,0:0:0:0:
475,192,40356,1,0,0:0:0:0:
109,192,40433,1,0,0:0:0:0:
256,192,40433,1,0,0:0:0:0:
36,192,40509,1,0,0:0:0:0:
182,192,40509,1,0,0:0:0:0:
402,192,40509,1,0,0:0:0:0:
329,192,40586,1,0,0:0:0:0:
256,192,40663,1,0,0:0:0:0:
402,192,40663,1,0,0:0:0:0:
475,192,40663,1,0,0:0:0:0:
109,192,40663,1,0,0:0:0:0:
36,192,40663,1,0,0:0:0:0:
182,192,40970,5,0,0:0:0:0:
329,192,41123,1,0,0:0:0:0:
109,192,41430,1,0,0:0:0:0:
109,192,41584,1,0,0:0:0:0:
256,192,41737,1,0,0:0:0:0:
329,192,41813,1,0,0:0:0:0:
36,192,41890,5,0,0:0:0:0:
182,192,41890,1,0,0:0:0:0:
402,192,41890,1,0,0:0:0:0:
475,192,41890,1,0,0:0:0:0:
109,192,41890,1,0,0:0:0:0:
256,192,42197,1,0,0:0:0:0:
402,192,42197,1,0,0:0:0:0:
109,192,42197,1,0,0:0:0:0:
36,192,42197,1,0,0:0:0:0:
475,192,42197,1,0,0:0:0:0:
182,192,42351,1,0,0:0:0:0:
329,192,42351,1,0,0:0:0:0:
109,192,42427,1,0,0:0:0:0:
256,192,42427,1,0,0:0:0:0:
36,192,42504,1,0,0:0:0:0:
475,192,42504,1,0,0:0:0:0:
182,192,42504,1,0,0:0:0:0:
402,192,42504,1,0,0:0:0:0:
109,192,42658,1,0,0:0:0:0:
329,192,42658,1,0,0:0:0:0:
475,192,42658,1,0,0:0:0:0:
182,192,42811,1,0,0:0:0:0:
402,192,42811,1,0,0:0:0:0:
36,192,42811,1,0,0:0:0:0:
256,192,42965,1,0,0:0:0:0:
475,192,42965,1,0,0:0:0:0:
402,192,42965,1,0,0:0:0:0:
182,192,43041,1,0,0:0:0:0:
329,192,43041,1,0,0:0:0:0:
256,192,43118,1,0,0:0:0:0:
36,192,43118,1,0,0:0:0:0:
109,192,43194,1,0,0:0:0:0:
329,192,43194,1,0,0:0:0:0:
402,192,43272,1,0,0:0:0:0:
182,192,43272,1,0,0:0:0:0:
475,192,43272,1,0,0:0:0:0:
475,192,43425,1,0,0:0:0:0:
402,192,43425,1,0,0:0:0:0:
329,192,43425,1,0,0:0:0:0:
36,192,43425,1,0,0:0:0:0:
109,192,43501,1,0,0:0:0:0:
256,192,43501,1,0,0:0:0:0:
182,192,43579,1,0,0:0:0:0:
329,192,43579,1,0,0:0:0:0:
256,192,43655,1,0,0:0:0:0:
402,192,43655,1,0,0:0:0:0:
475,192,43732,1,0,0:0:0:0:
109,192,43732,1,0,0:0:0:0:
182,192,43732,1,0,0:0:0:0:
402,192,43808,1,0,0:0:0:0:
36,192,43886,1,0,0:0:0:0:
109,192,43886,1,0,0:0:0:0:
329,192,43886,1,0,0:0:0:0:
256,192,43962,1,0,0:0:0:0:
36,192,44039,1,0,0:0:0:0:
475,192,44039,1,0,0:0:0:0:
182,192,44039,1,0,0:0:0:0:
402,192,44039,1,0,0:0:0:0:
256,192,44193,1,0,0:0:0:0:
329,192,44269,1,0,0:0:0:0:
36,192,44346,1,0,0:0:0:0:
475,192,44346,1,0,0:0:0:0:
402,192,44346,1,0,0:0:0:0:
109,192,44422,1,0,0:0:0:0:
256,192,44422,1,0,0:0:0:0:
182,192,44499,1,0,0:0:0:0:
329,192,44499,1,0,0:0:0:0:
256,192,44576,1,0,0:0:0:0:
402,192,44576,1,0,0:0:0:0:
182,192,44653,1,0,0:0:0:0:
475,192,44653,1,0,0:0:0:0:
36,192,44653,1,0,0:0:0:0:
475,192,44806,1,0,0:0:0:0:
109,192,44806,1,0,0:0:0:0:
402,192,44806,1,0,0:0:0:0:
256,192,44883,1,0,0:0:0:0:
329,192,44883,1,0,0:0:0:0:
36,192,44960,1,0,0:0:0:0:
402,192,44960,1,0,0:0:0:0:
475,192,44960,1,0,0:0:0:0:
182,192,44960,1,0,0:0:0:0:
182,192,45113,1,0,0:0:0:0:
329,192,45113,1,0,0:0:0:0:
109,192,45113,1,0,0:0:0:0:
402,192,45266,1,0,0:0:0:0:
36,192,45266,1,0,0:0:0:0:
109,192,45266,1,0,0:0:0:0:
256,192,45266,1,0,0:0:0:0:
36,192,45420,1,0,0:0:0:0:
475,192,45420,1,0,0:0:0:0:
329,192,45420,1,0,0:0:0:0:
182,192,45420,1,0,0:0:0:0:
256,192,45497,1,0,0:0:0:0:
402,192,45497,1,0,0:0:0:0:
182,192,45573,1,0,0:0:0:0:
329,192,45573,1,0,0:0:0:0:
109,192,45650,1,0,0:0:0:0:
256,192,45650,1,0,0:0:0:0:
36,192,45726,1,0,0:0:0:0:
402,192,45726,1,0,0:0:0:0:
329,192,45880,1,0,0:0:0:0:
402,192,45880,1,0,0:0:0:0:
475,192,45880,1,0,0:0:0:0:
182,192,45880,1,0,0:0:0:0:
256,192,45957,1,0,0:0:0:0:
36,192,45957,1,0,0:0:0:0:
329,192,46033,1,0,0:0:0:0:
109,192,46033,1,0,0:0:0:0:
182,192,46110,1,0,0:0:0:0:
402,192,46110,1,0,0:0:0:0:
109,192,46187,1,0,0:0:0:0:
36,192,46187,1,0,0:0:0:0:
329,192,46264,1,0,0:0:0:0:
475,192,46264,1,0,0:0:0:0:
182,192,46340,1,0,0:0:0:0:
36,192,46340,1,0,0:0:0:0:
256,192,46340,1,0,0:0:0:0:
109,192,46494,1,0,0:0:0:0:
182,192,46494,1,0,0:0:0:0:
329,192,46494,1,0,0:0:0:0:
402,192,46494,1,0,0:0:0:0:
475,192,46494,1,0,0:0:0:0:
36,192,46801,1,0,0:0:0:0:
182,192,46801,1,0,0:0:0:0:
329,192,46801,1,0,0:0:0:0:
475,192,46801,1,0,0:0:0:0:
256,192,47107,1,0,0:0:0:0:
402,192,47107,1,0,0:0:0:0:
109,192,47107,1,0,0:0:0:0:
475,192,47107,1,0,0:0:0:0:
36,192,47107,1,0,0:0:0:0:
329,192,47261,1,0,0:0:0:0:
182,192,47261,1,0,0:0:0:0:
402,192,47338,1,0,0:0:0:0:
256,192,47338,1,0,0:0:0:0:
475,192,47414,1,0,0:0:0:0:
36,192,47414,1,0,0:0:0:0:
329,192,47414,1,0,0:0:0:0:
109,192,47414,1,0,0:0:0:0:
182,192,47568,1,0,0:0:0:0:
402,192,47568,1,0,0:0:0:0:
36,192,47568,1,0,0:0:0:0:
329,192,47721,1,0,0:0:0:0:
109,192,47721,1,0,0:0:0:0:
475,192,47721,1,0,0:0:0:0:
256,192,47875,1,0,0:0:0:0:
36,192,47875,1,0,0:0:0:0:
109,192,47875,1,0,0:0:0:0:
329,192,47952,1,0,0:0:0:0:
182,192,47952,1,0,0:0:0:0:
256,192,48028,1,0,0:0:0:0:
475,192,48028,1,0,0:0:0:0:
402,192,48106,1,0,0:0:0:0:
182,192,48106,1,0,0:0:0:0:
109,192,48182,1,0,0:0:0:0:
329,192,48182,1,0,0:0:0:0:
36,192,48182,1,0,0:0:0:0:
36,192,48335,1,0,0:0:0:0:
109,192,48335,1,0,0:0:0:0:
182,192,48335,1,0,0:0:0:0:
475,192,48335,1,0,0:0:0:0:
402,192,48412,1,0,0:0:0:0:
256,192,48412,1,0,0:0:0:0:
329,192,48489,1,0,0:0:0:0:
182,192,48489,1,0,0:0:0:0:
256,192,48566,1,0,0:0:0:0:
109,192,48566,1,0,0:0:0:0:
36,192,48642,1,0,0:0:0:0:
402,192,48642,1,0,0:0:0:0:
329,192,48642,1,0,0:0:0:0:
109,192,48719,1,0,0:0:0:0:
475,192,48796,1,0,0:0:0:0:
402,192,48796,1,0,0:0:0:0:
182,192,48796,1,0,0:0:0:0:
475,192,48949,1,0,0:0:0:0:
36,192,48949,1,0,0:0:0:0:
329,192,48949,1,0,0:0:0:0:
109,192,48949,1,0,0:0:0:0:
256,192,49026,1,0,0:0:0:0:
402,192,49103,1,0,0:0:0:0:
182,192,49103,1,0,0:0:0:0:
329,192,49180,1,0,0:0:0:0:
109,192,49180,1,0,0:0:0:0:
475,192,49256,1,0,0:0:0:0:
36,192,49256,1,0,0:0:0:0:
182,192,49256,1,0,0:0:0:0:
402,192,49333,1,0,0:0:0:0:
256,192,49333,1,0,0:0:0:0:
329,192,49410,1,0,0:0:0:0:
182,192,49410,1,0,0:0:0:0:
256,192,49486,1,0,0:0:0:0:
109,192,49486,1,0,0:0:0:0:
329,192,49563,1,0,0:0:0:0:
36,192,49563,1,0,0:0:0:0:
475,192,49563,1,0,0:0:0:0:
109,192,49716,1,0,0:0:0:0:
256,192,49716,1,0,0:0:0:0:
182,192,49793,1,0,0:0:0:0:
329,192,49793,1,0,0:0:0:0:
475,192,49870,1,0,0:0:0:0:
109,192,49870,1,0,0:0:0:0:
36,192,49870,1,0,0:0:0:0:
402,192,49870,1,0,0:0:0:0:
329,192,50023,1,0,0:0:0:0:
182,192,50023,1,0,0:0:0:0:
475,192,50023,1,0,0:0:0:0:
109,192,50177,1,0,0:0:0:0:
475,192,50177,1,0,0:0:0:0:
402,192,50177,1,0,0:0:0:0:
256,192,50177,1,0,0:0:0:0:
109,192,50330,1,0,0:0:0:0:
36,192,50330,1,0,0:0:0:0:
182,192,50330,1,0,0:0:0:0:
402,192,50330,1,0,0:0:0:0:
256,192,50407,1,0,0:0:0:0:
329,192,50484,1,0,0:0:0:0:
402,192,50560,1,0,0:0:0:0:
475,192,50637,1,0,0:0:0:0:
182,192,50637,1,0,0:0:0:0:
36,192,50637,1,0,0:0:0:0:
182,192,50791,1,0,0:0:0:0:
109,192,50791,1,0,0:0:0:0:
36,192,50791,1,0,0:0:0:0:
329,192,50791,1,0,0:0:0:0:
475,192,50944,1,0,0:0:0:0:
402,192,50944,1,0,0:0:0:0:
109,192,50944,1,0,0:0:0:0:
329,192,51098,1,0,0:0:0:0:
402,192,51098,1,0,0:0:0:0:
36,192,51098,1,0,0:0:0:0:
182,192,51098,1,0,0:0:0:0:
329,192,51251,1,0,0:0:0:0:
475,192,51251,1,0,0:0:0:0:
36,192,51327,1,0,0:0:0:0:
109,192,51327,1,0,0:0:0:0:
475,192,51405,1,0,0:0:0:0:
256,192,51405,1,0,0:0:0:0:
402,192,51405,1,0,0:0:0:0:
182,192,51481,1,0,0:0:0:0:
109,192,51481,1,0,0:0:0:0:
329,192,51558,1,0,0:0:0:0:
402,192,51558,1,0,0:0:0:0:
256,192,51634,1,0,0:0:0:0:
182,192,51634,1,0,0:0:0:0:
36,192,51712,1,0,0:0:0:0:
475,192,51712,1,0,0:0:0:0:
329,192,51712,1,0,0:0:0:0:
109,192,51712,1,0,0:0:0:0:
36,192,52019,1,0,0:0:0:0:
109,192,52019,1,0,0:0:0:0:
475,192,52019,1,0,0:0:0:0:
402,192,52019,1,0,0:0:0:0:
109,192,52172,1,0,0:0:0:0:
182,192,52172,1,0,0:0:0:0:
329,192,52172,1,0,0:0:0:0:
256,192,52248,1,0,0:0:0:0:
402,192,52248,1,0,0:0:0:0:
109,192,52325,1,0,0:0:0:0:
36,192,52325,1,0,0:0:0:0:
329,192,52325,1,0,0:0:0:0:
475,192,52325,1,0,0:0:0:0:
36,192,52479,1,0,0:0:0:0:
182,192,52479,1,0,0:0:0:0:
402,192,52479,1,0,0:0:0:0:
329,192,52555,1,0,0:0:0:0:
109,192,52632,1,0,0:0:0:0:
475,192,52632,1,0,0:0:0:0:
256,192,52632,1,0,0:0:0:0:
402,192,52632,1,0,0:0:0:0:
256,192,52786,1,0,0:0:0:0:
36,192,52786,1,0,0:0:0:0:
329,192,52862,1,0,0:0:0:0:
182,192,52939,1,0,0:0:0:0:
402,192,52939,1,0,0:0:0:0:
329,192,53016,1,0,0:0:0:0:
256,192,53093,1,0,0:0:0:0:
109,192,53093,1,0,0:0:0:0:
36,192,53093,1,0,0:0:0:0:
402,192,53246,1,0,0:0:0:0:
475,192,53246,1,0,0:0:0:0:
36,192,53246,1,0,0:0:0:0:
182,192,53246,1,0,0:0:0:0:
329,192,53400,1,0,0:0:0:0:
402,192,53400,1,0,0:0:0:0:
182,192,53400,1,0,0:0:0:0:
256,192,53476,1,0,0:0:0:0:
109,192,53476,1,0,0:0:0:0:
402,192,53553,1,0,0:0:0:0:
475,192,53553,1,0,0:0:0:0:
182,192,53553,1,0,0:0:0:0:
36,192,53553,1,0,0:0:0:0:
329,192,53706,1,0,0:0:0:0:
475,192,53706,1,0,0:0:0:0:
109,192,53706,1,0,0:0:0:0:
182,192,53783,1,0,0:0:0:0:
402,192,53860,1,0,0:0:0:0:
256,192,53860,1,0,0:0:0:0:
36,192,53860,1,0,0:0:0:0:
109,192,53860,1,0,0:0:0:0:
402,192,54013,1,0,0:0:0:0:
182,192,54013,1,0,0:0:0:0:
109,192,54090,1,0,0:0:0:0:
256,192,54166,1,0,0:0:0:0:
36,192,54166,1,0,0:0:0:0:
475,192,54166,1,0,0:0:0:0:
182,192,54243,1,0,0:0:0:0:
109,192,54320,1,0,0:0:0:0:
182,192,54397,1,0,0:0:0:0:
36,192,54473,1,0,0:0:0:0:
475,192,54473,1,0,0:0:0:0:
402,192,54473,1,0,0:0:0:0:
256,192,54473,1,0,0:0:0:0:
109,192,54627,1,0,0:0:0:0:
182,192,54627,1,0,0:0:0:0:
329,192,54627,1,0,0:0:0:0:
256,192,54704,1,0,0:0:0:0:
402,192,54704,1,0,0:0:0:0:
109,192,54780,1,0,0:0:0:0:
36,192,54780,1,0,0:0:0:0:
329,192,54780,1,0,0:0:0:0:
475,192,54780,1,0,0:0:0:0:
36,192,54933,1,0,0:0:0:0:
182,192,54933,1,0,0:0:0:0:
402,192,54933,1,0,0:0:0:0:
329,192,55011,1,0,0:0:0:0:
109,192,55087,1,0,0:0:0:0:
475,192,55087,1,0,0:0:0:0:
256,192,55087,1,0,0:0:0:0:
402,192,55087,1,0,0:0:0:0:
329,192,55240,1,0,0:0:0:0:
36,192,55240,1,0,0:0:0:0:
109,192,55240,1,0,0:0:0:0:
475,192,55240,1,0,0:0:0:0:
256,192,55318,1,0,0:0:0:0:
182,192,55394,1,0,0:0:0:0:
402,192,55394,1,0,0:0:0:0:
256,192,55471,1,0,0:0:0:0:
329,192,55547,1,0,0:0:0:0:
109,192,55547,1,0,0:0:0:0:
36,192,55547,1,0,0:0:0:0:
402,192,55625,1,0,0:0:0:0:
475,192,55701,1,0,0:0:0:0:
36,192,55701,1,0,0:0:0:0:
182,192,55701,1,0,0:0:0:0:
256,192,55701,1,0,0:0:0:0:
329,192,55854,1,0,0:0:0:0:
402,192,55854,1,0,0:0:0:0:
182,192,55854,1,0,0:0:0:0:
256,192,55932,1,0,0:0:0:0:
109,192,55932,1,0,0:0:0:0:
182,192,56008,1,0,0:0:0:0:
36,192,56008,1,0,0:0:0:0:
329,192,56008,1,0,0:0:0:0:
402,192,56085,1,0,0:0:0:0:
475,192,56085,1,0,0:0:0:0:
109,192,56161,1,0,0:0:0:0:
256,192,56161,1,0,0:0:0:0:
36,192,56315,1,0,0:0:0:0:
475,192,56315,1,0,0:0:0:0:
182,192,56315,1,0,0:0:0:0:
402,192,56392,1,0,0:0:0:0:
109,192,56468,1,0,0:0:0:0:
329,192,56468,1,0,0:0:0:0:
182,192,56545,1,0,0:0:0:0:
475,192,56622,1,0,0:0:0:0:
329,192,56622,1,0,0:0:0:0:
402,192,56622,1,0,0:0:0:0:
36,192,56622,1,0,0:0:0:0:
109,192,56622,1,0,0:0:0:0:
256,192,56699,1,0,0:0:0:0:
402,192,56775,1,0,0:0:0:0:
182,192,56775,1,0,0:0:0:0:
329,192,56852,1,0,0:0:0:0:
36,192,56929,1,0,0:0:0:0:
475,192,56929,1,0,0:0:0:0:
256,192,56929,1,0,0:0:0:0:
109,192,57006,1,0,0:0:0:0:
182,192,57006,1,0,0:0:0:0:
329,192,57082,1,0,0:0:0:0:
475,192,57082,1,0,0:0:0:0:
36,192,57159,1,0,0:0:0:0:
109,192,57159,1,0,0:0:0:0:
256,192,57236,1,0,0:0:0:0:
402,192,57236,1,0,0:0:0:0:
182,192,57236,1,0,0:0:0:0:
475,192,57313,1,0,0:0:0:0:
109,192,57389,1,0,0:0:0:0:
256,192,57389,1,0,0:0:0:0:
36,192,57542,1,0,0:0:0:0:
182,192,57542,1,0,0:0:0:0:
402,192,57542,1,0,0:0:0:0:
475,192,57542,1,0,0:0:0:0:
256,192,57620,1,0,0:0:0:0:
109,192,57696,1,0,0:0:0:0:
329,192,57696,1,0,0:0:0:0:
36,192,57773,1,0,0:0:0:0:
182,192,57849,1,0,0:0:0:0:
402,192,57849,1,0,0:0:0:0:
475,192,57849,1,0,0:0:0:0:
36,192,58003,1,0,0:0:0:0:
109,192,58003,1,0,0:0:0:0:
256,192,58003,1,0,0:0:0:0:
182,192,58156,1,0,0:0:0:0:
329,192,58156,1,0,0:0:0:0:
475,192,58156,1,0,0:0:0:0:
256,192,58310,1,0,0:0:0:0:
402,192,58310,1,0,0:0:0:0:
182,192,58386,1,0,0:0:0:0:
329,192,58386,1,0,0:0:0:0:
109,192,58463,1,0,0:0:0:0:
36,192,58463,1,0,0:0:0:0:
475,192,58463,1,0,0:0:0:0:
402,192,58540,1,0,0:0:0:0:
329,192,58617,1,0,0:0:0:0:
182,192,58617,1,0,0:0:0:0:
109,192,58693,1,0,0:0:0:0:
256,192,58770,1,0,0:0:0:0:
402,192,58770,1,0,0:0:0:0:
475,192,58770,1,0,0:0:0:0:
182,192,58846,1,0,0:0:0:0:
329,192,58924,1,0,0:0:0:0:
402,192,58924,1,0,0:0:0:0:
109,192,59000,1,0,0:0:0:0:
256,192,59000,1,0,0:0:0:0:
36,192,59077,1,0,0:0:0:0:
182,192,59077,1,0,0:0:0:0:
475,192,59077,1,0,0:0:0:0:
402,192,59153,1,0,0:0:0:0:
329,192,59231,1,0,0:0:0:0:
109,192,59231,1,0,0:0:0:0:
402,192,59307,1,0,0:0:0:0:
182,192,59384,1,0,0:0:0:0:
256,192,59384,1,0,0:0:0:0:
475,192,59384,1,0,0:0:0:0:
36,192,59460,1,0,0:0:0:0:
329,192,59538,1,0,0:0:0:0:
402,192,59538,1,0,0:0:0:0:
256,192,59614,1,0,0:0:0:0:
109,192,59614,1,0,0:0:0:0:
402,192,59691,1,0,0:0:0:0:
475,192,59691,1,0,0:0:0:0:
36,192,59691,1,0,0:0:0:0:
329,192,59845,1,0,0:0:0:0:
36,192,59921,1,0,0:0:0:0:
182,192,59921,1,0,0:0:0:0:
475,192,59998,1,0,0:0:0:0:
256,192,59998,1,0,0:0:0:0:
402,192,59998,1,0,0:0:0:0:
256,192,60151,1,0,0:0:0:0:
475,192,60151,1,0,0:0:0:0:
329,192,60151,1,0,0:0:0:0:
36,192,60151,1,0,0:0:0:0:
182,192,60228,1,0,0:0:0:0:
109,192,60305,1,0,0:0:0:0:
329,192,60305,1,0,0:0:0:0:
182,192,60381,1,0,0:0:0:0:
256,192,60458,1,0,0:0:0:0:
475,192,60458,1,0,0:0:0:0:
36,192,60458,1,0,0:0:0:0:
402,192,60535,1,0,0:0:0:0:
329,192,60612,1,0,0:0:0:0:
109,192,60612,1,0,0:0:0:0:
36,192,60612,1,0,0:0:0:0:
182,192,60688,1,0,0:0:0:0:
256,192,60765,1,0,0:0:0:0:
402,192,60765,1,0,0:0:0:0:
475,192,60765,1,0,0:0:0:0:
329,192,60842,1,0,0:0:0:0:
182,192,60842,1,0,0:0:0:0:
36,192,60919,1,0,0:0:0:0:
109,192,60919,1,0,0:0:0:0:
256,192,60919,1,0,0:0:0:0:
109,192,61072,1,0,0:0:0:0:
36,192,61072,1,0,0:0:0:0:
475,192,61072,1,0,0:0:0:0:
182,192,61149,1,0,0:0:0:0:
329,192,61149,1,0,0:0:0:0:
402,192,61226,1,0,0:0:0:0:
475,192,61226,1,0,0:0:0:0:
36,192,61226,1,0,0:0:0:0:
256,192,61302,1,0,0:0:0:0:
109,192,61302,1,0,0:0:0:0:
329,192,61379,1,0,0:0:0:0:
402,192,61379,1,0,0:0:0:0:
182,192,61455,1,0,0:0:0:0:
109,192,61455,1,0,0:0:0:0:
256,192,61533,1,0,0:0:0:0:
329,192,61533,1,0,0:0:0:0:
475,192,61533,1,0,0:0:0:0:
402,192,61533,1,0,0:0:0:0:
36,192,61533,1,0,0:0:0:0:
256,192,61840,1,0,0:0:0:0:
402,192,61840,1,0,0:0:0:0:
109,192,61840,1,0,0:0:0:0:
475,192,61840,1,0,0:0:0:0:
36,192,61840,1,0,0:0:0:0:
182,192,61993,1,0,0:0:0:0:
329,192,61993,1,0,0:0:0:0:
109,192,62069,1,0,0:0:0:0:
256,192,62069,1,0,0:0:0:0:
36,192,62146,1,0,0:0:0:0:
475,192,62146,1,0,0:0:0:0:
182,192,62146,1,0,0:0:0:0:
402,192,62146,1,0,0:0:0:0:
329,192,62300,1,0,0:0:0:0:
36,192,62300,1,0,0:0:0:0:
109,192,62300,1,0,0:0:0:0:
109,192,62453,1,0,0:0:0:0:
182,192,62453,1,0,0:0:0:0:
402,192,62453,1,0,0:0:0:0:
256,192,62606,1,0,0:0:0:0:
475,192,62606,1,0,0:0:0:0:
402,192,62606,1,0,0:0:0:0:
182,192,62683,1,0,0:0:0:0:
329,192,62683,1,0,0:0:0:0:
256,192,62760,1,0,0:0:0:0:
36,192,62760,1,0,0:0:0:0:
109,192,62837,1,0,0:0:0:0:
329,192,62837,1,0,0:0:0:0:
402,192,62913,1,0,0:0:0:0:
182,192,62913,1,0,0:0:0:0:
475,192,62913,1,0,0:0:0:0:
475,192,63066,1,0,0:0:0:0:
329,192,63066,1,0,0:0:0:0:
36,192,63066,1,0,0:0:0:0:
402,192,63066,1,0,0:0:0:0:
109,192,63144,1,0,0:0:0:0:
256,192,63144,1,0,0:0:0:0:
182,192,63220,1,0,0:0:0:0:
329,192,63220,1,0,0:0:0:0:
256,192,63297,1,0,0:0:0:0:
402,192,63297,1,0,0:0:0:0:
475,192,63373,1,0,0:0:0:0:
109,192,63373,1,0,0:0:0:0:
182,192,63373,1,0,0:0:0:0:
402,192,63451,1,0,0:0:0:0:
36,192,63527,1,0,0:0:0:0:
109,192,63527,1,0,0:0:0:0:
329,192,63527,1,0,0:0:0:0:
256,192,63604,1,0,0:0:0:0:
36,192,63680,1,0,0:0:0:0:
475,192,63680,1,0,0:0:0:0:
182,192,63680,1,0,0:0:0:0:
402,192,63680,1,0,0:0:0:0:
109,192,63758,1,0,0:0:0:0:
256,192,63758,1,0,0:0:0:0:
182,192,63834,1,0,0:0:0:0:
329,192,63834,1,0,0:0:0:0:
256,192,63911,1,0,0:0:0:0:
36,192,63987,1,0,0:0:0:0:
475,192,63987,1,0,0:0:0:0:
402,192,63987,1,0,0:0:0:0:
182,192,64064,1,0,0:0:0:0:
329,192,64064,1,0,0:0:0:0:
109,192,64141,1,0,0:0:0:0:
256,192,64141,1,0,0:0:0:0:
182,192,64218,1,0,0:0:0:0:
36,192,64218,1,0,0:0:0:0:
475,192,64294,1,0,0:0:0:0:
256,192,64294,1,0,0:0:0:0:
402,192,64294,1,0,0:0:0:0:
329,192,64294,1,0,0:0:0:0:
36,192,64448,1,0,0:0:0:0:
402,192,64448,1,0,0:0:0:0:
182,192,64448,1,0,0:0:0:0:
256,192,64525,1,0,0:0:0:0:
475,192,64601,1,0,0:0:0:0:
109,192,64601,1,0,0:0:0:0:
36,192,64601,1,0,0:0:0:0:
329,192,64601,1,0,0:0:0:0:
182,192,64755,1,0,0:0:0:0:
329,192,64755,1,0,0:0:0:0:
109,192,64755,1,0,0:0:0:0:
402,192,64832,1,0,0:0:0:0:
475,192,64832,1,0,0:0:0:0:
36,192,64908,1,0,0:0:0:0:
109,192,64908,1,0,0:0:0:0:
256,192,64908,1,0,0:0:0:0:
36,192,65062,1,0,0:0:0:0:
475,192,65062,1,0,0:0:0:0:
329,192,65062,1,0,0:0:0:0:
182,192,65062,1,0,0:0:0:0:
256,192,65139,1,0,0:0:0:0:
182,192,65215,1,0,0:0:0:0:
109,192,65292,1,0,0:0:0:0:
36,192,65368,1,0,0:0:0:0:
402,192,65368,1,0,0:0:0:0:
256,192,65368,1,0,0:0:0:0:
329,192,65522,1,0,0:0:0:0:
402,192,65522,1,0,0:0:0:0:
475,192,65522,1,0,0:0:0:0:
182,192,65522,1,0,0:0:0:0:
256,192,65599,1,0,0:0:0:0:
36,192,65675,1,0,0:0:0:0:
109,192,65675,1,0,0:0:0:0:
329,192,65675,1,0,0:0:0:0:
402,192,65753,1,0,0:0:0:0:
36,192,65829,1,0,0:0:0:0:
182,192,65829,1,0,0:0:0:0:
475,192,65829,1,0,0:0:0:0:
109,192,65829,1,0,0:0:0:0:
256,192,65982,1,0,0:0:0:0:
402,192,65982,1,0,0:0:0:0:
182,192,66060,1,0,0:0:0:0:
36,192,66060,1,0,0:0:0:0:
475,192,66136,1,0,0:0:0:0:
329,192,66136,1,0,0:0:0:0:
109,192,66136,1,0,0:0:0:0:
256,192,66213,1,0,0:0:0:0:
402,192,66213,1,0,0:0:0:0:
36,192,66289,1,0,0:0:0:0:
182,192,66289,1,0,0:0:0:0:
329,192,66366,1,0,0:0:0:0:
402,192,66366,1,0,0:0:0:0:
36,192,66443,1,0,0:0:0:0:
109,192,66443,1,0,0:0:0:0:
475,192,66443,1,0,0:0:0:0:
256,192,66443,1,0,0:0:0:0:
256,192,66750,1,0,0:0:0:0:
402,192,66750,1,0,0:0:0:0:
109,192,66750,1,0,0:0:0:0:
36,192,66750,1,0,0:0:0:0:
475,192,66750,1,0,0:0:0:0:
329,192,66903,1,0,0:0:0:0:
182,192,66903,1,0,0:0:0:0:
402,192,66980,1,0,0:0:0:0:
256,192,66980,1,0,0:0:0:0:
475,192,67057,1,0,0:0:0:0:
36,192,67057,1,0,0:0:0:0:
329,192,67057,1,0,0:0:0:0:
109,192,67057,1,0,0:0:0:0:
182,192,67210,1,0,0:0:0:0:
475,192,67210,1,0,0:0:0:0:
402,192,67210,1,0,0:0:0:0:
402,192,67364,1,0,0:0:0:0:
329,192,67364,1,0,0:0:0:0:
109,192,67364,1,0,0:0:0:0:
256,192,67517,1,0,0:0:0:0:
36,192,67517,1,0,0:0:0:0:
109,192,67517,1,0,0:0:0:0:
329,192,67593,1,0,0:0:0:0:
182,192,67593,1,0,0:0:0:0:
256,192,67671,1,0,0:0:0:0:
475,192,67671,1,0,0:0:0:0:
402,192,67747,1,0,0:0:0:0:
182,192,67747,1,0,0:0:0:0:
109,192,67824,1,0,0:0:0:0:
329,192,67824,1,0,0:0:0:0:
36,192,67824,1,0,0:0:0:0:
36,192,67977,1,0,0:0:0:0:
109,192,67977,1,0,0:0:0:0:
182,192,67977,1,0,0:0:0:0:
475,192,67977,1,0,0:0:0:0:
402,192,68054,1,0,0:0:0:0:
256,192,68054,1,0,0:0:0:0:
329,192,68131,1,0,0:0:0:0:
182,192,68131,1,0,0:0:0:0:
256,192,68207,1,0,0:0:0:0:
109,192,68207,1,0,0:0:0:0:
36,192,68284,1,0,0:0:0:0:
475,192,68284,1,0,0:0:0:0:
329,192,68284,1,0,0:0:0:0:
109,192,68361,1,0,0:0:0:0:
182,192,68438,1,0,0:0:0:0:
329,192,68438,1,0,0:0:0:0:
402,192,68438,1,0,0:0:0:0:
475,192,68591,1,0,0:0:0:0:
36,192,68591,1,0,0:0:0:0:
109,192,68591,1,0,0:0:0:0:
256,192,68591,1,0,0:0:0:0:
329,192,68668,1,0,0:0:0:0:
402,192,68745,1,0,0:0:0:0:
182,192,68745,1,0,0:0:0:0:
329,192,68821,1,0,0:0:0:0:
109,192,68821,1,0,0:0:0:0:
475,192,68898,1,0,0:0:0:0:
36,192,68898,1,0,0:0:0:0:
182,192,68898,1,0,0:0:0:0:
402,192,68975,1,0,0:0:0:0:
256,192,68975,1,0,0:0:0:0:
329,192,69052,1,0,0:0:0:0:
182,192,69052,1,0,0:0:0:0:
256,192,69128,1,0,0:0:0:0:
109,192,69128,1,0,0:0:0:0:
329,192,69205,1,0,0:0:0:0:
36,192,69205,1,0,0:0:0:0:
475,192,69205,1,0,0:0:0:0:
182,192,69359,1,0,0:0:0:0:
402,192,69359,1,0,0:0:0:0:
109,192,69435,1,0,0:0:0:0:
475,192,69512,1,0,0:0:0:0:
36,192,69512,1,0,0:0:0:0:
329,192,69512,1,0,0:0:0:0:
256,192,69588,1,0,0:0:0:0:
402,192,69588,1,0,0:0:0:0:
182,192,69666,1,0,0:0:0:0:
109,192,69666,1,0,0:0:0:0:
402,192,69819,1,0,0:0:0:0:
256,192,69819,1,0,0:0:0:0:
182,192,69819,1,0,0:0:0:0:
475,192,69973,1,0,0:0:0:0:
109,192,69973,1,0,0:0:0:0:
36,192,69973,1,0,0:0:0:0:
329,192,69973,1,0,0:0:0:0:
402,192,69973,1,0,0:0:0:0:
256,192,70049,1,0,0:0:0:0:
329,192,70126,1,0,0:0:0:0:
402,192,70202,1,0,0:0:0:0:
475,192,70280,1,0,0:0:0:0:
182,192,70280,1,0,0:0:0:0:
182,192,70433,1,0,0:0:0:0:
109,192,70433,1,0,0:0:0:0:
36,192,70433,1,0,0:0:0:0:
329,192,70433,1,0,0:0:0:0:
475,192,70586,1,0,0:0:0:0:
402,192,70586,1,0,0:0:0:0:
109,192,70586,1,0,0:0:0:0:
329,192,70740,1,0,0:0:0:0:
402,192,70740,1,0,0:0:0:0:
36,192,70740,1,0,0:0:0:0:
182,192,70740,1,0,0:0:0:0:
329,192,70893,1,0,0:0:0:0:
475,192,70893,1,0,0:0:0:0:
36,192,70970,1,0,0:0:0:0:
109,192,70970,1,0,0:0:0:0:
475,192,71046,1,0,0:0:0:0:
256,192,71046,1,0,0:0:0:0:
402,192,71046,1,0,0:0:0:0:
182,192,71123,1,0,0:0:0:0:
109,192,71123,1,0,0:0:0:0:
329,192,71200,1,0,0:0:0:0:
402,192,71200,1,0,0:0:0:0:
256,192,71277,1,0,0:0:0:0:
182,192,71277,1,0,0:0:0:0:
36,192,71353,1,0,0:0:0:0:
475,192,71353,1,0,0:0:0:0:
329,192,71353,1,0,0:0:0:0:
109,192,71353,1,0,0:0:0:0:
329,192,71660,1,0,0:0:0:0:
475,192,71660,1,0,0:0:0:0:
109,192,71660,1,0,0:0:0:0:
182,192,71813,1,0,0:0:0:0:
475,192,71813,1,0,0:0:0:0:
36,192,71967,1,0,0:0:0:0:
256,192,71967,1,0,0:0:0:0:
475,192,71967,1,0,0:0:0:0:
109,192,72120,1,0,0:0:0:0:
475,192,72120,1,0,0:0:0:0:
475,192,72274,1,0,0:0:0:0:
36,192,72274,1,0,0:0:0:0:
182,192,72274,1,0,0:0:0:0:
109,192,72427,1,0,0:0:0:0:
329,192,72427,1,0,0:0:0:0:
402,192,72427,1,0,0:0:0:0:
182,192,72427,1,0,0:0:0:0:
36,192,72581,1,0,0:0:0:0:
109,192,72581,1,0,0:0:0:0:
256,192,72581,1,0,0:0:0:0:
475,192,72581,1,0,0:0:0:0:
36,192,72734,1,0,0:0:0:0:
182,192,72734,1,0,0:0:0:0:
329,192,72734,1,0,0:0:0:0:
36,192,72888,1,0,0:0:0:0:
256,192,72888,1,0,0:0:0:0:
402,192,72888,1,0,0:0:0:0:
109,192,73041,1,0,0:0:0:0:
329,192,73041,1,0,0:0:0:0:
36,192,73041,1,0,0:0:0:0:
36,192,73194,1,0,0:0:0:0:
182,192,73194,1,0,0:0:0:0:
475,192,73194,1,0,0:0:0:0:
329,192,73348,1,0,0:0:0:0:
109,192,73348,1,0,0:0:0:0:
182,192,73348,1,0,0:0:0:0:
475,192,73501,1,0,0:0:0:0:
402,192,73501,1,0,0:0:0:0:
36,192,73501,1,0,0:0:0:0:
109,192,73501,1,0,0:0:0:0:
36,192,73655,1,0,0:0:0:0:
256,192,73655,1,0,0:0:0:0:
182,192,73808,1,0,0:0:0:0:
402,192,73808,1,0,0:0:0:0:
475,192,73808,1,0,0:0:0:0:
109,192,73808,1,0,0:0:0:0:
402,192,73962,1,0,0:0:0:0:
36,192,73962,1,0,0:0:0:0:
402,192,74115,1,0,0:0:0:0:
256,192,74115,1,0,0:0:0:0:
109,192,74115,1,0,0:0:0:0:
182,192,74269,1,0,0:0:0:0:
402,192,74269,1,0,0:0:0:0:
109,192,74422,1,0,0:0:0:0:
402,192,74422,1,0,0:0:0:0:
36,192,74422,1,0,0:0:0:0:
182,192,74576,1,0,0:0:0:0:
402,192,74576,1,0,0:0:0:0:
475,192,74576,1,0,0:0:0:0:
329,192,74576,1,0,0:0:0:0:
256,192,74729,1,0,0:0:0:0:
36,192,74729,1,0,0:0:0:0:
109,192,74729,1,0,0:0:0:0:
402,192,74883,1,0,0:0:0:0:
329,192,74883,1,0,0:0:0:0:
182,192,74883,1,0,0:0:0:0:
36,192,74883,1,0,0:0:0:0:
475,192,74960,1,0,0:0:0:0:
402,192,75036,1,0,0:0:0:0:
329,192,75113,1,0,0:0:0:0:
256,192,75190,1,0,0:0:0:0:
36,192,75190,1,0,0:0:0:0:
109,192,75190,1,0,0:0:0:0:
109,192,75343,1,0,0:0:0:0:
182,192,75343,1,0,0:0:0:0:
402,192,75343,1,0,0:0:0:0:
475,192,75497,1,0,0:0:0:0:
329,192,75497,1,0,0:0:0:0:
182,192,75497,1,0,0:0:0:0:
36,192,75650,1,0,0:0:0:0:
109,192,75650,1,0,0:0:0:0:
256,192,75650,1,0,0:0:0:0:
329,192,75726,1,0,0:0:0:0:
256,192,75803,1,0,0:0:0:0:
475,192,75803,1,0,0:0:0:0:
182,192,75880,1,0,0:0:0:0:
402,192,75880,1,0,0:0:0:0:
475,192,75957,1,0,0:0:0:0:
329,192,75957,1,0,0:0:0:0:
36,192,75957,1,0,0:0:0:0:
109,192,76033,1,0,0:0:0:0:
256,192,76033,1,0,0:0:0:0:
402,192,76110,1,0,0:0:0:0:
475,192,76110,1,0,0:0:0:0:
329,192,76187,1,0,0:0:0:0:
182,192,76187,1,0,0:0:0:0:
109,192,76264,1,0,0:0:0:0:
36,192,76264,1,0,0:0:0:0:
402,192,76264,1,0,0:0:0:0:
256,192,76264,1,0,0:0:0:0:
109,192,76417,1,0,0:0:0:0:
36,192,76417,1,0,0:0:0:0:
329,192,76417,1,0,0:0:0:0:
36,192,76571,1,0,0:0:0:0:
109,192,76571,1,0,0:0:0:0:
256,192,76571,1,0,0:0:0:0:
402,192,76724,1,0,0:0:0:0:
475,192,76724,1,0,0:0:0:0:
182,192,76724,1,0,0:0:0:0:
402,192,76878,1,0,0:0:0:0:
475,192,76878,1,0,0:0:0:0:
256,192,76878,1,0,0:0:0:0:
402,192,77031,1,0,0:0:0:0:
475,192,77031,1,0,0:0:0:0:
109,192,77031,1,0,0:0:0:0:
329,192,77185,1,0,0:0:0:0:
36,192,77185,1,0,0:0:0:0:
109,192,77185,1,0,0:0:0:0:
182,192,77338,1,0,0:0:0:0:
256,192,77338,1,0,0:0:0:0:
402,192,77338,1,0,0:0:0:0:
475,192,77492,1,0,0:0:0:0:
256,192,77492,1,0,0:0:0:0:
329,192,77492,1,0,0:0:0:0:
36,192,77645,1,0,0:0:0:0:
329,192,77645,1,0,0:0:0:0:
402,192,77645,1,0,0:0:0:0:
182,192,77645,1,0,0:0:0:0:
256,192,77799,1,0,0:0:0:0:
182,192,77875,1,0,0:0:0:0:
109,192,77952,1,0,0:0:0:0:
329,192,77952,1,0,0:0:0:0:
475,192,77952,1,0,0:0:0:0:
36,192,78106,1,0,0:0:0:0:
109,192,78106,1,0,0:0:0:0:
256,192,78106,1,0,0:0:0:0:
402,192,78106,1,0,0:0:0:0:
475,192,78182,1,0,0:0:0:0:
182,192,78259,1,0,0:0:0:0:
329,192,78259,1,0,0:0:0:0:
402,192,78335,1,0,0:0:0:0:
475,192,78335,1,0,0:0:0:0:
109,192,78412,1,0,0:0:0:0:
256,192,78412,1,0,0:0:0:0:
36,192,78412,1,0,0:0:0:0:
329,192,78489,1,0,0:0:0:0:
402,192,78489,1,0,0:0:0:0:
36,192,78566,1,0,0:0:0:0:
182,192,78566,1,0,0:0:0:0:
256,192,78642,1,0,0:0:0:0:
329,192,78642,1,0,0:0:0:0:
109,192,78719,1,0,0:0:0:0:
402,192,78719,1,0,0:0:0:0:
329,192,79180,1,0,0:0:0:0:
329,192,79333,1,0,0:0:0:0:
109,192,79793,1,0,0:0:0:0:
182,192,79946,1,0,0:0:0:0:
329,192,80253,1,0,0:0:0:0:
402,192,80407,1,0,0:0:0:0:
109,192,80407,1,0,0:0:0:0:
36,192,80407,1,0,0:0:0:0:
475,192,80714,1,0,0:0:0:0:
109,192,80867,1,0,0:0:0:0:
182,192,80867,1,0,0:0:0:0:
402,192,81020,1,0,0:0:0:0:
36,192,81174,1,0,0:0:0:0:
182,192,81174,1,0,0:0:0:0:
109,192,81174,1,0,0:0:0:0:
329,192,81327,1,0,0:0:0:0:
329,192,81481,1,0,0:0:0:0:
256,192,81634,1,0,0:0:0:0:
109,192,81634,1,0,0:0:0:0:
36,192,81634,1,0,0:0:0:0:
475,192,81634,1,0,0:0:0:0:
182,192,81941,1,0,0:0:0:0:
256,192,82095,1,0,0:0:0:0:
402,192,82095,1,0,0:0:0:0:
475,192,82095,1,0,0:0:0:0:
329,192,82248,1,0,0:0:0:0:
36,192,82402,1,0,0:0:0:0:
109,192,82402,1,0,0:0:0:0:
256,192,82402,1,0,0:0:0:0:
402,192,82402,1,0,0:0:0:0:
182,192,82709,1,0,0:0:0:0:
402,192,83016,1,0,0:0:0:0:
475,192,83016,1,0,0:0:0:0:
109,192,83016,1,0,0:0:0:0:
256,192,83323,1,0,0:0:0:0:
182,192,83629,1,0,0:0:0:0:
329,192,83629,1,0,0:0:0:0:
36,192,83629,1,0,0:0:0:0:
402,192,83629,1,0,0:0:0:0:
182,192,84090,1,0,0:0:0:0:
329,192,84166,1,0,0:0:0:0:
182,192,84243,1,0,0:0:0:0:
402,192,84243,1,0,0:0:0:0:
475,192,84243,1,0,0:0:0:0:
109,192,84243,1,0,0:0:0:0:
182,192,84704,1,0,0:0:0:0:
36,192,84704,1,0,0:0:0:0:
402,192,84780,1,0,0:0:0:0:
256,192,84780,1,0,0:0:0:0:
109,192,84857,1,0,0:0:0:0:
329,192,84857,1,0,0:0:0:0:
475,192,84857,1,0,0:0:0:0:
182,192,84857,1,0,0:0:0:0:
256,192,85164,1,0,0:0:0:0:
402,192,85164,1,0,0:0:0:0:
475,192,85164,1,0,0:0:0:0:
182,192,85318,1,0,0:0:0:0:
329,192,85318,1,0,0:0:0:0:
109,192,85394,1,0,0:0:0:0:
36,192,85394,1,0,0:0:0:0:
256,192,85471,1,0,0:0:0:0:
402,192,85471,1,0,0:0:0:0:
475,192,85471,1,0,0:0:0:0:
182,192,85625,1,0,0:0:0:0:
329,192,85625,1,0,0:0:0:0:
402,192,85701,1,0,0:0:0:0:
475,192,85701,1,0,0:0:0:0:
109,192,85778,1,0,0:0:0:0:
256,192,85778,1,0,0:0:0:0:
36,192,85778,1,0,0:0:0:0:
329,192,85854,1,0,0:0:0:0:
402,192,85854,1,0,0:0:0:0:
36,192,85932,1,0,0:0:0:0:
182,192,85932,1,0,0:0:0:0:
256,192,86008,1,0,0:0:0:0:
329,192,86008,1,0,0:0:0:0:
109,192,86085,1,0,0:0:0:0:
36,192,86085,1,0,0:0:0:0:
402,192,86085,1,0,0:0:0:0:
475,192,86085,1,0,0:0:0:0:
109,192,86238,1,0,0:0:0:0:
182,192,86238,1,0,0:0:0:0:
329,192,86238,1,0,0:0:0:0:
256,192,86392,1,0,0:0:0:0:
402,192,86392,1,0,0:0:0:0:
475,192,86392,1,0,0:0:0:0:
36,192,86392,1,0,0:0:0:0:
109,192,86545,1,0,0:0:0:0:
182,192,86545,1,0,0:0:0:0:
402,192,86622,1,0,0:0:0:0:
475,192,86622,1,0,0:0:0:0:
109,192,86699,1,0,0:0:0:0:
36,192,86699,1,0,0:0:0:0:
329,192,86699,1,0,0:0:0:0:
182,192,86852,1,0,0:0:0:0:
36,192,86852,1,0,0:0:0:0:
329,192,86852,1,0,0:0:0:0:
256,192,87006,1,0,0:0:0:0:
402,192,87006,1,0,0:0:0:0:
475,192,87006,1,0,0:0:0:0:
109,192,87006,1,0,0:0:0:0:
329,192,87159,1,0,0:0:0:0:
182,192,87159,1,0,0:0:0:0:
402,192,87313,1,0,0:0:0:0:
475,192,87313,1,0,0:0:0:0:
109,192,87313,1,0,0:0:0:0:
36,192,87313,1,0,0:0:0:0:
402,192,87466,1,0,0:0:0:0:
329,192,87466,1,0,0:0:0:0:
182,192,87466,1,0,0:0:0:0:
256,192,87620,1,0,0:0:0:0:
109,192,87620,1,0,0:0:0:0:
36,192,87620,1,0,0:0:0:0:
475,192,87620,1,0,0:0:0:0:
402,192,87773,1,0,0:0:0:0:
329,192,87773,1,0,0:0:0:0:
36,192,87849,1,0,0:0:0:0:
109,192,87849,1,0,0:0:0:0:
402,192,87926,1,0,0:0:0:0:
475,192,87926,1,0,0:0:0:0:
256,192,87926,1,0,0:0:0:0:
182,192,88028,1,0,0:0:0:0:
402,192,88028,1,0,0:0:0:0:
109,192,88028,1,0,0:0:0:0:
182,192,88131,1,0,0:0:0:0:
329,192,88131,1,0,0:0:0:0:
36,192,88131,1,0,0:0:0:0:
475,192,88233,1,0,0:0:0:0:
36,192,88233,1,0,0:0:0:0:
256,192,88233,1,0,0:0:0:0:
109,192,88335,1,0,0:0:0:0:
329,192,88335,1,0,0:0:0:0:
182,192,88438,1,0,0:0:0:0:
402,192,88438,1,0,0:0:0:0:
256,192,88540,1,0,0:0:0:0:
475,192,88540,1,0,0:0:0:0:
109,192,88540,1,0,0:0:0:0:
36,192,88540,1,0,0:0:0:0:
329,192,88540,1,0,0:0:0:0:
182,192,88693,1,0,0:0:0:0:
475,192,88693,1,0,0:0:0:0:
329,192,88846,1,0,0:0:0:0:
109,192,88846,1,0,0:0:0:0:
36,192,88846,1,0,0:0:0:0:
329,192,89000,1,0,0:0:0:0:
475,192,89000,1,0,0:0:0:0:
182,192,89000,1,0,0:0:0:0:
256,192,89153,1,0,0:0:0:0:
109,192,89153,1,0,0:0:0:0:
402,192,89153,1,0,0:0:0:0:
109,192,89307,1,0,0:0:0:0:
329,192,89307,1,0,0:0:0:0:
475,192,89307,1,0,0:0:0:0:
36,192,89460,1,0,0:0:0:0:
182,192,89460,1,0,0:0:0:0:
402,192,89460,1,0,0:0:0:0:
182,192,89614,1,0,0:0:0:0:
329,192,89614,1,0,0:0:0:0:
475,192,89614,1,0,0:0:0:0:
36,192,89767,1,0,0:0:0:0:
256,192,89767,1,0,0:0:0:0:
402,192,89767,1,0,0:0:0:0:
109,192,89921,1,0,0:0:0:0:
329,192,89921,1,0,0:0:0:0:
402,192,89921,1,0,0:0:0:0:
182,192,90074,1,0,0:0:0:0:
475,192,90074,1,0,0:0:0:0:
36,192,90074,1,0,0:0:0:0:
182,192,90228,1,0,0:0:0:0:
256,192,90228,1,0,0:0:0:0:
402,192,90228,1,0,0:0:0:0:
329,192,90381,1,0,0:0:0:0:
109,192,90381,1,0,0:0:0:0:
36,192,90381,1,0,0:0:0:0:
182,192,90535,1,0,0:0:0:0:
329,192,90535,1,0,0:0:0:0:
475,192,90535,1,0,0:0:0:0:
402,192,90688,1,0,0:0:0:0:
256,192,90688,1,0,0:0:0:0:
109,192,90688,1,0,0:0:0:0:
109,192,90842,1,0,0:0:0:0:
329,192,90842,1,0,0:0:0:0:
475,192,90842,1,0,0:0:0:0:
182,192,91609,1,0,0:0:0:0:
329,192,91609,1,0,0:0:0:0:
402,192,91609,1,0,0:0:0:0:
109,192,91609,1,0,0:0:0:0:
475,192,91628,1,0,0:0:0:0:
36,192,91628,1,0,0:0:0:0:
