osu file format v14

[General]
AudioFilename: audio 0.900x.mp3
AudioLeadIn: 0
PreviewTime: 53526
Countdown: 0
SampleSet: Soft
StackLeniency: 0
Mode: 3
LetterboxInBreaks: 0
SpecialStyle: 0
WidescreenStoryboard: 0

[Editor]
Bookmarks: 55410
DistanceSpacing: 2.2
BeatDivisor: 4
GridSize: 4
TimelineZoom: 1.9

[Metadata]
Title:Fuyu ni Saku Hana
TitleUnicode:冬に咲く華
Artist:Mitsuki Kotono
ArtistUnicode:美月琴音
Creator:ssapgosu
Version:ssapflower 0.9x (153bpm)
Source:彼女のセイイキ
Tags:Riana Amamya kanojo no seiiki japanese pop jpop j-pop rock jrock j-rock video game feng eroge op opening theme visual novel vn osutrainer
BeatmapID:4537960
BeatmapSetID:2153275

[Difficulty]
HPDrainRate:8
CircleSize:7
OverallDifficulty:8
ApproachRate:6
SliderMultiplier:1.4
SliderTickRate:1

[Events]
//Background and Video events
0,0,"bg2.jpg",0,0
//Break Periods
//Storyboard Layer 0 (Background)
//Storyboard Layer 1 (Fail)
//Storyboard Layer 2 (Pass)
//Storyboard Layer 3 (Foreground)
//Storyboard Layer 4 (Overlay)
//Storyboard Sound Samples

[TimingPoints]
194,392.156862745098,4,2,1,40,1,0
53526,-100,4,2,1,40,0,1
72351,-100,4,2,1,40,0,0
78625,-100,4,2,1,40,0,1
91174,-100,4,2,1,40,0,0

[HitObjects]
402,192,194,5,0,0:0:0:0:
329,192,585,1,0,0:0:0:0:
182,192,977,1,0,0:0:0:0:
109,192,1370,1,0,0:0:0:0:
256,192,1762,1,0,0:0:0:0:
475,192,2154,1,0,0:0:0:0:
402,192,2546,1,0,0:0:0:0:
256,192,2938,1,0,0:0:0:0:
109,192,3331,1,0,0:0:0:0:
256,192,3918,1,0,0:0:0:0:
329,192,4017,1,0,0:0:0:0:
402,192,4115,1,0,0:0:0:0:
475,192,4213,1,0,0:0:0:0:
182,192,4311,1,0,0:0:0:0:
256,192,4410,1,0,0:0:0:0:
329,192,4507,1,0,0:0:0:0:
402,192,4605,1,0,0:0:0:0:
109,192,4703,1,0,0:0:0:0:
182,192,4802,1,0,0:0:0:0:
256,192,4900,1,0,0:0:0:0:
475,192,4900,1,0,0:0:0:0:
182,192,5292,1,0,0:0:0:0:
36,192,5684,1,0,0:0:0:0:
402,192,6076,1,0,0:0:0:0:
182,192,6076,1,0,0:0:0:0:
329,192,6272,1,0,0:0:0:0:
109,192,6272,1,0,0:0:0:0:
256,192,6370,1,0,0:0:0:0:
182,192,6468,1,0,0:0:0:0:
36,192,6468,1,0,0:0:0:0:
402,192,6468,1,0,0:0:0:0:
475,192,6468,1,0,0:0:0:0:
109,192,6860,1,0,0:0:0:0:
256,192,6860,1,0,0:0:0:0:
475,192,6860,1,0,0:0:0:0:
109,192,7056,1,0,0:0:0:0:
329,192,7252,1,0,0:0:0:0:
182,192,7252,1,0,0:0:0:0:
36,192,7252,1,0,0:0:0:0:
329,192,7448,1,0,0:0:0:0:
182,192,7644,1,0,0:0:0:0:
402,192,7644,1,0,0:0:0:0:
109,192,7644,1,0,0:0:0:0:
182,192,7841,1,0,0:0:0:0:
402,192,8036,1,0,0:0:0:0:
256,192,8036,1,0,0:0:0:0:
36,192,8036,1,0,0:0:0:0:
402,192,8233,1,0,0:0:0:0:
182,192,8428,1,0,0:0:0:0:
329,192,8428,1,0,0:0:0:0:
109,192,8428,1,0,0:0:0:0:
182,192,8625,1,0,0:0:0:0:
329,192,8821,1,0,0:0:0:0:
36,192,8821,1,0,0:0:0:0:
475,192,8821,1,0,0:0:0:0:
329,192,9017,1,0,0:0:0:0:
109,192,9213,1,0,0:0:0:0:
256,192,9213,1,0,0:0:0:0:
402,192,9213,1,0,0:0:0:0:
475,192,9213,1,0,0:0:0:0:
109,192,9410,1,0,0:0:0:0:
329,192,9410,1,0,0:0:0:0:
182,192,9507,1,0,0:0:0:0:
256,192,9605,1,0,0:0:0:0:
36,192,9605,1,0,0:0:0:0:
402,192,9605,1,0,0:0:0:0:
475,192,9605,1,0,0:0:0:0:
182,192,9802,1,0,0:0:0:0:
329,192,9802,1,0,0:0:0:0:
36,192,9997,1,0,0:0:0:0:
109,192,9997,1,0,0:0:0:0:
475,192,9997,1,0,0:0:0:0:
109,192,10193,1,0,0:0:0:0:
182,192,10193,1,0,0:0:0:0:
402,192,10193,1,0,0:0:0:0:
182,192,10390,1,0,0:0:0:0:
256,192,10390,1,0,0:0:0:0:
475,192,10390,1,0,0:0:0:0:
256,192,10585,1,0,0:0:0:0:
109,192,10585,1,0,0:0:0:0:
402,192,10585,1,0,0:0:0:0:
36,192,10782,1,0,0:0:0:0:
109,192,10782,1,0,0:0:0:0:
329,192,10782,1,0,0:0:0:0:
329,192,10977,1,0,0:0:0:0:
182,192,10977,1,0,0:0:0:0:
402,192,10977,1,0,0:0:0:0:
402,192,11174,1,0,0:0:0:0:
475,192,11174,1,0,0:0:0:0:
256,192,11174,1,0,0:0:0:0:
109,192,11174,1,0,0:0:0:0:
182,192,11370,1,0,0:0:0:0:
36,192,11370,1,0,0:0:0:0:
329,192,11566,1,0,0:0:0:0:
475,192,11566,1,0,0:0:0:0:
256,192,11762,1,0,0:0:0:0:
402,192,11762,1,0,0:0:0:0:
182,192,11958,1,0,0:0:0:0:
36,192,11958,1,0,0:0:0:0:
256,192,12154,1,0,0:0:0:0:
109,192,12154,1,0,0:0:0:0:
182,192,12351,5,0,0:0:0:0:
402,192,12351,1,0,0:0:0:0:
329,192,12546,1,0,0:0:0:0:
475,192,12743,1,0,0:0:0:0:
36,192,12743,1,0,0:0:0:0:
182,192,12743,1,0,0:0:0:0:
256,192,13135,1,0,0:0:0:0:
109,192,13526,1,0,0:0:0:0:
329,192,13526,1,0,0:0:0:0:
182,192,13918,1,0,0:0:0:0:
256,192,14115,1,0,0:0:0:0:
36,192,14311,1,0,0:0:0:0:
329,192,14311,1,0,0:0:0:0:
182,192,14703,1,0,0:0:0:0:
109,192,15095,1,0,0:0:0:0:
402,192,15095,1,0,0:0:0:0:
329,192,15487,1,0,0:0:0:0:
182,192,15684,1,0,0:0:0:0:
329,192,15880,1,0,0:0:0:0:
36,192,15880,1,0,0:0:0:0:
256,192,16272,1,0,0:0:0:0:
402,192,16468,1,0,0:0:0:0:
329,192,16664,1,0,0:0:0:0:
182,192,16664,1,0,0:0:0:0:
36,192,16860,1,0,0:0:0:0:
402,192,17056,1,0,0:0:0:0:
109,192,17056,1,0,0:0:0:0:
182,192,17448,1,0,0:0:0:0:
329,192,17448,1,0,0:0:0:0:
256,192,17841,1,0,0:0:0:0:
402,192,18233,1,0,0:0:0:0:
109,192,18233,1,0,0:0:0:0:
329,192,18625,1,0,0:0:0:0:
256,192,18821,1,0,0:0:0:0:
475,192,19017,1,0,0:0:0:0:
182,192,19017,1,0,0:0:0:0:
256,192,19410,1,0,0:0:0:0:
402,192,19605,1,0,0:0:0:0:
329,192,19802,1,0,0:0:0:0:
109,192,19802,1,0,0:0:0:0:
256,192,19997,1,0,0:0:0:0:
329,192,20193,1,0,0:0:0:0:
109,192,20193,1,0,0:0:0:0:
402,192,20390,1,0,0:0:0:0:
36,192,20585,1,0,0:0:0:0:
182,192,20585,1,0,0:0:0:0:
475,192,20585,1,0,0:0:0:0:
329,192,20977,1,0,0:0:0:0:
329,192,21174,1,0,0:0:0:0:
182,192,21370,1,0,0:0:0:0:
402,192,21370,1,0,0:0:0:0:
256,192,21762,1,0,0:0:0:0:
329,192,22154,1,0,0:0:0:0:
109,192,22154,1,0,0:0:0:0:
182,192,22546,1,0,0:0:0:0:
109,192,22938,1,0,0:0:0:0:
402,192,22938,1,0,0:0:0:0:
36,192,23331,1,0,0:0:0:0:
109,192,23526,1,0,0:0:0:0:
182,192,23723,1,0,0:0:0:0:
329,192,23723,1,0,0:0:0:0:
475,192,23723,1,0,0:0:0:0:
256,192,24115,1,0,0:0:0:0:
109,192,24507,1,0,0:0:0:0:
329,192,24507,1,0,0:0:0:0:
475,192,24507,1,0,0:0:0:0:
182,192,24802,1,0,0:0:0:0:
329,192,24900,1,0,0:0:0:0:
256,192,25095,1,0,0:0:0:0:
36,192,25292,1,0,0:0:0:0:
109,192,25292,1,0,0:0:0:0:
402,192,25292,1,0,0:0:0:0:
182,192,25684,1,0,0:0:0:0:
109,192,26076,1,0,0:0:0:0:
329,192,26076,1,0,0:0:0:0:
475,192,26076,1,0,0:0:0:0:
256,192,26468,1,0,0:0:0:0:
329,192,26860,1,0,0:0:0:0:
475,192,26860,1,0,0:0:0:0:
182,192,26860,1,0,0:0:0:0:
182,192,27252,1,0,0:0:0:0:
402,192,27252,1,0,0:0:0:0:
182,192,27448,1,0,0:0:0:0:
329,192,27644,1,0,0:0:0:0:
475,192,27644,1,0,0:0:0:0:
109,192,27644,1,0,0:0:0:0:
109,192,28036,1,0,0:0:0:0:
256,192,28036,1,0,0:0:0:0:
329,192,28233,1,0,0:0:0:0:
182,192,28428,1,0,0:0:0:0:
36,192,28428,1,0,0:0:0:0:
402,192,28428,1,0,0:0:0:0:
256,192,28821,1,0,0:0:0:0:
182,192,29017,1,0,0:0:0:0:
109,192,29213,1,0,0:0:0:0:
329,192,29213,1,0,0:0:0:0:
475,192,29213,1,0,0:0:0:0:
182,192,29605,1,0,0:0:0:0:
329,192,29605,1,0,0:0:0:0:
109,192,29802,1,0,0:0:0:0:
36,192,29997,1,0,0:0:0:0:
256,192,29997,1,0,0:0:0:0:
402,192,30022,1,0,0:0:0:0:
475,192,30046,1,0,0:0:0:0:
402,192,30782,1,0,0:0:0:0:
329,192,31174,1,0,0:0:0:0:
109,192,31370,1,0,0:0:0:0:
256,192,31468,1,0,0:0:0:0:
36,192,31566,1,0,0:0:0:0:
402,192,31566,1,0,0:0:0:0:
475,192,31566,1,0,0:0:0:0:
109,192,31958,1,0,0:0:0:0:
329,192,31958,1,0,0:0:0:0:
402,192,31958,1,0,0:0:0:0:
109,192,32154,1,0,0:0:0:0:
182,192,32351,1,0,0:0:0:0:
329,192,32351,1,0,0:0:0:0:
475,192,32351,1,0,0:0:0:0:
182,192,32546,1,0,0:0:0:0:
109,192,32743,1,0,0:0:0:0:
256,192,32743,1,0,0:0:0:0:
402,192,32743,1,0,0:0:0:0:
109,192,32938,1,0,0:0:0:0:
329,192,33135,1,0,0:0:0:0:
182,192,33135,1,0,0:0:0:0:
36,192,33135,1,0,0:0:0:0:
329,192,33331,1,0,0:0:0:0:
402,192,33526,1,0,0:0:0:0:
109,192,33526,1,0,0:0:0:0:
182,192,33526,1,0,0:0:0:0:
402,192,33723,1,0,0:0:0:0:
256,192,33918,1,0,0:0:0:0:
109,192,33918,1,0,0:0:0:0:
36,192,33918,1,0,0:0:0:0:
256,192,34115,1,0,0:0:0:0:
329,192,34311,1,0,0:0:0:0:
182,192,34311,1,0,0:0:0:0:
36,192,34311,1,0,0:0:0:0:
329,192,34507,1,0,0:0:0:0:
182,192,34703,1,0,0:0:0:0:
402,192,34703,1,0,0:0:0:0:
475,192,34703,1,0,0:0:0:0:
182,192,34900,1,0,0:0:0:0:
109,192,35095,1,0,0:0:0:0:
402,192,35095,1,0,0:0:0:0:
329,192,35095,1,0,0:0:0:0:
109,192,35292,1,0,0:0:0:0:
256,192,35487,1,0,0:0:0:0:
402,192,35487,1,0,0:0:0:0:
475,192,35487,1,0,0:0:0:0:
256,192,35684,1,0,0:0:0:0:
329,192,35880,1,0,0:0:0:0:
36,192,35880,1,0,0:0:0:0:
182,192,35880,1,0,0:0:0:0:
329,192,36076,1,0,0:0:0:0:
109,192,36272,1,0,0:0:0:0:
256,192,36272,1,0,0:0:0:0:
475,192,36272,1,0,0:0:0:0:
402,192,36468,1,0,0:0:0:0:
475,192,36468,1,0,0:0:0:0:
182,192,36468,1,0,0:0:0:0:
329,192,36664,1,0,0:0:0:0:
402,192,36664,1,0,0:0:0:0:
109,192,36664,1,0,0:0:0:0:
256,192,36860,1,0,0:0:0:0:
329,192,36860,1,0,0:0:0:0:
475,192,36860,1,0,0:0:0:0:
36,192,36860,1,0,0:0:0:0:
36,192,37056,1,0,0:0:0:0:
402,192,37056,1,0,0:0:0:0:
475,192,37056,1,0,0:0:0:0:
256,192,37056,1,0,0:0:0:0:
182,192,37056,1,0,0:0:0:0:
36,192,37252,1,0,0:0:0:0:
109,192,37252,1,0,0:0:0:0:
329,192,37252,1,0,0:0:0:0:
402,192,37252,1,0,0:0:0:0:
256,192,37448,1,0,0:0:0:0:
402,192,37448,1,0,0:0:0:0:
475,192,37448,1,0,0:0:0:0:
36,192,37546,1,0,0:0:0:0:
182,192,37546,1,0,0:0:0:0:
329,192,37644,1,0,0:0:0:0:
475,192,37644,1,0,0:0:0:0:
256,192,37743,1,0,0:0:0:0:
109,192,37743,1,0,0:0:0:0:
402,192,37841,1,0,0:0:0:0:
475,192,37841,1,0,0:0:0:0:
329,192,37841,1,0,0:0:0:0:
36,192,37841,1,0,0:0:0:0:
256,192,38036,1,0,0:0:0:0:
402,192,38036,1,0,0:0:0:0:
109,192,38036,1,0,0:0:0:0:
36,192,38233,1,0,0:0:0:0:
329,192,38233,1,0,0:0:0:0:
109,192,38233,1,0,0:0:0:0:
256,192,38428,1,0,0:0:0:0:
402,192,38428,1,0,0:0:0:0:
329,192,38625,1,0,0:0:0:0:
475,192,38625,1,0,0:0:0:0:
36,192,38625,1,0,0:0:0:0:
402,192,38821,1,0,0:0:0:0:
256,192,38821,1,0,0:0:0:0:
36,192,38821,1,0,0:0:0:0:
402,192,39017,1,0,0:0:0:0:
475,192,39017,1,0,0:0:0:0:
182,192,39017,1,0,0:0:0:0:
256,192,39213,1,0,0:0:0:0:
109,192,39213,1,0,0:0:0:0:
182,192,39410,1,0,0:0:0:0:
329,192,39410,1,0,0:0:0:0:
475,192,39410,1,0,0:0:0:0:
36,192,39605,1,0,0:0:0:0:
182,192,39605,1,0,0:0:0:0:
402,192,39605,1,0,0:0:0:0:
36,192,39802,1,0,0:0:0:0:
109,192,39802,1,0,0:0:0:0:
329,192,39802,1,0,0:0:0:0:
475,192,39802,1,0,0:0:0:0:
256,192,39997,1,0,0:0:0:0:
402,192,39997,1,0,0:0:0:0:
182,192,40095,1,0,0:0:0:0:
109,192,40095,1,0,0:0:0:0:
329,192,40193,1,0,0:0:0:0:
475,192,40193,1,0,0:0:0:0:
36,192,40193,1,0,0:0:0:0:
329,192,40390,1,0,0:0:0:0:
182,192,40390,1,0,0:0:0:0:
109,192,40390,1,0,0:0:0:0:
182,192,40585,1,0,0:0:0:0:
256,192,40585,1,0,0:0:0:0:
402,192,40585,1,0,0:0:0:0:
475,192,40585,1,0,0:0:0:0:
329,192,40782,1,0,0:0:0:0:
109,192,40782,1,0,0:0:0:0:
36,192,40977,1,0,0:0:0:0:
182,192,40977,1,0,0:0:0:0:
402,192,40977,1,0,0:0:0:0:
182,192,41174,1,0,0:0:0:0:
36,192,41174,1,0,0:0:0:0:
329,192,41174,1,0,0:0:0:0:
256,192,41370,1,0,0:0:0:0:
402,192,41370,1,0,0:0:0:0:
475,192,41370,1,0,0:0:0:0:
109,192,41370,1,0,0:0:0:0:
36,192,41566,1,0,0:0:0:0:
256,192,41566,1,0,0:0:0:0:
109,192,41762,1,0,0:0:0:0:
329,192,41762,1,0,0:0:0:0:
475,192,41762,1,0,0:0:0:0:
329,192,41958,1,0,0:0:0:0:
475,192,41958,1,0,0:0:0:0:
182,192,41958,1,0,0:0:0:0:
256,192,42154,1,0,0:0:0:0:
109,192,42154,1,0,0:0:0:0:
36,192,42154,1,0,0:0:0:0:
402,192,42154,1,0,0:0:0:0:
256,192,42351,1,0,0:0:0:0:
475,192,42351,1,0,0:0:0:0:
329,192,42546,1,0,0:0:0:0:
475,192,42546,1,0,0:0:0:0:
109,192,42546,1,0,0:0:0:0:
182,192,42546,1,0,0:0:0:0:
36,192,42743,1,0,0:0:0:0:
109,192,42743,1,0,0:0:0:0:
402,192,42743,1,0,0:0:0:0:
256,192,42743,1,0,0:0:0:0:
36,192,42938,1,0,0:0:0:0:
182,192,42938,1,0,0:0:0:0:
402,192,42938,1,0,0:0:0:0:
475,192,42938,1,0,0:0:0:0:
329,192,42938,1,0,0:0:0:0:
109,192,43135,1,0,0:0:0:0:
256,192,43135,1,0,0:0:0:0:
329,192,43233,1,0,0:0:0:0:
402,192,43331,1,0,0:0:0:0:
182,192,43331,1,0,0:0:0:0:
475,192,43331,1,0,0:0:0:0:
36,192,43331,1,0,0:0:0:0:
182,192,43462,1,0,0:0:0:0:
329,192,43462,1,0,0:0:0:0:
329,192,43592,1,0,0:0:0:0:
109,192,43592,1,0,0:0:0:0:
36,192,43592,1,0,0:0:0:0:
109,192,43723,1,0,0:0:0:0:
402,192,43723,1,0,0:0:0:0:
475,192,43723,1,0,0:0:0:0:
256,192,43723,1,0,0:0:0:0:
182,192,43854,1,0,0:0:0:0:
329,192,43854,1,0,0:0:0:0:
256,192,43984,1,0,0:0:0:0:
402,192,43984,1,0,0:0:0:0:
36,192,44115,1,0,0:0:0:0:
109,192,44115,1,0,0:0:0:0:
475,192,44115,1,0,0:0:0:0:
329,192,44115,1,0,0:0:0:0:
109,192,44507,1,0,0:0:0:0:
182,192,44507,1,0,0:0:0:0:
329,192,44900,1,0,0:0:0:0:
109,192,45095,1,0,0:0:0:0:
256,192,45193,1,0,0:0:0:0:
329,192,45292,1,0,0:0:0:0:
402,192,45292,1,0,0:0:0:0:
182,192,45487,1,0,0:0:0:0:
256,192,45585,1,0,0:0:0:0:
402,192,45585,1,0,0:0:0:0:
109,192,45684,1,0,0:0:0:0:
182,192,46076,1,0,0:0:0:0:
402,192,46076,1,0,0:0:0:0:
329,192,46076,1,0,0:0:0:0:
36,192,46272,1,0,0:0:0:0:
109,192,46272,1,0,0:0:0:0:
256,192,46272,1,0,0:0:0:0:
182,192,46370,1,0,0:0:0:0:
329,192,46370,1,0,0:0:0:0:
256,192,46468,1,0,0:0:0:0:
402,192,46468,1,0,0:0:0:0:
475,192,46468,1,0,0:0:0:0:
36,192,46468,1,0,0:0:0:0:
36,192,46664,1,0,0:0:0:0:
329,192,46664,1,0,0:0:0:0:
182,192,46664,1,0,0:0:0:0:
109,192,46860,1,0,0:0:0:0:
182,192,46860,1,0,0:0:0:0:
402,192,46860,1,0,0:0:0:0:
475,192,46860,1,0,0:0:0:0:
329,192,46958,1,0,0:0:0:0:
256,192,46958,1,0,0:0:0:0:
36,192,47056,1,0,0:0:0:0:
109,192,47056,1,0,0:0:0:0:
402,192,47056,1,0,0:0:0:0:
182,192,47154,1,0,0:0:0:0:
256,192,47154,1,0,0:0:0:0:
329,192,47252,1,0,0:0:0:0:
475,192,47252,1,0,0:0:0:0:
36,192,47252,1,0,0:0:0:0:
109,192,47252,1,0,0:0:0:0:
109,192,47644,1,0,0:0:0:0:
182,192,47644,1,0,0:0:0:0:
329,192,47644,1,0,0:0:0:0:
109,192,47841,1,0,0:0:0:0:
402,192,47841,1,0,0:0:0:0:
475,192,47841,1,0,0:0:0:0:
36,192,47841,1,0,0:0:0:0:
182,192,48036,1,0,0:0:0:0:
36,192,48036,1,0,0:0:0:0:
329,192,48036,1,0,0:0:0:0:
109,192,48233,1,0,0:0:0:0:
182,192,48233,1,0,0:0:0:0:
402,192,48233,1,0,0:0:0:0:
109,192,48428,1,0,0:0:0:0:
36,192,48428,1,0,0:0:0:0:
256,192,48428,1,0,0:0:0:0:
36,192,48625,1,0,0:0:0:0:
182,192,48625,1,0,0:0:0:0:
329,192,48625,1,0,0:0:0:0:
109,192,48821,1,0,0:0:0:0:
402,192,48821,1,0,0:0:0:0:
475,192,48821,1,0,0:0:0:0:
256,192,48821,1,0,0:0:0:0:
475,192,49017,1,0,0:0:0:0:
329,192,49017,1,0,0:0:0:0:
182,192,49017,1,0,0:0:0:0:
475,192,49213,1,0,0:0:0:0:
402,192,49213,1,0,0:0:0:0:
256,192,49213,1,0,0:0:0:0:
36,192,49213,1,0,0:0:0:0:
329,192,49410,1,0,0:0:0:0:
402,192,49410,1,0,0:0:0:0:
182,192,49410,1,0,0:0:0:0:
475,192,49605,1,0,0:0:0:0:
36,192,49605,1,0,0:0:0:0:
109,192,49605,1,0,0:0:0:0:
256,192,49605,1,0,0:0:0:0:
329,192,49802,1,0,0:0:0:0:
402,192,49900,1,0,0:0:0:0:
475,192,49900,1,0,0:0:0:0:
182,192,49997,1,0,0:0:0:0:
36,192,49997,1,0,0:0:0:0:
109,192,49997,1,0,0:0:0:0:
256,192,50095,1,0,0:0:0:0:
402,192,50095,1,0,0:0:0:0:
36,192,50193,1,0,0:0:0:0:
109,192,50193,1,0,0:0:0:0:
182,192,50292,1,0,0:0:0:0:
329,192,50292,1,0,0:0:0:0:
402,192,50390,1,0,0:0:0:0:
475,192,50390,1,0,0:0:0:0:
256,192,50390,1,0,0:0:0:0:
182,192,50585,1,0,0:0:0:0:
329,192,50684,1,0,0:0:0:0:
402,192,50684,1,0,0:0:0:0:
36,192,50782,1,0,0:0:0:0:
182,192,50782,1,0,0:0:0:0:
329,192,50880,1,0,0:0:0:0:
475,192,50880,1,0,0:0:0:0:
256,192,50977,1,0,0:0:0:0:
109,192,50977,1,0,0:0:0:0:
329,192,51076,1,0,0:0:0:0:
402,192,51076,1,0,0:0:0:0:
182,192,51174,1,0,0:0:0:0:
36,192,51174,1,0,0:0:0:0:
109,192,51174,1,0,0:0:0:0:
475,192,51272,1,0,0:0:0:0:
256,192,51370,1,0,0:0:0:0:
402,192,51370,1,0,0:0:0:0:
182,192,51468,1,0,0:0:0:0:
36,192,51468,1,0,0:0:0:0:
329,192,51566,1,0,0:0:0:0:
475,192,51566,1,0,0:0:0:0:
109,192,51664,1,0,0:0:0:0:
256,192,51664,1,0,0:0:0:0:
36,192,51762,1,0,0:0:0:0:
182,192,51762,1,0,0:0:0:0:
402,192,51762,1,0,0:0:0:0:
329,192,51860,1,0,0:0:0:0:
256,192,51958,1,0,0:0:0:0:
402,192,51958,1,0,0:0:0:0:
475,192,51958,1,0,0:0:0:0:
109,192,51958,1,0,0:0:0:0:
36,192,51958,1,0,0:0:0:0:
182,192,52351,5,0,0:0:0:0:
329,192,52546,1,0,0:0:0:0:
109,192,52938,1,0,0:0:0:0:
109,192,53135,1,0,0:0:0:0:
256,192,53331,1,0,0:0:0:0:
329,192,53428,1,0,0:0:0:0:
36,192,53526,5,0,0:0:0:0:
182,192,53526,1,0,0:0:0:0:
402,192,53526,1,0,0:0:0:0:
475,192,53526,1,0,0:0:0:0:
109,192,53526,1,0,0:0:0:0:
256,192,53918,1,0,0:0:0:0:
402,192,53918,1,0,0:0:0:0:
109,192,53918,1,0,0:0:0:0:
36,192,53918,1,0,0:0:0:0:
475,192,53918,1,0,0:0:0:0:
182,192,54115,1,0,0:0:0:0:
329,192,54115,1,0,0:0:0:0:
109,192,54213,1,0,0:0:0:0:
256,192,54213,1,0,0:0:0:0:
36,192,54311,1,0,0:0:0:0:
475,192,54311,1,0,0:0:0:0:
182,192,54311,1,0,0:0:0:0:
402,192,54311,1,0,0:0:0:0:
109,192,54507,1,0,0:0:0:0:
329,192,54507,1,0,0:0:0:0:
475,192,54507,1,0,0:0:0:0:
182,192,54703,1,0,0:0:0:0:
402,192,54703,1,0,0:0:0:0:
36,192,54703,1,0,0:0:0:0:
256,192,54900,1,0,0:0:0:0:
475,192,54900,1,0,0:0:0:0:
402,192,54900,1,0,0:0:0:0:
182,192,54997,1,0,0:0:0:0:
329,192,54997,1,0,0:0:0:0:
256,192,55095,1,0,0:0:0:0:
36,192,55095,1,0,0:0:0:0:
109,192,55193,1,0,0:0:0:0:
329,192,55193,1,0,0:0:0:0:
402,192,55292,1,0,0:0:0:0:
182,192,55292,1,0,0:0:0:0:
475,192,55292,1,0,0:0:0:0:
475,192,55487,1,0,0:0:0:0:
402,192,55487,1,0,0:0:0:0:
329,192,55487,1,0,0:0:0:0:
36,192,55487,1,0,0:0:0:0:
109,192,55585,1,0,0:0:0:0:
256,192,55585,1,0,0:0:0:0:
182,192,55684,1,0,0:0:0:0:
329,192,55684,1,0,0:0:0:0:
256,192,55782,1,0,0:0:0:0:
402,192,55782,1,0,0:0:0:0:
475,192,55880,1,0,0:0:0:0:
109,192,55880,1,0,0:0:0:0:
182,192,55880,1,0,0:0:0:0:
402,192,55977,1,0,0:0:0:0:
36,192,56076,1,0,0:0:0:0:
109,192,56076,1,0,0:0:0:0:
329,192,56076,1,0,0:0:0:0:
256,192,56174,1,0,0:0:0:0:
36,192,56272,1,0,0:0:0:0:
475,192,56272,1,0,0:0:0:0:
182,192,56272,1,0,0:0:0:0:
402,192,56272,1,0,0:0:0:0:
256,192,56468,1,0,0:0:0:0:
329,192,56566,1,0,0:0:0:0:
36,192,56664,1,0,0:0:0:0:
475,192,56664,1,0,0:0:0:0:
402,192,56664,1,0,0:0:0:0:
109,192,56762,1,0,0:0:0:0:
256,192,56762,1,0,0:0:0:0:
182,192,56860,1,0,0:0:0:0:
329,192,56860,1,0,0:0:0:0:
256,192,56958,1,0,0:0:0:0:
402,192,56958,1,0,0:0:0:0:
182,192,57056,1,0,0:0:0:0:
475,192,57056,1,0,0:0:0:0:
36,192,57056,1,0,0:0:0:0:
475,192,57252,1,0,0:0:0:0:
109,192,57252,1,0,0:0:0:0:
402,192,57252,1,0,0:0:0:0:
256,192,57351,1,0,0:0:0:0:
329,192,57351,1,0,0:0:0:0:
36,192,57448,1,0,0:0:0:0:
402,192,57448,1,0,0:0:0:0:
475,192,57448,1,0,0:0:0:0:
182,192,57448,1,0,0:0:0:0:
182,192,57644,1,0,0:0:0:0:
329,192,57644,1,0,0:0:0:0:
109,192,57644,1,0,0:0:0:0:
402,192,57841,1,0,0:0:0:0:
36,192,57841,1,0,0:0:0:0:
109,192,57841,1,0,0:0:0:0:
256,192,57841,1,0,0:0:0:0:
36,192,58036,1,0,0:0:0:0:
475,192,58036,1,0,0:0:0:0:
329,192,58036,1,0,0:0:0:0:
182,192,58036,1,0,0:0:0:0:
256,192,58135,1,0,0:0:0:0:
402,192,58135,1,0,0:0:0:0:
182,192,58233,1,0,0:0:0:0:
329,192,58233,1,0,0:0:0:0:
109,192,58331,1,0,0:0:0:0:
256,192,58331,1,0,0:0:0:0:
36,192,58428,1,0,0:0:0:0:
402,192,58428,1,0,0:0:0:0:
329,192,58625,1,0,0:0:0:0:
402,192,58625,1,0,0:0:0:0:
475,192,58625,1,0,0:0:0:0:
182,192,58625,1,0,0:0:0:0:
256,192,58723,1,0,0:0:0:0:
36,192,58723,1,0,0:0:0:0:
329,192,58821,1,0,0:0:0:0:
109,192,58821,1,0,0:0:0:0:
182,192,58918,1,0,0:0:0:0:
402,192,58918,1,0,0:0:0:0:
109,192,59017,1,0,0:0:0:0:
36,192,59017,1,0,0:0:0:0:
329,192,59115,1,0,0:0:0:0:
475,192,59115,1,0,0:0:0:0:
182,192,59213,1,0,0:0:0:0:
36,192,59213,1,0,0:0:0:0:
256,192,59213,1,0,0:0:0:0:
109,192,59410,1,0,0:0:0:0:
182,192,59410,1,0,0:0:0:0:
329,192,59410,1,0,0:0:0:0:
402,192,59410,1,0,0:0:0:0:
475,192,59410,1,0,0:0:0:0:
36,192,59802,1,0,0:0:0:0:
182,192,59802,1,0,0:0:0:0:
329,192,59802,1,0,0:0:0:0:
475,192,59802,1,0,0:0:0:0:
256,192,60193,1,0,0:0:0:0:
402,192,60193,1,0,0:0:0:0:
109,192,60193,1,0,0:0:0:0:
475,192,60193,1,0,0:0:0:0:
36,192,60193,1,0,0:0:0:0:
329,192,60390,1,0,0:0:0:0:
182,192,60390,1,0,0:0:0:0:
402,192,60487,1,0,0:0:0:0:
256,192,60487,1,0,0:0:0:0:
475,192,60585,1,0,0:0:0:0:
36,192,60585,1,0,0:0:0:0:
329,192,60585,1,0,0:0:0:0:
109,192,60585,1,0,0:0:0:0:
182,192,60782,1,0,0:0:0:0:
402,192,60782,1,0,0:0:0:0:
36,192,60782,1,0,0:0:0:0:
329,192,60977,1,0,0:0:0:0:
109,192,60977,1,0,0:0:0:0:
475,192,60977,1,0,0:0:0:0:
256,192,61174,1,0,0:0:0:0:
36,192,61174,1,0,0:0:0:0:
109,192,61174,1,0,0:0:0:0:
329,192,61272,1,0,0:0:0:0:
182,192,61272,1,0,0:0:0:0:
256,192,61370,1,0,0:0:0:0:
475,192,61370,1,0,0:0:0:0:
402,192,61468,1,0,0:0:0:0:
182,192,61468,1,0,0:0:0:0:
109,192,61566,1,0,0:0:0:0:
329,192,61566,1,0,0:0:0:0:
36,192,61566,1,0,0:0:0:0:
36,192,61762,1,0,0:0:0:0:
109,192,61762,1,0,0:0:0:0:
182,192,61762,1,0,0:0:0:0:
475,192,61762,1,0,0:0:0:0:
402,192,61860,1,0,0:0:0:0:
256,192,61860,1,0,0:0:0:0:
329,192,61958,1,0,0:0:0:0:
182,192,61958,1,0,0:0:0:0:
256,192,62056,1,0,0:0:0:0:
109,192,62056,1,0,0:0:0:0:
36,192,62154,1,0,0:0:0:0:
402,192,62154,1,0,0:0:0:0:
329,192,62154,1,0,0:0:0:0:
109,192,62252,1,0,0:0:0:0:
475,192,62351,1,0,0:0:0:0:
402,192,62351,1,0,0:0:0:0:
182,192,62351,1,0,0:0:0:0:
475,192,62546,1,0,0:0:0:0:
36,192,62546,1,0,0:0:0:0:
329,192,62546,1,0,0:0:0:0:
109,192,62546,1,0,0:0:0:0:
256,192,62644,1,0,0:0:0:0:
402,192,62743,1,0,0:0:0:0:
182,192,62743,1,0,0:0:0:0:
329,192,62841,1,0,0:0:0:0:
109,192,62841,1,0,0:0:0:0:
475,192,62938,1,0,0:0:0:0:
36,192,62938,1,0,0:0:0:0:
182,192,62938,1,0,0:0:0:0:
402,192,63036,1,0,0:0:0:0:
256,192,63036,1,0,0:0:0:0:
329,192,63135,1,0,0:0:0:0:
182,192,63135,1,0,0:0:0:0:
256,192,63233,1,0,0:0:0:0:
109,192,63233,1,0,0:0:0:0:
329,192,63331,1,0,0:0:0:0:
36,192,63331,1,0,0:0:0:0:
475,192,63331,1,0,0:0:0:0:
109,192,63526,1,0,0:0:0:0:
256,192,63526,1,0,0:0:0:0:
182,192,63625,1,0,0:0:0:0:
329,192,63625,1,0,0:0:0:0:
475,192,63723,1,0,0:0:0:0:
109,192,63723,1,0,0:0:0:0:
36,192,63723,1,0,0:0:0:0:
402,192,63723,1,0,0:0:0:0:
329,192,63918,1,0,0:0:0:0:
182,192,63918,1,0,0:0:0:0:
475,192,63918,1,0,0:0:0:0:
109,192,64115,1,0,0:0:0:0:
475,192,64115,1,0,0:0:0:0:
402,192,64115,1,0,0:0:0:0:
256,192,64115,1,0,0:0:0:0:
109,192,64311,1,0,0:0:0:0:
36,192,64311,1,0,0:0:0:0:
182,192,64311,1,0,0:0:0:0:
402,192,64311,1,0,0:0:0:0:
256,192,64410,1,0,0:0:0:0:
329,192,64507,1,0,0:0:0:0:
402,192,64605,1,0,0:0:0:0:
475,192,64703,1,0,0:0:0:0:
182,192,64703,1,0,0:0:0:0:
36,192,64703,1,0,0:0:0:0:
182,192,64900,1,0,0:0:0:0:
109,192,64900,1,0,0:0:0:0:
36,192,64900,1,0,0:0:0:0:
329,192,64900,1,0,0:0:0:0:
475,192,65095,1,0,0:0:0:0:
402,192,65095,1,0,0:0:0:0:
109,192,65095,1,0,0:0:0:0:
329,192,65292,1,0,0:0:0:0:
402,192,65292,1,0,0:0:0:0:
36,192,65292,1,0,0:0:0:0:
182,192,65292,1,0,0:0:0:0:
329,192,65487,1,0,0:0:0:0:
475,192,65487,1,0,0:0:0:0:
36,192,65585,1,0,0:0:0:0:
109,192,65585,1,0,0:0:0:0:
475,192,65684,1,0,0:0:0:0:
256,192,65684,1,0,0:0:0:0:
402,192,65684,1,0,0:0:0:0:
182,192,65782,1,0,0:0:0:0:
109,192,65782,1,0,0:0:0:0:
329,192,65880,1,0,0:0:0:0:
402,192,65880,1,0,0:0:0:0:
256,192,65977,1,0,0:0:0:0:
182,192,65977,1,0,0:0:0:0:
36,192,66076,1,0,0:0:0:0:
475,192,66076,1,0,0:0:0:0:
329,192,66076,1,0,0:0:0:0:
109,192,66076,1,0,0:0:0:0:
36,192,66468,1,0,0:0:0:0:
109,192,66468,1,0,0:0:0:0:
475,192,66468,1,0,0:0:0:0:
402,192,66468,1,0,0:0:0:0:
109,192,66664,1,0,0:0:0:0:
182,192,66664,1,0,0:0:0:0:
329,192,66664,1,0,0:0:0:0:
256,192,66762,1,0,0:0:0:0:
402,192,66762,1,0,0:0:0:0:
109,192,66860,1,0,0:0:0:0:
36,192,66860,1,0,0:0:0:0:
329,192,66860,1,0,0:0:0:0:
475,192,66860,1,0,0:0:0:0:
36,192,67056,1,0,0:0:0:0:
182,192,67056,1,0,0:0:0:0:
402,192,67056,1,0,0:0:0:0:
329,192,67154,1,0,0:0:0:0:
109,192,67252,1,0,0:0:0:0:
475,192,67252,1,0,0:0:0:0:
256,192,67252,1,0,0:0:0:0:
402,192,67252,1,0,0:0:0:0:
256,192,67448,1,0,0:0:0:0:
36,192,67448,1,0,0:0:0:0:
329,192,67546,1,0,0:0:0:0:
182,192,67644,1,0,0:0:0:0:
402,192,67644,1,0,0:0:0:0:
329,192,67743,1,0,0:0:0:0:
256,192,67841,1,0,0:0:0:0:
109,192,67841,1,0,0:0:0:0:
36,192,67841,1,0,0:0:0:0:
402,192,68036,1,0,0:0:0:0:
475,192,68036,1,0,0:0:0:0:
36,192,68036,1,0,0:0:0:0:
182,192,68036,1,0,0:0:0:0:
329,192,68233,1,0,0:0:0:0:
402,192,68233,1,0,0:0:0:0:
182,192,68233,1,0,0:0:0:0:
256,192,68331,1,0,0:0:0:0:
109,192,68331,1,0,0:0:0:0:
402,192,68428,1,0,0:0:0:0:
475,192,68428,1,0,0:0:0:0:
182,192,68428,1,0,0:0:0:0:
36,192,68428,1,0,0:0:0:0:
329,192,68625,1,0,0:0:0:0:
475,192,68625,1,0,0:0:0:0:
109,192,68625,1,0,0:0:0:0:
182,192,68723,1,0,0:0:0:0:
402,192,68821,1,0,0:0:0:0:
256,192,68821,1,0,0:0:0:0:
36,192,68821,1,0,0:0:0:0:
109,192,68821,1,0,0:0:0:0:
402,192,69017,1,0,0:0:0:0:
182,192,69017,1,0,0:0:0:0:
109,192,69115,1,0,0:0:0:0:
256,192,69213,1,0,0:0:0:0:
36,192,69213,1,0,0:0:0:0:
475,192,69213,1,0,0:0:0:0:
182,192,69311,1,0,0:0:0:0:
109,192,69410,1,0,0:0:0:0:
182,192,69507,1,0,0:0:0:0:
36,192,69605,1,0,0:0:0:0:
475,192,69605,1,0,0:0:0:0:
402,192,69605,1,0,0:0:0:0:
256,192,69605,1,0,0:0:0:0:
109,192,69802,1,0,0:0:0:0:
182,192,69802,1,0,0:0:0:0:
329,192,69802,1,0,0:0:0:0:
256,192,69900,1,0,0:0:0:0:
402,192,69900,1,0,0:0:0:0:
109,192,69997,1,0,0:0:0:0:
36,192,69997,1,0,0:0:0:0:
329,192,69997,1,0,0:0:0:0:
475,192,69997,1,0,0:0:0:0:
36,192,70193,1,0,0:0:0:0:
182,192,70193,1,0,0:0:0:0:
402,192,70193,1,0,0:0:0:0:
329,192,70292,1,0,0:0:0:0:
109,192,70390,1,0,0:0:0:0:
475,192,70390,1,0,0:0:0:0:
256,192,70390,1,0,0:0:0:0:
402,192,70390,1,0,0:0:0:0:
329,192,70585,1,0,0:0:0:0:
36,192,70585,1,0,0:0:0:0:
109,192,70585,1,0,0:0:0:0:
475,192,70585,1,0,0:0:0:0:
256,192,70684,1,0,0:0:0:0:
182,192,70782,1,0,0:0:0:0:
402,192,70782,1,0,0:0:0:0:
256,192,70880,1,0,0:0:0:0:
329,192,70977,1,0,0:0:0:0:
109,192,70977,1,0,0:0:0:0:
36,192,70977,1,0,0:0:0:0:
402,192,71076,1,0,0:0:0:0:
475,192,71174,1,0,0:0:0:0:
36,192,71174,1,0,0:0:0:0:
182,192,71174,1,0,0:0:0:0:
256,192,71174,1,0,0:0:0:0:
329,192,71370,1,0,0:0:0:0:
402,192,71370,1,0,0:0:0:0:
182,192,71370,1,0,0:0:0:0:
256,192,71468,1,0,0:0:0:0:
109,192,71468,1,0,0:0:0:0:
182,192,71566,1,0,0:0:0:0:
36,192,71566,1,0,0:0:0:0:
329,192,71566,1,0,0:0:0:0:
402,192,71664,1,0,0:0:0:0:
475,192,71664,1,0,0:0:0:0:
109,192,71762,1,0,0:0:0:0:
256,192,71762,1,0,0:0:0:0:
36,192,71958,1,0,0:0:0:0:
475,192,71958,1,0,0:0:0:0:
182,192,71958,1,0,0:0:0:0:
402,192,72056,1,0,0:0:0:0:
109,192,72154,1,0,0:0:0:0:
329,192,72154,1,0,0:0:0:0:
182,192,72252,1,0,0:0:0:0:
475,192,72351,1,0,0:0:0:0:
329,192,72351,1,0,0:0:0:0:
402,192,72351,1,0,0:0:0:0:
36,192,72351,1,0,0:0:0:0:
109,192,72351,1,0,0:0:0:0:
256,192,72448,1,0,0:0:0:0:
402,192,72546,1,0,0:0:0:0:
182,192,72546,1,0,0:0:0:0:
329,192,72644,1,0,0:0:0:0:
36,192,72743,1,0,0:0:0:0:
475,192,72743,1,0,0:0:0:0:
256,192,72743,1,0,0:0:0:0:
109,192,72841,1,0,0:0:0:0:
182,192,72841,1,0,0:0:0:0:
329,192,72938,1,0,0:0:0:0:
475,192,72938,1,0,0:0:0:0:
36,192,73036,1,0,0:0:0:0:
109,192,73036,1,0,0:0:0:0:
256,192,73135,1,0,0:0:0:0:
402,192,73135,1,0,0:0:0:0:
182,192,73135,1,0,0:0:0:0:
475,192,73233,1,0,0:0:0:0:
109,192,73331,1,0,0:0:0:0:
256,192,73331,1,0,0:0:0:0:
36,192,73526,1,0,0:0:0:0:
182,192,73526,1,0,0:0:0:0:
402,192,73526,1,0,0:0:0:0:
475,192,73526,1,0,0:0:0:0:
256,192,73625,1,0,0:0:0:0:
109,192,73723,1,0,0:0:0:0:
329,192,73723,1,0,0:0:0:0:
36,192,73821,1,0,0:0:0:0:
182,192,73918,1,0,0:0:0:0:
402,192,73918,1,0,0:0:0:0:
475,192,73918,1,0,0:0:0:0:
36,192,74115,1,0,0:0:0:0:
109,192,74115,1,0,0:0:0:0:
256,192,74115,1,0,0:0:0:0:
182,192,74311,1,0,0:0:0:0:
329,192,74311,1,0,0:0:0:0:
475,192,74311,1,0,0:0:0:0:
256,192,74507,1,0,0:0:0:0:
402,192,74507,1,0,0:0:0:0:
182,192,74605,1,0,0:0:0:0:
329,192,74605,1,0,0:0:0:0:
109,192,74703,1,0,0:0:0:0:
36,192,74703,1,0,0:0:0:0:
475,192,74703,1,0,0:0:0:0:
402,192,74802,1,0,0:0:0:0:
329,192,74900,1,0,0:0:0:0:
182,192,74900,1,0,0:0:0:0:
109,192,74997,1,0,0:0:0:0:
256,192,75095,1,0,0:0:0:0:
402,192,75095,1,0,0:0:0:0:
475,192,75095,1,0,0:0:0:0:
182,192,75193,1,0,0:0:0:0:
329,192,75292,1,0,0:0:0:0:
402,192,75292,1,0,0:0:0:0:
109,192,75390,1,0,0:0:0:0:
256,192,75390,1,0,0:0:0:0:
36,192,75487,1,0,0:0:0:0:
182,192,75487,1,0,0:0:0:0:
475,192,75487,1,0,0:0:0:0:
402,192,75585,1,0,0:0:0:0:
329,192,75684,1,0,0:0:0:0:
109,192,75684,1,0,0:0:0:0:
402,192,75782,1,0,0:0:0:0:
182,192,75880,1,0,0:0:0:0:
256,192,75880,1,0,0:0:0:0:
475,192,75880,1,0,0:0:0:0:
36,192,75977,1,0,0:0:0:0:
329,192,76076,1,0,0:0:0:0:
402,192,76076,1,0,0:0:0:0:
256,192,76174,1,0,0:0:0:0:
109,192,76174,1,0,0:0:0:0:
402,192,76272,1,0,0:0:0:0:
475,192,76272,1,0,0:0:0:0:
36,192,76272,1,0,0:0:0:0:
329,192,76468,1,0,0:0:0:0:
36,192,76566,1,0,0:0:0:0:
182,192,76566,1,0,0:0:0:0:
475,192,76664,1,0,0:0:0:0:
256,192,76664,1,0,0:0:0:0:
402,192,76664,1,0,0:0:0:0:
256,192,76860,1,0,0:0:0:0:
475,192,76860,1,0,0:0:0:0:
329,192,76860,1,0,0:0:0:0:
36,192,76860,1,0,0:0:0:0:
182,192,76958,1,0,0:0:0:0:
109,192,77056,1,0,0:0:0:0:
329,192,77056,1,0,0:0:0:0:
182,192,77154,1,0,0:0:0:0:
256,192,77252,1,0,0:0:0:0:
475,192,77252,1,0,0:0:0:0:
36,192,77252,1,0,0:0:0:0:
402,192,77351,1,0,0:0:0:0:
329,192,77448,1,0,0:0:0:0:
109,192,77448,1,0,0:0:0:0:
36,192,77448,1,0,0:0:0:0:
182,192,77546,1,0,0:0:0:0:
256,192,77644,1,0,0:0:0:0:
402,192,77644,1,0,0:0:0:0:
475,192,77644,1,0,0:0:0:0:
329,192,77743,1,0,0:0:0:0:
182,192,77743,1,0,0:0:0:0:
36,192,77841,1,0,0:0:0:0:
109,192,77841,1,0,0:0:0:0:
256,192,77841,1,0,0:0:0:0:
109,192,78036,1,0,0:0:0:0:
36,192,78036,1,0,0:0:0:0:
475,192,78036,1,0,0:0:0:0:
182,192,78135,1,0,0:0:0:0:
329,192,78135,1,0,0:0:0:0:
402,192,78233,1,0,0:0:0:0:
475,192,78233,1,0,0:0:0:0:
36,192,78233,1,0,0:0:0:0:
256,192,78331,1,0,0:0:0:0:
109,192,78331,1,0,0:0:0:0:
329,192,78428,1,0,0:0:0:0:
402,192,78428,1,0,0:0:0:0:
182,192,78526,1,0,0:0:0:0:
109,192,78526,1,0,0:0:0:0:
256,192,78625,1,0,0:0:0:0:
329,192,78625,1,0,0:0:0:0:
475,192,78625,1,0,0:0:0:0:
402,192,78625,1,0,0:0:0:0:
36,192,78625,1,0,0:0:0:0:
256,192,79017,1,0,0:0:0:0:
402,192,79017,1,0,0:0:0:0:
109,192,79017,1,0,0:0:0:0:
475,192,79017,1,0,0:0:0:0:
36,192,79017,1,0,0:0:0:0:
182,192,79213,1,0,0:0:0:0:
329,192,79213,1,0,0:0:0:0:
109,192,79311,1,0,0:0:0:0:
256,192,79311,1,0,0:0:0:0:
36,192,79410,1,0,0:0:0:0:
475,192,79410,1,0,0:0:0:0:
182,192,79410,1,0,0:0:0:0:
402,192,79410,1,0,0:0:0:0:
329,192,79605,1,0,0:0:0:0:
36,192,79605,1,0,0:0:0:0:
109,192,79605,1,0,0:0:0:0:
109,192,79802,1,0,0:0:0:0:
182,192,79802,1,0,0:0:0:0:
402,192,79802,1,0,0:0:0:0:
256,192,79997,1,0,0:0:0:0:
475,192,79997,1,0,0:0:0:0:
402,192,79997,1,0,0:0:0:0:
182,192,80095,1,0,0:0:0:0:
329,192,80095,1,0,0:0:0:0:
256,192,80193,1,0,0:0:0:0:
36,192,80193,1,0,0:0:0:0:
109,192,80292,1,0,0:0:0:0:
329,192,80292,1,0,0:0:0:0:
402,192,80390,1,0,0:0:0:0:
182,192,80390,1,0,0:0:0:0:
475,192,80390,1,0,0:0:0:0:
475,192,80585,1,0,0:0:0:0:
329,192,80585,1,0,0:0:0:0:
36,192,80585,1,0,0:0:0:0:
402,192,80585,1,0,0:0:0:0:
109,192,80684,1,0,0:0:0:0:
256,192,80684,1,0,0:0:0:0:
182,192,80782,1,0,0:0:0:0:
329,192,80782,1,0,0:0:0:0:
256,192,80880,1,0,0:0:0:0:
402,192,80880,1,0,0:0:0:0:
475,192,80977,1,0,0:0:0:0:
109,192,80977,1,0,0:0:0:0:
182,192,80977,1,0,0:0:0:0:
402,192,81076,1,0,0:0:0:0:
36,192,81174,1,0,0:0:0:0:
109,192,81174,1,0,0:0:0:0:
329,192,81174,1,0,0:0:0:0:
256,192,81272,1,0,0:0:0:0:
36,192,81370,1,0,0:0:0:0:
475,192,81370,1,0,0:0:0:0:
182,192,81370,1,0,0:0:0:0:
402,192,81370,1,0,0:0:0:0:
109,192,81468,1,0,0:0:0:0:
256,192,81468,1,0,0:0:0:0:
182,192,81566,1,0,0:0:0:0:
329,192,81566,1,0,0:0:0:0:
256,192,81664,1,0,0:0:0:0:
36,192,81762,1,0,0:0:0:0:
475,192,81762,1,0,0:0:0:0:
402,192,81762,1,0,0:0:0:0:
182,192,81860,1,0,0:0:0:0:
329,192,81860,1,0,0:0:0:0:
109,192,81958,1,0,0:0:0:0:
256,192,81958,1,0,0:0:0:0:
182,192,82056,1,0,0:0:0:0:
36,192,82056,1,0,0:0:0:0:
475,192,82154,1,0,0:0:0:0:
256,192,82154,1,0,0:0:0:0:
402,192,82154,1,0,0:0:0:0:
329,192,82154,1,0,0:0:0:0:
36,192,82351,1,0,0:0:0:0:
402,192,82351,1,0,0:0:0:0:
182,192,82351,1,0,0:0:0:0:
256,192,82448,1,0,0:0:0:0:
475,192,82546,1,0,0:0:0:0:
109,192,82546,1,0,0:0:0:0:
36,192,82546,1,0,0:0:0:0:
329,192,82546,1,0,0:0:0:0:
182,192,82743,1,0,0:0:0:0:
329,192,82743,1,0,0:0:0:0:
109,192,82743,1,0,0:0:0:0:
402,192,82841,1,0,0:0:0:0:
475,192,82841,1,0,0:0:0:0:
36,192,82938,1,0,0:0:0:0:
109,192,82938,1,0,0:0:0:0:
256,192,82938,1,0,0:0:0:0:
36,192,83135,1,0,0:0:0:0:
475,192,83135,1,0,0:0:0:0:
329,192,83135,1,0,0:0:0:0:
182,192,83135,1,0,0:0:0:0:
256,192,83233,1,0,0:0:0:0:
182,192,83331,1,0,0:0:0:0:
109,192,83428,1,0,0:0:0:0:
36,192,83526,1,0,0:0:0:0:
402,192,83526,1,0,0:0:0:0:
256,192,83526,1,0,0:0:0:0:
329,192,83723,1,0,0:0:0:0:
402,192,83723,1,0,0:0:0:0:
475,192,83723,1,0,0:0:0:0:
182,192,83723,1,0,0:0:0:0:
256,192,83821,1,0,0:0:0:0:
36,192,83918,1,0,0:0:0:0:
109,192,83918,1,0,0:0:0:0:
329,192,83918,1,0,0:0:0:0:
402,192,84017,1,0,0:0:0:0:
36,192,84115,1,0,0:0:0:0:
182,192,84115,1,0,0:0:0:0:
475,192,84115,1,0,0:0:0:0:
109,192,84115,1,0,0:0:0:0:
256,192,84311,1,0,0:0:0:0:
402,192,84311,1,0,0:0:0:0:
182,192,84410,1,0,0:0:0:0:
36,192,84410,1,0,0:0:0:0:
475,192,84507,1,0,0:0:0:0:
329,192,84507,1,0,0:0:0:0:
109,192,84507,1,0,0:0:0:0:
256,192,84605,1,0,0:0:0:0:
402,192,84605,1,0,0:0:0:0:
36,192,84703,1,0,0:0:0:0:
182,192,84703,1,0,0:0:0:0:
329,192,84802,1,0,0:0:0:0:
402,192,84802,1,0,0:0:0:0:
36,192,84900,1,0,0:0:0:0:
109,192,84900,1,0,0:0:0:0:
475,192,84900,1,0,0:0:0:0:
256,192,84900,1,0,0:0:0:0:
256,192,85292,1,0,0:0:0:0:
402,192,85292,1,0,0:0:0:0:
109,192,85292,1,0,0:0:0:0:
36,192,85292,1,0,0:0:0:0:
475,192,85292,1,0,0:0:0:0:
329,192,85487,1,0,0:0:0:0:
182,192,85487,1,0,0:0:0:0:
402,192,85585,1,0,0:0:0:0:
256,192,85585,1,0,0:0:0:0:
475,192,85684,1,0,0:0:0:0:
36,192,85684,1,0,0:0:0:0:
329,192,85684,1,0,0:0:0:0:
109,192,85684,1,0,0:0:0:0:
182,192,85880,1,0,0:0:0:0:
475,192,85880,1,0,0:0:0:0:
402,192,85880,1,0,0:0:0:0:
402,192,86076,1,0,0:0:0:0:
329,192,86076,1,0,0:0:0:0:
109,192,86076,1,0,0:0:0:0:
256,192,86272,1,0,0:0:0:0:
36,192,86272,1,0,0:0:0:0:
109,192,86272,1,0,0:0:0:0:
329,192,86370,1,0,0:0:0:0:
182,192,86370,1,0,0:0:0:0:
256,192,86468,1,0,0:0:0:0:
475,192,86468,1,0,0:0:0:0:
402,192,86566,1,0,0:0:0:0:
182,192,86566,1,0,0:0:0:0:
109,192,86664,1,0,0:0:0:0:
329,192,86664,1,0,0:0:0:0:
36,192,86664,1,0,0:0:0:0:
36,192,86860,1,0,0:0:0:0:
109,192,86860,1,0,0:0:0:0:
182,192,86860,1,0,0:0:0:0:
475,192,86860,1,0,0:0:0:0:
402,192,86958,1,0,0:0:0:0:
256,192,86958,1,0,0:0:0:0:
329,192,87056,1,0,0:0:0:0:
182,192,87056,1,0,0:0:0:0:
256,192,87154,1,0,0:0:0:0:
109,192,87154,1,0,0:0:0:0:
36,192,87252,1,0,0:0:0:0:
475,192,87252,1,0,0:0:0:0:
329,192,87252,1,0,0:0:0:0:
109,192,87351,1,0,0:0:0:0:
182,192,87448,1,0,0:0:0:0:
329,192,87448,1,0,0:0:0:0:
402,192,87448,1,0,0:0:0:0:
475,192,87644,1,0,0:0:0:0:
36,192,87644,1,0,0:0:0:0:
109,192,87644,1,0,0:0:0:0:
256,192,87644,1,0,0:0:0:0:
329,192,87743,1,0,0:0:0:0:
402,192,87841,1,0,0:0:0:0:
182,192,87841,1,0,0:0:0:0:
329,192,87938,1,0,0:0:0:0:
109,192,87938,1,0,0:0:0:0:
475,192,88036,1,0,0:0:0:0:
36,192,88036,1,0,0:0:0:0:
182,192,88036,1,0,0:0:0:0:
402,192,88135,1,0,0:0:0:0:
256,192,88135,1,0,0:0:0:0:
329,192,88233,1,0,0:0:0:0:
182,192,88233,1,0,0:0:0:0:
256,192,88331,1,0,0:0:0:0:
109,192,88331,1,0,0:0:0:0:
329,192,88428,1,0,0:0:0:0:
36,192,88428,1,0,0:0:0:0:
475,192,88428,1,0,0:0:0:0:
182,192,88625,1,0,0:0:0:0:
402,192,88625,1,0,0:0:0:0:
109,192,88723,1,0,0:0:0:0:
475,192,88821,1,0,0:0:0:0:
36,192,88821,1,0,0:0:0:0:
329,192,88821,1,0,0:0:0:0:
256,192,88918,1,0,0:0:0:0:
402,192,88918,1,0,0:0:0:0:
182,192,89017,1,0,0:0:0:0:
109,192,89017,1,0,0:0:0:0:
402,192,89213,1,0,0:0:0:0:
256,192,89213,1,0,0:0:0:0:
182,192,89213,1,0,0:0:0:0:
475,192,89410,1,0,0:0:0:0:
109,192,89410,1,0,0:0:0:0:
36,192,89410,1,0,0:0:0:0:
329,192,89410,1,0,0:0:0:0:
402,192,89410,1,0,0:0:0:0:
256,192,89507,1,0,0:0:0:0:
329,192,89605,1,0,0:0:0:0:
402,192,89703,1,0,0:0:0:0:
475,192,89802,1,0,0:0:0:0:
182,192,89802,1,0,0:0:0:0:
182,192,89997,1,0,0:0:0:0:
109,192,89997,1,0,0:0:0:0:
36,192,89997,1,0,0:0:0:0:
329,192,89997,1,0,0:0:0:0:
475,192,90193,1,0,0:0:0:0:
402,192,90193,1,0,0:0:0:0:
109,192,90193,1,0,0:0:0:0:
329,192,90390,1,0,0:0:0:0:
402,192,90390,1,0,0:0:0:0:
36,192,90390,1,0,0:0:0:0:
182,192,90390,1,0,0:0:0:0:
329,192,90585,1,0,0:0:0:0:
475,192,90585,1,0,0:0:0:0:
36,192,90684,1,0,0:0:0:0:
109,192,90684,1,0,0:0:0:0:
475,192,90782,1,0,0:0:0:0:
256,192,90782,1,0,0:0:0:0:
402,192,90782,1,0,0:0:0:0:
182,192,90880,1,0,0:0:0:0:
109,192,90880,1,0,0:0:0:0:
329,192,90977,1,0,0:0:0:0:
402,192,90977,1,0,0:0:0:0:
256,192,91076,1,0,0:0:0:0:
182,192,91076,1,0,0:0:0:0:
36,192,91174,1,0,0:0:0:0:
475,192,91174,1,0,0:0:0:0:
329,192,91174,1,0,0:0:0:0:
109,192,91174,1,0,0:0:0:0:
329,192,91566,1,0,0:0:0:0:
475,192,91566,1,0,0:0:0:0:
109,192,91566,1,0,0:0:0:0:
182,192,91762,1,0,0:0:0:0:
475,192,91762,1,0,0:0:0:0:
36,192,91958,1,0,0:0:0:0:
256,192,91958,1,0,0:0:0:0:
475,192,91958,1,0,0:0:0:0:
109,192,92154,1,0,0:0:0:0:
475,192,92154,1,0,0:0:0:0:
475,192,92351,1,0,0:0:0:0:
36,192,92351,1,0,0:0:0:0:
182,192,92351,1,0,0:0:0:0:
109,192,92546,1,0,0:0:0:0:
329,192,92546,1,0,0:0:0:0:
402,192,92546,1,0,0:0:0:0:
182,192,92546,1,0,0:0:0:0:
36,192,92743,1,0,0:0:0:0:
109,192,92743,1,0,0:0:0:0:
256,192,92743,1,0,0:0:0:0:
475,192,92743,1,0,0:0:0:0:
36,192,92938,1,0,0:0:0:0:
182,192,92938,1,0,0:0:0:0:
329,192,92938,1,0,0:0:0:0:
36,192,93135,1,0,0:0:0:0:
256,192,93135,1,0,0:0:0:0:
402,192,93135,1,0,0:0:0:0:
109,192,93331,1,0,0:0:0:0:
329,192,93331,1,0,0:0:0:0:
36,192,93331,1,0,0:0:0:0:
36,192,93526,1,0,0:0:0:0:
182,192,93526,1,0,0:0:0:0:
475,192,93526,1,0,0:0:0:0:
329,192,93723,1,0,0:0:0:0:
109,192,93723,1,0,0:0:0:0:
182,192,93723,1,0,0:0:0:0:
475,192,93918,1,0,0:0:0:0:
402,192,93918,1,0,0:0:0:0:
36,192,93918,1,0,0:0:0:0:
109,192,93918,1,0,0:0:0:0:
36,192,94115,1,0,0:0:0:0:
256,192,94115,1,0,0:0:0:0:
182,192,94311,1,0,0:0:0:0:
402,192,94311,1,0,0:0:0:0:
475,192,94311,1,0,0:0:0:0:
109,192,94311,1,0,0:0:0:0:
402,192,94507,1,0,0:0:0:0:
36,192,94507,1,0,0:0:0:0:
402,192,94703,1,0,0:0:0:0:
256,192,94703,1,0,0:0:0:0:
109,192,94703,1,0,0:0:0:0:
182,192,94900,1,0,0:0:0:0:
402,192,94900,1,0,0:0:0:0:
109,192,95095,1,0,0:0:0:0:
402,192,95095,1,0,0:0:0:0:
36,192,95095,1,0,0:0:0:0:
182,192,95292,1,0,0:0:0:0:
402,192,95292,1,0,0:0:0:0:
475,192,95292,1,0,0:0:0:0:
329,192,95292,1,0,0:0:0:0:
256,192,95487,1,0,0:0:0:0:
36,192,95487,1,0,0:0:0:0:
109,192,95487,1,0,0:0:0:0:
402,192,95684,1,0,0:0:0:0:
329,192,95684,1,0,0:0:0:0:
182,192,95684,1,0,0:0:0:0:
36,192,95684,1,0,0:0:0:0:
475,192,95782,1,0,0:0:0:0:
402,192,95880,1,0,0:0:0:0:
329,192,95977,1,0,0:0:0:0:
256,192,96076,1,0,0:0:0:0:
36,192,96076,1,0,0:0:0:0:
109,192,96076,1,0,0:0:0:0:
109,192,96272,1,0,0:0:0:0:
182,192,96272,1,0,0:0:0:0:
402,192,96272,1,0,0:0:0:0:
475,192,96468,1,0,0:0:0:0:
329,192,96468,1,0,0:0:0:0:
182,192,96468,1,0,0:0:0:0:
36,192,96664,1,0,0:0:0:0:
109,192,96664,1,0,0:0:0:0:
256,192,96664,1,0,0:0:0:0:
329,192,96762,1,0,0:0:0:0:
256,192,96860,1,0,0:0:0:0:
475,192,96860,1,0,0:0:0:0:
182,192,96958,1,0,0:0:0:0:
402,192,96958,1,0,0:0:0:0:
475,192,97056,1,0,0:0:0:0:
329,192,97056,1,0,0:0:0:0:
36,192,97056,1,0,0:0:0:0:
109,192,97154,1,0,0:0:0:0:
256,192,97154,1,0,0:0:0:0:
402,192,97252,1,0,0:0:0:0:
475,192,97252,1,0,0:0:0:0:
329,192,97351,1,0,0:0:0:0:
182,192,97351,1,0,0:0:0:0:
109,192,97448,1,0,0:0:0:0:
36,192,97448,1,0,0:0:0:0:
402,192,97448,1,0,0:0:0:0:
256,192,97448,1,0,0:0:0:0:
109,192,97644,1,0,0:0:0:0:
36,192,97644,1,0,0:0:0:0:
329,192,97644,1,0,0:0:0:0:
36,192,97841,1,0,0:0:0:0:
109,192,97841,1,0,0:0:0:0:
256,192,97841,1,0,0:0:0:0:
402,192,98036,1,0,0:0:0:0:
475,192,98036,1,0,0:0:0:0:
182,192,98036,1,0,0:0:0:0:
402,192,98233,1,0,0:0:0:0:
475,192,98233,1,0,0:0:0:0:
256,192,98233,1,0,0:0:0:0:
402,192,98428,1,0,0:0:0:0:
475,192,98428,1,0,0:0:0:0:
109,192,98428,1,0,0:0:0:0:
329,192,98625,1,0,0:0:0:0:
36,192,98625,1,0,0:0:0:0:
109,192,98625,1,0,0:0:0:0:
182,192,98821,1,0,0:0:0:0:
256,192,98821,1,0,0:0:0:0:
402,192,98821,1,0,0:0:0:0:
475,192,99017,1,0,0:0:0:0:
256,192,99017,1,0,0:0:0:0:
329,192,99017,1,0,0:0:0:0:
36,192,99213,1,0,0:0:0:0:
329,192,99213,1,0,0:0:0:0:
402,192,99213,1,0,0:0:0:0:
182,192,99213,1,0,0:0:0:0:
256,192,99410,1,0,0:0:0:0:
182,192,99507,1,0,0:0:0:0:
109,192,99605,1,0,0:0:0:0:
329,192,99605,1,0,0:0:0:0:
475,192,99605,1,0,0:0:0:0:
36,192,99802,1,0,0:0:0:0:
109,192,99802,1,0,0:0:0:0:
256,192,99802,1,0,0:0:0:0:
402,192,99802,1,0,0:0:0:0:
475,192,99900,1,0,0:0:0:0:
182,192,99997,1,0,0:0:0:0:
329,192,99997,1,0,0:0:0:0:
402,192,100095,1,0,0:0:0:0:
475,192,100095,1,0,0:0:0:0:
109,192,100193,1,0,0:0:0:0:
256,192,100193,1,0,0:0:0:0:
36,192,100193,1,0,0:0:0:0:
329,192,100292,1,0,0:0:0:0:
402,192,100292,1,0,0:0:0:0:
36,192,100390,1,0,0:0:0:0:
182,192,100390,1,0,0:0:0:0:
256,192,100487,1,0,0:0:0:0:
329,192,100487,1,0,0:0:0:0:
109,192,100585,1,0,0:0:0:0:
402,192,100585,1,0,0:0:0:0:
329,192,101174,1,0,0:0:0:0:
329,192,101370,1,0,0:0:0:0:
109,192,101958,1,0,0:0:0:0:
182,192,102154,1,0,0:0:0:0:
329,192,102546,1,0,0:0:0:0:
402,192,102743,1,0,0:0:0:0:
109,192,102743,1,0,0:0:0:0:
36,192,102743,1,0,0:0:0:0:
475,192,103135,1,0,0:0:0:0:
109,192,103331,1,0,0:0:0:0:
182,192,103331,1,0,0:0:0:0:
402,192,103526,1,0,0:0:0:0:
36,192,103723,1,0,0:0:0:0:
182,192,103723,1,0,0:0:0:0:
109,192,103723,1,0,0:0:0:0:
329,192,103918,1,0,0:0:0:0:
329,192,104115,1,0,0:0:0:0:
256,192,104311,1,0,0:0:0:0:
109,192,104311,1,0,0:0:0:0:
36,192,104311,1,0,0:0:0:0:
475,192,104311,1,0,0:0:0:0:
182,192,104703,1,0,0:0:0:0:
256,192,104900,1,0,0:0:0:0:
402,192,104900,1,0,0:0:0:0:
475,192,104900,1,0,0:0:0:0:
329,192,105095,1,0,0:0:0:0:
36,192,105292,1,0,0:0:0:0:
109,192,105292,1,0,0:0:0:0:
256,192,105292,1,0,0:0:0:0:
402,192,105292,1,0,0:0:0:0:
182,192,105684,1,0,0:0:0:0:
402,192,106076,1,0,0:0:0:0:
475,192,106076,1,0,0:0:0:0:
109,192,106076,1,0,0:0:0:0:
256,192,106468,1,0,0:0:0:0:
182,192,106860,1,0,0:0:0:0:
329,192,106860,1,0,0:0:0:0:
36,192,106860,1,0,0:0:0:0:
402,192,106860,1,0,0:0:0:0:
182,192,107448,1,0,0:0:0:0:
329,192,107546,1,0,0:0:0:0:
182,192,107644,1,0,0:0:0:0:
402,192,107644,1,0,0:0:0:0:
475,192,107644,1,0,0:0:0:0:
109,192,107644,1,0,0:0:0:0:
182,192,108233,1,0,0:0:0:0:
36,192,108233,1,0,0:0:0:0:
402,192,108331,1,0,0:0:0:0:
256,192,108331,1,0,0:0:0:0:
109,192,108428,1,0,0:0:0:0:
329,192,108428,1,0,0:0:0:0:
475,192,108428,1,0,0:0:0:0:
182,192,108428,1,0,0:0:0:0:
256,192,108821,1,0,0:0:0:0:
402,192,108821,1,0,0:0:0:0:
475,192,108821,1,0,0:0:0:0:
182,192,109017,1,0,0:0:0:0:
329,192,109017,1,0,0:0:0:0:
109,192,109115,1,0,0:0:0:0:
36,192,109115,1,0,0:0:0:0:
256,192,109213,1,0,0:0:0:0:
402,192,109213,1,0,0:0:0:0:
475,192,109213,1,0,0:0:0:0:
182,192,109410,1,0,0:0:0:0:
329,192,109410,1,0,0:0:0:0:
402,192,109507,1,0,0:0:0:0:
475,192,109507,1,0,0:0:0:0:
109,192,109605,1,0,0:0:0:0:
256,192,109605,1,0,0:0:0:0:
36,192,109605,1,0,0:0:0:0:
329,192,109703,1,0,0:0:0:0:
402,192,109703,1,0,0:0:0:0:
36,192,109802,1,0,0:0:0:0:
182,192,109802,1,0,0:0:0:0:
256,192,109900,1,0,0:0:0:0:
329,192,109900,1,0,0:0:0:0:
109,192,109997,1,0,0:0:0:0:
36,192,109997,1,0,0:0:0:0:
402,192,109997,1,0,0:0:0:0:
475,192,109997,1,0,0:0:0:0:
109,192,110193,1,0,0:0:0:0:
182,192,110193,1,0,0:0:0:0:
329,192,110193,1,0,0:0:0:0:
256,192,110390,1,0,0:0:0:0:
402,192,110390,1,0,0:0:0:0:
475,192,110390,1,0,0:0:0:0:
36,192,110390,1,0,0:0:0:0:
109,192,110585,1,0,0:0:0:0:
182,192,110585,1,0,0:0:0:0:
402,192,110684,1,0,0:0:0:0:
475,192,110684,1,0,0:0:0:0:
109,192,110782,1,0,0:0:0:0:
36,192,110782,1,0,0:0:0:0:
329,192,110782,1,0,0:0:0:0:
182,192,110977,1,0,0:0:0:0:
36,192,110977,1,0,0:0:0:0:
329,192,110977,1,0,0:0:0:0:
256,192,111174,1,0,0:0:0:0:
402,192,111174,1,0,0:0:0:0:
475,192,111174,1,0,0:0:0:0:
109,192,111174,1,0,0:0:0:0:
329,192,111370,1,0,0:0:0:0:
182,192,111370,1,0,0:0:0:0:
402,192,111566,1,0,0:0:0:0:
475,192,111566,1,0,0:0:0:0:
109,192,111566,1,0,0:0:0:0:
36,192,111566,1,0,0:0:0:0:
402,192,111762,1,0,0:0:0:0:
329,192,111762,1,0,0:0:0:0:
182,192,111762,1,0,0:0:0:0:
256,192,111958,1,0,0:0:0:0:
109,192,111958,1,0,0:0:0:0:
36,192,111958,1,0,0:0:0:0:
475,192,111958,1,0,0:0:0:0:
402,192,112154,1,0,0:0:0:0:
329,192,112154,1,0,0:0:0:0:
36,192,112252,1,0,0:0:0:0:
109,192,112252,1,0,0:0:0:0:
402,192,112351,1,0,0:0:0:0:
475,192,112351,1,0,0:0:0:0:
256,192,112351,1,0,0:0:0:0:
182,192,112481,1,0,0:0:0:0:
402,192,112481,1,0,0:0:0:0:
109,192,112481,1,0,0:0:0:0:
182,192,112612,1,0,0:0:0:0:
329,192,112612,1,0,0:0:0:0:
36,192,112612,1,0,0:0:0:0:
475,192,112743,1,0,0:0:0:0:
36,192,112743,1,0,0:0:0:0:
256,192,112743,1,0,0:0:0:0:
109,192,112873,1,0,0:0:0:0:
329,192,112873,1,0,0:0:0:0:
182,192,113004,1,0,0:0:0:0:
402,192,113004,1,0,0:0:0:0:
256,192,113135,1,0,0:0:0:0:
475,192,113135,1,0,0:0:0:0:
109,192,113135,1,0,0:0:0:0:
36,192,113135,1,0,0:0:0:0:
329,192,113135,1,0,0:0:0:0:
182,192,113331,1,0,0:0:0:0:
475,192,113331,1,0,0:0:0:0:
329,192,113526,1,0,0:0:0:0:
109,192,113526,1,0,0:0:0:0:
36,192,113526,1,0,0:0:0:0:
329,192,113723,1,0,0:0:0:0:
475,192,113723,1,0,0:0:0:0:
182,192,113723,1,0,0:0:0:0:
256,192,113918,1,0,0:0:0:0:
109,192,113918,1,0,0:0:0:0:
402,192,113918,1,0,0:0:0:0:
109,192,114115,1,0,0:0:0:0:
329,192,114115,1,0,0:0:0:0:
475,192,114115,1,0,0:0:0:0:
36,192,114311,1,0,0:0:0:0:
182,192,114311,1,0,0:0:0:0:
402,192,114311,1,0,0:0:0:0:
182,192,114507,1,0,0:0:0:0:
329,192,114507,1,0,0:0:0:0:
475,192,114507,1,0,0:0:0:0:
36,192,114703,1,0,0:0:0:0:
256,192,114703,1,0,0:0:0:0:
402,192,114703,1,0,0:0:0:0:
109,192,114900,1,0,0:0:0:0:
329,192,114900,1,0,0:0:0:0:
402,192,114900,1,0,0:0:0:0:
182,192,115095,1,0,0:0:0:0:
475,192,115095,1,0,0:0:0:0:
36,192,115095,1,0,0:0:0:0:
182,192,115292,1,0,0:0:0:0:
256,192,115292,1,0,0:0:0:0:
402,192,115292,1,0,0:0:0:0:
329,192,115487,1,0,0:0:0:0:
109,192,115487,1,0,0:0:0:0:
36,192,115487,1,0,0:0:0:0:
182,192,115684,1,0,0:0:0:0:
329,192,115684,1,0,0:0:0:0:
475,192,115684,1,0,0:0:0:0:
402,192,115880,1,0,0:0:0:0:
256,192,115880,1,0,0:0:0:0:
109,192,115880,1,0,0:0:0:0:
109,192,116076,1,0,0:0:0:0:
329,192,116076,1,0,0:0:0:0:
475,192,116076,1,0,0:0:0:0:
182,192,117056,1,0,0:0:0:0:
329,192,117056,1,0,0:0:0:0:
402,192,117056,1,0,0:0:0:0:
109,192,117056,1,0,0:0:0:0:
475,192,117081,1,0,0:0:0:0:
36,192,117081,1,0,0:0:0:0:
