osu file format v14

[General]
AudioFilename: audio.mp3
AudioLeadIn: 0
PreviewTime: 48080
Countdown: 0
SampleSet: Soft
StackLeniency: 0.7
Mode: 0
LetterboxInBreaks: 0
WidescreenStoryboard: 1

[Editor]
Bookmarks: 5815,11462,28403,34050,39697,42520,48167,93344,97579,101815,107462,124403,130050,135697,138520,144167,189344,200638,206285,214756,231697,238579,262756,265579,271226,277579,281815
DistanceSpacing: 1
BeatDivisor: 4
GridSize: 32
TimelineZoom: 1.2

[Metadata]
Title:Fuyu ni Saku Hana
TitleUnicode:冬に咲く華
Artist:Mitsuki Kotono
ArtistUnicode:美月琴音
Creator:mnyui
Version:Suou's Insane
Source:彼女のセイイキ
Tags:japanese pop feng kanojo no seiiki op opening eroge visual novel vn shirahane suou shirahane_suou video game
BeatmapID:2696241
BeatmapSetID:1297024

[Difficulty]
HPDrainRate:5
CircleSize:4
OverallDifficulty:8
ApproachRate:9
SliderMultiplier:1.7
SliderTickRate:1

[Events]
//Background and Video events
0,0,"fuyu.jpg",0,0
//Break Periods
2,39911,41052
2,135910,137052
2,189358,198464
2,214970,229523
2,262969,264111
//Storyboard Layer 0 (Background)
//Storyboard Layer 1 (Fail)
//Storyboard Layer 2 (Pass)
//Storyboard Layer 3 (Foreground)
//Storyboard Layer 4 (Overlay)
//Storyboard Sound Samples

[TimingPoints]
182,352.941176470588,4,2,1,50,1,0
182,-200,4,2,1,50,0,0
5476,-133.333333333333,4,2,1,50,0,0
5829,-111.111111111111,4,2,1,70,0,0
11476,-200,4,2,1,60,0,0
28064,-133.333333333333,4,2,1,60,0,0
28417,-133.333333333333,4,2,1,70,0,0
34064,-111.111111111111,4,2,1,70,0,0
39711,-111.111111111111,4,2,1,50,0,0
41829,-111.111111111111,4,2,1,70,0,0
42534,-111.111111111111,4,2,1,80,0,0
43946,-111.111111111111,4,2,1,85,0,0
46770,-111.111111111111,4,2,1,50,0,0
48181,-90.9090909090909,4,2,1,90,0,1
87711,-80,4,2,1,90,0,1
89829,-90.9090909090909,4,2,1,90,0,1
90534,-90.9090909090909,4,2,1,60,0,0
92476,-133.333333333333,4,2,1,60,0,0
93005,-133.333333333333,4,2,1,65,0,0
97593,-111.111111111111,4,2,1,65,0,0
99005,-111.111111111111,4,2,1,70,0,0
101829,-200,4,2,1,60,0,0
107123,-200,4,2,1,50,0,0
117358,-166.666666666667,4,2,1,50,0,0
117887,-166.666666666667,4,2,1,60,0,0
118064,-166.666666666667,4,2,1,50,0,0
118240,-166.666666666667,4,2,1,60,0,0
118329,-166.666666666667,4,2,1,50,0,0
121063,-166.666666666667,4,2,1,60,0,0
121240,-166.666666666667,4,2,1,50,0,0
123357,-166.666666666667,4,2,1,60,0,0
123534,-166.666666666667,4,2,1,50,0,0
123711,-133.333333333333,4,2,1,70,0,0
124417,-133.333333333333,4,2,1,80,0,0
130064,-133.333333333333,4,2,1,75,0,0
135711,-133.333333333333,4,2,1,50,0,0
137652,-111.111111111111,4,2,1,70,0,0
138534,-111.111111111111,4,2,1,70,0,0
141358,-111.111111111111,4,2,1,50,0,0
142770,-111.111111111111,4,2,1,80,0,0
144181,-90.9090909090908,4,2,1,90,0,1
187946,-90.9090909090908,4,2,1,90,0,0
199064,-133.333333333333,4,2,1,90,0,0
199240,-133.333333333333,4,2,1,50,0,0
200652,-133.333333333333,4,2,1,60,0,0
203476,-133.333333333333,4,2,1,65,0,0
204887,-111.111111111111,4,2,1,65,0,0
206299,-111.111111111111,4,2,1,70,0,0
211946,-90.9090909090908,4,2,1,70,0,0
213358,-200,4,2,1,70,0,0
230123,-111.111111111111,4,2,1,70,0,0
238593,-90.9090909090908,4,2,1,90,0,1
254299,-80,4,2,1,90,0,1
262770,-80,4,2,1,90,0,0
264711,-133.333333333333,4,2,1,50,0,0
265240,-133.333333333333,4,2,1,60,0,0
269829,-111.111111111111,4,2,1,70,0,0
271240,-111.111111111111,4,2,1,80,0,0

[Colours]
Combo1 : 255,191,255
Combo2 : 128,128,255
Combo3 : 0,255,255

[HitObjects]
65,291,182,6,0,B|143:258|127:332|230:283,1,170,2|2,0:2|0:2,0:0:0:0:
264,196,1240,1,0,0:0:0:0:
190,129,1593,2,0,P|179:170|173:213,1,85,2|0,0:2|0:0,0:0:0:0:
91,148,2299,2,0,P|84:104|74:62,1,85,2|0,0:2|0:0,0:0:0:0:
201,11,3005,6,0,P|241:51|313:41,1,127.5,2|0,0:2|0:0,0:0:0:0:
403,44,3711,2,0,L|399:70,3,21.25,2|0|0|0,0:2|0:0|0:0|0:0,0:0:0:0:
381,94,4064,2,0,L|385:120,3,21.25
401,148,4417,2,0,P|370:142|322:172,1,85,2|2,0:2|0:2,0:0:0:0:
210,332,5123,1,2,0:2:0:0:
192,141,5476,1,8,0:3:0:0:
164,247,5652,1,0,3:2:0:0:
164,247,5740,1,0,3:2:0:0:
164,247,5829,6,0,B|209:227|262:226|262:226|288:282,1,152.999995330811,4|0,3:2|3:2,0:0:0:0:
444,307,6358,1,0,0:0:0:0:
389,152,6534,2,0,P|380:189|375:227,1,76.4999976654054,0|0,3:2|0:0,0:0:0:0:
508,167,6887,2,0,P|502:129|494:91,1,76.4999976654054,0|2,3:2|0:0,0:0:0:0:
417,55,7152,1,2,0:0:0:0:
417,55,7240,6,0,B|332:22|352:91|270:54,1,152.999995330811,2|2,3:2|3:2,0:0:0:0:
99,100,7770,1,0,0:0:0:0:
145,15,7946,2,0,P|181:50|172:158,1,152.999995330811,2|2,3:2|3:2,0:0:0:0:
0,196,8476,1,0,1:2:0:0:
0,196,8564,1,0,1:2:0:0:
0,196,8652,6,0,B|50:167|104:183|104:183|82:198|75:217,1,152.999995330811,4|0,1:2|3:2,0:0:0:0:
151,372,9181,1,0,3:2:0:0:
3,291,9358,1,0,1:2:0:0:
167,259,9534,1,0,1:2:0:0:
54,384,9711,1,0,1:2:0:0:
180,239,9887,1,2,1:2:0:0:
60,142,10064,6,0,L|77:226,1,76.4999976654053,2|0,3:2|3:2,0:2:0:0:
237,126,10417,1,0,3:2:0:0:
96,29,10593,1,0,3:2:0:0:
147,146,10770,1,0,3:2:0:0:
244,29,10946,1,0,3:2:0:0:
286,218,11123,2,0,P|250:230|213:223,1,76.4999976654053,2|0,3:2|0:0,0:0:0:0:
336,119,11476,6,0,B|418:86|410:160|504:111,1,170,4|0,3:2|0:0,0:0:0:0:
388,251,12534,2,0,L|378:204,1,42.5,2|2,0:2|0:2,0:0:0:0:
501,240,12887,2,0,L|484:324,2,85
331,330,13946,2,0,L|282:321,1,42.5,2|2,0:2|0:2,0:0:0:0:
245,232,14299,6,0,P|279:208|320:213,1,85,2|2,0:2|0:2,0:0:0:0:
397,271,14829,2,0,P|403:228|410:187,1,85,2|2,0:2|0:2,0:0:0:0:
493,163,15358,1,2,0:2:0:0:
338,48,15711,2,0,B|288:61|266:96|266:96|237:72|191:66,1,170,2|2,0:2|0:0,0:0:0:0:
30,229,16770,2,0,L|89:216,1,42.5,2|2,0:0|0:0,0:0:0:0:
130,136,17123,6,0,P|99:141|45:115,1,85
0,34,17652,1,2,0:0:0:0:
0,34,17829,2,0,L|96:25,1,85,2|2,0:0|0:0,0:0:0:0:
184,6,18358,2,0,B|207:24|225:35|225:35|218:69|214:111,1,127.5,2|2,0:0|0:0,0:0:0:0:
193,209,19064,1,2,0:0:0:0:
193,209,19240,1,0,0:0:0:0:
118,114,19593,1,2,0:0:0:0:
290,183,19946,6,0,P|380:167|472:159,1,170,2|2,0:0|0:0,0:0:0:0:
325,316,21005,2,0,L|319:264,1,42.5,2|2,0:0|0:0,0:0:0:0:
402,245,21358,2,0,L|412:336,1,85
266,377,22064,2,0,L|214:367,1,42.5,2|0,0:0|0:0,0:0:0:0:
203,352,22329,2,0,P|193:323|200:291,1,63.75,2|2,0:0|0:0,0:0:0:0:
235,166,22770,6,0,B|256:189|261:214|261:214|207:182|151:205,1,170,2|2,0:0|0:0,0:0:0:0:
15,268,23829,1,2,0:0:0:0:
119,372,24181,2,0,L|104:284,1,85,2|2,0:0|0:0,0:0:0:0:
66,189,24711,1,2,0:0:0:0:
66,189,24887,2,0,L|81:101,1,85,0|2,0:0|0:0,0:0:0:0:
163,45,25417,1,2,0:0:0:0:
163,45,25593,6,0,P|185:69|240:64,1,85,2|2,0:0|0:0,0:0:0:0:
312,27,26123,1,2,0:0:0:0:
312,26,26299,2,0,P|322:68|329:110,1,85,0|2,0:0|0:0,0:0:0:0:
379,187,26829,1,2,0:0:0:0:
460,78,27005,5,0,0:0:0:0:
460,78,27711,2,0,P|439:72|418:69,1,42.5,2|0,0:0|0:0,0:0:0:0:
268,120,28064,6,0,P|319:109|353:118,1,63.7500024318696,2|0,3:2|0:0,0:0:0:0:
379,187,28329,1,0,3:2:0:0:
379,187,28417,6,0,P|370:250|364:313,1,127.500004863739,4|0,3:2|3:2,0:0:0:0:
466,228,28946,1,0,0:0:0:0:
512,355,29123,2,0,P|480:347|449:344,1,63.7500024318696,0|0,3:2|0:0,0:0:0:0:
276,248,29476,2,0,P|244:251|213:258,1,63.7500024318696,2|2,3:2|0:2,0:0:0:0:
79,373,29829,6,0,P|112:344|100:259,1,127.500004863739,0|0,3:2|3:2,0:0:0:0:
137,112,30358,1,0,0:0:0:0:
11,174,30534,2,0,P|42:178|73:184,1,63.7500024318696,0|0,3:2|0:0,0:0:0:0:
155,16,30887,2,0,P|123:20|92:26,1,63.7500024318696,2|2,3:2|0:2,0:0:0:0:
137,112,31152,1,2,0:0:0:0:
137,112,31240,6,0,P|180:128|253:77,2,127.500004863739,2|0|0,3:2|3:2|3:2,0:0:0:0:
312,256,32299,2,0,P|344:250|375:246,1,63.7500024318696,2|2,3:2|0:2,0:0:0:0:
501,148,32652,6,0,P|451:110|390:119,1,127.500004863739,2|0,3:2|1:2,0:0:0:0:
219,24,33181,1,0,1:2:0:0:
298,142,33358,1,0,1:2:0:0:
331,0,33534,1,2,1:2:0:0:
192,131,33711,1,2,1:2:0:0:
162,142,33799,1,0,1:2:0:0:
130,142,33887,1,2,1:2:0:0:
101,130,33975,1,0,1:2:0:0:
79,108,34064,6,0,P|81:69|89:32,1,76.4999976654053,6|0,3:2|3:0,0:0:0:0:
192,131,34417,2,0,P|199:168|201:206,1,76.4999976654053,2|2,1:2|3:2,0:0:0:0:
151,277,34681,1,0,1:2:0:0:
151,277,34770,2,0,P|102:281|67:264,1,76.4999976654053,2|0,3:2|3:2,0:0:0:0:
235,384,35123,2,0,P|229:346|241:310,1,76.4999976654053,2|2,1:2|0:2,0:0:0:0:
334,188,35476,6,0,P|272:228|201:206,1,152.999995330811,0|0,3:2|1:2,0:2:0:0:
269,60,36005,1,2,3:2:0:0:
269,60,36093,1,0,1:2:0:0:
269,60,36181,2,0,P|263:97|262:135,1,76.4999976654053,0|0,3:2|3:2,0:0:0:0:
432,185,36534,1,2,1:2:0:0:
381,64,36711,1,2,0:2:0:0:
334,188,36887,6,0,P|342:226|348:264,1,76.4999976654053,0|0,3:2|3:2,0:0:0:0:
247,384,37240,2,0,P|253:346|261:308,1,76.4999976654053,2|2,1:2|0:2,0:0:0:0:
242,223,37505,1,0,1:2:0:0:
242,223,37593,2,0,P|209:240|171:239,1,76.4999976654053,0|0,3:2|3:2,0:0:0:0:
64,335,37946,2,0,P|101:334|135:351,1,76.4999976654053,2|2,1:2|3:2,0:0:0:0:
177,140,38299,6,0,P|109:154|69:227,1,152.999995330811,0|0,3:0|1:0,0:0:0:0:
242,223,38829,1,0,3:2:0:0:
242,223,38917,1,0,3:2:0:0:
242,223,39005,6,0,L|293:211,2,50.9999984436036,0|8|0,1:2|0:3|1:3,0:0:0:0:
186,289,39358,6,0,L|137:278,2,50.9999984436036,0|8|4,1:2|0:3|0:3,0:0:0:0:
251,350,39711,5,4,3:2:0:0:
365,291,41652,5,0,3:2:0:0:
365,291,41740,1,0,3:2:0:0:
365,291,41829,2,0,L|345:205,1,76.4999976654053,6|2,1:2|3:2,0:0:0:0:
234,76,42181,1,0,1:2:0:0:
255,94,42269,1,0,1:2:0:0:
282,104,42357,1,0,1:2:0:0:
310,105,42445,1,0,1:2:0:0:
338,97,42534,6,0,P|382:81|461:164,1,152.999995330811,6|0,3:2|3:2,0:0:0:0:
365,291,43064,1,0,3:2:0:0:
231,204,43240,2,0,P|269:199|307:195,1,76.4999976654053,0|0,3:2|3:2,0:0:0:0:
217,334,43593,2,0,P|179:329|140:325,1,76.4999976654053,0|0,3:2|3:2,0:0:0:0:
0,213,43946,5,2,3:2:0:0:
142,176,44123,1,0,3:2:0:0:
44,307,44299,1,0,3:2:0:0:
51,113,44476,1,0,3:2:0:0:
231,204,44652,2,0,P|269:199|307:195,1,76.4999976654053,2|0,1:2|3:2,0:0:0:0:
422,92,45005,1,2,1:2:0:0:
400,73,45093,1,0,3:2:0:0:
374,61,45181,1,2,1:2:0:0:
345,59,45269,1,0,3:2:0:0:
318,65,45358,6,0,P|280:56|242:52,1,76.4999976654053,4|0,3:2|1:2,0:0:0:0:
165,20,45623,1,0,1:2:0:0:
165,20,45711,2,0,L|158:57,1,38.2499988327027,0|0,1:2|1:2,0:0:0:0:
216,174,45887,2,0,L|209:136,1,38.2499988327027,2|0,1:2|1:2,0:0:0:0:
152,247,46064,5,2,3:2:0:0:
173,265,46152,1,0,1:2:0:0:
200,275,46240,1,0,1:2:0:0:
228,275,46328,1,0,1:2:0:0:
255,264,46417,2,0,L|308:257,1,38.2499988327027,0|0,1:2|1:2,0:0:0:0:
356,175,46593,2,0,L|303:168,1,38.2499988327027,2|0,1:2|1:2,0:0:0:0:
209,136,46770,5,6,3:2:0:0:
309,323,48005,5,2,0:2:0:0:
309,323,48093,1,2,0:2:0:0:
309,323,48181,6,0,B|340:306|371:291|371:291|362:234|356:174,1,187.000005706787,4|0,3:2|1:2,0:0:0:0:
266,27,48711,1,2,3:2:0:0:
266,27,48799,1,0,1:2:0:0:
266,27,48887,2,0,P|261:70|252:129,1,93.5000028533936,2|2,3:2|3:2,0:0:0:0:
360,6,49240,1,2,1:2:0:0:
147,71,49417,6,0,P|90:92|-2:-5,1,187.000005706787,6|0,3:2|3:2,0:0:0:0:
166,183,49946,1,2,1:2:0:0:
25,286,50123,1,0,3:0:0:0:
25,286,50211,1,0,1:2:0:0:
25,286,50299,2,0,P|31:239|40:193,1,93.5000028533936,2|0,3:2|3:2,0:0:0:0:
233,274,50652,2,0,P|186:280|140:289,1,93.5000028533936,2|0,1:2|0:0,0:0:0:0:
199,81,51005,6,0,B|238:102|266:141|266:141|310:118|359:121,1,187.000005706787,4|0,3:2|1:2,0:0:0:0:
501,249,51534,1,2,3:2:0:0:
501,249,51623,1,0,3:2:0:0:
501,249,51711,2,0,P|454:244|411:261,1,93.5000028533936,2|0,3:2|3:2,0:0:0:0:
193,188,52064,1,0,1:2:0:0:
315,334,52240,6,0,B|269:362|269:362|258:288|285:231,1,187.000005706787,4|0,3:2|3:2,0:0:0:0:
340,31,52770,1,0,1:2:0:0:
474,157,52946,1,0,3:2:0:0:
474,157,53034,1,0,1:2:0:0:
474,157,53123,2,0,L|421:148,2,46.7500014266968,0|0|0,3:2|1:2|3:2,0:0:0:0:
284,231,53476,2,0,P|306:190|296:145,1,93.5000028533936,0|2,1:2|3:2,0:0:0:0:
51,136,53829,6,0,P|139:117|205:178,1,187.000005706787,6|0,3:2|1:2,0:0:0:0:
114,334,54358,1,2,3:2:0:0:
114,334,54446,1,0,1:0:0:0:
114,334,54534,2,0,P|110:287|101:241,1,93.5000028533936,0|2,3:2|3:2,0:0:0:0:
15,384,54887,1,2,1:2:0:0:
218,280,55064,6,0,P|311:288|403:299,1,187.000005706787,2|0,3:2|3:2,0:0:0:0:
288,141,55593,1,2,1:2:0:0:
483,187,55770,1,0,3:0:0:0:
483,187,55858,1,0,1:2:0:0:
483,187,55946,2,0,P|436:191|390:196,1,93.5000028533936,2|0,3:2|3:2,0:0:0:0:
238,33,56299,2,0,P|284:37|330:42,1,93.5000028533936,2|2,1:2|0:2,0:0:0:0:
160,164,56652,6,0,B|104:194|104:194|75:134|101:74,1,187.000005706787,6|0,3:2|1:2,0:0:0:0:
288,141,57181,1,2,3:2:0:0:
288,141,57270,1,0,1:2:0:0:
288,141,57358,2,0,P|294:187|295:233,1,93.5000028533936,2|0,3:2|3:2,0:0:0:0:
199,384,57711,1,0,1:2:0:0:
37,219,57887,6,0,B|56:179|110:167|110:167|140:204|194:201,1,187.000005706787,4|0,3:2|3:2,0:0:0:0:
21,101,58417,1,0,1:2:0:0:
115,286,58593,1,0,3:2:0:0:
189,103,58770,1,2,1:2:0:0:
340,263,58946,1,0,1:2:0:0:
357,277,59034,1,2,1:2:0:0:
377,287,59122,1,0,1:2:0:0:
400,292,59210,1,0,3:2:0:0:
423,292,59298,1,2,1:2:0:0:
446,286,59387,1,0,3:2:0:0:
467,275,59476,6,0,B|479:232|523:202|523:202|491:158|493:115,1,187.000005706787,6|2,3:2|1:2,0:0:0:0:
347,0,60005,2,0,P|359:45|364:91,1,93.5000028533936,2|0,0:2|3:2,0:0:0:0:
299,286,60358,1,2,3:2:0:0:
408,182,60534,1,0,1:2:0:0:
243,70,60711,6,0,B|130:46|188:113|62:80,1,187.000005706787,2|0,3:2|3:2,0:0:0:0:
216,174,61240,1,2,1:2:0:0:
70,290,61417,1,2,0:2:0:0:
70,290,61505,1,0,3:0:0:0:
70,290,61593,2,0,P|73:243|83:197,1,93.5000028533936,0|2,3:2|3:2,0:0:0:0:
273,274,61946,2,0,P|226:277|180:287,1,93.5000028533936,0|2,1:2|0:2,0:0:0:0:
264,51,62299,6,0,B|325:64|325:64|352:122|323:184,1,187.000005706787,6|2,3:2|1:2,0:0:0:0:
480,344,62829,1,2,0:2:0:0:
480,344,62917,1,0,1:2:0:0:
480,344,63005,2,0,P|465:291|473:234,1,93.5000028533936,0|2,3:2|3:2,0:0:0:0:
421,64,63358,1,0,1:2:0:0:
299,205,63534,6,0,P|205:210|112:218,1,187.000005706787,6|0,3:2|3:2,0:0:0:0:
272,96,64064,1,0,1:2:0:0:
129,36,64240,1,0,3:2:0:0:
129,36,64329,1,2,3:2:0:0:
129,36,64417,2,0,L|146:100,2,46.7500014266968,2|0|0,1:2|3:2|3:2,0:0:0:0:
19,168,64770,2,0,P|7:213|5:259,1,93.5000028533936,2|2,1:2|0:2,0:0:0:0:
214,363,65123,6,0,B|239:291|191:225|191:225|174:263,1,187.000005706787,6|0,3:2|1:2,0:0:0:0:
348,372,65652,1,2,3:2:0:0:
348,372,65740,1,0,1:2:0:0:
348,372,65829,2,0,P|356:303|334:254,1,93.5000028533936,0|0,3:2|3:2,0:0:0:0:
230,110,66181,1,2,1:2:0:0:
90,221,66358,6,0,B|200:187|148:259|271:215,1,187.000005706787,2|0,3:2|3:2,0:0:0:0:
464,110,66887,1,2,1:2:0:0:
313,22,67064,1,0,3:2:0:0:
313,22,67152,1,0,3:2:0:0:
313,22,67240,2,0,P|319:68|325:114,1,93.5000028533936,2|0,3:2|3:2,0:0:0:0:
456,300,67593,2,0,P|461:253|468:207,1,93.5000028533936,0|0,1:2|3:2,0:0:0:0:
306,366,67946,6,0,P|267:310|140:324,1,187.000005706787,2|0,3:2|1:2,0:0:0:0:
12,180,68476,1,2,3:2:0:0:
12,180,68564,1,0,1:2:0:0:
12,180,68652,2,0,P|65:188|112:162,1,93.5000028533936,2|0,3:2|3:2,0:0:0:0:
154,82,68917,1,0,3:2:0:0:
154,82,69005,2,0,P|131:76|108:71,1,46.7500014266968,2|0,1:2|0:0,0:0:0:0:
201,177,69181,6,0,B|268:161|268:161|307:178|307:178|393:158,1,187.000005706787,6|0,3:2|3:2,0:0:0:0:
232,269,69711,1,0,1:2:0:0:
322,69,69887,1,0,3:2:0:0:
448,258,70064,1,2,1:2:0:0:
261,369,70240,1,0,1:2:0:0:
238,375,70328,1,0,1:2:0:0:
215,375,70416,1,2,1:2:0:0:
192,369,70504,1,0,1:2:0:0:
172,358,70592,1,2,1:2:0:0:
155,342,70681,1,0,1:2:0:0:
143,322,70770,6,0,P|148:228|159:135,1,187.000005706787,4|0,3:2|1:2,0:0:0:0:
354,165,71299,1,2,3:2:0:0:
354,165,71387,1,0,1:2:0:0:
354,165,71476,2,0,P|307:169|261:180,1,93.5000028533936,2|2,3:2|3:2,0:0:0:0:
388,21,71829,1,2,1:2:0:0:
472,199,72005,6,0,B|455:267|455:267|478:312|478:312|461:388,1,187.000005706787,6|0,3:2|3:2,0:0:0:0:
361,249,72534,1,2,1:2:0:0:
226,372,72711,1,0,3:0:0:0:
226,372,72799,1,0,3:2:0:0:
226,372,72887,2,0,P|271:363|318:357,1,93.5000028533936,2|0,3:2|3:2,0:0:0:0:
152,236,73240,2,0,P|197:244|244:250,1,93.5000028533936,2|0,1:2|0:0,0:0:0:0:
85,335,73593,6,0,P|111:249|53:180,1,187.000005706787,6|0,3:2|1:2,0:0:0:0:
112,0,74123,1,2,3:2:0:0:
279,133,74299,2,0,P|324:139|364:117,1,93.5000028533936,2|0,3:2|1:2,0:0:0:0:
313,0,74564,1,0,1:2:0:0:
313,0,74652,2,0,L|303:56,1,46.7500014266968,0|0,1:2|1:2,0:0:0:0:
155,80,74829,6,0,B|180:63|213:55|213:55|174:106|187:174,1,187.000005706787,4|0,3:2|3:2,0:0:0:0:
291,376,75358,1,2,1:2:0:0:
95,264,75534,1,0,3:2:0:0:
279,133,75711,1,2,1:2:0:0:
203,311,75887,1,0,1:2:0:0:
203,311,75976,1,0,1:2:0:0:
203,311,76064,2,0,L|193:256,1,46.7500014266968,0|0,1:2|1:2,0:0:0:0:
297,224,76240,2,0,L|288:269,1,46.7500014266968,0|0,3:2|3:2,0:0:0:0:
307,384,76417,6,0,P|375:325|463:347,1,187.000005706787,4|0,3:2|1:2,0:0:0:0:
512,123,76946,1,2,3:2:0:0:
512,123,77034,1,0,1:2:0:0:
512,123,77123,2,0,P|472:96|418:99,1,93.5000028533936,0|2,3:2|3:2,0:0:0:0:
275,193,77476,1,2,1:2:0:0:
329,16,77652,6,0,P|346:107|362:200,1,187.000005706787,2|0,3:2|3:2,0:0:0:0:
268,366,78181,1,2,1:2:0:0:
133,204,78358,1,0,3:0:0:0:
133,204,78446,1,0,1:2:0:0:
133,204,78534,2,0,P|83:198|28:230,1,93.5000028533936,2|0,3:2|3:2,0:0:0:0:
209,281,78887,2,0,P|238:240|238:176,1,93.5000028533936,2|2,1:2|3:2,0:0:0:0:
189,110,79152,1,0,1:2:0:0:
189,110,79240,6,0,P|252:171|347:152,1,187.000005706787,6|4,3:2|1:2,0:0:0:0:
291,21,79770,1,2,0:0:0:0:
291,21,79858,1,0,1:2:0:0:
291,21,79946,2,0,L|277:97,2,46.7500014266968,2|0|0,3:2|3:2|3:2,0:0:0:0:
458,139,80299,1,0,1:2:0:0:
288,278,80476,6,0,P|377:275|426:349,1,187.000005706787,6|0,3:2|3:2,0:0:0:0:
191,347,81005,1,0,1:2:0:0:
288,159,81181,1,2,3:2:0:0:
339,362,81358,1,2,1:2:0:0:
179,223,81534,1,0,3:2:0:0:
157,213,81622,1,2,3:2:0:0:
134,209,81710,1,0,1:2:0:0:
111,211,81798,1,0,1:2:0:0:
89,219,81886,1,2,1:2:0:0:
69,231,81975,1,0,1:2:0:0:
54,248,82064,6,0,B|89:269|114:317|114:317|156:295|234:299,1,187.000005706787,4|2,1:2|3:2,0:0:0:0:
327,160,82593,1,0,3:2:0:0:
173,112,82770,1,0,3:2:0:0:
298,257,82946,1,2,3:2:0:0:
261,67,83123,1,0,3:2:0:0:
414,215,83299,6,0,B|442:231|473:229|473:229|432:152|439:109,1,187.000005706787,2|0,1:2|3:2,0:0:0:0:
222,174,83829,2,0,P|215:220|211:266,1,93.5000028533936,0|0,3:2|3:2,0:0:0:0:
368,384,84181,2,0,P|371:337|379:291,1,93.5000028533936,2|0,3:2|3:2,0:0:0:0:
430,217,84446,1,2,3:2:0:0:
430,217,84534,2,0,P|492:246|526:229,1,93.5000028533936,0|2,3:2|0:2,0:0:0:0:
351,66,84887,6,0,B|300:31|300:31|278:97|309:170,1,187.000005706787,4|2,3:2|3:2,0:0:0:0:
176,306,85417,1,2,0:2:0:0:
180,152,85593,1,0,3:2:0:0:
285,338,85770,1,2,1:2:0:0:
303,154,85946,1,0,3:2:0:0:
153,320,86123,6,0,P|86:337|5:238,1,187.000005706787,6|0,1:2|3:2,0:0:0:0:
64,89,86652,1,2,3:2:0:0:
104,245,86829,1,0,3:2:0:0:
238,67,87005,2,0,P|191:47|150:53,1,93.5000028533936,2|0,1:2|3:2,0:0:0:0:
179,152,87270,1,0,3:2:0:0:
179,152,87358,2,0,L|232:162,1,46.7500014266968,2|0,1:2|1:2,0:0:0:0:
308,259,87534,2,0,L|298:206,1,46.7500014266968,0|0,1:2|1:2,0:0:0:0:
408,110,87711,6,0,B|355:142|355:142|330:123|314:124,1,106.25,4|0,3:2|0:0,0:0:0:0:
451,280,88064,1,2,3:2:0:0:
256,363,88240,2,0,P|315:372|282:258,1,212.5,2|2,1:2|3:2,0:0:0:0:
153,132,88770,6,0,L|140:261,1,106.25,2|0,1:2|3:2,0:0:0:0:
256,94,89123,1,0,3:2:0:0:
51,184,89299,2,0,B|0:150|0:150|46:5,1,212.5,0|2,1:2|3:2,0:0:0:0:
256,94,89829,6,0,L|263:168,1,46.7500014266968,2|0,1:2|1:2,0:0:0:0:
142,237,90005,2,0,L|146:190,1,46.7500014266968,0|0,1:2|1:2,0:0:0:0:
187,30,90181,1,2,1:2:0:0:
214,8,90269,1,0,1:2:0:0:
248,0,90357,1,0,1:2:0:0:
282,4,90445,1,0,1:2:0:0:
313,21,90533,5,6,1:2:0:0:
409,156,92476,6,0,P|366:110|304:110,1,127.500004863739,4|4,0:3|3:0,0:0:0:0:
191,71,93005,2,0,P|196:103|201:134,1,63.7500024318696,4|2,0:3|0:2,0:0:0:0:
265,201,93270,1,2,0:2:0:0:
265,201,93358,6,0,P|227:228|144:210,1,127.500004863739,6|2,3:2|0:2,0:0:0:0:
64,73,93887,2,0,L|75:29,1,31.8750012159348,0|0,1:2|0:0,0:0:0:0:
70,29,94240,1,0,3:0:0:0:
0,154,94417,2,0,P|5:186|8:218,1,63.7500024318696,8|0,0:3|0:2,0:0:0:0:
122,329,94770,6,0,B|218:290|209:377|320:319,1,191.250007295609,4|0,3:2|0:0,0:0:0:0:
393,228,95476,2,0,P|343:190|281:196,1,127.500004863739,4|2,3:2|0:2,0:0:0:0:
453,329,96181,6,0,B|481:304|508:288|508:288|496:228|488:167,1,191.250007295609,4|2,3:2|0:2,0:0:0:0:
489,46,96887,2,0,P|452:79|367:70,1,127.500004863739,4|0,3:2|0:2,0:0:0:0:
233,36,97417,1,0,1:2:0:0:
233,36,97505,1,0,3:2:0:0:
233,36,97593,6,0,B|253:23|281:16|281:16|253:63|263:114,1,152.999995330811,4|0,3:2|1:2,0:0:0:0:
407,192,98123,1,0,3:2:0:0:
407,192,98211,1,0,3:2:0:0:
407,192,98299,2,0,P|374:172|336:174,1,76.4999976654053,0|0,3:2|3:2,0:0:0:0:
258,211,98564,1,0,3:2:0:0:
258,211,98652,2,0,L|270:255,1,38.2499988327027,0|0,1:2|3:2,0:0:0:0:
344,297,98829,2,0,L|354:260,1,38.2499988327027,0|0,3:2|3:2,0:0:0:0:
266,337,99005,6,0,P|194:354|136:309,1,152.999995330811,4|0,3:2|1:2,0:0:0:0:
23,207,99534,1,0,3:2:0:0:
23,207,99623,1,0,1:2:0:0:
23,207,99711,2,0,P|60:199|98:196,1,76.4999976654053,0|0,3:2|3:2,0:0:0:0:
207,75,100064,2,0,P|199:112|196:150,1,76.4999976654053,0|2,1:2|3:2,0:0:0:0:
257,231,100329,1,2,0:2:0:0:
257,231,100417,6,0,P|218:231|181:237,1,76.4999976654053,2|0,3:2|3:2,0:0:0:0:
314,347,100770,2,0,P|352:347|389:354,1,76.4999976654053,4|0,1:2|3:2,0:0:0:0:
471,256,101034,1,0,3:2:0:0:
471,256,101123,6,0,L|408:266,2,50.9999984436036,0|0|0,1:2|1:2|1:2,0:0:0:0:
297,140,101476,6,0,L|347:147,2,50.9999984436036,0|8|4,1:2|0:3|0:3,0:0:0:0:
386,0,101829,6,0,B|423:28|468:34|468:34|493:95|438:179|438:179|424:146|438:116,1,297.5,4|0,3:2|0:2,0:0:0:0:
496,255,103240,6,0,B|433:286|376:251|376:251|316:212|253:255|253:255|281:268|310:260,1,297.5,2|0,0:2|0:2,0:0:0:0:
438,179,104652,6,0,P|354:142|162:215,1,297.5,2|0,0:2|0:2,0:0:0:0:
54,309,106064,6,0,B|79:315|106:312|106:312|89:253|37:236|37:236|73:192|76:151,1,255,2|2,0:2|0:2,0:0:0:0:
156,59,107476,6,0,B|242:39|215:113|334:67,1,170,2|2,0:2|0:2,0:0:0:0:
502,24,108534,2,0,L|488:77,1,42.5,2|2,0:2|0:2,0:0:0:0:
414,115,108887,2,0,L|399:24,2,85,2|0|2,0:2|0:2|0:2,0:0:0:0:
493,252,109946,2,0,L|434:244,1,42.5,2|2,0:2|0:2,0:0:0:0:
321,218,110299,6,0,P|343:234|355:297,1,85,2|2,0:2|0:2,0:0:0:0:
314,364,110829,2,0,P|272:355|230:350,1,85,2|2,0:2|0:2,0:0:0:0:
149,366,111358,1,2,0:2:0:0:
27,197,111711,2,0,P|86:218|176:155,1,170,2|2,0:2|0:0,0:0:0:0:
357,54,112770,2,0,L|309:45,1,42.5,2|2,0:0|0:0,0:0:0:0:
222,0,113123,6,0,L|244:129,1,127.5,2|2,0:2|0:0,0:0:0:0:
236,231,113829,1,2,0:0:0:0:
236,231,114005,2,0,L|295:220,1,42.5,2|2,0:0|0:0,0:0:0:0:
163,167,114358,2,0,P|129:219|142:281,1,127.5,2|2,0:0|0:0,0:0:0:0:
166,365,115064,1,2,0:0:0:0:
166,365,115240,1,2,0:2:0:0:
16,287,115593,2,0,L|29:233,1,42.5,2|0,0:0|0:0,0:0:0:0:
110,118,115946,6,0,P|61:155|0:142,1,127.5,2|0,0:0|0:0,0:0:0:0:
78,28,116652,2,0,P|120:31|162:38,1,85,2|2,0:0|0:0,0:0:0:0:
302,117,117181,1,2,0:0:0:0:
302,117,117358,6,0,P|325:79|245:48,1,152.999995330811,2|0,0:2|0:0,0:0:0:0:
179,132,118064,2,0,L|191:188,1,50.9999984436036,2|0,0:0|0:0,0:0:0:0:
200,213,118329,2,0,P|232:221|287:201,1,76.4999976654053,2|2,0:0|0:0,0:0:0:0:
387,313,118770,6,0,B|284:274|304:355|185:312,1,203.999993774414,2|2,0:0|0:0,0:0:0:0:
41,239,119829,1,2,0:0:0:0:
159,116,120181,2,0,P|148:165|140:216,1,101.999996887207,2|2,0:0|0:0,0:0:0:0:
99,336,120711,2,0,P|126:313|198:319,1,101.999996887207,2|0,0:0|0:0,0:0:0:0:
272,363,121240,1,2,0:0:0:0:
396,209,121593,6,0,P|346:217|305:188,1,101.999996887207,2|2,0:0|0:0,0:0:0:0:
243,111,122123,2,0,P|293:102|343:100,1,101.999996887207,2|0,0:0|0:2,0:0:0:0:
422,49,122652,2,0,L|432:100,1,50.9999984436036,2|2,0:0|0:0,0:0:0:0:
496,168,123005,2,0,L|473:285,1,101.999996887207,2|0,0:2|0:0,0:0:0:0:
293,299,123534,5,4,1:2:0:0:
404,380,123711,2,0,L|391:317,1,63.7500024318696,2|0,3:2|3:2,0:0:0:0:
248,179,124064,1,0,1:2:0:0:
268,203,124152,1,0,3:2:0:0:
296,216,124240,1,0,3:2:0:0:
328,216,124328,1,0,3:2:0:0:
357,204,124417,6,0,B|377:180|382:149|382:149|357:114|361:87,1,127.500004863739,4|0,3:2|3:2,0:0:0:0:
277,0,124946,1,0,0:2:0:0:
197,100,125123,2,0,P|228:101|260:107,1,63.7500024318696,0|0,3:2|0:2,0:0:0:0:
142,11,125476,2,0,P|110:12|78:18,1,63.7500024318696,2|2,3:2|0:2,0:0:0:0:
0,199,125829,6,0,P|60:210|111:142,1,127.500004863739,0|0,3:2|3:2,0:0:0:0:
232,308,126358,1,8,0:3:0:0:
290,220,126534,2,0,P|226:225|163:235,1,127.500004863739,0|2,3:2|3:2,0:0:0:0:
33,363,127064,1,2,0:2:0:0:
33,363,127152,1,0,1:0:0:0:
33,363,127240,6,0,P|74:317|63:256,2,127.500004863739,2|0|0,3:2|3:2|3:2,0:0:0:0:
29,162,128123,1,2,0:0:0:0:
163,236,128299,2,0,P|195:231|227:230,1,63.7500024318696,2|2,3:2|0:2,0:0:0:0:
368,157,128652,6,0,P|329:182|329:263,1,127.500004863739,2|4,3:2|1:2,0:0:0:0:
492,342,129181,1,0,1:2:0:0:
492,342,129270,1,0,1:0:0:0:
492,342,129358,2,0,L|484:292,1,31.8750012159348,0|0,1:2|1:0,0:0:0:0:
413,237,129534,2,0,L|407:268,1,31.8750012159348,2|0,1:2|1:0,0:0:0:0:
338,354,129711,6,0,P|318:347|298:351,2,42.5000016212464,2|0|2,1:2|1:2|1:2,0:0:0:0:
325,257,130064,6,0,B|273:251|273:251|249:265|249:265|190:259,1,127.500004863739,6|0,3:2|0:2,0:0:0:0:
47,292,130593,1,2,3:2:0:0:
131,340,130770,2,0,P|122:276|112:213,1,127.500004863739,2|2,1:2|0:2,0:0:0:0:
4,92,131299,1,2,3:2:0:0:
19,197,131476,5,0,3:0:0:0:
155,134,131652,2,0,P|125:122|93:123,1,63.7500024318696,0|0,1:0|0:0,0:0:0:0:
193,212,132005,1,0,3:0:0:0:
218,87,132181,2,0,P|203:149|192:211,1,127.500004863739,0|2,1:0|0:0,0:0:0:0:
334,302,132711,1,2,1:2:0:0:
334,302,132799,1,0,1:0:0:0:
334,302,132887,6,0,P|323:239|308:177,1,127.500004863739,2|2,3:2|0:0,0:0:0:0:
388,38,133417,1,2,3:2:0:0:
406,141,133593,1,0,1:2:0:0:
285,82,133770,2,0,P|252:74|214:82,1,63.7500024318696,0|2,3:2|0:2,0:0:0:0:
91,183,134123,1,2,1:2:0:0:
91,183,134211,1,0,1:2:0:0:
91,183,134299,5,4,3:2:0:0:
121,89,134476,1,0,1:2:0:0:
188,161,134652,2,0,L|188:239,1,63.7500024318696,6|0,3:2|1:2,0:0:0:0:
156,313,134917,1,0,1:2:0:0:
156,313,135005,2,0,L|108:304,1,31.8750012159348,2|0,3:2|3:0,0:0:0:0:
15,274,135181,2,0,L|46:268,1,31.8750012159348,0|2,3:0|3:2,0:0:0:0:
91,183,135358,1,0,1:0:0:0:
69,159,135446,1,0,1:2:0:0:
59,129,135534,1,2,1:2:0:0:
62,97,135622,1,0,1:0:0:0:
76,68,135710,5,4,3:2:0:0:
161,123,137652,5,0,3:2:0:0:
161,123,137740,1,0,3:2:0:0:
161,123,137829,2,0,P|197:113|235:107,1,76.4999976654053,6|2,1:2|3:2,0:0:0:0:
372,20,138181,1,0,1:2:0:0:
354,41,138269,1,0,1:2:0:0:
344,68,138357,1,0,1:2:0:0:
343,96,138445,1,0,1:2:0:0:
351,124,138534,6,0,P|362:203|368:275,1,152.999995330811,6|0,3:2|3:2,0:0:0:0:
452,143,139064,1,0,3:2:0:0:
284,235,139240,2,0,P|242:244|198:221,1,76.4999976654053,0|0,3:2|3:2,0:0:0:0:
213,79,139593,2,0,P|241:110|243:160,1,76.4999976654053,0|0,3:2|3:2,0:0:0:0:
137,309,139946,5,2,3:2:0:0:
154,148,140123,1,0,3:2:0:0:
36,276,140299,1,0,3:2:0:0:
211,232,140476,1,0,3:2:0:0:
62,120,140652,1,2,1:2:0:0:
225,5,140829,1,0,3:2:0:0:
248,15,140917,1,2,3:2:0:0:
266,32,141005,1,2,1:2:0:0:
279,54,141093,1,0,3:2:0:0:
284,79,141181,1,2,1:2:0:0:
281,104,141270,1,0,3:2:0:0:
270,127,141358,5,4,3:2:0:0:
270,127,142593,1,2,0:2:0:0:
173,283,142770,1,6,3:2:0:0:
173,283,143476,1,8,0:3:0:0:
120,198,143652,1,2,0:2:0:0:
143,188,143740,1,0,1:0:0:0:
168,184,143828,1,0,3:2:0:0:
193,187,143916,1,0,1:0:0:0:
217,195,144004,1,2,3:2:0:0:
238,209,144093,1,2,3:2:0:0:
256,229,144181,6,0,P|345:242|411:181,1,187.000005706787,4|0,3:2|1:2,0:0:0:0:
294,39,144711,1,2,3:2:0:0:
294,39,144799,1,0,1:2:0:0:
294,39,144887,2,0,P|303:84|311:130,1,93.5000028533936,2|2,3:2|3:2,0:0:0:0:
253,328,145240,1,2,1:2:0:0:
37,249,145417,6,0,B|62:205|127:197|127:197|152:237|192:237,1,187.000005706787,6|0,3:2|3:2,0:0:0:0:
33,130,145946,1,2,1:2:0:0:
227,58,146123,1,0,3:2:0:0:
227,58,146211,1,0,1:2:0:0:
227,58,146299,2,0,P|217:103|207:149,1,93.5000028533936,2|0,3:2|3:2,0:0:0:0:
323,275,146652,2,0,P|318:232|303:183,1,93.5000028533936,2|0,1:2|0:2,0:0:0:0:
484,48,147005,6,0,B|456:106|456:106|386:116|336:70,1,187.000005706787,4|0,3:2|1:2,0:0:0:0:
420,246,147534,1,2,3:2:0:0:
420,246,147623,1,0,1:2:0:0:
420,246,147711,2,0,P|466:239|512:237,1,93.5000028533936,2|0,3:2|3:2,0:0:0:0:
304,184,148064,1,0,1:2:0:0:
397,384,148240,6,0,B|437:352|437:352|380:304|308:335,1,187.000005706787,4|0,3:2|3:2,0:0:0:0:
156,234,148770,1,0,1:2:0:0:
312,138,148946,1,0,3:2:0:0:
312,138,149034,1,0,1:2:0:0:
312,138,149123,2,0,L|303:195,2,46.7500014266968,0|0|0,3:2|1:2|3:2,0:0:0:0:
168,27,149476,2,0,P|194:64|190:109,1,93.5000028533936,0|2,1:2|3:2,0:0:0:0:
6,254,149829,6,0,P|39:210|163:245,1,187.000005706787,6|0,3:2|1:2,0:0:0:0:
303,352,150358,1,2,0:0:0:0:
303,352,150446,1,0,1:0:0:0:
303,352,150534,2,0,P|297:305|290:259,1,93.5000028533936,0|2,3:2|3:2,0:0:0:0:
202,384,150887,1,2,1:2:0:0:
397,283,151064,6,0,P|405:189|416:97,1,187.000005706787,2|0,3:2|3:2,0:0:0:0:
496,245,151593,1,2,1:2:0:0:
322,148,151770,1,0,3:2:0:0:
322,148,151858,1,0,1:2:0:0:
322,148,151946,2,0,P|273:124|206:144,1,93.5000028533936,2|0,3:2|3:2,0:0:0:0:
112,281,152299,2,0,P|158:282|198:260,1,93.5000028533936,2|2,1:2|0:2,0:0:0:0:
173,32,152652,6,0,B|149:47|116:65|116:65|128:114|137:184,1,187.000005706787,6|0,3:2|1:2,0:0:0:0:
292,326,153181,1,2,3:2:0:0:
292,326,153270,1,0,1:2:0:0:
292,326,153358,2,0,P|294:279|301:233,1,93.5000028533936,2|0,3:2|3:2,0:0:0:0:
380,379,153711,1,0,1:2:0:0:
187,293,153887,6,0,P|113:279|24:379,1,187.000005706787,4|0,3:2|3:2,0:0:0:0:
137,184,154417,1,0,1:2:0:0:
0,244,154593,1,0,3:2:0:0:
129,368,154770,1,2,1:2:0:0:
223,128,154946,1,0,1:2:0:0:
209,109,155034,1,2,1:2:0:0:
192,94,155123,1,0,1:2:0:0:
171,84,155211,1,0,3:2:0:0:
148,79,155299,1,2,1:2:0:0:
125,80,155387,1,0,3:2:0:0:
103,88,155476,6,0,P|33:100|57:11,1,187.000005706787,6|2,3:2|1:2,0:0:0:0:
147,175,156005,2,0,P|136:220|132:267,1,93.5000028533936,2|0,0:2|3:2,0:0:0:0:
0,384,156358,1,2,3:2:0:0:
41,203,156534,1,0,1:2:0:0:
249,360,156711,6,0,B|191:402|119:360|119:360|149:364|167:354,1,187.000005706787,2|0,3:2|3:2,0:0:0:0:
250,175,157240,1,2,1:2:0:0:
405,290,157417,1,2,0:2:0:0:
405,290,157505,1,0,1:0:0:0:
405,290,157593,2,0,L|340:300,2,46.7500014266968,0|0|2,3:2|0:0|3:2,0:0:0:0:
352,102,157946,2,0,P|356:148|360:195,1,93.5000028533936,0|2,1:2|0:2,0:0:0:0:
456,45,158299,6,0,P|366:60|299:0,1,187.000005706787,6|2,3:2|1:2,0:0:0:0:
114,78,158829,1,2,0:2:0:0:
114,78,158917,1,0,1:2:0:0:
114,78,159005,2,0,P|163:77|208:106,1,93.5000028533936,0|2,3:2|3:2,0:0:0:0:
361,195,159358,1,0,1:2:0:0:
237,384,159534,6,0,B|215:314|215:314|238:271|238:271|211:174,1,187.000005706787,6|0,3:2|3:2,0:0:0:0:
136,384,160064,1,0,1:2:0:0:
357,332,160240,1,0,3:2:0:0:
357,332,160329,1,2,3:2:0:0:
357,332,160417,2,0,L|275:316,2,46.7500014266968,2|0|0,1:2|1:2|3:2,0:0:0:0:
139,264,160770,2,0,L|43:275,1,93.5000028533936,2|2,1:2|0:2,0:0:0:0:
224,90,161123,6,0,B|282:119|282:119|287:180|252:236,1,187.000005706787,6|0,3:2|1:2,0:0:0:0:
112,97,161652,1,2,3:2:0:0:
112,97,161740,1,0,1:2:0:0:
112,97,161829,2,0,P|118:50|128:4,1,93.5000028533936,0|0,3:2|3:2,0:0:0:0:
184,178,162181,1,2,1:2:0:0:
0,257,162358,6,0,P|89:248|142:320,1,187.000005706787,2|0,3:2|3:2,0:0:0:0:
24,152,162887,1,2,1:2:0:0:
198,86,163064,1,0,3:2:0:0:
198,86,163152,1,0,1:2:0:0:
198,86,163240,2,0,P|189:132|183:178,1,93.5000028533936,2|0,3:2|3:2,0:0:0:0:
0,55,163593,2,0,P|46:60|92:69,1,93.5000028533936,0|0,1:2|3:2,0:0:0:0:
283,225,163946,6,0,P|194:207|129:269,1,187.000005706787,2|0,3:2|1:2,0:0:0:0:
293,367,164476,1,2,3:2:0:0:
293,367,164564,1,0,1:2:0:0:
293,367,164652,2,0,P|339:359|385:356,1,93.5000028533936,2|0,3:2|3:2,0:0:0:0:
416,279,164917,1,0,3:2:0:0:
416,279,165005,2,0,L|361:268,1,46.7500014266968,2|0,1:2|0:2,0:0:0:0:
472,357,165181,6,0,B|521:316|521:316|487:195,1,187.000005706787,6|0,3:2|3:2,0:0:0:0:
350,63,165711,1,0,1:2:0:0:
370,270,165887,1,0,3:2:0:0:
478,78,166064,1,2,1:2:0:0:
301,177,166240,1,0,1:2:0:0:
278,183,166328,1,0,1:2:0:0:
255,184,166416,1,2,1:2:0:0:
232,180,166504,1,0,1:2:0:0:
210,172,166592,1,2,1:2:0:0:
191,159,166681,1,0,1:2:0:0:
174,142,166770,6,0,P|96:93|8:113,1,187.000005706787,4|0,3:2|1:2,0:0:0:0:
62,295,167299,1,2,3:2:0:0:
62,295,167387,1,0,1:2:0:0:
62,295,167476,2,0,P|64:248|72:202,1,93.5000028533936,2|2,3:2|3:2,0:0:0:0:
148,17,167829,1,2,1:2:0:0:
352,146,168005,6,0,B|256:106|274:194|173:142,1,187.000005706787,6|0,3:2|3:2,0:0:0:0:
318,239,168534,1,2,1:2:0:0:
226,67,168711,1,0,3:2:0:0:
226,67,168799,1,0,1:2:0:0:
225,67,168887,2,0,P|266:46|314:47,1,93.5000028533936,2|0,3:2|3:2,0:0:0:0:
463,155,169240,2,0,P|441:114|450:68,1,93.5000028533936,2|0,1:2|0:2,0:0:0:0:
318,239,169593,6,0,B|255:223|255:223|213:250|213:250|120:225,1,187.000005706787,6|0,3:2|1:2,0:0:0:0:
284,332,170123,1,2,3:2:0:0:
194,154,170299,2,0,P|151:135|106:146,1,93.5000028533936,2|0,3:2|1:2,0:0:0:0:
10,231,170563,1,0,1:2:0:0:
10,231,170652,2,0,L|79:220,1,46.7500014266968,0|0,1:2|1:2,0:0:0:0:
175,318,170829,6,0,B|127:356|127:356|146:214,1,187.000005706787,4|0,3:2|3:2,0:0:0:0:
282,54,171358,1,2,1:2:0:0:
297,250,171534,1,0,3:2:0:0:
107,145,171711,1,2,1:2:0:0:
58,365,171887,1,0,1:2:0:0:
72,346,171975,1,0,1:2:0:0:
91,333,172063,1,0,1:2:0:0:
113,324,172151,1,0,1:2:0:0:
136,321,172239,1,0,3:2:0:0:
159,324,172328,1,0,3:2:0:0:
181,333,172417,6,0,P|237:354|371:289,1,187.000005706787,4|0,3:2|1:2,0:0:0:0:
481,168,172946,1,2,3:2:0:0:
481,168,173034,1,0,1:2:0:0:
481,168,173123,2,0,P|470:214|463:260,1,93.5000028533936,0|2,3:2|3:2,0:0:0:0:
363,93,173476,1,2,1:2:0:0:
264,261,173652,6,0,P|215:213|94:234,1,187.000005706787,2|0,3:2|3:2,0:0:0:0:
3,56,174181,1,2,1:2:0:0:
197,93,174358,1,0,3:2:0:0:
197,93,174446,1,0,1:2:0:0:
197,93,174534,2,0,P|150:95|104:102,1,93.5000028533936,2|0,3:2|3:2,0:0:0:0:
33,312,174887,2,0,P|79:314|125:321,1,93.5000028533936,2|2,1:2|3:2,0:0:0:0:
212,367,175152,1,0,1:2:0:0:
212,367,175240,6,0,P|150:303|179:219,1,187.000005706787,6|4,3:2|1:2,0:0:0:0:
342,132,175770,1,2,0:2:0:0:
342,132,175858,1,0,1:2:0:0:
342,132,175946,2,0,L|349:202,2,46.7500014266968,2|0|0,3:2|3:2|3:2,0:0:0:0:
250,288,176299,1,0,1:2:0:0:
494,355,176476,6,0,P|447:278|357:276,1,187.000005706787,6|0,3:2|3:2,0:0:0:0:
195,374,177005,2,0,P|241:375|287:383,1,93.5000028533936,0|2,1:2|3:2,0:0:0:0:
179,219,177358,1,2,1:2:0:0:
39,358,177534,1,0,3:2:0:0:
56,342,177622,1,2,3:2:0:0:
68,322,177710,1,0,1:2:0:0:
75,300,177798,1,0,1:2:0:0:
76,276,177886,1,2,1:2:0:0:
70,254,177975,1,0,1:2:0:0:
60,234,178064,6,0,P|36:177|109:81,1,187.000005706787,4|2,1:2|3:2,0:0:0:0:
274,169,178593,1,0,3:2:0:0:
172,15,178770,1,0,3:2:0:0:
135,175,178946,1,2,3:2:0:0:
291,65,179123,1,0,3:2:0:0:
410,254,179299,6,0,B|303:220|331:297|230:256,1,187.000005706787,2|0,1:2|3:2,0:0:0:0:
382,145,179829,2,0,P|428:149|474:156,1,93.5000028533936,0|0,3:2|3:2,0:0:0:0:
364,343,180181,2,0,P|317:346|271:354,1,93.5000028533936,2|0,3:2|3:2,0:0:0:0:
187,384,180446,1,2,3:2:0:0:
187,384,180534,2,0,P|158:322|175:288,1,93.5000028533936,0|2,3:2|0:2,0:0:0:0:
13,188,180887,6,0,P|72:211|164:123,1,187.000005706787,4|2,3:2|3:2,0:0:0:0:
334,55,181417,1,2,0:2:0:0:
242,209,181593,1,0,3:2:0:0:
195,52,181770,1,2,1:2:0:0:
356,176,181946,1,0,3:2:0:0:
182,36,182123,6,0,P|128:23|58:131,1,187.000005706787,6|0,1:2|3:2,0:0:0:0:
89,312,182652,1,2,3:2:0:0:
161,141,182829,1,0,1:2:0:0:
0,205,183005,2,0,P|46:210|92:216,1,93.5000028533936,2|0,1:2|3:2,0:0:0:0:
221,250,183270,1,0,3:2:0:0:
221,250,183358,2,0,L|159:259,1,46.7500014266968,2|0,1:2|1:2,0:0:0:0:
82,358,183534,2,0,L|91:296,1,46.7500014266968,0|0,1:2|1:2,0:0:0:0:
161,141,183711,6,0,P|208:101|348:136,1,187.000005706787,6|2,3:2|3:2,0:0:0:0:
502,200,184240,1,2,1:2:0:0:
457,24,184417,2,0,P|433:63|438:109,1,93.5000028533936,0|2,3:2|3:2,0:0:0:0:
300,246,184770,2,0,P|339:222|385:227,1,93.5000028533936,2|0,1:2|3:2,0:0:0:0:
243,356,185123,6,0,P|196:348|150:344,1,93.5000028533936,0|0,3:2|1:2,0:0:0:0:
93,164,185476,1,0,3:0:0:0:
3,297,185652,1,2,3:2:0:0:
192,220,185829,2,0,P|213:173|194:113,1,93.5000028533936,2|4,3:2|0:3,0:0:0:0:
206,132,186093,2,0,P|254:160|331:94,1,140.25000428009,2|2,0:2|0:2,0:0:0:0:
505,231,186534,6,0,B|434:208|382:263|382:263|409:279|432:277,1,187.000005706787,6|0,3:2|3:0,0:0:0:0:
512,130,187064,1,2,3:2:0:0:
355,34,187240,1,0,1:0:0:0:
512,36,187417,1,0,1:0:0:0:
411,190,187593,1,0,1:0:0:0:
339,4,187770,5,0,1:0:0:0:
219,176,199064,5,0,3:2:0:0:
219,176,199152,1,0,3:2:0:0:
219,176,199240,2,0,L|308:189,1,63.7500024318696,2|0,1:2|0:2,0:0:0:0:
453,123,199593,1,2,3:2:0:0:
340,17,199770,2,0,P|354:80|363:142,1,127.500004863739,8|0,0:3|0:2,0:0:0:0:
399,335,200299,1,2,1:2:0:0:
399,335,200652,6,0,B|326:312|346:362|267:339,1,127.500004863739,4|0,3:2|0:0,0:0:0:0:
123,286,201181,1,0,3:2:0:0:
193,384,201358,2,0,P|199:320|207:257,1,127.500004863739,0|0,1:2|0:2,0:0:0:0:
263,143,201887,1,4,0:3:0:0:
301,235,202064,5,2,3:2:0:0:
165,171,202240,2,0,P|97:176|38:184,1,127.500004863739,0|0,1:2|3:2,0:0:0:0:
92,44,202770,2,0,P|141:80|203:71,1,127.500004863739,2|2,1:2|0:2,0:0:0:0:
437,45,203476,6,0,P|392:64|387:137,1,127.500004863739,6|2,1:2|0:2,0:0:0:0:
380,301,204005,1,0,3:2:0:0:
464,215,204181,2,0,P|400:216|336:219,1,127.500004863739,6|0,1:2|3:2,0:0:0:0:
129,362,204887,6,0,P|183:297|173:235,1,152.999995330811,6|0,3:2|3:2,0:0:0:0:
108,80,205417,1,0,3:2:0:0:
3,192,205593,2,0,P|42:183|82:179,1,76.4999976654053,0|0,1:2|1:2,0:0:0:0:
211,106,205946,2,0,P|250:108|289:117,1,76.4999976654053,0|2,1:2|1:2,0:0:0:0:
376,83,206211,1,2,0:2:0:0:
376,83,206299,6,0,P|317:127|324:200,1,152.999995330811,6|0,1:2|1:2,0:0:0:0:
443,342,206829,1,0,0:2:0:0:
443,342,206917,1,0,1:2:0:0:
443,342,207005,2,0,P|446:303|451:265,1,76.4999976654053,0|0,3:2|3:2,0:0:0:0:
277,287,207358,2,0,P|315:290|353:295,1,76.4999976654053,0|0,1:2|3:2,0:0:0:0:
287,111,207711,6,0,P|248:114|210:119,1,76.4999976654053,2|0,3:2|3:2,0:0:0:0:
54,173,208064,1,2,1:2:0:0:
96,20,208240,1,0,3:2:0:0:
96,20,208329,1,0,1:2:0:0:
96,20,208417,2,0,P|105:57|110:94,1,76.4999976654053,2|0,3:2|3:2,0:0:0:0:
211,232,208770,2,0,P|179:211|141:211,1,76.4999976654053,2|0,1:2|3:2,0:0:0:0:
6,300,209123,6,0,B|86:272|57:340|152:305,1,152.999995330811,2|0,3:2|1:2,0:0:0:0:
303,377,209652,1,2,3:2:0:0:
303,377,209740,1,2,1:2:0:0:
303,377,209829,2,0,P|285:335|300:287,1,76.4999976654053,0|0,3:2|3:2,0:0:0:0:
457,319,210181,2,0,P|418:322|381:329,1,76.4999976654053,0|2,1:2|0:2,0:0:0:0:
245,200,210534,6,0,P|282:206|320:210,1,76.4999976654053,2|2,3:2|3:2,0:0:0:0:
475,129,210887,1,0,1:2:0:0:
367,37,211064,1,0,3:2:0:0:
367,37,211152,1,0,1:2:0:0:
367,37,211240,2,0,P|345:81|359:123,1,76.4999976654053,0|0,3:2|3:2,0:0:0:0:
510,235,211593,1,2,1:2:0:0:
482,227,211681,1,2,0:2:0:0:
453,229,211769,1,2,0:2:0:0:
427,241,211857,1,2,0:2:0:0:
407,260,211946,6,0,P|360:289|297:278,1,93.5000028533936,6|0,1:2|3:2,0:0:0:0:
237,256,212211,1,0,1:2:0:0:
237,256,212299,2,0,L|228:322,1,46.7500014266968,0|0,1:2|0:2,0:0:0:0:
335,198,212476,6,0,P|342:151|349:105,1,93.5000028533936,2|0,3:2|3:2,0:0:0:0:
426,64,212740,1,0,1:2:0:0:
426,64,212829,2,0,L|439:134,1,46.7500014266968,0|0,1:2|0:0,0:0:0:0:
338,19,213005,1,2,1:2:0:0:
208,162,213181,1,2,3:2:0:0:
208,162,213270,1,0,3:2:0:0:
208,162,213358,6,0,B|85:118|126:211|-1:163|-1:163|27:131|68:133,1,297.5,6|0,1:2|0:0,0:0:0:0:
158,245,214770,5,2,0:2:0:0:
163,248,230123,5,0,3:2:0:0:
163,248,230211,1,0,3:2:0:0:
163,248,230299,2,0,P|201:241|239:237,1,76.4999976654053,2|0,1:2|3:2,0:0:0:0:
100,158,230652,1,0,3:2:0:0:
287,127,230829,2,0,P|213:129|169:70,1,152.999995330811,2|0,1:2|3:2,0:0:0:0:
320,15,231358,1,2,1:2:0:0:
394,158,231534,1,0,3:2:0:0:
394,158,231623,1,0,3:2:0:0:
394,158,231711,6,0,P|381:233|372:309,1,152.999995330811,4|0,1:2|3:2,0:0:0:0:
469,220,232240,1,0,3:2:0:0:
292,251,232417,2,0,P|254:245|216:241,1,76.4999976654053,0|0,3:2|3:2,0:0:0:0:
100,148,232770,2,0,P|137:142|175:138,1,76.4999976654053,0|0,1:2|3:2,0:0:0:0:
310,40,233123,5,0,1:2:0:0:
270,157,233299,1,0,1:2:0:0:
212,16,233476,1,0,1:2:0:0:
368,112,233652,1,0,1:2:0:0:
216,241,233829,2,0,P|177:245|140:250,1,76.4999976654053,2|0,1:2|1:2,0:0:0:0:
53,257,234093,1,2,1:2:0:0:
53,257,234181,2,0,P|71:217|60:173,1,76.4999976654053,0|2,1:2|1:2,0:0:0:0:
212,16,234534,6,0,P|194:56|205:100,1,76.4999976654053,4|0,1:2|3:2,0:0:0:0:
270,157,234799,1,0,3:2:0:0:
270,157,234887,2,0,P|307:150|345:148,1,76.4999976654053,0|0,1:2|3:2,0:0:0:0:
384,72,235152,1,0,3:2:0:0:
384,72,235240,2,0,L|340:62,1,38.2499988327027,0|0,1:2|1:2,0:0:0:0:
443,147,235417,2,0,L|480:138,1,38.2499988327027,0|0,1:2|1:2,0:0:0:0:
470,54,235593,1,0,1:2:0:0:
470,239,235770,1,0,1:2:0:0:
470,239,235858,1,0,1:2:0:0:
470,239,235946,6,0,P|477:276|482:314,1,76.4999976654053,4|0,1:2|1:2,0:0:0:0:
313,384,236299,2,0,P|317:346|325:308,1,76.4999976654053,2|0,1:2|1:2,0:0:0:0:
208,149,236652,1,2,1:2:0:0:
200,332,236829,1,0,1:2:0:0:
329,192,237005,1,2,1:2:0:0:
123,243,237181,1,2,1:2:0:0:
116,227,237534,6,0,L|57:216,1,38.2499988327027,8|4,0:3|0:3,0:0:0:0:
2,169,237711,6,0,P|74:181|126:129,1,152.999995330811,6|2,1:2|3:2,0:0:0:0:
138,105,238152,1,0,3:2:0:0:
159,83,238240,1,0,1:2:0:0:
186,69,238328,1,0,1:2:0:0:
216,62,238416,1,0,1:2:0:0:
246,65,238504,1,0,1:2:0:0:
275,76,238593,6,0,P|329:91|429:9,1,187.000005706787,6|0,3:2|3:2,0:0:0:0:
298,194,239123,1,2,1:2:0:0:
494,200,239299,1,0,3:2:0:0:
494,200,239387,1,0,1:2:0:0:
494,200,239476,2,0,P|455:173|386:180,1,93.5000028533936,2|0,3:2|3:2,0:0:0:0:
289,302,239829,2,0,P|335:299|372:272,1,93.5000028533936,2|0,1:2|0:2,0:0:0:0:
298,194,240093,1,0,1:2:0:0:
298,194,240181,6,0,B|225:182|225:182|196:205|196:205|120:193,1,187.000005706787,6|0,3:2|1:2,0:0:0:0:
304,88,240711,1,4,3:0:0:0:
142,9,240887,2,0,P|151:51|157:101,1,93.5000028533936,2|0,1:2|1:2,0:0:0:0:
215,200,241152,1,0,1:2:0:0:
215,200,241240,2,0,P|218:176|224:154,1,46.7500014266968,0|0,1:2|0:0,0:0:0:0:
69,121,241417,6,0,B|19:163|19:163|63:299,1,187.000005706787,4|0,3:2|3:2,0:0:0:0:
248,336,241946,1,0,1:2:0:0:
121,193,242123,1,0,3:2:0:0:
92,379,242299,1,0,1:2:0:0:
234,220,242476,1,0,3:2:0:0:
255,210,242564,1,0,3:2:0:0:
278,208,242652,1,0,1:2:0:0:
301,212,242740,1,4,3:0:0:0:
322,223,242828,1,4,3:0:0:0:
339,239,242917,1,8,0:3:0:0:
350,259,243005,6,0,P|302:243|323:108,1,187.000005706787,4|0,3:2|1:2,0:0:0:0:
436,8,243534,1,2,0:2:0:0:
436,8,243623,1,0,1:2:0:0:
436,8,243711,2,0,L|416:121,1,93.5000028533936,2|2,3:2|3:2,0:0:0:0:
332,12,244064,1,0,1:2:0:0:
512,138,244240,6,0,P|423:131|374:205,1,187.000005706787,2|0,3:2|3:2,0:0:0:0:
233,86,244770,1,2,1:2:0:0:
166,262,244946,1,0,3:2:0:0:
166,262,245034,1,0,1:2:0:0:
166,262,245123,2,0,P|212:252|259:247,1,93.5000028533936,0|0,3:2|3:2,0:0:0:0:
88,166,245476,2,0,P|58:207|65:266,1,93.5000028533936,0|0,1:2|3:2,0:0:0:0:
49,340,245740,1,0,1:2:0:0:
49,340,245829,6,0,B|142:308|118:383|228:335,1,187.000005706787,2|0,3:2|1:2,0:0:0:0:
372,206,246358,1,2,3:2:0:0:
372,206,246446,1,0,3:2:0:0:
372,206,246534,2,0,L|364:269,2,46.7500014266968,2|0|0,3:2|1:2|3:2,0:0:0:0:
424,364,246887,1,0,1:2:0:0:
256,232,247064,6,0,P|168:209|98:265,1,187.000005706787,4|0,3:2|3:2,0:0:0:0:
238,111,247593,1,0,1:2:0:0:
44,168,247770,1,2,3:2:0:0:
192,303,247946,1,2,1:2:0:0:
140,80,248123,1,0,3:2:0:0:
145,57,248211,1,2,3:2:0:0:
157,37,248299,1,0,1:2:0:0:
174,21,248387,1,0,1:2:0:0:
194,9,248475,1,2,1:2:0:0:
217,4,248564,1,0,1:2:0:0:
240,5,248652,6,0,B|291:13|316:45|316:45|350:16|409:15,1,187.000005706787,4|2,1:2|3:2,0:0:0:0:
238,111,249181,1,2,0:2:0:0:
396,231,249358,1,0,3:2:0:0:
238,268,249534,1,2,0:2:0:0:
385,120,249711,1,0,3:2:0:0:
495,300,249887,6,0,P|420:352|333:328,1,187.000005706787,2|0,1:2|3:2,0:0:0:0:
146,278,250417,2,0,P|192:271|238:268,1,93.5000028533936,0|0,3:2|3:2,0:0:0:0:
385,120,250770,2,0,P|338:113|292:110,1,93.5000028533936,2|0,3:2|3:2,0:0:0:0:
187,96,251034,1,2,0:0:0:0:
187,96,251123,2,0,P|213:135|207:180,1,93.5000028533936,0|4,3:2|0:3,0:0:0:0:
60,334,251476,6,0,B|34:307|30:274|30:274|90:302|146:278,1,187.000005706787,6|2,3:2|3:2,0:0:0:0:
292,110,252005,1,2,0:2:0:0:
92,189,252181,1,0,3:2:0:0:
281,295,252358,1,2,1:2:0:0:
187,96,252534,1,0,3:2:0:0:
311,308,252711,6,0,B|273:262|273:262|146:278,1,187.000005706787,6|0,1:2|3:2,0:0:0:0:
3,133,253240,1,2,1:2:0:0:
189,181,253417,1,0,1:2:0:0:
16,333,253593,2,0,P|20:286|28:240,1,93.5000028533936,2|0,1:2|3:2,0:0:0:0:
100,143,253858,1,0,1:2:0:0:
100,143,253946,2,0,L|90:203,1,46.7500014266968,0|0,1:2|1:2,0:0:0:0:
147,278,254123,2,0,L|207:268,1,46.7500014266968,4|0,3:2|3:2,0:0:0:0:
289,193,254299,6,0,B|242:170|242:170|167:186,1,106.25,4|0,3:2|0:2,0:0:0:0:
291,337,254652,1,2,3:2:0:0:
391,135,254829,2,0,B|414:212|414:212|387:264|387:264|416:366,1,212.5,2|6,1:2|3:2,0:0:0:0:
177,375,255358,6,0,L|196:254,1,106.25,6|0,1:2|3:2,0:0:0:0:
84,107,255711,1,0,3:2:0:0:
245,178,255887,2,0,B|108:141|172:232|42:191,1,212.5,6|2,1:2|3:2,0:0:0:0:
205,69,256417,1,0,1:2:0:0:
364,224,256593,1,2,1:2:0:0:
388,235,256681,1,0,1:2:0:0:
414,238,256769,1,2,1:2:0:0:
440,234,256857,1,0,1:2:0:0:
464,222,256945,1,2,1:2:0:0:
483,204,257034,1,0,1:2:0:0:
497,181,257123,6,0,P|455:142|384:151,1,106.25,6|0,1:2|0:2,0:0:0:0:
213,250,257476,1,2,3:2:0:0:
350,384,257652,2,0,P|335:278|312:175,1,212.5,6|2,1:2|3:2,0:0:0:0:
159,15,258181,6,0,P|212:44|267:35,1,106.25,6|0,1:2|3:2,0:0:0:0:
58,122,258534,1,0,3:2:0:0:
213,250,258711,2,0,B|160:281|160:281|132:192|177:117,1,212.5,6|0,1:2|3:2,0:0:0:0:
345,0,259240,2,0,L|358:72,1,53.125,2|0,1:2|1:2,0:0:0:0:
454,96,259417,2,0,L|463:43,1,53.125,0|0,1:2|1:2,0:0:0:0:
305,143,259593,1,2,1:2:0:0:
329,136,259681,1,0,1:2:0:0:
356,138,259769,1,0,1:2:0:0:
379,150,259857,1,0,1:2:0:0:
396,170,259946,6,0,P|383:221|374:273,1,106.25,6|0,1:2|0:2,0:0:0:0:
171,197,260299,1,6,3:2:0:0:
284,384,260476,2,0,P|274:278|261:172,1,212.5,2|4,1:2|3:2,0:0:0:0:
75,282,261005,6,0,P|127:285|180:294,1,106.25,6|0,1:2|3:2,0:0:0:0:
369,195,261358,1,0,3:2:0:0:
210,24,261534,2,0,B|144:61|144:61|171:200,1,212.5,6|2,1:2|3:2,0:0:0:0:
329,320,262064,1,2,1:2:0:0:
458,137,262240,1,2,3:2:0:0:
440,117,262328,1,0,3:2:0:0:
418,101,262416,1,2,1:2:0:0:
393,92,262504,1,0,1:2:0:0:
367,89,262592,1,0,1:2:0:0:
341,93,262681,1,0,1:2:0:0:
317,104,262769,5,2,1:2:0:0:
67,125,264711,6,0,P|131:120|194:110,1,127.500004863739,4|8,0:3|0:3,0:0:0:0:
306,14,265240,2,0,P|298:45|294:76,1,63.7500024318696,4|2,0:3|0:2,0:0:0:0:
234,229,265593,6,0,P|264:195|353:206,1,127.500004863739,6|2,3:2|0:2,0:0:0:0:
424,94,266123,1,0,1:2:0:0:
434,84,266476,1,0,3:2:0:0:
486,198,266652,2,0,P|455:212|409:203,1,63.7500024318696,0|0,3:2|0:0,0:0:0:0:
313,316,267005,6,0,B|420:280|376:357|497:305,1,191.250007295609,4|0,3:2|0:0,0:0:0:0:
322,209,267711,2,0,P|259:219|195:226,1,127.500004863739,4|2,3:2|0:2,0:0:0:0:
28,108,268417,6,0,B|70:101|98:133|98:133|77:244,1,191.250007295609,4|2,3:2|0:2,0:0:0:0:
173,352,269123,2,0,L|197:223,1,127.500004863739,6|0,3:2|0:2,0:0:0:0:
327,111,269652,1,0,1:2:0:0:
327,111,269740,1,2,1:2:0:0:
327,111,269829,6,0,B|311:150|263:167|263:167|238:142|205:137,1,152.999995330811,4|2,3:2|1:2,0:0:0:0:
90,51,270358,1,0,3:2:0:0:
90,51,270446,1,0,3:2:0:0:
90,51,270534,2,0,P|132:63|168:45,1,76.4999976654053,2|0,1:2|3:2,0:0:0:0:
248,25,270799,1,0,3:2:0:0:
248,25,270887,2,0,L|255:81,1,38.2499988327027,2|0,1:2|3:2,0:0:0:0:
327,111,271064,2,0,L|331:73,1,38.2499988327027,0|0,3:2|3:2,0:0:0:0:
245,159,271240,6,0,P|318:147|373:196,1,152.999995330811,4|0,3:2|1:2,0:0:0:0:
508,117,271770,1,2,0:0:0:0:
508,117,271858,1,0,1:2:0:0:
508,117,271946,2,0,P|492:152|490:199,1,76.4999976654053,0|0,3:2|3:2,0:0:0:0:
356,294,272299,2,0,P|393:288|429:301,1,76.4999976654053,0|2,1:2|0:2,0:0:0:0:
389,377,272564,1,2,0:2:0:0:
389,377,272652,6,0,P|350:377|312:380,1,76.4999976654053,2|0,3:2|3:2,0:0:0:0:
175,291,273005,2,0,P|213:291|251:294,1,76.4999976654053,4|0,1:2|3:2,0:0:0:0:
316,220,273270,1,0,1:2:0:0:
316,220,273358,6,0,L|304:166,2,50.9999984436036,0|0|0,1:2|1:2|1:2,0:0:0:0:
218,114,273711,6,0,L|206:168,2,50.9999984436036,0|8|4,1:2|3:0|3:0,0:0:0:0:
295,63,274064,6,0,P|222:77|163:32,1,152.999995330811,4|0,3:2|3:2,0:0:0:0:
4,140,274593,1,2,3:2:0:0:
127,239,274770,2,0,P|123:200|117:163,1,76.4999976654053,2|0,3:2|3:2,0:0:0:0:
16,320,275123,2,0,P|19:281|25:244,1,76.4999976654053,0|2,3:2|3:2,0:0:0:0:
220,202,275476,5,2,1:2:0:0:
115,364,275652,1,0,1:2:0:0:
293,293,275829,1,0,1:2:0:0:
127,239,276005,1,2,1:2:0:0:
260,121,276181,5,2,1:2:0:0:
195,314,276358,1,0,1:2:0:0:
144,109,276534,1,0,1:2:0:0:
356,189,276711,1,0,1:2:0:0:
362,200,277593,5,6,1:2:0:0:
256,192,277770,12,0,281829,0:0:0:0:
