osu file format v14

[General]
AudioFilename: audio.mp3
AudioLeadIn: 0
PreviewTime: 48080
Countdown: 0
SampleSet: Soft
StackLeniency: 0.7
Mode: 0
LetterboxInBreaks: 0
WidescreenStoryboard: 0

[Editor]
DistanceSpacing: 1
BeatDivisor: 4
GridSize: 32
TimelineZoom: 1.8

[Metadata]
Title:Fuyu ni Saku Hana
TitleUnicode:冬に咲く華
Artist:Mitsuki Kotono
ArtistUnicode:美月琴音
Creator:mnyui
Version:Haven
Source:彼女のセイイキ
Tags:japanese pop feng kanojo no seiiki op opening eroge visual novel vn shirahane suou shirahane_suou video game
BeatmapID:2690858
BeatmapSetID:1297024

[Difficulty]
HPDrainRate:6
CircleSize:4
OverallDifficulty:9
ApproachRate:9.3
SliderMultiplier:1.7
SliderTickRate:1

[Events]
//Background and Video events
0,0,"fuyu.jpg",0,0
//Break Periods
2,189358,197804
2,214970,228873
//Storyboard Layer 0 (Background)
//Storyboard Layer 1 (Fail)
//Storyboard Layer 2 (Pass)
//Storyboard Layer 3 (Foreground)
//Storyboard Layer 4 (Overlay)
//Storyboard Sound Samples

[TimingPoints]
182,352.941176470588,4,2,1,50,1,0
182,-166.666666666667,4,2,1,50,0,0
5829,-100,4,2,1,70,0,0
11476,-166.666666666667,4,2,1,60,0,0
28417,-100,4,2,1,70,0,0
39711,-111.111111111111,4,2,1,50,0,0
41829,-90.9090909090909,4,2,1,70,0,0
42534,-90.9090909090909,4,2,1,80,0,0
43946,-90.9090909090909,4,2,1,85,0,0
46770,-90.9090909090909,4,2,1,50,0,0
48181,-83.3333333333333,4,2,1,90,0,1
90534,-200,4,2,1,60,0,0
93005,-111.111111111111,4,2,1,65,0,0
99005,-100,4,2,1,70,0,0
101829,-200,4,2,1,60,0,0
107123,-142.857142857143,4,2,1,50,0,0
107476,-166.666666666667,4,2,1,50,0,0
123711,-111.111111111111,4,2,1,70,0,0
124417,-90.9090909090909,4,2,1,80,0,0
130064,-99.9999999999999,4,2,1,75,0,0
135711,-111.111111111111,4,2,1,50,0,0
137652,-111.111111111111,4,2,1,70,0,0
138534,-90.9090909090908,4,2,1,70,0,0
141358,-111.111111111111,4,2,1,50,0,0
142770,-111.111111111111,4,2,1,80,0,0
144181,-83.3333333333333,4,2,1,90,0,1
187946,-83.3333333333333,4,2,1,90,0,0
199240,-100,4,2,1,50,0,0
200652,-125,4,2,1,60,0,0
203476,-111.111111111111,4,2,1,65,0,0
206299,-90.9090909090909,4,2,1,70,0,0
230299,-100,4,2,1,70,0,0
238593,-83.3333333333333,4,2,1,90,0,1
264711,-83.3333333333333,4,2,1,50,0,0
265240,-142.857142857143,4,2,1,60,0,0
265593,-125,4,2,1,60,0,0
269829,-100,4,2,1,70,0,0
271240,-90.9090909090909,4,2,1,80,0,0

[Colours]
Combo1 : 255,191,255
Combo2 : 128,128,255
Combo3 : 0,255,255

[HitObjects]
54,166,182,6,0,P|109:175|165:51,1,203.999993774414,2|2,0:2|0:2,0:0:0:0:
283,204,1240,1,0,0:0:0:0:
145,280,1593,2,0,P|102:264|27:252,1,101.999996887207,2|0,0:2|0:0,0:0:0:0:
269,346,2299,2,0,P|312:330|387:318,1,101.999996887207,2|0,0:2|0:0,0:0:0:0:
482,142,3005,2,0,B|392:158|448:199|336:215,1,152.999995330811,2|0,0:2|0:0,0:0:0:0:
275,156,3711,2,0,L|282:131,3,25.4999992218018,2|0|0|0,0:2|0:0|0:0|0:0,0:0:0:0:
226,63,4064,1,0,0:0:0:0:
213,65,4152,1,0,0:0:0:0:
200,67,4240,1,0,0:0:0:0:
188,69,4329,1,0,0:0:0:0:
175,71,4417,6,0,P|124:61|74:52,1,101.999996887207,2|2,0:2|0:2,0:0:0:0:
0,201,5123,2,0,P|50:191|100:182,1,101.999996887207,2|8,0:2|0:3,0:0:0:0:
328,289,5652,1,0,3:2:0:0:
325,294,5740,1,0,3:2:0:0:
322,299,5829,6,0,P|271:315|202:212,1,170,4|0,3:2|3:2,0:0:0:0:
327,155,6358,1,0,0:0:0:0:
421,283,6534,2,0,P|408:323|398:365,1,85,0|0,3:2|0:0,0:0:0:0:
282,227,6887,1,0,3:2:0:0:
512,187,7064,1,2,0:0:0:0:
512,187,7152,1,2,0:0:0:0:
512,187,7240,6,0,P|439:163|409:65,1,170,2|2,3:2|3:2,0:0:0:0:
223,164,7770,1,0,0:0:0:0:
401,277,7946,2,0,P|412:235|425:195,1,85,2|0,3:2|0:0,0:0:0:0:
272,62,8299,1,2,3:2:0:0:
183,285,8476,5,0,1:2:0:0:
183,285,8564,1,0,1:2:0:0:
183,285,8652,2,0,P|106:268|-4:243,1,170,4|0,1:2|3:2,0:0:0:0:
145,93,9181,1,0,3:2:0:0:
273,278,9358,5,0,1:2:0:0:
54,155,9534,1,0,1:2:0:0:
291,67,9711,1,0,1:2:0:0:
183,285,9887,1,2,1:2:0:0:
177,18,10064,5,2,3:2:0:0:
291,67,10240,1,0,3:2:0:0:
251,166,10417,5,0,3:2:0:0:
137,215,10593,1,0,3:2:0:0:
49,318,10770,5,0,3:2:0:0:
163,367,10946,1,0,3:2:0:0:
277,318,11123,1,2,3:2:0:0:
153,377,11299,1,0,0:0:0:0:
368,354,11476,6,0,P|386:253|408:154,1,203.999993774414,4|0,3:2|0:0,0:0:0:0:
273,51,12534,2,0,P|278:74|284:100,1,50.9999984436036,2|2,0:2|0:2,0:0:0:0:
147,261,12887,2,0,P|156:210|167:161,1,101.999996887207
298,263,13593,1,0,0:0:0:0:
140,341,13946,2,0,L|83:331,1,50.9999984436036,2|2,0:2|0:2,0:0:0:0:
0,228,14299,6,0,P|56:220|88:177,1,101.999996887207,2|2,0:2|0:2,0:0:0:0:
209,122,14829,1,2,0:2:0:0:
209,122,15005,2,0,L|151:110,1,50.9999984436036,0|2,0:0|0:2,0:0:0:0:
215,240,15358,2,0,L|273:228,1,50.9999984436036,2|0,0:2|0:0,0:0:0:0:
404,198,15711,2,0,P|331:213|316:343,1,203.999993774414,2|2,0:2|0:0,0:0:0:0:
482,239,16770,2,0,L|491:183,1,50.9999984436036,2|2,0:0|0:0,0:0:0:0:
430,53,17123,6,0,B|341:75|405:117|288:145,1,152.999995330811,0|2,0:0|0:0,0:0:0:0:
206,29,17829,2,0,P|218:78|230:128,1,101.999996887207,2|2,0:0|0:0,0:0:0:0:
143,228,18358,1,2,0:0:0:0:
203,277,18534,2,0,P|259:264|317:253,1,101.999996887207,2|2,0:0|0:0,0:0:0:0:
434,321,19064,1,2,0:0:0:0:
374,370,19240,2,0,P|318:357|260:346,1,101.999996887207,0|2,0:0|0:0,0:0:0:0:
59,324,19946,6,0,P|149:286|167:188,1,203.999993774414,2|2,0:0|0:0,0:0:0:0:
98,98,21005,1,2,0:0:0:0:
98,98,21181,1,2,0:0:0:0:
221,35,21358,2,0,P|234:80|251:144,1,101.999996887207
407,272,22064,1,2,0:0:0:0:
430,189,22329,1,2,0:0:0:0:
456,101,22593,1,2,0:0:0:0:
352,35,22770,6,0,P|251:49|150:64,1,203.999993774414,2|2,0:0|0:0,0:0:0:0:
324,133,23829,1,2,0:0:0:0:
180,256,24181,2,0,P|164:197|150:144,1,101.999996887207,2|2,0:0|0:0,0:0:0:0:
303,231,24711,1,2,0:0:0:0:
303,231,24887,2,0,P|289:280|276:329,1,101.999996887207,0|2,0:0|0:0,0:0:0:0:
258,145,25417,5,2,0:0:0:0:
258,145,25593,2,0,P|299:132|360:111,1,101.999996887207,2|2,0:0|0:0,0:0:0:0:
494,234,26123,1,2,0:0:0:0:
494,234,26299,2,0,P|453:221|392:200,1,101.999996887207,0|2,0:0|0:0,0:0:0:0:
273,67,26829,1,2,0:0:0:0:
276,73,26917,1,0,0:0:0:0:
281,78,27005,1,0,0:0:0:0:
281,50,28064,5,2,3:2:0:0:
91,186,28240,1,0,0:0:0:0:
91,186,28329,1,0,3:2:0:0:
91,186,28417,6,0,P|144:170|213:266,1,170,4|0,3:2|3:2,0:0:0:0:
341,147,28946,1,0,0:0:0:0:
161,67,29123,2,0,P|175:107|188:147,1,85,0|0,3:2|0:0,0:0:0:0:
370,231,29476,1,2,3:2:0:0:
192,317,29652,1,2,0:2:0:0:
430,360,29829,6,0,B|391:326|342:332|342:332|319:371|248:375,1,170,0|0,3:2|3:2,0:0:0:0:
123,264,30358,1,0,0:0:0:0:
266,205,30534,2,0,B|292:243|292:243|272:276,1,85,0|0,3:2|0:0,0:0:0:0:
115,170,30887,1,2,3:2:0:0:
325,97,31064,1,2,0:2:0:0:
320,105,31152,1,2,0:0:0:0:
315,113,31240,6,0,P|250:90|228:-6,1,170,2|0,3:2|3:2,0:0:0:0:
64,107,31770,1,0,0:0:0:0:
182,218,31946,2,0,P|223:210|265:204,1,85,0|0,3:2|0:0,0:0:0:0:
308,23,32299,1,2,3:2:0:0:
181,124,32476,1,2,0:2:0:0:
375,186,32652,6,0,P|382:144|388:102,1,85,2|0,3:2|3:2,0:0:0:0:
182,218,33005,1,0,1:2:0:0:
360,298,33181,1,0,1:2:0:0:
193,352,33358,1,0,1:2:0:0:
296,160,33534,1,2,1:2:0:0:
296,160,33623,1,0,0:0:0:0:
296,160,33711,2,0,L|318:218,1,42.5,2|0,1:2|1:2,0:0:0:0:
74,371,33887,1,2,1:2:0:0:
74,371,33976,1,0,1:2:0:0:
74,371,34064,6,0,P|89:277|102:193,1,170,6|2,3:2|1:2,0:0:0:0:
247,290,34593,1,2,3:2:0:0:
247,290,34681,1,0,1:2:0:0:
247,290,34770,2,0,P|206:281|164:272,1,85,2|0,3:2|3:2,0:0:0:0:
302,163,35123,1,2,1:2:0:0:
150,99,35299,1,2,0:2:0:0:
338,248,35476,6,0,B|428:224|428:224|450:188|415:155,1,170,0|0,3:2|1:2,0:0:0:0:
261,85,36005,1,2,3:2:0:0:
261,85,36093,1,0,1:2:0:0:
261,85,36181,2,0,P|266:127|271:169,1,85,0|0,3:2|3:2,0:0:0:0:
424,79,36534,1,2,1:2:0:0:
330,17,36711,1,2,0:2:0:0:
512,182,36887,6,0,P|439:185|394:288,1,170,0|2,3:2|1:2,0:0:0:0:
208,307,37417,1,2,0:2:0:0:
208,307,37505,1,0,1:2:0:0:
208,307,37593,2,0,P|250:315|292:325,1,85,0|0,3:2|3:2,0:0:0:0:
478,260,37946,1,2,1:2:0:0:
304,173,38123,1,2,3:2:0:0:
427,374,38299,5,4,3:2:0:0:
478,260,38476,1,0,3:2:0:0:
304,173,38652,1,4,0:2:0:0:
335,292,38829,1,0,3:2:0:0:
335,292,38917,1,0,3:2:0:0:
335,292,39005,6,0,L|320:355,2,56.6666666666667,0|8|0,1:2|0:3|1:3,0:0:0:0:
405,230,39358,5,0,1:2:0:0:
397,190,39476,5,8,0:3:0:0:
390,157,39593,5,4,0:3:0:0:
378,119,39711,6,0,B|294:146|361:183|256:223|256:223|264:240,1,152.999995330811,4|2,3:2|3:2,0:0:0:0:
52,242,40417,2,0,L|36:168,1,76.4999976654053,2|2,0:0|0:0,0:0:0:0:
56,94,40681,1,0,0:0:0:0:
56,94,40770,1,2,3:2:0:0:
187,141,40946,1,2,0:2:0:0:
187,141,41034,1,0,3:0:0:0:
187,141,41123,2,0,P|173:210|156:293,1,152.999995330811,2|2,0:2|0:2,0:0:0:0:
384,200,41652,1,0,3:2:0:0:
384,200,41740,1,0,3:2:0:0:
384,200,41829,5,6,1:2:0:0:
223,46,42005,1,2,3:2:0:0:
234,268,42181,2,0,L|290:245,1,46.7500014266968,0|0,1:2|1:2,0:0:0:0:
482,102,42358,1,0,1:2:0:0:
477,110,42446,1,0,1:2:0:0:
472,118,42534,6,0,B|391:102|391:102|368:119|368:119|290:107,1,187.000005706787,6|0,3:2|3:2,0:0:0:0:
135,182,43064,1,0,3:2:0:0:
277,250,43240,1,0,3:2:0:0:
125,327,43417,1,0,3:2:0:0:
236,167,43593,1,0,3:2:0:0:
304,350,43770,1,0,3:2:0:0:
95,94,43946,5,2,3:2:0:0:
211,344,44123,1,0,3:2:0:0:
306,90,44299,1,0,3:2:0:0:
55,220,44476,1,0,3:2:0:0:
387,317,44652,6,0,P|393:270|401:224,1,93.5000028533936,2|0,1:2|3:2,0:0:0:0:
429,199,44917,1,2,3:2:0:0:
429,199,45005,2,0,L|420:144,1,46.7500014266968,2|0,1:2|3:2,0:0:0:0:
306,90,45181,2,0,L|313:43,1,46.7500014266968,2|0,1:2|3:2,0:0:0:0:
187,164,45358,2,0,P|197:209|207:255,1,93.5000028533936,4|0,3:2|1:2,0:0:0:0:
185,286,45623,1,0,1:2:0:0:
185,286,45711,2,0,L|130:273,1,46.7500014266968,0|0,1:2|1:2,0:0:0:0:
30,182,45887,2,0,L|85:169,1,46.7500014266968,2|0,1:2|1:2,0:0:0:0:
153,61,46064,5,2,3:2:0:0:
192,38,46152,1,0,1:2:0:0:
238,44,46240,1,0,1:2:0:0:
270,77,46329,1,0,1:2:0:0:
275,123,46417,1,0,1:2:0:0:
300,161,46505,1,0,1:2:0:0:
342,179,46593,1,2,1:2:0:0:
388,171,46681,1,0,1:2:0:0:
421,139,46770,5,6,3:2:0:0:
161,186,47123,5,2,0:2:0:0:
359,83,47299,1,2,0:2:0:0:
359,83,47652,5,2,0:2:0:0:
350,295,47829,1,0,0:2:0:0:
50,333,48093,1,2,0:2:0:0:
56,338,48181,6,0,B|117:374|117:374|197:359|209:284,1,203.999993774414,4|0,3:2|1:2,0:0:0:0:
91,158,48711,1,2,3:2:0:0:
91,158,48799,1,0,1:2:0:0:
91,158,48887,2,0,P|103:207|113:257,1,101.999996887207,2|2,3:2|3:2,0:0:0:0:
265,133,49240,1,2,1:2:0:0:
4,63,49417,6,0,B|61:18|118:50|118:50|135:99|198:99,1,203.999993774414,6|0,3:2|3:2,0:0:0:0:
353,165,49946,1,2,1:2:0:0:
203,276,50123,1,0,3:0:0:0:
203,276,50211,1,0,1:2:0:0:
203,276,50299,2,0,P|162:262|92:241,1,101.999996887207,2|0,3:2|3:2,0:0:0:0:
353,347,50652,2,0,P|401:330|450:315,1,101.999996887207,2|0,1:2|0:0,0:0:0:0:
500,109,51005,6,0,P|450:127|360:14,1,203.999993774414,4|0,3:2|1:2,0:0:0:0:
198,150,51534,1,2,3:2:0:0:
198,150,51623,1,0,3:2:0:0:
198,150,51711,1,2,3:2:0:0:
311,246,51887,1,0,3:2:0:0:
433,175,52064,1,0,1:2:0:0:
78,381,52240,6,0,B|161:363|161:363|190:321|190:321|256:307,1,203.999993774414,4|0,3:2|3:2,0:0:0:0:
106,187,52770,2,0,B|79:236|79:236|106:281,1,101.999996887207,0|0,1:2|3:2,0:0:0:0:
288,201,53123,1,0,3:2:0:0:
288,201,53211,1,0,1:2:0:0:
288,201,53299,1,0,3:2:0:0:
128,85,53476,2,0,P|78:98|29:111,1,101.999996887207,0|2,1:2|3:2,0:0:0:0:
238,348,53829,6,0,P|293:293|423:305,1,203.999993774414,6|0,3:2|1:2,0:0:0:0:
497,119,54358,1,2,3:2:0:0:
497,119,54446,1,0,1:0:0:0:
497,119,54534,2,0,P|454:129|379:147,1,101.999996887207,0|2,3:2|3:2,0:0:0:0:
185,79,54887,1,2,1:2:0:0:
385,0,55064,6,0,P|361:99|336:198,1,203.999993774414,2|0,3:2|3:2,0:0:0:0:
121,196,55593,2,0,P|170:183|219:171,1,101.999996887207,2|0,1:2|0:0,0:0:0:0:
251,164,55858,1,0,1:2:0:0:
251,164,55946,1,2,3:2:0:0:
416,251,56123,1,0,3:2:0:0:
242,304,56299,1,2,1:2:0:0:
430,379,56476,1,2,0:2:0:0:
430,379,56564,5,0,3:0:0:0:
430,379,56652,2,0,P|354:316|256:330,1,203.999993774414,6|0,3:2|1:2,0:0:0:0:
80,220,57181,1,2,3:2:0:0:
80,220,57270,1,0,1:2:0:0:
80,220,57358,2,0,P|93:270|107:324,1,101.999996887207,2|0,3:2|3:2,0:0:0:0:
238,180,57711,1,0,1:2:0:0:
8,110,57887,6,0,P|75:117|170:19,1,203.999993774414,4|0,3:2|3:2,0:0:0:0:
334,212,58417,2,0,P|285:195|237:179,1,101.999996887207,0|0,1:2|3:2,0:0:0:0:
51,268,58770,1,2,1:2:0:0:
196,364,58946,1,0,1:2:0:0:
201,369,59034,1,2,1:2:0:0:
338,257,59211,1,0,3:2:0:0:
343,262,59299,2,0,L|332:203,1,50.9999984436036,2|0,1:2|3:2,0:0:0:0:
205,38,59476,6,0,B|142:52|94:62|94:62|59:114|103:148,1,203.999993774414,6|2,3:2|1:2,0:0:0:0:
235,239,60005,2,0,P|283:224|333:211,1,101.999996887207,2|0,0:2|3:2,0:0:0:0:
107,335,60358,2,0,P|58:320|8:307,1,101.999996887207,2|0,3:2|1:2,0:0:0:0:
317,114,60711,6,0,B|376:77|427:115|427:115|438:171|500:182,1,203.999993774414,2|0,3:2|3:2,0:0:0:0:
304,272,61240,1,2,1:2:0:0:
438,366,61417,1,2,0:2:0:0:
438,366,61505,1,0,3:0:0:0:
438,366,61593,2,0,P|447:315|457:265,1,101.999996887207,0|2,3:2|3:2,0:0:0:0:
254,193,61946,1,0,1:2:0:0:
432,101,62123,1,2,0:2:0:0:
327,315,62299,6,0,B|214:291|297:221|159:198|159:198|162:230,1,203.999993774414,6|2,3:2|1:2,0:0:0:0:
47,54,62829,1,2,0:2:0:0:
47,54,62917,1,0,1:2:0:0:
47,54,63005,1,0,3:2:0:0:
210,111,63181,1,2,3:2:0:0:
60,204,63358,1,0,1:2:0:0:
353,228,63534,6,0,P|366:178|381:130,1,101.999996887207,6|0,3:2|0:0,0:0:0:0:
156,251,63887,1,0,3:2:0:0:
294,359,64064,2,0,P|280:309|265:261,1,101.999996887207,0|0,1:2|3:2,0:0:0:0:
242,232,64329,1,2,3:2:0:0:
242,232,64417,2,0,L|254:168,1,50.9999984436036,2|0,1:2|3:2,0:0:0:0:
331,79,64593,2,0,L|341:130,1,50.9999984436036,0|2,3:2|0:2,0:0:0:0:
438,226,64770,1,2,1:2:0:0:
490,93,64946,1,2,0:2:0:0:
294,359,65123,6,0,P|245:344|195:330,1,101.999996887207,6|0,3:2|0:0,0:0:0:0:
44,219,65476,2,0,P|92:204|142:190,1,101.999996887207,0|2,1:2|3:2,0:0:0:0:
176,185,65740,1,0,1:2:0:0:
176,185,65829,1,0,3:2:0:0:
345,254,66005,1,0,3:2:0:0:
159,337,66181,1,2,1:2:0:0:
393,153,66358,1,2,3:2:0:0:
393,153,66446,1,0,3:0:0:0:
393,153,66534,6,0,P|311:150|247:30,1,203.999993774414,2|2,0:2|1:2,0:0:0:0:
84,213,67064,1,0,3:2:0:0:
246,315,67240,2,0,P|257:263|266:213,1,101.999996887207,2|0,3:2|3:2,0:0:0:0:
121,119,67593,1,0,1:2:0:0:
373,34,67770,5,0,3:2:0:0:
373,34,67858,1,0,3:0:0:0:
373,34,67946,2,0,B|447:9|447:9|509:62|506:115,1,203.999993774414,2|0,3:2|1:2,0:0:0:0:
419,272,68476,1,2,3:2:0:0:
419,272,68564,1,0,1:2:0:0:
419,272,68652,1,2,3:2:0:0:
293,98,68917,1,0,3:2:0:0:
298,93,69005,1,2,1:2:0:0:
194,208,69181,6,0,P|91:222|34:134,1,203.999993774414,6|0,3:2|3:2,0:0:0:0:
164,0,69711,2,0,P|147:75|136:123,1,101.999996887207,0|0,1:2|3:2,0:0:0:0:
135,136,69976,1,0,3:0:0:0:
135,136,70064,1,2,1:2:0:0:
283,275,70240,5,0,1:2:0:0:
315,284,70329,1,0,1:2:0:0:
347,273,70417,1,2,1:2:0:0:
373,250,70505,1,0,1:2:0:0:
397,228,70593,1,2,1:2:0:0:
430,220,70681,1,0,1:2:0:0:
464,225,70770,6,0,B|344:194|435:151|296:113|296:113|292:152,1,203.999993774414,4|0,3:2|1:2,0:0:0:0:
135,136,71299,1,2,3:2:0:0:
135,136,71387,1,0,1:2:0:0:
135,136,71476,2,0,P|156:72|175:15,1,101.999996887207,2|2,3:2|3:2,0:0:0:0:
294,221,71829,1,2,1:2:0:0:
64,267,72005,6,0,B|109:229|174:261|174:261|187:311|233:318,1,203.999993774414,6|0,3:2|3:2,0:0:0:0:
406,248,72534,1,2,1:2:0:0:
278,150,72711,1,0,3:0:0:0:
278,150,72799,1,0,3:2:0:0:
278,150,72887,2,0,B|246:197|246:197|280:252,1,101.999996887207,2|0,3:2|3:2,0:0:0:0:
468,147,73240,2,0,P|454:97|440:48,1,101.999996887207,2|0,1:2|0:0,0:0:0:0:
279,330,73593,6,0,B|210:321|187:285|187:285|139:309|67:283,1,203.999993774414,6|0,3:2|1:2,0:0:0:0:
338,213,74123,1,2,3:2:0:0:
196,99,74299,2,0,P|210:147|223:197,1,101.999996887207,2|0,3:2|1:2,0:0:0:0:
240,228,74564,1,0,1:2:0:0:
240,228,74652,2,0,L|254:178,1,50.9999984436036,0|0,1:2|1:2,0:0:0:0:
481,355,74829,6,0,P|387:329|363:235,1,203.999993774414,4|0,3:2|3:2,0:0:0:0:
512,54,75358,2,0,P|464:73|417:91,1,101.999996887207,2|0,1:2|3:2,0:0:0:0:
392,108,75623,1,0,3:0:0:0:
392,108,75711,1,2,1:2:0:0:
221,19,75887,1,0,1:2:0:0:
221,19,75976,1,0,1:2:0:0:
221,19,76064,2,0,L|236:82,1,50.9999984436036,0|0,1:2|1:2,0:0:0:0:
104,233,76240,1,0,3:2:0:0:
111,243,76329,1,0,3:2:0:0:
120,251,76417,6,0,B|184:288|184:288|252:284|287:218,1,203.999993774414,4|0,3:2|1:2,0:0:0:0:
105,95,76946,1,2,3:2:0:0:
105,95,77034,1,0,1:2:0:0:
105,95,77123,2,0,P|55:107|0:121,1,101.999996887207,0|2,3:2|3:2,0:0:0:0:
217,181,77476,1,2,1:2:0:0:
344,33,77652,6,0,P|325:133|306:233,1,203.999993774414,2|0,3:2|3:2,0:0:0:0:
431,128,78181,1,2,1:2:0:0:
217,181,78358,1,0,3:0:0:0:
217,181,78446,1,0,1:2:0:0:
217,181,78534,2,0,P|207:130|198:80,1,101.999996887207,2|0,3:2|3:2,0:0:0:0:
393,221,78887,1,2,1:2:0:0:
226,326,79064,1,2,3:2:0:0:
226,326,79152,1,0,1:2:0:0:
226,326,79240,6,0,P|176:311|127:298,1,101.999996887207,6|0,3:2|3:2,0:0:0:0:
290,163,79593,1,4,1:2:0:0:
91,91,79770,1,2,0:0:0:0:
184,221,79946,1,2,3:2:0:0:
190,207,80034,1,0,3:2:0:0:
196,195,80123,1,0,3:2:0:0:
286,45,80299,1,0,1:2:0:0:
510,241,80476,6,0,P|417:206|390:112,1,203.999993774414,6|0,3:2|3:2,0:0:0:0:
255,300,81005,2,0,P|303:285|352:271,1,101.999996887207,0|2,1:2|3:2,0:0:0:0:
487,141,81358,2,0,P|439:126|390:112,1,101.999996887207,2|0,1:2|3:2,0:0:0:0:
362,104,81623,1,2,3:2:0:0:
362,104,81711,1,0,1:2:0:0:
176,208,81887,1,2,1:2:0:0:
176,208,81976,1,0,1:2:0:0:
176,208,82064,5,4,1:2:0:0:
380,239,82417,1,2,3:2:0:0:
259,131,82593,1,0,3:2:0:0:
446,68,82770,1,0,3:2:0:0:
284,237,82946,1,2,3:2:0:0:
267,23,83123,1,0,3:2:0:0:
59,221,83299,5,2,1:2:0:0:
59,221,83387,1,0,1:2:0:0:
59,221,83476,1,0,3:2:0:0:
272,332,83652,1,0,3:2:0:0:
266,113,83829,1,0,3:2:0:0:
106,349,84005,1,0,3:2:0:0:
384,228,84181,1,2,3:2:0:0:
150,131,84358,2,0,L|162:196,1,50.9999984436036,0|2,3:2|3:2,0:0:0:0:
272,332,84534,2,0,P|285:282|299:233,1,101.999996887207,0|2,3:2|0:2,0:0:0:0:
95,42,84887,5,4,3:2:0:0:
276,148,85240,1,2,3:2:0:0:
75,244,85417,1,2,0:2:0:0:
266,163,85593,1,0,3:2:0:0:
86,30,85770,1,2,1:2:0:0:
352,100,85946,1,0,3:2:0:0:
152,284,86123,6,0,P|248:287|286:376,1,203.999993774414,6|0,1:2|3:2,0:0:0:0:
465,181,86652,2,0,P|417:195|368:211,1,101.999996887207,2|0,3:2|3:2,0:0:0:0:
190,118,87005,1,2,1:2:0:0:
367,51,87181,2,0,L|351:99,1,50.9999984436036,0|0,3:2|3:2,0:0:0:0:
208,230,87358,1,2,1:2:0:0:
183,226,87446,1,0,1:2:0:0:
158,222,87534,1,0,1:2:0:0:
133,219,87623,1,0,1:2:0:0:
107,216,87711,6,0,P|91:167|76:118,1,101.999996887207,4|0,3:2|0:0,0:0:0:0:
280,199,88064,1,2,3:2:0:0:
95,333,88240,2,0,B|166:288|212:319|212:319|234:367|296:373,1,203.999993774414,2|2,1:2|3:2,0:0:0:0:
415,232,88770,2,0,P|400:183|383:135,1,101.999996887207,2|0,1:2|3:2,0:0:0:0:
193,88,89123,1,0,3:2:0:0:
322,0,89299,6,0,P|301:99|281:199,1,203.999993774414,0|2,1:2|3:2,0:0:0:0:
139,347,89829,1,2,1:2:0:0:
131,322,89917,1,0,1:2:0:0:
124,298,90005,1,0,1:2:0:0:
115,274,90093,1,0,1:2:0:0:
107,250,90181,1,2,1:2:0:0:
157,240,90270,1,0,1:2:0:0:
203,256,90358,1,0,1:2:0:0:
246,281,90446,1,0,1:2:0:0:
297,279,90534,6,0,B|405:253|405:253|473:156|373:28,1,340,6|2,1:2|0:2,0:0:0:0:
11,278,92476,5,4,0:3:0:0:
107,346,92829,1,4,3:0:0:0:
107,346,93005,2,0,P|120:286|128:251,1,76.4999976654053,4|2,0:3|0:2,0:0:0:0:
81,192,93270,1,2,0:2:0:0:
81,192,93358,6,0,B|219:147|163:275|300:233|300:233|291:213,1,229.499992996216,6|0,3:2|1:2,0:0:0:0:
494,139,94240,1,0,3:0:0:0:
431,216,94417,2,0,P|418:179|404:144,1,76.4999976654053,8|0,0:3|0:2,0:0:0:0:
231,32,94770,5,4,3:2:0:0:
186,247,95123,1,2,0:2:0:0:
459,384,95476,1,4,3:2:0:0:
504,169,95829,1,2,0:2:0:0:
352,185,96181,6,0,P|279:165|199:143,1,152.999995330811,4|0,3:2|0:2,0:0:0:0:
65,208,96711,1,2,0:2:0:0:
201,342,96887,2,0,P|274:321|348:301,1,152.999995330811,4|0,3:2|0:2,0:0:0:0:
431,223,97417,5,0,1:2:0:0:
431,223,97505,1,0,3:2:0:0:
431,223,97593,2,0,L|445:175,3,38.2499988327027,4|0|0|0,3:2|0:2|3:2|3:2,0:0:0:0:
328,77,97946,2,0,L|339:114,3,38.2499988327027,0|0|0|0,1:2|3:2|3:2|3:2,0:0:0:0:
242,245,98299,5,0,3:2:0:0:
237,264,98387,1,0,3:2:0:0:
233,283,98476,1,0,3:2:0:0:
229,302,98564,1,0,3:2:0:0:
225,320,98652,1,0,1:2:0:0:
194,342,98740,1,0,3:2:0:0:
157,347,98829,1,0,3:2:0:0:
121,334,98917,1,0,3:2:0:0:
97,306,99005,6,0,P|84:265|73:224,1,85,4|0,3:2|3:2,0:0:0:0:
166,61,99358,1,0,1:2:0:0:
340,202,99623,1,0,1:2:0:0:
345,207,99711,2,0,P|385:194|426:183,1,85,0|0,3:2|3:2,0:0:0:0:
234,283,100064,2,0,P|193:270|152:259,1,85,0|2,1:2|3:2,0:0:0:0:
110,251,100329,1,2,0:2:0:0:
110,251,100417,1,2,3:2:0:0:
259,149,100593,1,0,3:2:0:0:
84,71,100770,1,4,1:2:0:0:
175,155,100946,1,0,3:2:0:0:
175,155,101034,1,0,3:2:0:0:
175,155,101123,5,0,1:2:0:0:
226,170,101240,5,0,1:2:0:0:
288,185,101358,5,0,1:2:0:0:
339,199,101476,5,0,1:2:0:0:
349,208,101593,5,8,0:3:0:0:
359,215,101711,5,4,0:3:0:0:
369,222,101829,6,0,B|230:263|339:323|182:357|182:357|205:342|226:304,1,297.5,4|0,3:2|0:2,0:0:0:0:
57,154,103240,6,0,B|159:191|159:191|236:127|194:5,1,297.5,2|0,0:2|0:2,0:0:0:0:
501,185,104652,6,0,B|420:121|338:181|338:181|330:250|251:271,1,297.5,2|0,0:2|0:2,0:0:0:0:
51,128,106064,6,0,P|124:151|93:62,1,212.5,2|0,0:2|0:2,0:0:0:0:
375,229,107123,2,0,P|386:174|405:128,1,89.2499972763062,2|0,0:2|0:2,0:0:0:0:
512,128,107476,6,0,P|414:112|362:27,1,203.999993774414,2|2,0:2|0:2,0:0:0:0:
235,159,108534,1,2,0:2:0:0:
164,120,108711,1,2,0:2:0:0:
93,162,108887,2,0,P|86:212|80:277,2,101.999996887207,2|0|2,0:2|0:2|0:2,0:0:0:0:
220,340,109946,5,2,0:2:0:0:
295,367,110123,1,2,0:2:0:0:
358,312,110299,2,0,P|342:263|326:215,1,101.999996887207,2|2,0:2|0:2,0:0:0:0:
222,165,110829,2,0,P|237:116|253:68,1,101.999996887207,2|2,0:2|0:2,0:0:0:0:
326,32,111358,1,2,0:2:0:0:
512,237,111711,6,0,B|451:207|403:241|403:241|394:286|322:305,1,203.999993774414,2|2,0:2|0:0,0:0:0:0:
137,272,112770,1,2,0:0:0:0:
137,272,112946,1,2,0:0:0:0:
269,384,113123,2,0,P|256:308|251:274,1,101.999996887207,2|2,0:2|0:2,0:0:0:0:
233,196,113652,1,2,0:0:0:0:
329,171,113829,1,2,0:0:0:0:
329,171,114005,1,2,0:0:0:0:
401,219,114181,1,2,0:0:0:0:
476,179,114358,1,2,0:0:0:0:
461,100,114534,6,0,P|475:29|481:-2,1,101.999996887207,2|2,0:2|0:0,0:0:0:0:
380,46,115064,1,2,0:0:0:0:
380,46,115240,2,0,P|329:36|279:26,1,101.999996887207,2|2,0:2|0:0,0:0:0:0:
67,89,115946,6,0,P|160:79|208:184,1,203.999993774414,2|2,0:0|0:0,0:0:0:0:
308,238,117005,1,2,0:0:0:0:
396,199,117181,1,2,0:0:0:0:
466,258,117358,2,0,P|452:324|444:373,1,101.999996887207,2|0,0:2|0:2,0:0:0:0:
256,345,118064,5,2,0:0:0:0:
171,316,118329,1,2,0:0:0:0:
92,288,118593,1,2,0:0:0:0:
92,288,118770,6,0,P|77:187|62:79,1,203.999993774414,2|2,0:0|0:0,0:0:0:0:
237,258,119829,1,2,0:0:0:0:
352,133,120181,2,0,P|401:120|450:107,1,101.999996887207,2|2,0:0|0:0,0:0:0:0:
512,170,120711,1,2,0:0:0:0:
423,365,121240,2,0,P|417:340|411:315,1,50.9999984436036,2|0,0:0|0:2,0:0:0:0:
324,236,121593,6,0,P|282:246|207:265,1,101.999996887207,2|2,0:0|0:0,0:0:0:0:
143,113,122123,2,0,P|192:124|242:137,1,101.999996887207,2|0,0:0|0:2,0:0:0:0:
379,105,122652,1,2,0:0:0:0:
472,182,122829,1,2,0:0:0:0:
472,182,122917,1,2,0:2:0:0:
472,182,123005,1,2,0:2:0:0:
265,330,123534,5,4,1:2:0:0:
265,330,123711,2,0,P|274:293|284:256,1,76.4999976654053,2|0,3:2|3:2,0:0:0:0:
308,227,123976,1,0,3:2:0:0:
308,227,124064,2,0,L|298:190,1,38.2499988327027,0|0,1:2|3:2,0:0:0:0:
207,90,124240,2,0,L|198:127,1,38.2499988327027,0|0,3:2|3:2,0:0:0:0:
374,26,124417,6,0,B|442:9|442:9|482:48|482:119,1,187.000005706787,4|0,3:2|3:2,0:0:0:0:
422,224,124946,1,0,0:2:0:0:
422,224,125123,2,0,P|377:211|332:198,1,93.5000028533936,0|0,3:2|0:2,0:0:0:0:
148,272,125476,1,2,3:2:0:0:
272,334,125652,1,2,0:2:0:0:
272,334,125740,1,0,3:2:0:0:
272,334,125829,6,0,P|251:243|228:153,1,187.000005706787,0|0,3:2|3:2,0:0:0:0:
317,92,126358,1,8,0:3:0:0:
166,36,126534,2,0,P|154:81|144:126,1,93.5000028533936,0|8,3:2|0:3,0:0:0:0:
52,222,126887,1,2,3:2:0:0:
195,310,127064,1,2,0:2:0:0:
195,310,127152,1,0,1:0:0:0:
195,310,127240,6,0,P|254:260|364:279,1,187.000005706787,2|0,3:2|3:2,0:0:0:0:
432,188,127770,1,0,0:2:0:0:
238,134,127946,2,0,P|251:178|264:224,1,93.5000028533936,0|2,3:2|0:0,0:0:0:0:
406,102,128299,1,2,3:2:0:0:
246,43,128476,1,2,0:2:0:0:
246,43,128564,1,0,0:2:0:0:
246,43,128652,6,0,P|201:54|155:65,1,93.5000028533936,2|0,3:2|3:2,0:0:0:0:
64,169,129005,1,4,1:2:0:0:
226,280,129181,1,0,1:2:0:0:
262,258,129270,1,0,1:0:0:0:
303,259,129358,1,0,1:2:0:0:
339,282,129446,1,0,1:0:0:0:
375,305,129534,1,2,1:2:0:0:
417,307,129623,1,0,1:0:0:0:
454,288,129711,2,0,L|467:227,2,62.3333352355958,2|0|2,1:2|1:2|1:2,0:0:0:0:
389,143,130064,6,0,P|305:160|222:178,1,170,6|0,3:2|0:2,0:0:0:0:
134,252,130593,1,2,3:2:0:0:
27,110,130770,2,0,B|141:122|84:62|188:73|188:73|188:107,1,170,2|2,1:2|0:2,0:0:0:0:
312,136,131299,1,2,3:2:0:0:
227,201,131476,1,0,3:0:0:0:
433,59,131652,6,0,P|411:141|392:224,1,170,0|0,1:0|3:0,0:0:0:0:
266,311,132181,2,0,B|163:278|206:362|100:333|100:333|106:308,1,170,0|2,1:0|0:0,0:0:0:0:
5,216,132711,1,2,1:2:0:0:
5,216,132799,1,0,1:0:0:0:
5,216,132887,6,0,P|85:198|134:109,1,170,2|2,3:2|0:0,0:0:0:0:
300,89,133417,1,2,3:2:0:0:
187,12,133593,2,0,P|208:95|230:177,1,170,0|2,1:2|0:2,0:0:0:0:
402,193,134123,1,2,1:2:0:0:
402,193,134211,1,0,1:2:0:0:
402,193,134299,6,0,P|360:182|320:170,1,85,4|0,3:2|1:2,0:0:0:0:
209,291,134652,2,0,P|251:279|292:269,1,85,6|0,3:2|1:2,0:0:0:0:
317,293,134917,1,0,1:2:0:0:
317,293,135005,2,0,L|307:334,1,42.5,2|0,3:2|3:0,0:0:0:0:
490,282,135181,2,0,L|479:240,1,42.5,0|2,3:0|3:2,0:0:0:0:
446,115,135358,1,0,1:0:0:0:
410,100,135446,1,0,1:2:0:0:
373,103,135534,1,2,1:2:0:0:
340,123,135623,1,0,1:0:0:0:
320,155,135711,5,4,3:2:0:0:
105,384,136064,6,0,P|98:346|90:308,1,76.4999976654053,2|0,3:2|0:2,0:0:0:0:
18,185,136417,2,0,P|67:228|122:220,1,114.749996498108,2|2,0:0|0:2,0:0:0:0:
171,164,136770,2,0,L|245:181,1,76.4999976654053,0|2,3:2|0:2,0:0:0:0:
295,242,137034,1,2,0:2:0:0:
295,242,137123,2,0,P|371:223|448:206,1,152.999995330811,2|2,0:2|0:2,0:0:0:0:
239,103,137652,1,0,3:2:0:0:
239,103,137740,1,0,3:2:0:0:
239,103,137829,5,6,1:2:0:0:
394,38,138005,1,2,3:2:0:0:
394,38,138093,1,0,1:2:0:0:
394,38,138181,2,0,L|375:85,1,38.2499988327027,0|0,1:2|1:2,0:0:0:0:
204,201,138358,1,0,1:2:0:0:
196,212,138446,1,0,1:2:0:0:
186,227,138534,6,0,B|121:255|121:255|57:252|22:188,1,187.000005706787,6|0,3:2|3:2,0:0:0:0:
141,89,139064,1,0,3:2:0:0:
277,182,139240,1,0,3:2:0:0:
395,93,139417,1,0,3:2:0:0:
507,209,139593,1,0,3:2:0:0:
373,91,139770,1,0,3:2:0:0:
304,313,139946,5,2,3:2:0:0:
486,109,140123,1,0,3:2:0:0:
493,352,140299,1,0,3:2:0:0:
278,74,140476,1,0,3:2:0:0:
182,305,140652,6,0,P|139:312|80:325,1,93.5000028533936,2|0,1:2|3:2,0:0:0:0:
61,354,140917,1,2,3:2:0:0:
61,354,141005,2,0,L|43:298,1,46.7500014266968,2|0,1:2|3:2,0:0:0:0:
102,154,141181,1,2,1:2:0:0:
109,162,141270,1,0,3:2:0:0:
113,170,141358,6,0,P|173:179|270:48,1,229.499992996216,4|2,3:2|0:2,0:0:0:0:
401,9,142064,2,0,P|421:87|441:184,1,152.999995330811,2|0,0:2|0:2,0:0:0:0:
291,203,142593,2,0,L|352:184,1,38.2499988327027,2|2,0:2|0:2,0:0:0:0:
506,381,142770,1,6,3:2:0:0:
258,286,143476,5,8,0:3:0:0:
291,203,143652,1,2,0:2:0:0:
253,197,143740,1,0,1:0:0:0:
215,203,143829,1,0,3:2:0:0:
187,228,143917,1,0,1:0:0:0:
159,253,144005,1,2,3:2:0:0:
122,262,144093,1,2,3:2:0:0:
82,257,144181,6,0,B|15:211|15:211|-3:141|43:99,1,203.999993774414,4|0,3:2|1:2,0:0:0:0:
203,0,144711,1,2,3:2:0:0:
203,0,144799,1,0,1:2:0:0:
203,0,144887,2,0,P|192:49|182:100,1,101.999996887207,2|2,3:2|3:2,0:0:0:0:
351,186,145240,1,2,1:2:0:0:
82,257,145417,6,0,B|139:223|193:247|193:247|204:298|263:307,1,203.999993774414,6|0,3:2|3:2,0:0:0:0:
434,199,145946,1,2,1:2:0:0:
286,137,146123,1,0,3:2:0:0:
286,137,146211,1,0,1:2:0:0:
286,137,146299,2,0,B|252:183|252:183|277:229,1,101.999996887207,2|0,3:2|3:2,0:0:0:0:
465,312,146652,2,0,P|415:299|365:288,1,101.999996887207,2|0,1:2|0:2,0:0:0:0:
75,321,147005,6,0,P|169:290|207:199,1,203.999993774414,4|0,3:2|1:2,0:0:0:0:
70,79,147534,1,2,3:2:0:0:
70,79,147623,1,0,1:2:0:0:
70,79,147711,1,2,3:2:0:0:
243,21,147887,1,0,3:2:0:0:
173,100,148064,1,0,1:2:0:0:
311,264,148240,6,0,P|410:242|510:223,1,203.999993774414,4|0,3:2|3:2,0:0:0:0:
412,54,148770,2,0,P|401:103|391:153,1,101.999996887207,0|0,1:2|3:2,0:0:0:0:
208,229,149123,1,0,3:2:0:0:
208,229,149211,1,0,1:2:0:0:
208,229,149299,1,0,3:2:0:0:
261,22,149476,2,0,P|271:71|281:121,1,101.999996887207,0|2,1:2|3:2,0:0:0:0:
82,344,149829,6,0,P|176:317|252:379,1,203.999993774414,6|0,3:2|1:2,0:0:0:0:
482,231,150358,1,2,0:0:0:0:
482,231,150446,1,0,1:0:0:0:
482,231,150534,2,0,P|469:173|458:122,1,101.999996887207,0|2,3:2|3:2,0:0:0:0:
300,278,150887,1,2,1:2:0:0:
201,69,151064,6,0,B|136:41|136:41|66:86|95:173,1,203.999993774414,2|0,3:2|3:2,0:0:0:0:
201,303,151593,2,0,P|250:290|299:277,1,101.999996887207,2|0,1:2|0:2,0:0:0:0:
341,276,151858,1,0,1:2:0:0:
341,276,151946,2,0,P|329:319|315:377,1,101.999996887207,2|0,3:2|3:2,0:0:0:0:
118,272,152299,2,0,P|106:222|92:173,1,101.999996887207,2|2,1:2|0:2,0:0:0:0:
487,74,152652,6,0,B|438:150|371:142|371:142|321:105,1,203.999993774414,6|0,3:2|1:2,0:0:0:0:
114,165,153181,1,2,3:2:0:0:
114,165,153270,1,0,1:2:0:0:
114,165,153358,2,0,P|103:103|91:33,1,101.999996887207,2|0,3:2|3:2,0:0:0:0:
288,196,153711,1,0,1:2:0:0:
77,368,153887,6,0,B|158:349|158:349|184:305|184:305|286:282,1,203.999993774414,4|0,3:2|3:2,0:0:0:0:
402,263,154417,2,0,B|431:308|431:308|413:359,1,101.999996887207,0|0,1:2|3:2,0:0:0:0:
197,218,154770,5,2,1:2:0:0:
377,176,154946,1,0,1:2:0:0:
382,181,155034,1,2,1:2:0:0:
251,42,155211,1,0,3:2:0:0:
256,47,155299,2,0,L|242:112,1,50.9999984436036,2|0,1:2|3:2,0:0:0:0:
462,202,155476,6,0,P|389:223|352:349,1,203.999993774414,6|2,3:2|1:2,0:0:0:0:
157,169,156005,1,2,0:2:0:0:
157,169,156093,1,0,1:2:0:0:
157,169,156181,2,0,P|200:180|263:197,1,101.999996887207,0|2,3:2|3:2,0:0:0:0:
412,70,156534,1,0,1:2:0:0:
317,10,156711,6,0,P|337:109|356:210,1,203.999993774414,2|0,3:2|3:2,0:0:0:0:
224,278,157240,1,2,1:2:0:0:
414,352,157417,1,2,0:2:0:0:
414,352,157505,1,0,1:0:0:0:
414,352,157593,2,0,P|423:301|433:251,1,101.999996887207,0|2,3:2|3:2,0:0:0:0:
337,113,157946,2,0,P|286:122|236:132,1,101.999996887207,0|2,1:2|0:2,0:0:0:0:
56,296,158299,6,0,B|96:344|165:322|165:322|186:277|259:276,1,203.999993774414,6|2,3:2|1:2,0:0:0:0:
382,207,158829,1,2,0:2:0:0:
382,207,158917,1,0,1:2:0:0:
382,207,159005,1,0,3:2:0:0:
256,155,159181,1,2,3:2:0:0:
130,103,159358,1,0,1:2:0:0:
397,329,159534,6,0,B|476:303|476:303|516:255|451:156,1,203.999993774414,6|0,3:2|3:2,0:0:0:0:
327,23,160064,2,0,P|340:72|353:121,1,101.999996887207,0|0,1:2|3:2,0:0:0:0:
175,189,160417,1,2,1:2:0:0:
175,189,160505,1,0,1:2:0:0:
175,189,160593,1,0,3:2:0:0:
326,268,160770,2,0,P|374:253|424:240,1,101.999996887207,2|2,1:2|0:2,0:0:0:0:
172,344,161123,6,0,P|123:329|73:316,1,101.999996887207,6|0,3:2|0:2,0:0:0:0:
255,231,161476,1,0,1:2:0:0:
89,134,161652,1,2,3:2:0:0:
283,44,161829,2,0,P|269:93|255:142,1,101.999996887207,0|0,3:2|3:2,0:0:0:0:
87,236,162181,1,2,1:2:0:0:
257,325,162358,1,2,3:2:0:0:
0,183,162534,6,0,P|94:155|116:56,1,203.999993774414,2|2,0:2|1:2,0:0:0:0:
280,0,163064,1,0,3:2:0:0:
280,0,163152,1,0,1:2:0:0:
280,0,163240,2,0,P|267:49|255:99,1,101.999996887207,2|0,3:2|3:2,0:0:0:0:
425,205,163593,2,0,P|412:155|400:105,1,101.999996887207,0|0,1:2|3:2,0:0:0:0:
162,237,163946,6,0,B|241:210|241:210|301:223|328:292,1,203.999993774414,2|0,3:2|1:2,0:0:0:0:
500,136,164476,1,2,3:2:0:0:
500,136,164564,1,0,1:2:0:0:
500,136,164652,1,2,3:2:0:0:
334,69,164829,1,0,3:2:0:0:
334,69,164917,1,0,3:2:0:0:
334,69,165005,2,0,L|321:118,1,50.9999984436036,2|0,1:2|0:2,0:0:0:0:
241,302,165181,6,0,B|183:348|136:334|136:334|105:289|24:288,1,203.999993774414,6|0,3:2|3:2,0:0:0:0:
0,134,165711,2,0,P|48:148|97:163,1,101.999996887207,0|0,1:2|3:2,0:0:0:0:
225,42,166064,2,0,L|210:91,1,50.9999984436036,2|0,1:2|0:2,0:0:0:0:
301,238,166240,1,0,1:2:0:0:
334,236,166329,1,0,1:2:0:0:
366,225,166417,1,2,1:2:0:0:
393,204,166505,1,0,1:2:0:0:
414,177,166593,1,2,1:2:0:0:
425,145,166681,1,0,1:2:0:0:
427,112,166770,6,0,P|441:210|456:313,1,203.999993774414,4|0,3:2|1:2,0:0:0:0:
325,141,167299,1,2,3:2:0:0:
325,141,167387,1,0,1:2:0:0:
325,141,167476,1,2,3:2:0:0:
242,330,167652,1,2,3:2:0:0:
427,235,167829,1,2,1:2:0:0:
206,136,168005,6,0,B|151:99|102:118|102:118|80:172|-3:170,1,203.999993774414,6|0,3:2|3:2,0:0:0:0:
256,238,168534,1,2,1:2:0:0:
109,343,168711,1,0,3:2:0:0:
109,343,168799,1,0,1:2:0:0:
109,343,168887,2,0,P|95:288|83:243,1,101.999996887207,2|0,3:2|3:2,0:0:0:0:
299,131,169240,2,0,P|286:180|275:230,1,101.999996887207,2|0,1:2|0:2,0:0:0:0:
40,127,169593,6,0,P|138:124|235:36,1,203.999993774414,6|0,3:2|1:2,0:0:0:0:
375,179,170123,1,2,3:2:0:0:
213,279,170299,2,0,P|126:261|82:253,1,101.999996887207,2|0,3:2|1:2,0:0:0:0:
89,257,170564,1,0,1:2:0:0:
89,257,170652,1,0,1:2:0:0:
341,376,170829,6,0,P|392:317|535:330,1,203.999993774414,4|0,3:2|3:2,0:0:0:0:
286,168,171358,2,0,P|300:217|313:266,1,101.999996887207,2|0,1:2|3:2,0:0:0:0:
486,177,171711,1,2,1:2:0:0:
399,61,171887,1,0,1:2:0:0:
399,61,171976,1,0,1:2:0:0:
399,61,172064,2,0,L|383:130,1,50.9999984436036,0|0,1:2|1:2,0:0:0:0:
158,238,172240,1,0,3:2:0:0:
159,231,172329,1,0,3:2:0:0:
160,224,172417,6,0,P|255:251|307:336,1,203.999993774414,4|0,3:2|1:2,0:0:0:0:
486,177,172946,1,2,3:2:0:0:
486,177,173034,1,0,1:2:0:0:
486,177,173123,1,0,3:2:0:0:
286,224,173299,1,2,3:2:0:0:
459,338,173476,1,2,1:2:0:0:
360,116,173652,6,0,P|259:130|157:144,1,203.999993774414,2|0,3:2|3:2,0:0:0:0:
56,252,174181,1,2,1:2:0:0:
263,323,174358,1,0,3:2:0:0:
263,323,174446,1,0,1:2:0:0:
263,323,174534,2,0,P|274:273|285:223,1,101.999996887207,2|0,3:2|3:2,0:0:0:0:
161,68,174887,1,2,1:2:0:0:
56,252,175064,1,2,3:2:0:0:
56,252,175152,1,0,1:2:0:0:
56,252,175240,6,0,P|129:234|182:223,1,101.999996887207,6|0,3:2|3:2,0:0:0:0:
409,202,175593,2,0,B|350:225|350:225|274:192|285:113,1,203.999993774414,4|2,1:2|3:2,0:0:0:0:
290,86,176034,1,0,3:2:0:0:
290,86,176123,1,0,3:2:0:0:
512,226,176299,1,0,1:2:0:0:
439,304,176476,6,0,P|338:282|209:255,1,203.999993774414,6|0,3:2|3:2,0:0:0:0:
149,130,177005,1,0,1:2:0:0:
347,216,177181,1,2,3:2:0:0:
157,342,177358,2,0,P|146:292|136:242,1,101.999996887207,2|0,1:2|3:2,0:0:0:0:
110,219,177623,1,2,3:2:0:0:
110,219,177711,2,0,L|125:162,1,50.9999984436036,0|0,1:2|1:2,0:0:0:0:
254,43,177887,2,0,L|267:93,1,50.9999984436036,2|0,1:2|1:2,0:0:0:0:
440,273,178064,5,4,1:2:0:0:
440,273,178417,1,2,3:2:0:0:
251,194,178593,1,0,3:2:0:0:
439,128,178770,1,0,3:2:0:0:
240,210,178946,1,2,3:2:0:0:
393,342,179123,1,0,3:2:0:0:
304,114,179299,1,2,1:2:0:0:
184,306,179476,5,0,3:2:0:0:
184,306,179829,1,0,3:2:0:0:
125,75,180005,1,0,3:2:0:0:
240,210,180181,1,2,3:2:0:0:
306,4,180358,1,0,3:2:0:0:
122,158,180534,1,0,3:2:0:0:
368,231,180711,1,2,0:2:0:0:
207,22,180887,5,4,3:2:0:0:
207,22,181240,1,2,3:2:0:0:
121,184,181417,1,2,0:2:0:0:
278,94,181593,1,0,3:2:0:0:
300,278,181770,1,2,1:2:0:0:
125,75,181946,1,0,3:2:0:0:
76,340,182123,6,0,P|176:319|276:302,1,203.999993774414,6|0,1:2|3:2,0:0:0:0:
459,205,182652,1,2,3:2:0:0:
255,114,182829,1,0,1:2:0:0:
255,114,182917,1,0,1:2:0:0:
255,114,183005,1,2,1:2:0:0:
455,16,183181,1,0,3:2:0:0:
452,32,183270,1,0,3:2:0:0:
449,49,183358,1,2,1:2:0:0:
446,66,183446,1,0,1:2:0:0:
443,83,183534,1,0,1:2:0:0:
440,99,183623,1,0,1:2:0:0:
437,115,183711,6,0,B|369:155|369:155|298:169|237:90,1,203.999993774414,6|2,3:2|3:2,0:0:0:0:
99,258,184240,2,0,P|148:244|197:233,1,101.999996887207,2|0,1:2|3:2,0:0:0:0:
348,323,184593,1,2,3:2:0:0:
241,372,184770,2,0,P|253:322|266:273,1,101.999996887207,2|0,1:2|3:2,0:0:0:0:
174,161,185123,1,0,3:2:0:0:
349,85,185299,2,0,P|362:134|374:183,1,101.999996887207,0|0,1:2|3:0,0:0:0:0:
202,61,185652,1,2,3:2:0:0:
174,161,185829,2,0,P|223:147|272:135,1,101.999996887207,0|4,3:2|0:3,0:0:0:0:
418,28,186181,1,0,3:2:0:0:
418,28,186358,1,2,0:0:0:0:
442,270,186534,6,0,P|377:216|254:263,1,203.999993774414,6|0,3:2|3:0,0:0:0:0:
101,97,187064,1,2,3:2:0:0:
69,337,187240,1,0,1:0:0:0:
282,134,187417,1,0,1:0:0:0:
307,343,187593,1,0,1:0:0:0:
205,42,187770,1,0,1:0:0:0:
205,42,187946,1,2,1:2:0:0:
458,194,198358,5,2,3:0:0:0:
463,189,198446,1,2,3:0:0:0:
468,184,198534,1,2,3:0:0:0:
352,62,199064,1,0,3:2:0:0:
352,62,199152,1,0,3:2:0:0:
352,62,199240,6,0,P|311:74|271:87,1,85,2|0,1:2|0:2,0:0:0:0:
145,147,199593,1,2,3:2:0:0:
145,146,199770,2,0,P|225:155|260:228,1,170,8|0,0:3|0:2,0:0:0:0:
123,301,200299,1,2,1:2:0:0:
326,375,200652,6,0,P|401:362|414:230,1,204,4|0,3:2|3:2,0:0:0:0:
307,186,201358,2,0,P|240:198|173:210,1,136,0|0,1:2|0:2,0:0:0:0:
95,163,201887,1,4,0:3:0:0:
140,93,202064,6,0,P|128:60|116:21,1,68,2|0,3:2|1:2,0:0:0:0:
279,98,202417,2,0,P|268:130|257:162,1,68,2|0,0:2|3:2,0:0:0:0:
70,245,202770,6,0,P|125:247|175:319,1,136,2|2,1:2|0:2,0:0:0:0:
329,217,203299,1,0,0:3:0:0:
398,294,203476,6,0,P|412:225|435:120,1,152.999995330811,6|2,1:2|0:2,0:0:0:0:
272,77,204005,1,0,3:2:0:0:
210,146,204181,2,0,P|140:139|90:62,1,152.999995330811,6|0,1:2|3:2,0:0:0:0:
278,339,204887,6,0,B|292:268|292:268|293:268|293:268|308:189,1,152.999995330811,6|0,3:2|3:2,0:0:0:0:
187,49,205417,1,0,3:2:0:0:
69,271,205593,5,0,1:2:0:0:
335,169,205770,1,0,1:2:0:0:
72,72,205946,1,0,1:2:0:0:
276,291,206123,1,2,1:2:0:0:
276,291,206211,1,2,0:2:0:0:
276,291,206299,6,0,P|320:277|365:264,1,93.5000028533936,6|0,1:2|0:2,0:0:0:0:
158,195,206652,2,0,P|113:181|68:168,1,93.5000028533936,0|0,1:2|0:2,0:0:0:0:
33,156,206917,1,0,1:2:0:0:
33,156,207005,1,0,3:2:0:0:
234,79,207181,1,0,3:2:0:0:
106,0,207358,2,0,P|119:44|132:89,1,93.5000028533936,0|0,1:2|3:2,0:0:0:0:
310,205,207711,6,0,P|322:160|336:115,1,93.5000028533936,2|0,3:2|3:2,0:0:0:0:
141,224,208064,2,0,P|154:268|167:313,1,93.5000028533936,2|0,1:2|0:2,0:0:0:0:
177,344,208329,1,0,1:2:0:0:
177,344,208417,2,0,P|221:330|266:317,1,93.5000028533936,2|0,3:2|3:2,0:0:0:0:
477,265,208770,1,2,1:2:0:0:
310,205,208946,1,0,3:2:0:0:
509,68,209123,6,0,P|495:112|482:157,1,93.5000028533936,2|0,3:2|0:2,0:0:0:0:
297,118,209476,2,0,P|283:73|270:28,1,93.5000028533936,0|2,1:2|3:2,0:0:0:0:
260,1,209740,1,2,1:2:0:0:
260,1,209829,1,0,3:2:0:0:
396,139,210005,1,0,3:2:0:0:
214,223,210181,1,0,1:2:0:0:
55,107,210358,1,2,0:2:0:0:
60,96,210446,1,2,0:2:0:0:
65,85,210534,6,0,P|138:70|216:173,1,187.000005706787,2|0,3:2|1:2,0:0:0:0:
88,271,211064,1,0,3:2:0:0:
88,271,211152,1,0,1:2:0:0:
88,271,211240,2,0,P|101:226|114:181,1,93.5000028533936,0|0,3:2|3:2,0:0:0:0:
267,324,211593,2,0,L|218:339,1,46.7500014266968,2|2,1:2|0:2,0:0:0:0:
332,191,211770,2,0,L|381:206,1,46.7500014266968,2|2,0:2|0:2,0:0:0:0:
462,349,211946,5,6,1:2:0:0:
248,234,212123,1,0,3:2:0:0:
243,229,212211,1,0,1:2:0:0:
238,224,212299,1,0,1:2:0:0:
438,126,212476,5,2,3:2:0:0:
365,315,212652,1,0,3:2:0:0:
360,320,212740,1,0,1:2:0:0:
355,325,212829,1,0,1:2:0:0:
321,59,213005,5,2,1:2:0:0:
139,302,213181,1,2,3:2:0:0:
129,292,213270,1,0,3:2:0:0:
119,282,213358,1,6,1:2:0:0:
256,192,213446,12,2,214770,0:2:0:0:
33,363,230123,5,0,3:2:0:0:
33,363,230211,1,0,3:2:0:0:
33,363,230299,6,0,P|25:317|18:279,1,85,2|0,1:2|3:2,0:0:0:0:
197,201,230652,1,0,3:2:0:0:
150,115,230829,2,0,B|102:85|102:85|29:96|-8:157,1,170,2|0,1:2|3:2,0:0:0:0:
120,251,231358,1,2,1:2:0:0:
224,53,231534,1,0,3:2:0:0:
224,53,231623,1,0,3:2:0:0:
224,53,231711,5,4,1:2:0:0:
336,180,232064,1,0,3:2:0:0:
371,58,232240,1,0,3:2:0:0:
213,211,232417,1,0,3:2:0:0:
425,271,232593,1,0,3:2:0:0:
279,112,232770,1,0,1:2:0:0:
199,329,232946,1,0,3:2:0:0:
121,82,233123,5,0,1:2:0:0:
306,316,233299,1,0,1:2:0:0:
375,31,233476,1,0,1:2:0:0:
82,177,233652,1,0,1:2:0:0:
329,339,233829,6,0,P|370:328|411:316,1,85,2|0,1:2|1:2,0:0:0:0:
445,313,234093,1,2,1:2:0:0:
445,313,234181,1,0,1:2:0:0:
280,222,234358,1,2,1:2:0:0:
476,47,234534,5,4,1:2:0:0:
262,134,234799,1,0,3:2:0:0:
257,139,234887,2,0,P|215:129|173:119,1,85,0|0,1:2|3:2,0:0:0:0:
139,125,235152,1,0,3:2:0:0:
139,125,235240,2,0,L|157:199,1,42.5,0|0,1:2|1:2,0:0:0:0:
351,296,235417,1,0,1:2:0:0:
356,291,235505,1,0,1:2:0:0:
361,286,235593,2,0,P|367:244|375:196,1,85,0|0,1:2|1:2,0:0:0:0:
384,166,235858,1,0,1:2:0:0:
384,166,235946,5,4,1:2:0:0:
123,38,236123,1,0,1:2:0:0:
227,303,236299,1,2,1:2:0:0:
355,39,236476,1,0,1:2:0:0:
454,343,236652,5,2,1:2:0:0:
143,240,236829,1,0,1:2:0:0:
466,115,237005,1,2,1:2:0:0:
108,23,237181,1,2,1:2:0:0:
98,13,237534,2,0,L|66:3,1,21.25,8|0,0:3|0:0,0:0:0:0:
103,18,237623,2,0,L|71:8,1,21.25,4|0,0:3|0:0,0:0:0:0:
108,23,237711,6,0,P|92:83|78:137,1,85,6|0,1:2|0:2,0:0:0:0:
32,325,238064,1,2,3:2:0:0:
81,335,238152,1,0,3:2:0:0:
130,322,238240,1,0,1:2:0:0:
163,284,238329,1,0,1:2:0:0:
191,242,238417,1,0,1:2:0:0:
236,220,238505,1,0,1:2:0:0:
287,222,238593,6,0,B|348:258|348:258|428:243|440:168,1,203.999993774414,6|0,3:2|3:2,0:0:0:0:
241,60,239123,1,2,1:2:0:0:
379,20,239299,1,0,3:2:0:0:
379,20,239387,1,0,1:2:0:0:
379,20,239476,2,0,P|366:69|353:118,1,101.999996887207,2|0,3:2|3:2,0:0:0:0:
150,166,239829,2,0,P|199:153|248:140,1,101.999996887207,2|0,1:2|0:2,0:0:0:0:
355,217,240093,1,0,1:2:0:0:
355,217,240181,6,0,P|297:215|201:330,1,203.999993774414,6|0,3:2|1:2,0:0:0:0:
37,142,240711,1,4,3:0:0:0:
0,321,240887,2,0,P|67:305|114:296,1,101.999996887207,2|0,1:2|1:2,0:0:0:0:
129,292,241152,1,0,1:2:0:0:
129,292,241240,1,0,1:2:0:0:
444,126,241417,6,0,B|383:162|383:162|303:147|291:72,1,203.999993774414,4|0,3:2|3:2,0:0:0:0:
92,115,241946,2,0,P|105:65|118:16,1,101.999996887207,0|0,1:2|3:2,0:0:0:0:
218,162,242299,1,0,1:2:0:0:
44,271,242476,1,0,3:2:0:0:
72,253,242564,1,0,3:2:0:0:
106,247,242652,1,0,1:2:0:0:
139,252,242740,1,4,3:0:0:0:
169,269,242829,1,4,3:0:0:0:
191,294,242917,1,8,0:3:0:0:
202,326,243005,6,0,B|270:310|319:300|319:300|345:260|310:223,1,203.999993774414,4|0,3:2|1:2,0:0:0:0:
123,125,243534,1,2,0:2:0:0:
123,125,243623,1,0,1:2:0:0:
123,125,243711,2,0,P|79:117|15:105,1,101.999996887207,2|2,3:2|3:2,0:0:0:0:
201,238,244064,1,0,1:2:0:0:
281,46,244240,6,0,B|330:12|393:42|393:42|405:88|481:113,1,203.999993774414,2|0,3:2|3:2,0:0:0:0:
238,147,244770,1,2,1:2:0:0:
363,294,244946,1,0,3:2:0:0:
363,294,245034,1,0,1:2:0:0:
364,293,245123,2,0,B|375:243|388:194,1,101.999996887207,0|0,3:2|3:2,0:0:0:0:
492,347,245476,1,0,1:2:0:0:
423,108,245652,1,0,3:2:0:0:
423,108,245740,1,0,1:2:0:0:
423,108,245829,6,0,B|301:78|360:174|231:157|231:157|236:193,1,203.999993774414,2|0,3:2|1:2,0:0:0:0:
75,38,246358,1,2,3:2:0:0:
82,66,246446,1,0,3:2:0:0:
89,96,246534,1,2,3:2:0:0:
95,125,246623,1,0,1:2:0:0:
102,155,246711,1,0,3:2:0:0:
253,55,246887,1,0,1:2:0:0:
26,257,247064,6,0,P|123:252|179:332,1,203.999993774414,4|0,3:2|3:2,0:0:0:0:
306,231,247593,2,0,P|294:181|282:131,1,101.999996887207,0|2,1:2|3:2,0:0:0:0:
471,204,247946,2,0,P|459:253|447:303,1,101.999996887207,2|0,1:2|3:2,0:0:0:0:
435,337,248211,1,2,3:2:0:0:
435,337,248299,2,0,L|368:317,1,50.9999984436036,0|0,1:2|1:2,0:0:0:0:
151,179,248476,1,2,1:2:0:0:
158,186,248564,1,0,1:2:0:0:
165,193,248652,6,0,P|247:195|316:82,1,203.999993774414,4|2,1:2|3:2,0:0:0:0:
471,204,249181,1,2,0:2:0:0:
397,54,249358,1,0,3:2:0:0:
307,259,249534,1,2,0:2:0:0:
477,110,249711,1,0,3:2:0:0:
505,343,249887,6,0,B|446:298|446:298|376:297|311:371,1,203.999993774414,2|0,1:2|3:2,0:0:0:0:
202,249,250417,1,0,3:2:0:0:
354,179,250593,1,0,3:2:0:0:
187,81,250770,2,0,P|138:93|89:106,1,101.999996887207,2|0,3:2|3:2,0:0:0:0:
61,124,251034,1,2,0:0:0:0:
61,124,251123,1,0,3:2:0:0:
202,249,251299,1,4,0:3:0:0:
350,17,251476,6,0,P|334:117|318:223,1,203.999993774414,6|2,3:2|3:2,0:0:0:0:
94,290,252005,1,2,0:2:0:0:
233,144,252181,1,0,3:2:0:0:
287,353,252358,1,2,1:2:0:0:
86,186,252534,1,0,3:2:0:0:
440,128,252711,6,0,P|341:103|296:8,1,203.999993774414,6|0,1:2|3:2,0:0:0:0:
183,239,253240,2,0,P|232:228|282:218,1,101.999996887207,2|0,1:2|1:2,0:0:0:0:
440,128,253593,2,0,P|429:177|419:227,1,101.999996887207,2|0,1:2|3:2,0:0:0:0:
287,366,253946,1,0,1:2:0:0:
238,377,254034,1,0,1:2:0:0:
191,358,254123,1,4,3:2:0:0:
162,317,254211,1,0,3:2:0:0:
162,267,254299,6,0,P|177:218|192:169,1,101.999996887207,4|0,3:2|0:2,0:0:0:0:
440,128,254652,1,2,3:2:0:0:
500,206,254829,2,0,P|448:229|344:128,1,203.999993774414,2|6,1:2|3:2,0:0:0:0:
209,1,255358,2,0,P|159:12|109:23,1,101.999996887207,6|0,1:2|3:2,0:0:0:0:
336,92,255711,1,0,3:2:0:0:
59,193,255887,6,0,P|118:160|236:249,1,203.999993774414,6|2,1:2|3:2,0:0:0:0:
460,164,256417,1,0,1:2:0:0:
336,92,256593,1,2,1:2:0:0:
341,125,256681,1,0,1:2:0:0:
347,159,256770,1,2,1:2:0:0:
352,192,256858,1,0,1:2:0:0:
358,226,256946,1,2,1:2:0:0:
363,259,257034,1,0,1:2:0:0:
369,293,257123,6,0,P|319:282|269:271,1,101.999996887207,6|0,1:2|0:2,0:0:0:0:
109,142,257476,1,2,3:2:0:0:
154,384,257652,2,0,P|175:284|196:184,1,203.999993774414,6|2,1:2|3:2,0:0:0:0:
2,28,258181,2,0,P|12:77|23:127,1,101.999996887207,6|0,1:2|3:2,0:0:0:0:
57,286,258534,1,0,3:2:0:0:
197,87,258711,6,0,B|278:54|278:54|333:65|387:135,1,203.999993774414,6|0,1:2|3:2,0:0:0:0:
484,270,259240,1,2,1:2:0:0:
430,255,259329,1,0,1:2:0:0:
379,276,259417,1,0,1:2:0:0:
341,316,259505,1,0,1:2:0:0:
291,340,259593,1,2,1:2:0:0:
237,334,259681,1,0,1:2:0:0:
199,296,259770,1,0,1:2:0:0:
194,241,259858,1,0,1:2:0:0:
227,197,259946,6,0,P|278:205|327:213,1,101.999996887207,6|0,1:2|0:2,0:0:0:0:
170,78,260299,1,6,3:2:0:0:
354,0,260476,2,0,P|418:18|413:146,1,203.999993774414,2|4,1:2|3:2,0:0:0:0:
227,197,261005,2,0,P|235:247|243:297,1,101.999996887207,6|0,1:2|3:2,0:0:0:0:
422,138,261358,5,0,3:2:0:0:
170,78,261534,1,6,1:2:0:0:
382,239,261711,1,0,0:2:0:0:
118,324,261887,1,2,3:2:0:0:
293,45,262064,5,2,1:2:0:0:
296,70,262152,1,0,0:2:0:0:
300,95,262240,1,2,3:2:0:0:
303,120,262329,1,0,3:2:0:0:
307,145,262417,1,2,1:2:0:0:
349,117,262505,1,0,1:2:0:0:
399,112,262593,1,0,1:2:0:0:
445,133,262681,1,0,1:2:0:0:
475,173,262770,5,2,1:2:0:0:
256,192,262858,12,2,264181,0:2:0:0:
26,53,264711,5,4,0:3:0:0:
121,119,265064,1,8,0:3:0:0:
121,119,265240,2,0,P|106:177|92:226,1,89.2499972763062,4|2,0:3|0:2,0:0:0:0:
136,288,265593,6,0,P|190:285|249:226,1,136,6|2,3:2|0:2,0:0:0:0:
324,175,266123,2,0,P|335:242|347:308,1,136,0|0,1:2|3:2,0:0:0:0:
412,362,266652,1,0,3:2:0:0:
489,119,267005,6,0,P|407:115|370:66,1,136,4|2,3:2|0:2,0:0:0:0:
305,29,267711,2,0,P|239:41|172:53,1,136,4|2,3:2|0:2,0:0:0:0:
46,264,268417,6,0,B|88:222|158:234|158:234|175:275|231:286,1,204,4|2,3:2|0:2,0:0:0:0:
283,178,269123,2,0,P|232:187|266:147,1,136,6|0,3:2|0:2,0:0:0:0:
420,49,269652,1,0,1:2:0:0:
420,49,269740,1,2,1:2:0:0:
420,49,269829,2,0,P|413:90|406:132,1,85,4|0,3:2|3:2,0:0:0:0:
380,162,270093,1,0,3:2:0:0:
380,162,270181,2,0,L|390:227,1,42.5,2|0,1:2|3:2,0:0:0:0:
489,255,270358,2,0,L|482:296,1,42.5,0|0,3:2|3:2,0:0:0:0:
368,361,270534,5,2,1:2:0:0:
339,375,270623,1,0,3:2:0:0:
308,374,270711,1,0,3:2:0:0:
280,358,270799,1,0,3:2:0:0:
264,331,270887,1,2,1:2:0:0:
236,299,270976,1,0,3:2:0:0:
197,284,271064,1,0,3:2:0:0:
155,292,271152,1,0,3:2:0:0:
123,319,271240,6,0,P|113:273|102:227,1,93.5000028533936,4|0,3:2|0:2,0:0:0:0:
266,117,271593,1,0,1:2:0:0:
56,33,271858,1,0,1:2:0:0:
51,38,271946,2,0,P|40:83|30:129,1,93.5000028533936,0|0,3:2|3:2,0:0:0:0:
190,172,272299,1,0,1:2:0:0:
365,28,272476,1,2,0:2:0:0:
365,28,272564,1,2,0:2:0:0:
365,28,272652,6,0,P|421:36|490:157,1,187.000005706787,2|4,3:2|1:2,0:0:0:0:
454,259,273181,5,0,3:2:0:0:
454,259,273270,1,0,1:2:0:0:
454,259,273358,5,0,1:2:0:0:
392,239,273476,5,0,1:2:0:0:
344,272,273593,5,0,1:2:0:0:
347,329,273711,5,0,1:2:0:0:
342,334,273829,5,8,3:0:0:0:
337,339,273946,5,4,3:0:0:0:
332,344,274064,6,0,P|238:383|160:338,1,187.000005706787,4|0,3:2|3:2,0:0:0:0:
246,207,274593,1,2,3:2:0:0:
64,163,274770,1,2,3:2:0:0:
232,57,274946,1,0,3:2:0:0:
343,274,275123,1,0,3:2:0:0:
154,112,275299,1,2,3:2:0:0:
382,39,275476,5,2,1:2:0:0:
200,230,275652,1,0,1:2:0:0:
471,283,275829,1,0,1:2:0:0:
259,32,276005,1,2,1:2:0:0:
55,341,276181,5,2,1:2:0:0:
450,172,276358,1,0,1:2:0:0:
69,37,276534,1,0,1:2:0:0:
426,369,276711,1,0,1:2:0:0:
256,192,277593,5,6,1:2:0:0:
256,192,277681,12,0,281829,0:0:0:0:
