osu file format v14

[General]
AudioFilename: audio.mp3
AudioLeadIn: 0
PreviewTime: 215204
Countdown: 0
SampleSet: Soft
StackLeniency: 0.7
Mode: 0
LetterboxInBreaks: 0
WidescreenStoryboard: 1

[Editor]
DistanceSpacing: 2.14
BeatDivisor: 4
GridSize: 32
TimelineZoom: 2.4

[Metadata]
Title:Fuyu ni Saku Hana
TitleUnicode:冬に咲く華
Artist:Mitsuki Kotono
ArtistUnicode:美月琴音
Creator:NakaRoniX
Version:Yereoz's Insane
Source:彼女のセイイキ
Tags:yereoz feng kanojo no seiiki op opening theme eroge visual novel video game galge japanese pop jpop j-pop j pop female vocals vocalist full ver version
BeatmapID:3352596
BeatmapSetID:1619594

[Difficulty]
HPDrainRate:5
CircleSize:3.8
OverallDifficulty:8
ApproachRate:9
SliderMultiplier:1.67
SliderTickRate:1

[Events]
//Background and Video events
0,0,"bg.jpg",0,0
//Break Periods
2,39904,41045
2,103233,106869
2,135904,137045
2,189351,198457
2,215116,229516
//Storyboard Layer 0 (Background)
//Storyboard Layer 1 (Fail)
//Storyboard Layer 2 (Pass)
//Storyboard Layer 3 (Foreground)
//Storyboard Layer 4 (Overlay)
//Storyboard Sound Samples

[TimingPoints]
175,352.941176470588,4,2,17,32,1,0
5645,-114.942528735632,4,2,17,62,0,0
11116,-114.942528735632,4,2,17,52,0,0
11469,-212.765957446808,4,2,17,42,0,0
27704,-175.438596491228,4,2,17,52,0,0
27969,-175.438596491228,4,2,17,5,0,0
28057,-175.438596491228,4,2,17,52,0,0
28410,-114.942528735632,4,2,17,52,0,0
32645,-114.942528735632,4,2,17,62,0,0
44822,-114.942528735632,4,2,17,72,0,0
47292,-149.253731343283,4,2,17,72,0,0
47557,-149.253731343283,4,2,17,5,0,0
47645,-85.4700854700854,4,2,17,72,0,0
47733,-85.4700854700854,4,2,17,5,0,0
47822,-85.4700854700854,4,2,17,72,0,0
48174,-93.4579439252336,4,2,17,72,0,0
53733,-93.4579439252336,4,2,17,5,0,0
53822,-93.4579439252336,4,2,17,72,0,0
87704,-93.4579439252336,4,2,17,82,0,0
92469,-93.4579439252336,4,2,17,62,0,0
93351,-129.87012987013,4,2,17,52,0,0
93792,-129.87012987013,4,2,17,52,0,0
93880,-129.87012987013,4,2,17,52,0,0
97586,-114.942528735632,4,2,17,72,0,0
98998,-103.092783505155,4,2,17,72,0,0
107469,-212.765957446809,4,2,17,42,0,0
123704,-114.942528735632,4,2,17,52,0,0
130057,-114.942528735632,4,2,17,62,0,0
134998,-103.092783505155,4,2,17,62,0,0
137645,-114.942528735633,4,2,17,62,0,0
143645,-103.092783505155,4,2,17,62,0,0
144174,-93.4579439252342,4,2,17,72,0,0
149733,-93.4579439252342,4,2,17,5,0,0
149822,-93.4579439252342,4,2,17,72,0,0
158204,-93.4579439252342,4,2,17,5,0,0
158292,-93.4579439252342,4,2,17,72,0,0
199057,-129.870129870132,4,2,17,52,0,0
200204,-129.870129870132,4,2,17,5,0,0
200292,-212.765957446813,4,2,17,52,0,0
200557,-212.765957446813,4,2,17,5,0,0
200645,-129.870129870132,4,2,17,52,0,0
201086,-129.870129870132,4,2,17,5,0,0
201174,-129.870129870132,4,2,17,52,0,0
202674,-129.870129870132,4,2,17,5,0,0
202763,-129.870129870132,4,2,17,52,0,0
203027,-129.870129870132,4,2,17,5,0,0
203116,-212.765957446813,4,2,17,52,0,0
203380,-212.765957446813,4,2,17,5,0,0
203469,-129.870129870132,4,2,17,52,0,0
204439,-129.870129870132,4,2,17,5,0,0
204527,-270.270270270278,4,2,17,52,0,0
204792,-270.270270270278,4,2,17,5,0,0
204880,-114.942528735634,4,2,17,62,0,0
206292,-103.092783505156,4,2,17,62,0,0
209027,-103.092783505156,4,2,17,5,0,0
209116,-103.092783505156,4,2,17,62,0,0
211851,-103.092783505156,4,2,17,5,0,0
211939,-85.4700854700864,4,2,17,62,0,0
213351,-212.765957446813,4,2,17,52,0,0
230292,-103.092783505156,4,2,17,62,0,0
236645,-103.092783505156,4,2,17,82,0,0
238586,-93.4579439252348,4,2,17,72,0,1
248645,-93.4579439252348,4,2,17,72,0,0
254292,-85.4700854700862,4,2,17,82,0,1
256410,-85.4700854700862,4,2,17,82,0,0
257116,-85.4700854700862,4,2,17,82,0,1
259233,-85.4700854700862,4,2,17,82,0,0
259939,-85.4700854700862,4,2,17,82,0,1
262233,-85.4700854700862,4,2,17,82,0,0
264704,-85.4700854700862,4,2,17,62,0,0
265586,-129.87012987013,4,2,17,52,0,0
266027,-129.87012987013,4,2,17,5,0,0
266116,-129.87012987013,4,2,17,52,0,0
269822,-114.942528735632,4,2,17,72,0,0
271233,-103.092783505155,4,2,17,72,0,0
274057,-103.092783505155,4,2,17,82,0,0
274410,-93.4579439252339,4,2,17,82,0,0
276174,-93.4579439252339,4,2,17,92,0,0
276704,-93.4579439252339,4,2,17,72,0,0
277586,-370.37037037037,4,2,17,72,0,0
277674,-370.37037037037,4,2,17,5,0,0

[Colours]
Combo1 : 143,159,222
Combo2 : 225,233,234
Combo3 : 121,128,151
Combo4 : 186,235,243

[HitObjects]
52,66,5645,5,0,1:2:0:0:
52,66,5733,1,0,1:2:0:0:
52,66,5822,2,0,B|99:37|142:47|142:47|151:80|205:92,1,145.290001219322,6|0,1:2|1:2,0:2:0:0:
349,90,6351,1,0,0:2:0:0:
281,6,6527,2,0,P|277:49|270:97,1,72.6450006096611,0|0,1:2|0:2,0:2:0:0:
428,119,6880,2,0,P|432:76|439:28,1,72.6450006096611,0|0,1:2|0:2,0:0:0:0:
336,190,7233,6,0,P|338:232|343:296,1,72.6450006096611,2|0,1:2|0:2,0:2:0:0:
170,169,7586,2,0,P|204:147|238:124,1,72.6450006096611,2|0,1:2|0:2,0:2:0:0:
245,342,7939,2,0,P|209:323|172:305,1,72.6450006096611,2|0,1:2|0:2,0:2:0:0:
254,230,8292,1,2,1:2:0:0:
86,354,8469,1,8,0:2:0:0:
86,354,8557,1,8,0:2:0:0:
86,354,8645,6,0,P|85:298|78:257,1,72.6450006096611,6|0,1:2|0:2,0:2:0:0:
89,156,8998,2,0,P|134:164|188:171,1,72.6450006096611,0|2,1:2|1:2,0:0:0:0:
210,26,9351,1,10,0:2:0:0:
22,110,9527,1,10,0:2:0:0:
176,260,9704,1,10,0:2:0:0:
243,120,9880,1,8,0:2:0:0:
45,254,10057,1,8,0:2:0:0:
264,246,10233,5,8,1:3:0:0:
110,174,10410,1,0,1:2:0:0:
312,137,10586,1,0,1:2:0:0:
189,71,10763,1,4,1:3:0:0:
345,51,10939,1,0,1:2:0:0:
260,5,11116,1,0,1:2:0:0:
418,125,11469,6,0,B|408:157|382:184|382:184|419:229|407:280,1,156.979997604675,2|2,1:2|0:2,0:2:0:0:
235,236,12527,2,0,L|244:279,1,39.2449994011688,2|0,0:2|0:2,0:2:0:0:
258,356,12880,2,0,P|274:269|291:187,1,156.979997604675,2|2,0:2|0:2,0:2:0:0:
188,19,13939,2,0,P|164:24|134:30,1,39.2449994011688,2|0,0:2|0:2,0:2:0:0:
131,123,14292,2,0,P|168:115|225:108,1,78.4899988023377,2|2,0:2|0:2,0:2:0:0:
335,84,14822,1,2,0:2:0:0:
335,84,14998,2,0,P|346:126|356:177,1,78.4899988023377,2|2,0:0|0:2,0:0:0:0:
360,323,15704,6,0,B|315:287|265:287|265:287|250:316|211:327,1,156.979997604675,2|2,0:2|0:2,0:2:0:0:
55,253,16763,2,0,P|82:245|109:245,1,39.2449994011688,2|2,0:2|0:2,0:2:0:0:
183,259,17116,2,0,P|186:206|189:165,1,78.4899988023377,2|0,0:2|0:2,0:2:0:0:
66,70,17645,1,2,0:2:0:0:
66,70,17822,2,0,P|112:65|160:63,1,78.4899988023377,2|2,0:2|0:2,0:2:0:0:
288,14,18527,6,0,B|298:44|329:73|329:73|299:120|301:169,1,156.979997604675,2|2,0:2|0:2,0:2:0:0:
357,267,19586,1,2,0:2:0:0:
160,237,19939,2,0,B|75:220|75:220|48:176|77:142,1,156.979997604675,2|2,0:2|0:2,0:2:0:0:
188,57,20998,2,1,P|212:64|230:66,1,39.2449994011688,2|0,0:2|0:0,0:0:0:0:
237,156,21351,2,0,P|186:141|146:135,1,78.4899988023377,2|0,0:2|0:2,0:2:0:0:
351,179,22057,6,0,P|339:143|330:107,2,58.8674991017533,2|2|2,0:2|0:2|0:2,0:2:0:0:
387,267,22763,2,0,B|402:315|402:315|360:374|294:340,1,156.979997604675,2|2,0:2|0:2,0:2:0:0:
466,128,23822,1,2,0:2:0:0:
466,128,24174,6,0,B|375:106|390:173|302:148,1,156.979997604675,2|2,0:2|0:2,0:2:0:0:
141,200,25233,2,0,P|148:175|153:149,1,39.2449994011688,2|2,0:2|0:2,0:2:0:0:
188,81,25586,2,0,P|194:162|206:255,1,156.979997604675,2|2,0:2|0:2,0:2:0:0:
84,143,26645,2,1,P|55:148|29:155,1,39.2449994011688,0|2,0:2|0:2,0:0:0:0:
36,170,26910,1,2,0:2:0:0:
36,170,26998,1,2,0:2:0:0:
244,250,27704,6,0,P|288:239|333:229,1,71.3924991285095,2|0,0:2|0:0,0:0:0:0:
361,238,28057,1,2,1:2:0:0:
239,66,28233,5,8,1:3:0:0:
239,66,28322,1,8,1:3:0:0:
239,66,28410,2,0,P|237:113|232:159,1,72.6450006096611,4|0,1:2|0:2,0:2:0:0:
76,35,28763,2,0,P|111:16|148:0,1,72.6450006096611,2|0,1:2|0:2,0:2:0:0:
132,188,29116,2,0,P|97:166|64:142,1,72.6450006096611,2|0,1:2|0:2,0:2:0:0:
79,265,29469,1,2,1:2:0:0:
154,107,29645,1,2,0:2:0:0:
74,278,29822,6,0,P|89:318|103:365,1,72.6450006096611,2|0,1:2|0:2,0:0:0:0:
205,223,30174,1,2,1:2:0:0:
31,162,30351,1,0,0:2:0:0:
154,107,30527,2,0,P|139:147|125:194,1,72.6450006096611,2|0,1:2|0:2,0:0:0:0:
175,357,30880,1,2,1:2:0:0:
74,278,31057,1,2,0:2:0:0:
224,155,31233,6,0,B|265:127|305:132|305:132|331:174|364:174,1,145.290001219322,2|0,1:2|1:2,0:2:0:0:
506,69,31763,1,0,0:2:0:0:
412,18,31939,2,0,P|423:57|432:106,1,72.6450006096611,2|0,1:2|0:2,0:2:0:0:
389,278,32292,1,2,1:2:0:0:
485,200,32469,1,2,0:2:0:0:
346,72,32645,6,0,P|304:90|259:100,1,72.6450006096611,2|0,1:2|1:2,0:0:0:0:
74,115,32998,1,8,0:2:0:0:
234,179,33174,1,8,0:2:0:0:
36,280,33351,1,0,1:2:0:0:
229,345,33527,1,2,1:2:0:0:
152,157,33704,1,8,0:2:0:0:
153,177,33792,1,8,0:2:0:0:
155,197,33880,1,10,0:2:0:0:
157,217,33968,1,8,0:2:0:0:
158,238,34057,6,0,P|200:235|256:233,1,72.6450006096611,4|0,1:2|0:2,0:0:0:0:
405,186,34410,1,8,0:2:0:0:
309,82,34586,1,10,0:2:0:0:
306,108,34674,1,8,0:2:0:0:
309,135,34763,2,0,P|311:183|317:236,1,72.6450006096611,2|0,1:2|1:2,0:0:0:0:
371,379,35116,1,10,0:2:0:0:
447,295,35292,1,2,0:2:0:0:
286,362,35469,6,0,P|243:355|198:336,1,72.6450006096611,0|0,1:2|0:2,0:0:0:0:
57,228,35822,1,8,0:2:0:0:
141,180,35998,1,8,0:2:0:0:
143,208,36086,1,8,0:2:0:0:
140,236,36174,2,0,P|138:284|132:337,1,72.6450006096611,0|0,1:2|1:2,0:0:0:0:
256,158,36527,1,10,0:2:0:0:
57,125,36704,1,2,1:2:0:0:
256,158,36880,6,0,P|300:165|363:168,1,72.6450006096611,2|2,1:2|0:2,0:2:0:0:
494,234,37233,1,10,0:2:0:0:
401,280,37410,1,10,0:2:0:0:
406,248,37498,1,8,0:2:0:0:
410,216,37586,2,0,P|416:171|424:118,1,72.6450006096611,0|0,1:2|1:2,0:0:0:0:
259,238,37939,2,0,P|289:255|329:290,1,72.6450006096611,10|2,0:2|0:2,0:2:0:0:
298,84,38292,2,0,P|268:101|217:119,1,72.6450006096611,0|0,1:2|1:2,0:2:0:0:
336,168,38645,5,14,0:2:0:0:
164,296,38822,1,0,1:2:0:0:
164,296,38910,1,0,1:2:0:0:
164,296,38998,2,0,P|128:288|94:282,2,48.4300004064407,10|0|10,0:2|1:2|0:2,0:2:0:0:
257,353,39351,2,0,P|293:345|327:339,2,48.4300004064407,8|10|4,0:2|1:3|1:3,0:2:0:0:
137,379,39704,5,6,1:2:0:0:
317,113,41645,5,2,1:2:0:0:
310,144,41733,1,0,1:2:0:0:
305,176,41821,1,8,0:2:0:0:
218,102,41998,1,2,1:2:0:0:
404,169,42174,1,10,0:2:0:0:
399,193,42262,1,8,0:2:0:0:
395,217,42350,1,8,1:3:0:0:
392,241,42438,1,4,1:3:0:0:
389,265,42527,6,0,B|302:250|328:303|223:291,1,145.290001219322,6|2,1:2|1:2,0:0:0:0:
123,191,43057,1,0,1:2:0:0:
209,138,43233,2,0,P|203:192|201:238,1,72.6450006096611,0|8,1:2|1:2,0:0:0:0:
109,72,43586,1,8,0:2:0:0:
305,176,43763,1,8,0:2:0:0:
115,318,43939,1,8,0:2:0:0:
208,182,44116,1,8,0:2:0:0:
17,253,44292,1,8,0:2:0:0:
218,363,44469,1,8,0:2:0:0:
98,180,44645,1,10,0:2:0:0:
274,138,44822,5,8,0:2:0:0:
274,138,44910,1,10,0:2:0:0:
274,138,44998,2,0,P|268:170|266:192,1,36.3225003048306,8|0,0:2|1:2,0:2:0:0:
258,281,45174,1,10,0:2:0:0:
258,281,45263,1,8,0:2:0:0:
258,281,45351,6,0,P|304:280|357:292,1,72.6450006096611,6|8,1:2|0:2,0:0:0:0:
436,313,45616,1,8,0:2:0:0:
436,313,45704,2,0,P|428:278|424:251,1,36.3225003048306,8|8,0:2|0:2,0:0:0:0:
407,190,45880,2,0,P|399:155|395:128,1,36.3225003048306,10|8,1:3|0:2,0:2:0:0:
380,69,46057,5,2,1:2:0:0:
263,22,46233,1,8,0:2:0:0:
263,22,46322,1,8,0:2:0:0:
263,22,46410,2,0,P|229:33|197:46,1,36.3225003048306,0|8,1:2|0:2,0:2:0:0:
121,72,46586,1,10,1:3:0:0:
88,66,46674,1,4,1:3:0:0:
58,54,46762,1,6,1:2:0:0:
98,266,47116,5,2,0:2:0:0:
235,183,47292,2,0,B|247:161|239:138|239:138|255:165|246:182,1,83.917496030514,2|0,0:2|0:0,0:0:0:0:
235,240,47645,2,0,P|201:235|176:227,1,48.8475001863384,2|0,0:2|0:0,0:0:0:0:
147,153,47822,1,2,0:2:0:0:
278,342,47998,1,2,0:2:0:0:
278,342,48086,1,2,0:2:0:0:
278,342,48174,6,0,B|346:325|346:325|366:293|366:293|448:270,1,178.689994546814,6|8,1:2|0:2,0:2:0:0:
293,182,48704,1,10,0:2:0:0:
293,182,48792,1,8,0:2:0:0:
293,182,48880,1,2,1:2:0:0:
422,50,49057,1,2,1:2:0:0:
292,261,49233,1,10,0:2:0:0:
199,58,49410,6,0,P|266:44|343:118,1,178.689994546814,6|0,1:2|1:2,0:2:0:0:
229,273,49939,2,0,P|183:281|126:242,1,89.3449972734071,10|0,0:2|1:2,0:2:0:0:
126,233,50204,1,8,0:2:0:0:
126,233,50292,2,0,P|132:195|137:121,1,89.3449972734071,2|0,1:2|1:2,0:2:0:0:
7,279,50645,1,10,0:2:0:0:
6,105,50998,6,0,P|34:193|59:291,1,178.689994546814,6|8,1:2|0:2,0:2:0:0:
176,52,51527,1,10,0:2:0:0:
176,52,51615,1,8,0:2:0:0:
176,52,51703,1,2,1:2:0:0:
20,15,51880,1,4,0:3:0:0:
180,179,52057,1,10,0:2:0:0:
44,265,52233,6,0,P|66:178|93:93,1,178.689994546814,6|0,1:2|1:2,0:2:0:0:
147,308,52763,2,0,P|192:298|246:291,1,89.3449972734071,10|0,0:2|0:2,0:2:0:0:
286,301,53027,1,8,0:2:0:0:
286,301,53116,2,0,L|344:306,2,44.6724986367035,2|8|0,1:2|0:2|1:2,0:2:0:0:
410,384,53469,2,0,P|416:331|417:241,1,134.017495910111,10|0,0:2|0:2,0:2:0:0:
438,181,53822,6,0,P|392:132|282:162,1,178.689994546814,2|8,1:2|0:2,0:2:0:0:
243,373,54351,1,10,0:2:0:0:
243,373,54439,1,8,0:2:0:0:
243,373,54527,1,2,1:2:0:0:
335,235,54704,1,2,1:2:0:0:
119,276,54880,1,10,0:2:0:0:
143,86,55057,6,0,B|211:102|211:102|231:134|231:134|313:157,1,178.689994546814,2|0,1:2|1:2,0:2:0:0:
472,25,55586,2,0,P|421:25|378:44,1,89.3449972734071,10|0,0:2|0:2,0:2:0:0:
369,78,55851,1,8,0:2:0:0:
369,78,55939,2,0,P|377:127|383:170,1,89.3449972734071,2|0,1:2|1:2,0:2:0:0:
512,324,56292,1,10,0:2:0:0:
500,159,56469,2,8,P|486:185|466:218,1,44.6724986367035,10|8,0:2|0:2,0:2:0:0:
417,254,56645,6,0,B|313:229|340:303|227:278,1,178.689994546814,6|8,1:2|0:2,0:2:0:0:
29,273,57174,2,8,P|50:284|75:298,1,44.6724986367035,10|8,0:2|0:2,0:2:0:0:
125,377,57351,2,0,P|138:333|159:282,1,89.3449972734071,2|0,1:2|1:2,0:2:0:0:
261,151,57704,1,8,0:2:0:0:
96,212,57880,6,0,P|179:217|293:232,1,178.689994546814,2|0,1:2|1:2,0:2:0:0:
236,47,58410,2,0,P|185:43|116:34,1,89.3449972734071,8|0,0:2|0:2,0:2:0:0:
373,168,58763,1,10,0:2:0:0:
347,30,58939,2,8,L|332:84,1,44.6724986367035,8|8,0:2|0:2,0:2:0:0:
267,153,59116,2,8,L|282:207,1,44.6724986367035,10|8,0:2|0:2,0:2:0:0:
361,271,59292,2,8,L|346:325,1,44.6724986367035,10|8,0:2|0:2,0:2:0:0:
260,378,59469,6,0,P|185:371|137:284,1,178.689994546814,2|8,1:2|0:2,0:2:0:0:
261,121,59998,1,10,0:2:0:0:
261,121,60086,1,8,0:2:0:0:
261,121,60174,1,2,1:2:0:0:
106,199,60351,2,0,P|151:208|214:225,1,89.3449972734071,2|8,1:2|0:2,0:2:0:0:
321,322,60704,6,0,B|384:307|441:292|441:292|466:317|491:338,1,178.689994546814,2|0,1:2|1:2,0:2:0:0:
326,215,61233,1,10,0:2:0:0:
465,99,61410,1,10,0:2:0:0:
458,124,61498,1,8,0:2:0:0:
452,151,61586,1,0,1:2:0:0:
338,32,61763,2,0,P|294:41|230:58,1,89.3449972734071,2|8,1:2|0:2,0:2:0:0:
113,177,62116,1,2,1:2:0:0:
151,14,62292,6,0,P|177:108|199:206,1,178.689994546814,6|8,1:2|0:2,0:2:0:0:
154,339,62822,1,10,0:2:0:0:
154,339,62910,1,8,0:2:0:0:
154,339,62998,1,0,1:2:0:0:
272,157,63174,2,0,P|315:167|359:176,1,89.3449972734071,2|8,1:2|0:2,0:2:0:0:
482,289,63527,6,0,B|408:300|408:300|383:324|383:324|294:341,1,178.689994546814,6|0,1:2|1:2,0:2:0:0:
154,225,64057,2,0,P|216:232|251:257,1,89.3449972734071,10|0,0:2|0:2,0:2:0:0:
31,335,64410,1,8,0:2:0:0:
31,335,64498,1,8,0:2:0:0:
31,335,64586,2,0,P|44:291|65:240,1,89.3449972734071,2|8,1:2|0:2,0:2:0:0:
190,115,64939,1,2,0:2:0:0:
34,165,65116,6,0,B|107:176|107:176|132:200|132:200|221:217,1,178.689994546814,6|8,1:2|0:2,0:2:0:0:
374,314,65645,2,8,P|358:292|344:271,1,44.6724986367035,8|8,0:2|0:2,0:2:0:0:
299,178,65822,2,0,P|282:219|269:262,1,89.3449972734071,2|0,1:2|1:2,0:2:0:0:
426,190,66174,1,10,0:2:0:0:
353,42,66351,6,0,B|243:20|292:105|158:80,1,178.689994546814,6|0,1:2|1:2,0:2:0:0:
17,217,66880,1,10,0:2:0:0:
90,53,67057,1,8,0:2:0:0:
96,79,67145,1,8,0:2:0:0:
106,104,67233,1,2,1:2:0:0:
216,238,67410,2,0,P|260:225|302:214,1,89.3449972734071,2|8,1:2|0:2,0:2:0:0:
384,125,67763,1,2,0:2:0:0:
296,351,67939,6,0,P|190:319|89:294,1,178.689994546814,2|8,1:2|0:2,0:2:0:0:
9,135,68469,1,10,0:3:0:0:
22,158,68557,1,8,0:3:0:0:
33,182,68645,1,2,1:2:0:0:
151,116,68822,2,8,P|141:146|127:191,1,44.6724986367035,8|8,0:2|0:2,0:2:0:0:
34,27,68998,1,10,0:2:0:0:
171,234,69174,6,0,B|236:221|236:221|276:186|276:186|362:175,1,178.689994546814,6|0,1:2|1:2,0:2:0:0:
422,333,69704,2,0,P|369:311|346:283,1,89.3449972734071,8|0,0:2|1:2,0:2:0:0:
496,206,70057,1,8,0:2:0:0:
400,81,70233,2,8,P|374:92|337:104,1,44.6724986367035,8|8,0:2|0:2,0:2:0:0:
259,141,70410,2,8,P|233:130|196:118,1,44.6724986367035,8|8,0:2|0:2,0:2:0:0:
144,55,70586,2,8,P|118:66|81:78,1,44.6724986367035,8|8,0:2|0:2,0:2:0:0:
18,147,70763,6,0,P|31:243|99:303,1,178.689994546814,6|8,1:2|0:2,0:2:0:0:
282,229,71292,1,10,0:2:0:0:
282,229,71380,1,8,0:2:0:0:
282,229,71469,1,2,1:2:0:0:
114,178,71645,1,2,1:2:0:0:
148,358,71822,1,10,0:2:0:0:
324,324,71998,6,0,P|347:236|282:136,1,178.689994546814,6|0,1:2|1:2,0:2:0:0:
140,76,72527,2,0,P|93:88|26:98,1,89.3449972734071,10|0,0:2|1:2,0:2:0:0:
70,178,72792,1,8,0:2:0:0:
70,178,72880,2,0,P|117:166|184:156,1,89.3449972734071,6|0,1:2|1:2,0:2:0:0:
319,104,73233,2,0,P|303:145|291:189,1,89.3449972734071,10|0,0:2|1:2,0:2:0:0:
301,216,73498,1,8,0:2:0:0:
301,216,73586,6,0,P|300:308|405:331,1,178.689994546814,6|8,1:2|0:2,0:2:0:0:
430,216,74116,1,2,1:2:0:0:
254,376,74292,1,2,1:2:0:0:
179,230,74469,2,8,P|189:206|201:165,1,44.6724986367035,8|8,0:2|0:2,0:2:0:0:
270,125,74645,2,8,P|260:101|248:60,1,44.6724986367035,8|8,0:2|0:2,0:2:0:0:
154,27,74822,6,0,P|93:33|57:163,1,178.689994546814,6|0,1:2|1:2,0:2:0:0:
123,325,75351,2,0,P|170:313|237:303,1,89.3449972734071,10|0,0:2|1:2,0:2:0:0:
389,217,75704,1,8,0:2:0:0:
321,369,75880,2,8,P|311:342|304:318,1,44.6724986367035,8|8,0:2|0:2,0:2:0:0:
261,244,76057,2,8,P|270:217|278:193,1,44.6724986367035,8|8,0:2|0:2,0:2:0:0:
340,128,76233,2,8,P|330:101|323:77,1,44.6724986367035,8|8,0:3|0:3,0:3:0:0:
228,33,76410,6,0,B|159:46|159:46|134:70|134:70|61:81,1,178.689994546814,6|8,1:2|0:2,0:2:0:0:
200,182,76939,1,10,0:2:0:0:
200,182,77027,1,8,0:2:0:0:
200,182,77116,1,2,1:2:0:0:
43,288,77292,1,2,1:2:0:0:
119,111,77469,1,10,0:2:0:0:
213,297,77645,6,0,B|321:277|276:356|424:317,1,178.689994546814,2|0,1:2|1:2,0:2:0:0:
370,119,78174,2,0,P|326:126|282:137,1,89.3449972734071,10|0,0:2|1:2,0:2:0:0:
251,145,78439,1,8,0:2:0:0:
251,145,78527,2,0,P|236:103|223:59,1,89.3449972734071,2|0,1:2|1:2,1:2:0:0:
419,19,78880,1,10,0:2:0:0:
363,218,79057,5,8,0:2:0:0:
363,218,79145,1,8,0:2:0:0:
363,218,79233,2,0,B|294:231|294:231|269:255|269:255|195:268,1,178.689994546814,6|8,1:2|0:2,0:2:0:0:
29,266,79763,1,10,0:2:0:0:
29,266,79851,1,8,0:2:0:0:
29,266,79939,2,8,P|44:296|59:330,1,44.6724986367035,10|8,0:2|0:2,0:2:0:0:
147,198,80116,1,0,1:2:0:0:
9,379,80292,1,10,0:2:0:0:
172,207,80469,6,0,P|156:145|134:20,1,178.689994546814,6|0,1:2|1:2,0:2:0:0:
28,177,80998,1,10,0:2:0:0:
232,54,81174,2,0,P|275:64|319:71,1,89.3449972734071,2|0,1:2|1:2,0:2:0:0:
464,177,81527,2,8,P|443:205|422:221,1,44.6724986367035,10|8,0:2|0:2,0:2:0:0:
393,304,81704,2,8,P|368:294|335:284,1,44.6724986367035,10|8,0:2|0:2,0:2:0:0:
290,215,81880,2,8,P|265:225|232:235,1,44.6724986367035,10|8,0:2|0:2,0:2:0:0:
130,331,82057,6,0,P|136:286|148:243,1,89.3449972734071,6|0,1:2|0:2,0:2:0:0:
253,84,82410,1,2,1:2:0:0:
82,127,82586,2,0,P|123:142|166:154,1,89.3449972734071,2|0,1:2|1:2,0:2:0:0:
282,281,82939,2,0,P|323:265|366:253,1,89.3449972734071,2|0,1:2|1:2,0:2:0:0:
347,47,83292,2,0,P|305:62|262:74,1,89.3449972734071,10|0,0:2|1:2,0:2:0:0:
141,5,83645,5,2,1:2:0:0:
240,156,83822,2,0,P|283:167|324:183,1,89.3449972734071,2|0,1:2|1:2,0:2:0:0:
199,316,84174,1,0,1:2:0:0:
51,156,84350,1,6,0:3:0:0:
262,74,84527,1,2,1:2:0:0:
270,237,84704,1,0,1:2:0:0:
139,111,84880,6,0,P|147:61|160:0,1,89.3449972734071,6|0,1:2|0:2,0:2:0:0:
21,208,85233,1,2,1:2:0:0:
224,132,85410,2,0,P|266:146|307:162,1,89.3449972734071,2|0,1:2|1:2,0:2:0:0:
148,306,85763,2,0,P|139:262|132:218,1,89.3449972734071,10|0,0:2|1:2,0:2:0:0:
355,287,86116,6,0,P|305:352|192:359,1,178.689994546814,10|0,0:2|1:2,0:2:0:0:
56,211,86645,1,6,0:3:0:0:
230,254,86822,1,10,0:2:0:0:
26,330,86998,1,10,0:2:0:0:
179,178,87174,1,8,0:2:0:0:
170,152,87262,1,8,0:2:0:0:
162,126,87350,1,10,0:2:0:0:
24,20,87527,5,0,1:2:0:0:
24,20,87616,1,0,1:2:0:0:
24,20,87704,2,0,P|76:28|153:35,1,89.3449972734071,14|0,0:2|1:2,0:2:0:0:
241,0,88057,1,2,1:2:0:0:
18,137,88233,2,0,P|70:129|147:122,1,89.3449972734071,14|0,0:2|0:2,0:2:0:0:
291,204,88586,2,0,P|277:186|256:152,1,44.6724986367035,0|8,1:2|0:2,0:2:0:0:
217,68,88763,2,0,P|200:109|187:152,1,89.3449972734071,14|0,0:2|1:2,0:2:0:0:
98,248,89116,1,0,1:2:0:0:
355,129,89292,6,0,P|372:170|385:213,1,89.3449972734071,14|0,0:2|0:2,0:2:0:0:
323,348,89645,1,2,1:2:0:0:
480,214,89822,2,8,P|474:238|465:275,1,44.6724986367035,10|8,0:2|0:2,0:2:0:0:
452,342,89998,2,8,P|422:346|386:329,1,44.6724986367035,10|8,0:2|0:2,0:2:0:0:
311,259,90174,2,8,P|290:270|259:276,1,44.6724986367035,10|8,0:2|0:2,0:2:0:0:
222,358,90351,2,8,P|201:347|170:341,1,44.6724986367035,10|8,0:2|0:2,0:2:0:0:
54,251,90527,5,6,1:2:0:0:
329,95,92469,5,6,0:3:0:0:
152,262,92822,1,2,1:2:0:0:
152,262,92998,1,6,0:3:0:0:
371,280,93351,6,0,B|272:259|315:322|207:310,1,160.737496811543,6|0,1:2|0:2,0:2:0:0:
152,262,93880,1,10,0:2:0:0:
329,95,94233,5,2,0:0:0:0:
329,95,94410,1,6,0:3:0:0:
77,208,94763,5,6,1:2:0:0:
240,293,95116,1,2,0:2:0:0:
23,96,95469,5,6,1:2:0:0:
210,131,95822,1,2,0:2:0:0:
0,306,96174,5,6,1:2:0:0:
130,54,96704,1,2,0:2:0:0:
35,174,96880,5,6,1:2:0:0:
231,35,97410,5,10,0:2:0:0:
231,35,97498,1,8,0:2:0:0:
231,35,97586,2,0,P|221:101|211:184,1,145.290001219322,6|8,1:2|0:2,0:2:0:0:
117,333,98116,1,8,0:2:0:0:
109,305,98204,1,8,0:2:0:0:
99,277,98292,1,8,0:2:0:0:
278,362,98469,5,8,0:2:0:0:
278,362,98557,1,0,1:2:0:0:
278,362,98645,2,8,P|299:353|331:341,1,36.3225003048306,10|8,0:2|0:2,0:2:0:0:
413,284,98822,2,8,P|392:275|360:263,1,36.3225003048306,10|8,0:2|0:2,0:2:0:0:
277,170,98998,6,0,P|269:216|254:278,1,80.9950019156228,6|0,1:2|1:2,0:2:0:0:
402,173,99351,1,10,0:2:0:0:
248,71,99527,1,8,0:2:0:0:
248,71,99616,1,8,0:2:0:0:
248,71,99704,1,2,1:2:0:0:
361,2,99880,1,0,1:2:0:0:
277,170,100057,2,0,P|239:191|176:180,1,80.9950019156228,10|2,0:2|0:2,0:2:0:0:
76,105,100322,1,2,0:2:0:0:
76,105,100410,6,0,P|84:144|91:184,1,80.9950019156228,6|0,1:2|1:2,0:2:0:0:
230,348,100763,2,0,P|236:308|245:268,1,80.9950019156228,8|0,0:2|1:2,0:2:0:0:
109,320,101027,1,8,0:2:0:0:
109,320,101116,2,8,P|68:314|42:315,2,53.9966679437485,10|8|8,0:2|0:2|0:2,0:2:0:0:
194,194,101469,2,0,P|220:192|247:188,2,53.9966679437485,8|8|8,0:2|0:3|0:3,0:2:0:0:
23,210,101822,5,6,1:2:0:0:
51,81,107469,6,0,B|112:92|112:92|140:119|140:119|203:133,1,156.979997604675,2|2,0:2|0:2,0:2:0:0:
316,15,108527,2,0,P|291:20|272:35,1,39.2449994011688,2|0,0:2|0:2,0:2:0:0:
275,111,108880,2,0,P|290:188|305:270,1,156.979997604675,2|2,0:2|0:2,0:2:0:0:
141,361,109939,2,0,P|116:354|88:348,1,39.2449994011688,2|0,0:2|0:2,0:2:0:0:
17,281,110292,2,0,P|55:272|93:262,1,78.4899988023377,2|2,0:2|0:2,0:2:0:0:
204,238,110822,1,2,0:2:0:0:
204,238,110998,2,0,P|192:200|182:162,1,78.4899988023377,2|2,0:2|0:2,0:2:0:0:
73,37,111704,6,0,B|160:20|138:81|230:64,1,156.979997604675,2|2,0:2|0:2,0:2:0:0:
401,156,112763,2,0,P|391:138|379:110,1,39.2449994011688,2|0,0:2|0:2,0:2:0:0:
315,40,113116,2,0,P|308:78|297:116,1,78.4899988023377,2|0,2:2|2:2,2:2:0:0:
205,210,113645,1,2,0:2:0:0:
205,210,113822,2,0,P|226:268|243:327,1,117.734998203507,2|2,0:2|0:2,0:2:0:0:
346,374,114527,6,0,P|378:374|435:271,1,156.979997604675,2|2,0:2|0:2,0:2:0:0:
314,125,115586,1,2,0:2:0:0:
473,198,115939,2,0,P|398:214|317:238,1,156.979997604675,2|2,0:2|0:2,0:2:0:0:
191,327,116998,2,0,P|172:319|154:314,1,39.2449994011688,2|0,0:2|0:2,0:2:0:0:
42,274,117351,2,0,P|55:314|70:365,1,78.4899988023377,2|2,0:2|0:2,0:2:0:0:
165,172,118057,6,0,P|157:201|148:229,2,58.8674991017533,2|2|2,0:2|0:2|0:2,0:2:0:0:
189,90,118763,2,0,B|204:42|204:42|272:17|307:83,1,156.979997604675,2|2,0:2|0:2,0:2:0:0:
75,194,119822,1,2,0:2:0:0:
75,194,120174,6,0,B|136:205|136:205|164:232|164:232|227:246,1,156.979997604675,2|2,0:2|0:2,0:2:0:0:
385,185,121233,2,0,P|374:210|365:230,1,39.2449994011688,2|0,0:2|0:2,0:2:0:0:
308,310,121586,2,0,P|298:260|290:219,2,78.4899988023377,2|2|2,0:2|0:2|0:2,0:2:0:0:
152,220,122645,2,0,P|141:245|132:265,1,39.2449994011688,2|0,0:2|0:2,0:2:0:0:
75,345,122998,2,0,P|65:295|57:254,1,78.4899988023377,2|0,0:2|0:2,0:2:0:0:
181,110,123704,5,2,1:2:0:0:
275,245,123880,1,8,0:2:0:0:
275,245,123969,1,8,0:2:0:0:
275,245,124057,2,8,P|245:258|216:271,1,36.3225003048306,8|8,0:2|0:2,0:2:0:0:
138,312,124233,2,8,P|154:319|171:326,1,36.3225003048306,8|8,0:2|0:2,0:2:0:0:
280,371,124410,6,0,P|316:358|365:345,1,72.6450006096611,6|0,1:2|0:2,0:2:0:0:
475,246,124763,2,0,P|466:281|459:316,1,72.6450006096611,0|0,1:2|0:2,0:2:0:0:
355,212,125116,2,0,P|346:176|339:141,1,72.6450006096611,0|0,1:2|0:2,0:2:0:0:
205,70,125469,1,2,1:2:0:0:
303,2,125645,1,2,1:2:0:0:
212,171,125822,6,0,P|171:165|107:159,1,72.6450006096611,2|0,1:2|0:2,0:2:0:0:
31,272,126174,2,0,P|72:278|136:284,1,72.6450006096611,2|4,1:2|0:3,0:2:0:0:
254,262,126527,1,6,0:3:0:0:
190,336,126704,1,4,0:3:0:0:
338,238,126880,1,6,0:3:0:0:
173,133,127057,2,8,P|185:157|197:185,1,36.3225003048306,10|8,0:2|0:2,0:2:0:0:
254,262,127233,6,0,P|265:193|281:101,2,145.290001219322,6|0|6,1:2|1:2|0:3,0:2:0:0:
368,166,128116,1,2,0:2:0:0:
164,242,128292,1,2,1:2:0:0:
368,166,128469,1,2,0:2:0:0:
291,344,128645,6,0,P|259:335|198:323,1,72.6450006096611,2|0,1:2|0:2,0:2:0:0:
50,376,128998,1,12,0:2:0:0:
128,223,129174,1,8,0:2:0:0:
128,223,129263,1,8,0:2:0:0:
128,223,129351,2,8,P|142:270|145:295,2,48.4300004064407,8|8|8,0:2|0:2|0:2,0:2:0:0:
148,69,129704,2,0,P|162:22|165:-3,2,48.4300004064407,10|8|8,0:2|0:3|0:3,0:2:0:0:
67,144,130057,6,0,B|200:116|150:197|305:158,1,217.935001828983,6|4,1:2|0:3,0:2:0:0:
379,97,130763,2,0,P|363:174|351:259,1,145.290001219322,10|2,0:2|0:2,0:2:0:0:
475,152,131292,1,4,0:3:0:0:
475,152,131469,1,2,1:2:0:0:
392,321,131645,6,0,P|344:342|256:311,1,145.290001219322,10|0,0:2|1:2,0:2:0:0:
143,221,132174,2,0,P|158:295|171:374,1,145.290001219322,10|2,0:2|0:2,0:2:0:0:
1,295,132704,1,8,0:2:0:0:
1,295,132792,1,8,0:2:0:0:
1,295,132880,6,0,P|16:221|29:142,1,145.290001219322,2|2,1:2|0:2,0:2:0:0:
159,5,133410,1,6,0:3:0:0:
28,46,133586,2,0,P|61:64|115:81,1,72.6450006096611,8|0,0:2|1:2,0:2:0:0:
272,175,133939,1,2,0:2:0:0:
190,142,134116,5,8,0:2:0:0:
190,142,134204,1,8,0:2:0:0:
190,142,134292,1,6,1:2:0:0:
311,68,134469,1,8,0:2:0:0:
98,188,134645,1,6,1:2:0:0:
361,267,134822,5,8,0:2:0:0:
361,267,134910,1,8,0:2:0:0:
361,267,134998,2,0,P|324:275|300:284,2,40.4975009578114,10|8|0,0:3|0:2|0:2,0:2:0:0:
472,293,135263,2,8,P|475:273|480:253,2,40.4975009578114,10|8|8,0:2|0:2|0:2,0:2:0:0:
381,355,135527,2,0,P|344:363|320:372,1,40.4975009578114,10|8,0:2|0:2,0:2:0:0:
404,181,135704,5,6,1:2:0:0:
135,96,137645,5,10,0:2:0:0:
142,127,137733,1,8,0:2:0:0:
147,159,137821,1,8,0:2:0:0:
234,85,137998,1,10,0:2:0:0:
48,152,138174,1,2,1:2:0:0:
53,176,138262,1,8,0:2:0:0:
57,200,138350,1,8,0:2:0:0:
60,224,138438,1,8,0:2:0:0:
63,248,138527,6,0,B|121:259|121:259|149:281|149:281|224:294,1,145.290001219322,6|2,1:2|1:2,0:2:0:0:
352,367,139057,1,8,0:2:0:0:
302,244,139233,2,0,P|292:287|277:338,1,72.6450006096611,8|8,0:2|0:2,0:2:0:0:
405,267,139586,1,8,0:2:0:0:
208,209,139763,1,8,0:2:0:0:
397,168,139939,1,10,0:2:0:0:
200,110,140116,1,10,0:2:0:0:
381,70,140292,1,10,0:2:0:0:
184,12,140469,1,8,0:2:0:0:
301,196,140645,1,10,0:2:0:0:
103,33,140822,6,8,P|98:56|90:87,1,36.3225003048306,8|8,0:2|0:2,0:2:0:0:
59,135,140998,2,8,P|64:158|72:189,1,36.3225003048306,8|8,0:2|0:2,0:2:0:0:
100,237,141174,2,8,P|95:260|87:291,1,36.3225003048306,10|8,0:2|0:2,0:2:0:0:
14,379,141351,5,2,1:2:0:0:
342,168,141880,1,2,0:2:0:0:
342,168,142057,1,2,1:2:0:0:
89,54,142586,1,6,0:3:0:0:
181,164,142763,6,0,P|194:129|210:84,2,72.6450006096611,6|2|2,1:2|0:2|0:2,0:2:0:0:
117,262,143292,1,2,0:2:0:0:
117,262,143469,1,4,0:3:0:0:
342,311,143645,6,8,P|335:290|327:270,1,40.4975009578114,10|8,0:2|0:2,0:2:0:0:
317,190,143822,2,8,P|296:197|276:205,1,40.4975009578114,10|8,0:2|0:2,0:2:0:0:
208,266,143998,2,8,P|215:287|223:307,1,40.4975009578114,8|8,0:2|0:2,0:2:0:0:
256,381,144174,6,0,P|266:304|282:188,1,178.689994546814,6|8,1:2|0:2,0:2:0:0:
207,79,144704,1,10,0:2:0:0:
207,79,144792,1,8,0:2:0:0:
207,79,144880,1,2,1:2:0:0:
369,212,145057,1,2,1:2:0:0:
180,291,145233,1,10,0:2:0:0:
391,181,145410,6,0,P|450:213|448:328,1,178.689994546814,6|0,1:2|1:2,0:2:0:0:
307,373,145939,2,0,P|259:377|210:356,1,89.3449972734071,10|0,0:2|0:2,0:2:0:0:
193,323,146204,1,8,0:2:0:0:
193,323,146292,2,0,P|201:269|210:226,1,89.3449972734071,2|0,1:2|1:2,0:2:0:0:
48,355,146645,1,10,0:2:0:0:
59,147,146998,6,0,P|87:235|112:333,1,178.689994546814,6|8,1:2|0:2,0:2:0:0:
178,106,147527,1,10,0:2:0:0:
178,106,147616,1,8,0:2:0:0:
178,106,147704,1,2,1:2:0:0:
3,216,147880,1,0,1:2:0:0:
147,358,148057,1,10,0:2:0:0:
248,201,148233,6,0,P|199:185|97:253,1,178.689994546814,6|0,1:2|1:2,0:2:0:0:
266,359,148763,2,0,P|318:348|363:342,1,89.3449972734071,10|0,0:2|1:2,0:2:0:0:
411,356,149027,1,8,0:2:0:0:
410,356,149115,2,0,P|431:361|452:368,2,44.6724986367035,2|8|0,1:2|0:2|1:2,0:2:0:0:
475,281,149469,2,0,P|461:217|441:124,1,134.017495910111,10|0,0:2|0:2,0:2:0:0:
436,61,149822,6,0,B|363:72|363:72|334:106|334:106|251:119,1,178.689994546814,2|8,1:2|0:2,0:2:0:0:
133,211,150351,1,10,0:2:0:0:
133,211,150439,1,8,0:2:0:0:
133,211,150527,1,2,1:2:0:0:
249,17,150704,1,2,1:2:0:0:
80,75,150880,1,10,0:2:0:0:
210,252,151057,6,0,P|274:274|383:246,1,178.689994546814,2|0,1:2|1:2,0:2:0:0:
319,49,151586,2,0,P|275:66|229:77,1,89.3449972734071,10|0,0:2|0:2,0:2:0:0:
199,97,151851,1,8,0:2:0:0:
199,97,151939,2,0,P|152:90|107:77,1,89.3449972734071,2|0,1:2|1:2,0:2:0:0:
339,167,152292,2,0,P|292:174|247:187,1,89.3449972734071,10|0,0:2|0:2,0:2:0:0:
185,350,152645,6,0,B|126:338|62:324|62:324|40:343|16:358,1,178.689994546814,2|8,1:2|0:2,0:2:0:0:
182,237,153174,2,8,P|161:217|142:196,1,44.6724986367035,10|8,0:2|0:2,0:2:0:0:
87,138,153351,2,0,P|75:181|68:225,1,89.3449972734071,2|0,1:2|1:2,0:2:0:0:
0,99,153704,1,8,0:2:0:0:
165,44,153880,6,0,B|267:22|241:95|347:82,1,178.689994546814,6|0,1:2|1:2,0:2:0:0:
339,245,154410,2,0,P|295:231|249:216,1,89.3449972734071,10|0,0:2|1:2,0:2:0:0:
170,125,154763,1,10,0:2:0:0:
211,324,154939,2,8,P|234:316|260:307,1,44.6724986367035,10|8,0:2|0:2,0:2:0:0:
342,326,155116,2,8,P|365:333|391:343,1,44.6724986367035,10|8,0:2|0:2,0:2:0:0:
471,372,155292,2,8,P|478:348|488:323,1,44.6724986367035,10|8,0:2|0:2,0:2:0:0:
496,223,155469,6,0,P|472:117|456:40,1,178.689994546814,6|8,1:2|0:2,0:2:0:0:
283,148,155998,1,10,0:2:0:0:
318,155,156086,1,8,0:2:0:0:
353,165,156174,1,2,1:2:0:0:
283,10,156351,2,0,P|241:28|193:38,1,89.3449972734071,2|8,1:2|0:2,0:2:0:0:
26,117,156704,6,0,B|98:124|98:124|126:147|126:147|214:158,1,178.689994546814,2|0,1:2|1:2,0:2:0:0:
385,286,157233,1,10,0:2:0:0:
309,109,157410,2,8,P|299:140|290:166,1,44.6724986367035,10|8,0:2|0:2,0:2:0:0:
239,223,157586,2,0,P|244:268|255:314,1,89.3449972734071,2|0,1:2|1:2,0:2:0:0:
87,349,157939,2,0,P|26:317|27:244,1,134.017495910111,10|0,0:2|0:2,0:2:0:0:
63,191,158292,6,0,P|139:201|248:224,1,178.689994546814,6|8,1:2|0:2,0:2:0:0:
437,139,158822,1,10,0:2:0:0:
437,139,158910,1,8,0:2:0:0:
437,139,158998,1,2,1:2:0:0:
354,309,159174,2,0,P|344:265|338:221,1,89.3449972734071,2|8,1:2|0:2,0:2:0:0:
303,56,159527,6,0,P|255:27|142:74,1,178.689994546814,6|0,1:2|1:2,0:2:0:0:
134,108,159969,1,8,0:2:0:0:
134,108,160057,2,0,P|142:157|151:205,1,89.3449972734071,10|0,0:2|0:2,0:2:0:0:
187,210,160322,1,8,0:2:0:0:
187,210,160410,2,0,L|173:274,1,44.6724986367035,10|8,0:2|0:2,0:2:0:0:
229,348,160586,2,0,P|185:339|140:332,1,89.3449972734071,2|8,1:2|0:2,0:2:0:0:
72,188,160939,5,0,1:2:0:0:
72,188,161027,1,0,1:2:0:0:
72,188,161116,2,0,P|59:290|51:368,1,178.689994546814,6|8,1:2|0:2,0:2:0:0:
172,194,161645,2,8,P|163:173|154:152,1,44.6724986367035,10|8,0:2|0:2,0:2:0:0:
105,70,161822,2,0,P|149:76|192:85,1,89.3449972734071,2|0,1:2|1:2,0:2:0:0:
364,37,162174,1,10,0:2:0:0:
263,178,162351,6,0,P|272:89|283:0,1,178.689994546814,2|0,1:2|1:2,0:2:0:0:
370,153,162880,1,8,0:2:0:0:
142,81,163057,1,10,0:2:0:0:
149,116,163145,1,8,0:2:0:0:
154,152,163233,1,2,1:2:0:0:
295,262,163410,2,0,P|341:249|383:238,1,89.3449972734071,2|8,1:2|0:2,0:2:0:0:
467,155,163763,1,2,0:2:0:0:
359,372,163939,6,0,P|260:345|166:318,1,178.689994546814,2|8,1:2|0:2,0:2:0:0:
15,228,164469,1,10,0:2:0:0:
29,260,164557,1,8,0:2:0:0:
43,293,164645,1,2,1:2:0:0:
154,152,164822,2,8,L|136:201,1,44.6724986367035,10|8,0:2|0:2,0:2:0:0:
31,86,164998,1,10,0:2:0:0:
216,243,165174,6,0,B|279:225|336:208|336:208|374:232|401:252,1,178.689994546814,6|0,1:2|1:2,0:2:0:0:
435,382,165704,2,0,P|374:372|351:338,1,89.3449972734071,8|0,0:2|1:2,0:2:0:0:
507,245,166057,1,10,0:2:0:0:
407,84,166233,2,8,P|381:95|344:107,1,44.6724986367035,8|8,0:2|0:2,0:2:0:0:
266,144,166410,2,0,P|240:133|203:121,1,44.6724986367035,8|8,0:2|0:2,0:2:0:0:
151,58,166586,2,8,P|125:69|88:81,1,44.6724986367035,8|8,0:2|0:2,0:2:0:0:
10,146,166763,6,0,P|1:195|69:318,1,178.689994546814,6|8,1:2|0:2,0:2:0:0:
250,220,167292,1,10,0:2:0:0:
250,220,167380,1,8,0:2:0:0:
250,220,167469,1,2,1:2:0:0:
82,169,167645,1,2,1:2:0:0:
116,349,167822,1,10,0:2:0:0:
292,315,167998,6,0,P|315:227|250:127,1,178.689994546814,6|0,1:2|1:2,0:2:0:0:
118,84,168527,2,0,P|71:96|4:106,1,89.3449972734071,10|0,0:2|1:2,0:2:0:0:
49,184,168792,1,8,0:2:0:0:
49,184,168880,2,0,P|96:172|163:162,1,89.3449972734071,2|0,1:2|1:2,0:2:0:0:
307,65,169233,2,0,P|291:106|279:150,1,89.3449972734071,10|0,0:2|0:2,0:2:0:0:
286,190,169498,1,8,0:2:0:0:
286,190,169586,6,0,P|339:254|429:225,1,178.689994546814,6|8,1:2|0:2,0:2:0:0:
277,348,170116,1,2,1:2:0:0:
389,147,170292,1,14,0:2:0:0:
190,246,170469,1,0,1:2:0:0:
193,211,170557,1,8,0:2:0:0:
201,176,170645,1,10,0:2:0:0:
168,339,170822,6,0,P|110:337|57:232,1,178.689994546814,6|0,1:2|1:2,0:2:0:0:
125,48,171351,2,0,P|172:60|239:70,1,89.3449972734071,8|0,0:2|1:2,0:2:0:0:
370,191,171704,1,8,0:2:0:0:
322,22,171880,2,8,P|311:52|301:82,1,44.6724986367035,8|8,0:2|0:2,0:2:0:0:
252,141,172057,2,8,P|263:171|273:201,1,44.6724986367035,8|8,0:2|0:2,0:2:0:0:
315,267,172233,2,8,P|304:297|294:327,1,44.6724986367035,8|8,0:3|0:3,0:3:0:0:
195,338,172410,6,0,B|90:309|117:389|0:361,1,178.689994546814,6|8,1:2|0:2,0:2:0:0:
191,241,172939,1,8,0:2:0:0:
191,241,173027,1,8,0:2:0:0:
191,241,173116,1,2,1:2:0:0:
10,133,173292,1,2,1:2:0:0:
110,310,173469,1,10,0:2:0:0:
176,84,173645,6,0,B|248:91|248:91|276:114|276:114|364:125,1,178.689994546814,6|0,1:2|1:2,0:2:0:0:
509,17,174174,2,0,P|445:26|418:51,1,89.3449972734071,10|0,0:2|0:2,0:2:0:0:
427,83,174439,1,8,0:2:0:0:
427,83,174527,2,0,P|436:137|443:179,1,89.3449972734071,2|0,1:2|1:2,0:2:0:0:
329,328,174880,2,0,P|282:316|215:306,1,89.3449972734071,10|0,0:2|1:2,0:2:0:0:
204,317,175145,1,8,0:2:0:0:
204,317,175233,6,0,P|198:226|246:136,1,178.689994546814,2|8,1:2|0:2,0:2:0:0:
297,38,175763,1,10,0:2:0:0:
297,38,175851,1,8,0:2:0:0:
297,38,175939,2,8,L|315:97,1,44.6724986367035,10|8,0:2|0:2,0:2:0:0:
184,24,176116,1,2,1:2:0:0:
404,110,176292,1,10,0:2:0:0:
174,18,176469,6,0,P|123:22|47:125,1,178.689994546814,6|0,1:2|1:2,0:2:0:0:
178,289,176998,1,10,0:2:0:0:
7,218,177174,2,0,P|50:208|94:201,1,89.3449972734071,2|8,1:2|0:2,0:2:0:0:
232,70,177527,2,8,P|211:62|190:53,1,44.6724986367035,8|8,0:2|0:2,0:2:0:0:
200,203,177704,2,8,P|226:192|263:180,1,44.6724986367035,10|8,0:2|0:2,0:2:0:0:
316,111,177880,2,8,P|342:122|379:134,1,44.6724986367035,10|8,0:2|0:2,0:2:0:0:
474,157,178057,6,0,P|455:206|439:256,1,89.3449972734071,6|0,1:2|0:2,0:2:0:0:
504,379,178410,1,2,1:2:0:0:
356,247,178586,2,0,P|311:253|268:264,1,89.3449972734071,2|0,1:2|1:2,0:2:0:0:
257,43,178939,2,0,P|285:77|315:110,1,89.3449972734071,0|0,1:2|1:2,0:2:0:0:
115,228,179292,2,0,P|131:186|144:143,1,89.3449972734071,10|0,0:2|1:2,0:2:0:0:
53,45,179645,5,0,1:2:0:0:
228,154,179822,2,0,P|244:195|257:238,1,89.3449972734071,2|0,1:2|1:2,0:2:0:0:
383,150,180174,1,2,1:2:0:0:
267,333,180351,2,0,P|310:322|354:316,1,89.3449972734071,6|0,0:3|1:2,0:3:0:0:
354,316,180704,1,2,1:2:0:0:
167,239,180880,6,0,P|120:228|58:216,1,89.3449972734071,6|0,1:2|0:2,0:2:0:0:
6,124,181233,1,2,1:2:0:0:
102,335,181410,2,0,P|145:326|189:316,1,89.3449972734071,2|0,1:2|1:2,0:2:0:0:
376,203,181763,2,0,P|361:244|348:288,1,89.3449972734071,10|0,0:2|1:2,0:2:0:0:
213,63,182116,6,0,P|292:28|391:71,1,178.689994546814,6|0,1:2|0:2,0:2:0:0:
254,194,182645,1,6,0:3:0:0:
438,116,182822,1,8,0:2:0:0:
232,206,182998,1,2,1:2:0:0:
363,167,183174,1,10,0:2:0:0:
369,185,183263,1,8,0:2:0:0:
377,211,183351,1,2,1:2:0:0:
246,321,183527,1,0,1:2:0:0:
246,321,183616,1,0,1:2:0:0:
246,321,183704,6,0,P|203:311|159:304,1,89.3449972734071,6|0,1:2|0:2,0:2:0:0:
1,201,184057,1,2,1:2:0:0:
43,379,184233,2,0,P|55:336|71:295,1,89.3449972734071,2|0,1:2|1:2,0:2:0:0:
188,152,184586,1,2,0:2:0:0:
58,195,184763,6,0,P|106:223|229:217,1,178.689994546814,2|0,1:2|1:2,0:2:0:0:
376,127,185292,2,0,P|364:170|355:213,1,89.3449972734071,2|0,1:2|1:2,0:2:0:0:
405,377,185645,1,2,1:2:0:0:
512,242,185822,1,2,1:2:0:0:
383,371,185998,2,0,P|340:361|296:354,1,89.3449972734071,2|4,1:2|0:3,0:2:0:0:
123,262,186351,1,2,0:0:0:0:
209,366,186527,6,0,P|215:321|226:278,1,89.3449972734071,6|8,1:2|0:2,0:2:0:0:
39,333,186880,1,0,1:2:0:0:
148,168,187057,1,10,0:2:0:0:
2,102,187233,1,10,0:2:0:0:
111,275,187410,1,10,0:2:0:0:
251,102,187586,1,10,0:2:0:0:
105,49,187763,1,14,0:2:0:0:
78,43,199057,5,0,1:2:0:0:
78,43,199145,1,0,1:2:0:0:
78,43,199233,2,0,P|84:82|91:130,1,64.294998724617,2|0,1:2|1:2,0:2:0:0:
200,204,199586,2,0,P|206:164|213:116,1,64.294998724617,2|4,0:2|0:3,0:2:0:0:
96,250,199939,2,0,P|115:283|181:309,1,96.4424980869256,2|0,0:2|0:2,0:2:0:0:
227,363,200292,6,0,P|259:349|295:340,1,58.8674991017533,4|0,0:3|0:2,0:2:0:0:
381,372,200645,6,0,P|362:283|348:192,1,160.737496811543,6|0,1:2|0:2,0:2:0:0:
384,140,201174,1,0,1:2:0:0:
384,140,201351,2,0,P|346:124|258:146,1,128.589997449234,10|2,0:2|1:2,0:2:0:0:
263,141,201880,1,4,0:3:0:0:
179,253,202057,5,6,0:3:0:0:
122,176,202233,1,8,0:2:0:0:
66,98,202410,2,0,P|53:154|43:210,1,96.4424980869256,2|0,0:2|0:2,0:2:0:0:
30,270,202763,2,0,P|57:297|123:302,1,96.4424980869256,10|0,0:2|0:2,0:2:0:0:
188,258,203116,6,0,P|219:263|257:277,1,58.8674991017533,6|0,0:3|0:2,0:2:0:0:
326,355,203469,6,0,P|389:349|404:278,1,128.589997449234,6|2,1:2|0:2,0:2:0:0:
409,293,203998,1,0,1:2:0:0:
312,100,204174,2,0,P|301:147|292:195,1,96.4424980869256,10|0,0:2|0:2,0:2:0:0:
269,264,204527,6,0,P|289:278|318:276,1,46.3425011314087,6|0,0:3|0:2,0:2:0:0:
404,205,204880,6,0,P|412:157|423:110,1,72.6450006096611,6|0,1:2|0:2,0:2:0:0:
220,65,205233,2,0,P|211:112|200:159,1,72.6450006096611,2|4,1:2|0:3,0:2:0:0:
238,339,205586,1,10,0:2:0:0:
109,191,205763,1,8,0:2:0:0:
312,127,205939,1,10,0:2:0:0:
150,285,206116,1,10,0:2:0:0:
150,285,206204,1,10,0:2:0:0:
150,285,206292,6,0,B|222:294|222:294|245:321|245:321|319:332,1,161.990003831246,6|8,1:2|0:2,0:2:0:0:
469,234,206822,2,8,P|456:257|443:283,1,40.4975009578114,0|8,1:2|0:2,0:2:0:0:
397,371,206998,2,0,P|386:323|373:278,1,80.9950019156228,2|0,1:2|1:2,0:2:0:0:
344,150,207351,2,0,P|354:110|363:71,1,80.9950019156228,10|0,0:2|1:2,0:2:0:0:
252,175,207704,6,0,P|212:185|174:197,1,80.9950019156228,6|0,1:2|1:2,0:2:0:0:
119,28,208057,2,0,P|157:17|196:5,1,80.9950019156228,10|0,0:2|1:2,0:2:0:0:
225,81,208322,1,8,0:2:0:0:
225,81,208410,2,0,P|185:92|147:104,1,80.9950019156228,2|0,1:2|1:2,0:2:0:0:
51,215,208763,2,0,P|73:271|152:297,1,121.492502873434,10|0,0:2|0:2,0:2:0:0:
196,339,209116,6,0,P|240:329|293:320,1,80.9950019156228,2|0,1:2|1:2,0:2:0:0:
364,374,209469,1,10,0:2:0:0:
234,224,209645,1,0,1:2:0:0:
234,224,209733,1,8,0:2:0:0:
234,224,209821,1,2,1:2:0:0:
363,161,209998,1,2,1:2:0:0:
275,322,210174,2,0,P|231:312|178:303,1,80.9950019156228,10|0,0:2|0:2,0:2:0:0:
45,202,210527,1,2,1:2:0:0:
106,306,210704,6,0,P|119:262|138:212,1,80.9950019156228,2|8,1:2|0:2,0:2:0:0:
251,136,211057,1,0,1:2:0:0:
251,136,211145,1,8,0:2:0:0:
251,136,211233,2,0,P|264:179|283:229,1,80.9950019156228,2|0,1:2|1:2,0:2:0:0:
165,60,211586,2,0,P|126:38|43:72,1,121.492502873434,8|0,0:2|0:2,0:2:0:0:
18,127,211939,6,0,P|37:191|59:278,1,146.542500559015,6|8,1:2|0:2,0:2:0:0:
81,323,212292,2,0,P|94:299|117:260,1,48.8475001863384,8|0,0:2|0:2,0:2:0:0:
185,188,212469,2,0,B|278:172|241:242|342:223,1,146.542500559015,6|8,1:2|0:2,0:2:0:0:
356,217,212822,2,0,P|366:194|375:172,1,48.8475001863384,8|0,0:2|0:2,0:2:0:0:
481,185,212998,2,0,P|471:208|450:252,1,48.8475001863384,8|0,0:2|0:2,0:2:0:0:
472,325,213174,1,8,0:3:0:0:
472,325,213263,1,8,0:3:0:0:
472,325,213351,6,0,B|397:283|308:343|336:365|265:412|169:363,1,313.959995209351,6|2,1:2|0:2,0:2:0:0:
411,52,230116,5,0,1:2:0:0:
411,52,230204,1,0,1:2:0:0:
411,52,230292,2,0,P|400:97|392:144,1,80.9950019156228,14|0,0:2|1:2,0:2:0:0:
329,298,230645,1,2,1:2:0:0:
500,247,230822,1,10,0:2:0:0:
329,298,230998,2,0,P|284:289|240:282,1,80.9950019156228,2|0,1:2|1:2,0:2:0:0:
104,197,231351,2,0,P|118:240|134:282,1,80.9950019156228,10|0,0:2|1:2,0:2:0:0:
223,179,231704,6,0,P|241:94|259:14,1,161.990003831246,6|0,1:2|1:2,0:2:0:0:
402,169,232233,2,0,P|357:164|313:153,1,80.9950019156228,2|8,1:2|0:2,0:2:0:0:
151,87,232586,1,10,0:2:0:0:
257,20,232763,1,10,0:2:0:0:
192,193,232939,6,0,P|146:183|104:171,1,80.9950019156228,10|8,0:2|0:2,0:2:0:0:
24,103,233292,1,2,1:2:0:0:
100,294,233469,2,0,P|139:283|178:274,1,80.9950019156228,10|8,0:2|0:2,0:2:0:0:
323,181,233822,2,0,P|312:220|303:259,1,80.9950019156228,10|8,0:2|0:2,0:2:0:0:
265,85,234174,1,10,0:2:0:0:
416,134,234351,1,10,0:2:0:0:
229,214,234527,1,14,0:2:0:0:
385,308,234704,6,8,L|439:292,2,40.4975009578114,8|8|8,0:2|0:2|0:2,0:2:0:0:
267,366,235057,1,10,0:2:0:0:
236,358,235145,1,8,0:2:0:0:
205,351,235233,1,10,0:2:0:0:
69,251,235410,1,8,0:2:0:0:
69,251,235498,1,8,0:2:0:0:
69,251,235586,2,8,P|77:272|86:302,1,40.4975009578114,10|8,0:2|0:2,0:2:0:0:
166,240,235763,2,8,P|158:219|149:189,1,40.4975009578114,10|8,0:2|0:2,0:2:0:0:
64,132,235939,6,0,P|96:102|155:92,1,80.9950019156228,6|8,1:2|0:2,0:2:0:0:
320,49,236292,1,8,0:2:0:0:
206,136,236469,1,10,0:2:0:0:
401,93,236645,1,10,0:2:0:0:
240,209,236822,1,10,0:2:0:0:
467,144,236998,1,10,0:2:0:0:
281,278,237175,1,10,0:2:0:0:
132,120,237527,6,0,L|120:171,2,26.9983339718743,0|0|0,1:2|1:2|1:2,0:0:0:0:
119,176,237703,1,10,0:2:0:0:
41,79,237880,1,2,0:2:0:0:
190,230,238057,2,8,P|196:215|210:190,1,40.4975009578114,10|8,0:2|0:2,0:2:0:0:
257,101,238233,2,8,P|263:116|277:141,1,40.4975009578114,10|8,0:2|0:2,0:2:0:0:
322,228,238410,2,8,P|337:222|362:208,1,40.4975009578114,10|8,0:2|0:2,0:2:0:0:
449,130,238586,6,0,P|434:219|423:315,1,178.689994546814,6|0,0:2|1:2,0:2:0:0:
270,363,239116,2,0,P|212:368|150:333,1,89.3449972734071,10|0,0:2|0:2,0:2:0:0:
157,341,239380,1,8,0:2:0:0:
157,341,239469,2,0,P|171:290|178:223,1,89.3449972734071,2|0,1:2|1:2,0:2:0:0:
70,149,239822,2,0,P|58:104|40:46,1,89.3449972734071,10|0,0:2|0:2,0:2:0:0:
56,38,240086,1,8,0:2:0:0:
56,38,240174,6,0,B|132:49|132:49|157:72|157:72|245:86,1,178.689994546814,6|8,1:2|0:2,0:2:0:0:
387,24,240704,1,2,1:2:0:0:
213,202,240880,1,6,1:2:0:0:
394,141,241057,1,0,1:2:0:0:
363,121,241145,1,8,0:2:0:0:
330,109,241233,1,10,0:2:0:0:
345,309,241410,6,0,B|416:293|456:283|456:283|491:303|525:324,1,178.689994546814,6|0,1:2|1:2,0:2:0:0:
274,368,241939,2,0,P|223:354|156:347,1,89.3449972734071,10|0,0:2|1:2,0:2:0:0:
14,224,242292,1,10,0:2:0:0:
85,358,242469,2,8,P|94:331|109:303,1,44.6724986367035,8|8,0:2|0:2,0:2:0:0:
166,235,242645,2,8,P|156:210|142:180,1,44.6724986367035,8|8,0:2|0:2,0:2:0:0:
96,108,242822,2,0,P|106:83|120:53,1,44.6724986367035,0|0,1:2|1:2,1:2:0:0:
235,20,242998,6,0,B|347:-2|299:74|420:49,1,178.689994546814,6|8,1:2|0:2,0:2:0:0:
257,229,243527,1,10,0:2:0:0:
257,229,243616,1,8,0:2:0:0:
257,229,243704,1,2,1:2:0:0:
209,116,243880,1,2,1:2:0:0:
356,309,244057,1,10,0:2:0:0:
298,103,244233,6,0,P|282:202|270:291,1,178.689994546814,2|0,1:2|1:2,0:2:0:0:
418,373,244763,2,0,P|469:359|536:352,1,89.3449972734071,10|0,0:2|0:2,0:2:0:0:
490,272,245027,1,8,0:2:0:0:
490,272,245116,2,0,P|439:286|372:293,1,89.3449972734071,2|0,1:2|1:2,0:2:0:0:
212,315,245469,1,10,0:2:0:0:
240,119,245645,2,8,P|252:152|259:178,1,44.6724986367035,10|8,0:2|0:2,0:2:0:0:
307,246,245822,6,0,P|262:269|146:223,1,178.689994546814,6|8,1:2|0:2,0:2:0:0:
87,65,246351,1,10,0:2:0:0:
87,65,246439,1,8,0:2:0:0:
87,65,246527,2,8,P|78:99|70:129,1,44.6724986367035,10|8,0:2|0:2,0:2:0:0:
186,39,246704,1,2,1:2:0:0:
0,179,246880,1,10,0:2:0:0:
203,36,247057,6,0,B|278:47|278:47|306:73|306:73|404:93,1,178.689994546814,6|0,1:2|1:2,0:2:0:0:
512,241,247586,1,10,0:2:0:0:
470,55,247763,2,0,P|455:103|444:152,1,89.3449972734071,0|10,1:2|0:2,0:2:0:0:
332,303,248116,2,8,P|308:296|282:287,1,44.6724986367035,10|8,0:2|0:2,0:2:0:0:
231,197,248292,2,8,P|207:204|181:213,1,44.6724986367035,10|8,0:2|0:2,0:2:0:0:
87,285,248469,2,8,P|108:292|129:298,1,44.6724986367035,10|8,0:2|0:2,0:2:0:0:
230,371,248645,6,0,P|215:323|204:274,1,89.3449972734071,6|0,1:2|0:2,0:2:0:0:
259,112,248998,1,2,1:2:0:0:
87,285,249174,2,0,P|102:237|113:188,1,89.3449972734071,2|0,0:2|1:2,0:2:0:0:
58,54,249527,2,0,P|101:64|144:77,1,89.3449972734071,2|0,1:2|1:2,0:2:0:0:
318,181,249880,2,0,P|275:194|231:204,1,89.3449972734071,10|0,0:2|0:2,0:2:0:0:
292,28,250233,5,0,1:2:0:0:
422,181,250410,2,0,P|411:224|398:267,1,89.3449972734071,2|0,1:2|1:2,0:2:0:0:
507,133,250763,1,2,1:2:0:0:
318,181,250939,1,6,0:3:0:0:
498,279,251116,1,2,1:2:0:0:
364,89,251292,1,2,0:2:0:0:
226,239,251469,6,0,P|239:281|249:325,1,89.3449972734071,6|0,1:2|0:2,0:2:0:0:
358,371,251822,1,2,1:2:0:0:
151,272,251998,2,0,P|107:283|64:295,1,89.3449972734071,2|2,0:2|0:2,0:2:0:0:
25,110,252351,2,0,P|67:96|111:86,1,89.3449972734071,10|0,0:2|1:2,0:2:0:0:
275,0,252704,6,0,P|255:96|241:193,1,178.689994546814,6|0,1:2|1:2,0:2:0:0:
334,280,253233,1,10,0:2:0:0:
138,159,253410,1,8,0:2:0:0:
348,291,253586,1,10,0:2:0:0:
147,340,253763,2,8,P|129:332|104:324,1,44.6724986367035,8|8,0:2|0:2,0:2:0:0:
134,243,253939,2,8,P|152:251|177:259,1,44.6724986367035,10|8,0:2|0:2,0:2:0:0:
246,311,254116,2,8,P|238:329|230:354,1,44.6724986367035,8|8,0:2|0:2,0:2:0:0:
30,281,254292,6,0,P|52:229|75:157,1,97.6950003726768,14|0,0:2|1:2,0:2:0:0:
33,73,254645,1,2,1:2:0:0:
205,184,254822,2,0,P|255:171|327:171,1,97.6950003726768,10|0,0:2|0:2,0:2:0:0:
487,276,255174,1,2,1:2:0:0:
409,115,255351,2,0,P|397:162|382:208,1,97.6950003726768,14|0,0:2|1:2,0:2:0:0:
360,7,255704,1,0,1:2:0:0:
300,168,255880,2,0,P|288:215|273:261,1,97.6950003726768,8|0,0:2|0:2,0:2:0:0:
181,48,256233,1,2,1:2:0:0:
150,232,256410,5,8,0:2:0:0:
150,232,256498,1,8,0:2:0:0:
150,232,256586,2,8,P|143:266|136:300,1,48.8475001863384,10|8,0:2|0:2,0:2:0:0:
51,161,256763,2,8,P|58:195|65:229,1,48.8475001863384,10|8,0:2|0:2,0:2:0:0:
216,183,256939,2,8,P|209:149|202:115,1,48.8475001863384,10|8,0:2|0:2,0:2:0:0:
105,4,257116,6,0,P|114:59|123:110,1,97.6950003726768,14|0,0:2|1:2,0:2:0:0:
37,283,257469,1,2,1:2:0:0:
216,183,257645,2,0,P|270:171|320:159,1,97.6950003726768,10|0,0:2|0:2,0:2:0:0:
443,64,257998,1,2,1:2:0:0:
271,299,258174,2,0,P|223:288|175:277,1,97.6950003726768,14|0,0:2|1:2,0:2:0:0:
453,199,258527,5,0,1:2:0:0:
311,163,258704,2,0,P|263:152|215:141,1,97.6950003726768,8|0,0:2|0:2,0:2:0:0:
364,25,259057,1,2,1:2:0:0:
117,133,259233,2,8,L|137:180,3,48.8475001863384,10|8|8|8,0:2|0:2|0:2|0:2,0:2:0:0:
271,299,259586,2,8,L|291:252,3,48.8475001863384,10|8|8|8,0:2|0:2|0:2|0:2,0:2:0:0:
110,360,259939,6,0,P|100:310|87:255,1,97.6950003726768,14|0,0:2|1:2,0:2:0:0:
6,147,260292,1,2,1:2:0:0:
206,239,260469,2,0,P|216:189|229:134,1,97.6950003726768,10|0,0:2|0:2,0:2:0:0:
325,53,260822,1,2,1:2:0:0:
112,183,260998,2,0,P|102:133|89:78,1,97.6950003726768,14|0,0:2|1:2,0:2:0:0:
3,9,261351,5,0,1:2:0:0:
178,117,261527,2,0,P|225:105|273:96,1,97.6950003726768,8|0,0:2|0:2,0:2:0:0:
460,153,261880,1,2,0:2:0:0:
407,60,262057,1,10,0:2:0:0:
282,194,262233,2,8,P|291:218|299:246,1,48.8475001863384,10|8,0:2|0:2,0:2:0:0:
254,357,262410,2,8,P|269:339|286:321,1,48.8475001863384,10|8,0:2|0:2,0:2:0:0:
413,301,262586,2,8,P|389:297|366:291,1,48.8475001863384,10|8,0:2|0:2,0:2:0:0:
202,259,262763,5,2,0:2:0:0:
202,259,264704,5,6,0:3:0:0:
379,92,265057,1,2,1:2:0:0:
379,92,265233,1,6,0:3:0:0:
156,40,265586,6,0,B|255:19|212:82|320:70,1,160.737496811543,6|0,1:2|0:2,0:2:0:0:
379,91,266115,1,10,0:2:0:0:
209,250,266469,5,2,1:2:0:0:
209,250,266645,1,6,0:3:0:0:
486,346,266998,5,6,1:2:0:0:
391,180,267351,1,2,0:2:0:0:
249,384,267704,5,6,1:2:0:0:
427,282,268057,1,2,0:2:0:0:
201,141,268410,5,6,1:2:0:0:
330,54,268939,6,0,L|319:110,2,32.1474993623085,2|2|4,0:2|0:2|1:2,0:2:0:0:
130,25,269645,5,8,0:2:0:0:
130,25,269733,1,8,0:2:0:0:
130,25,269822,2,0,P|145:103|159:187,1,145.290001219322,6|8,1:2|0:2,0:2:0:0:
87,283,270351,2,0,L|39:270,2,36.3225003048306,8|8|10,0:2|0:2|0:2,0:2:0:0:
221,358,270704,5,8,0:2:0:0:
221,358,270792,1,0,1:2:0:0:
221,358,270880,2,8,P|244:351|276:342,1,36.3225003048306,10|8,0:2|0:2,0:2:0:0:
321,275,271057,2,8,P|344:281|376:291,1,36.3225003048306,8|8,0:2|0:2,0:2:0:0:
460,321,271233,6,0,P|452:278|437:222,1,80.9950019156228,6|0,1:2|1:2,0:2:0:0:
494,82,271586,1,10,0:2:0:0:
321,176,271763,1,8,0:2:0:0:
321,176,271851,1,8,0:2:0:0:
321,176,271939,1,2,1:2:0:0:
374,62,272116,1,2,1:2:0:0:
330,268,272292,2,0,P|291:272|238:245,1,80.9950019156228,10|0,0:2|1:2,0:2:0:0:
122,168,272645,6,0,P|131:207|139:247,1,80.9950019156228,6|0,1:2|1:2,0:2:0:0:
200,96,272998,1,12,0:2:0:0:
64,273,273174,1,8,0:2:0:0:
64,273,273263,1,8,0:2:0:0:
64,273,273351,2,8,L|13:255,2,53.9966679437485,10|8|8,0:2|0:2|0:2,0:2:0:0:
163,337,273704,2,4,L|214:319,2,53.9966679437485,10|4|4,1:2|0:3|0:3,0:3:0:0:
139,247,274057,6,0,P|131:207|122:168,1,80.9950019156228,6|0,1:2|1:2,0:2:0:0:
153,0,274410,1,2,1:2:0:0:
52,90,274586,1,10,0:2:0:0:
207,156,274763,2,0,P|250:141|296:131,1,89.3449972734071,10|8,0:2|0:2,0:2:0:0:
218,307,275116,1,10,0:2:0:0:
310,238,275292,1,8,0:2:0:0:
262,384,275469,1,10,0:2:0:0:
127,276,275645,1,8,0:2:0:0:
394,302,275822,5,8,0:0:0:0:
225,180,275998,1,10,0:0:0:0:
453,227,276174,1,10,0:0:0:0:
261,101,276351,1,8,0:0:0:0:
499,154,276527,1,8,0:0:0:0:
288,22,276704,1,8,0:0:0:0:
466,83,277586,6,1,B|322:11|182:141|303:210|141:348|20:259,1,541.080013209961,14|0,0:2|0:2,0:2:0:0:
