osu file format v14

[General]
AudioFilename: audio.mp3
AudioLeadIn: 0
PreviewTime: 48174
Countdown: 0
SampleSet: Soft
StackLeniency: 0.7
Mode: 3
LetterboxInBreaks: 0
SpecialStyle: 0
WidescreenStoryboard: 1

[Editor]
Bookmarks: 100411,107646
DistanceSpacing: 1.1
BeatDivisor: 2
GridSize: 32
TimelineZoom: 2

[Metadata]
Title:Fuyu ni Saku Hana
TitleUnicode:冬に咲く華
Artist:Mitsuki Kotono
ArtistUnicode:美月琴音
Creator:Murumoo
Version:Amii's Insane
Source:彼女のセイイキ
Tags:Amiichii Riana Amamya kanojo no seiiki japanese pop jpop j-pop rock jrock j-rock video game feng eroge op opening theme visual novel vn
BeatmapID:2246012
BeatmapSetID:1072946

[Difficulty]
HPDrainRate:8
CircleSize:4
OverallDifficulty:8
ApproachRate:5
SliderMultiplier:1.4
SliderTickRate:1

[Events]
//Background and Video events
0,0,"bg2.jpg",0,0
//Break Periods
//Storyboard Layer 0 (Background)
//Storyboard Layer 1 (Fail)
//Storyboard Layer 2 (Pass)
//Storyboard Layer 3 (Foreground)
//Storyboard Layer 4 (Overlay)
//Storyboard Sound Samples

[TimingPoints]
175,352.941176470588,4,2,1,40,1,0
48174,-100,4,2,1,40,0,1
65116,-100,4,2,1,40,0,0
70763,-100,4,2,1,40,0,1
82057,-100,4,2,1,40,0,0

[HitObjects]
64,192,175,128,0,527:0:0:0:0:
192,192,527,128,0,880:0:0:0:0:
64,192,880,128,0,1233:0:0:0:0:
448,192,880,128,0,1586:0:0:0:0:
192,192,1233,128,0,1586:0:0:0:0:
64,192,1586,128,0,2292:0:0:0:0:
320,192,1586,128,0,1939:0:0:0:0:
448,192,1939,128,0,2292:0:0:0:0:
192,192,2292,128,0,2645:0:0:0:0:
320,192,2292,128,0,2998:0:0:0:0:
64,192,2645,128,0,2998:0:0:0:0:
192,192,2998,128,0,3527:0:0:0:0:
448,192,2998,128,0,3527:0:0:0:0:
64,192,3527,1,0,0:0:0:0:
192,192,3616,1,0,0:0:0:0:
320,192,3704,1,0,0:0:0:0:
192,192,3792,1,0,0:0:0:0:
320,192,3880,1,0,0:0:0:0:
448,192,3969,1,0,0:0:0:0:
320,192,4057,1,0,0:0:0:0:
192,192,4145,1,0,0:0:0:0:
64,192,4233,1,0,0:0:0:0:
192,192,4322,1,0,0:0:0:0:
320,192,4410,128,0,5469:0:0:0:0:
64,192,4763,128,0,5469:0:0:0:0:
448,192,5116,128,0,5469:0:0:0:0:
192,192,5469,128,0,5822:0:0:0:0:
64,192,5645,1,0,0:0:0:0:
320,192,5733,1,0,0:0:0:0:
64,192,5822,1,2,0:0:0:0:
448,192,5822,1,4,0:0:0:0:
64,192,5998,1,0,0:0:0:0:
448,192,5998,1,0,0:0:0:0:
192,192,6174,1,2,0:0:0:0:
320,192,6174,1,0,0:0:0:0:
448,192,6174,1,0,0:0:0:0:
192,192,6351,1,0,0:0:0:0:
320,192,6351,1,0,0:0:0:0:
64,192,6527,1,2,0:0:0:0:
192,192,6527,1,0,0:0:0:0:
448,192,6527,1,0,0:0:0:0:
64,192,6704,1,0,0:0:0:0:
192,192,6704,1,0,0:0:0:0:
64,192,6880,1,2,0:0:0:0:
320,192,6880,1,0,0:0:0:0:
448,192,6880,1,0,0:0:0:0:
320,192,7057,1,0,0:0:0:0:
448,192,7057,1,0,0:0:0:0:
64,192,7233,1,2,0:0:0:0:
192,192,7233,1,0,0:0:0:0:
448,192,7233,128,0,7586:0:0:0:0:
64,192,7410,1,0,0:0:0:0:
320,192,7410,1,0,0:0:0:0:
64,192,7586,1,2,0:0:0:0:
192,192,7586,1,0,0:0:0:0:
320,192,7586,128,0,7939:0:0:0:0:
192,192,7763,1,0,0:0:0:0:
448,192,7763,1,0,0:0:0:0:
64,192,7939,1,2,0:0:0:0:
192,192,7939,128,0,8292:0:0:0:0:
448,192,7939,1,0,0:0:0:0:
64,192,8116,1,0,0:0:0:0:
320,192,8116,1,0,0:0:0:0:
64,192,8292,1,2,0:0:0:0:
320,192,8292,1,0,0:0:0:0:
448,192,8292,1,0,0:0:0:0:
64,192,8469,1,8,0:0:0:0:
448,192,8469,1,0,0:0:0:0:
320,192,8557,1,8,0:0:0:0:
64,192,8645,1,2,0:0:0:0:
192,192,8645,1,4,0:0:0:0:
448,192,8645,1,0,0:0:0:0:
320,192,8822,1,0,0:0:0:0:
448,192,8822,1,0,0:0:0:0:
64,192,8998,1,2,0:0:0:0:
192,192,8998,1,0,0:0:0:0:
320,192,8998,1,0,0:0:0:0:
64,192,9174,1,0,0:0:0:0:
192,192,9174,1,0,0:0:0:0:
192,192,9351,1,8,0:0:0:0:
320,192,9351,1,0,0:0:0:0:
448,192,9351,1,0,0:0:0:0:
64,192,9527,1,8,0:0:0:0:
320,192,9527,1,0,0:0:0:0:
448,192,9527,1,0,0:0:0:0:
64,192,9704,1,8,0:0:0:0:
192,192,9704,1,0,0:0:0:0:
320,192,9704,1,0,0:0:0:0:
64,192,9880,1,8,0:0:0:0:
192,192,9880,1,0,0:0:0:0:
448,192,9880,1,0,0:0:0:0:
64,192,10057,1,8,0:0:0:0:
320,192,10057,1,0,0:0:0:0:
448,192,10057,1,0,0:0:0:0:
192,192,10233,1,0,0:0:0:50:Tom4.wav
320,192,10233,1,0,0:0:0:0:
64,192,10410,1,0,0:0:0:50:Tom4.wav
192,192,10410,1,0,0:0:0:0:
192,192,10586,1,0,0:0:0:50:Tom3.wav
448,192,10586,1,0,0:0:0:0:
64,192,10763,1,0,0:0:0:50:Tom3.wav
320,192,10763,1,0,0:0:0:0:
64,192,10939,1,0,0:0:0:50:Tom2.wav
192,192,10939,1,0,0:0:0:0:
320,192,11116,1,0,0:0:0:50:Tom2.wav
448,192,11116,128,0,11469:0:0:0:0:
192,192,11292,128,0,11469:0:0:0:0:
64,192,11469,128,2,12174:0:0:0:0:
320,192,11469,1,0,0:0:0:0:
448,192,11822,1,0,0:0:0:0:
192,192,12174,1,0,0:0:0:0:
320,192,12174,1,0,0:0:0:0:
448,192,12527,1,0,0:0:0:0:
64,192,12880,1,0,0:0:0:0:
320,192,12880,1,0,0:0:0:0:
192,192,13233,1,0,0:0:0:0:
64,192,13586,1,0,0:0:0:0:
448,192,13586,1,0,0:0:0:0:
320,192,13939,1,0,0:0:0:0:
64,192,14292,1,0,0:0:0:0:
192,192,14292,1,0,0:0:0:0:
320,192,14645,1,0,0:0:0:0:
192,192,14998,1,0,0:0:0:0:
448,192,14998,1,0,0:0:0:0:
64,192,15351,1,0,0:0:0:0:
320,192,15704,1,0,0:0:0:0:
448,192,15704,1,0,0:0:0:0:
192,192,16057,1,0,0:0:0:0:
64,192,16410,1,0,0:0:0:0:
448,192,16410,1,0,0:0:0:0:
192,192,16763,1,0,0:0:0:0:
64,192,17116,1,0,0:0:0:0:
320,192,17116,1,0,0:0:0:0:
192,192,17469,1,0,0:0:0:0:
320,192,17822,1,0,0:0:0:0:
448,192,17822,1,0,0:0:0:0:
192,192,18174,1,0,0:0:0:0:
64,192,18527,1,0,0:0:0:0:
448,192,18527,1,0,0:0:0:0:
320,192,18880,1,0,0:0:0:0:
64,192,19233,1,0,0:0:0:0:
192,192,19233,1,0,0:0:0:0:
448,192,19586,1,0,0:0:0:0:
192,192,19939,1,0,0:0:0:0:
320,192,19939,1,0,0:0:0:0:
64,192,20292,1,0,0:0:0:0:
192,192,20645,1,0,0:0:0:0:
448,192,20645,1,0,0:0:0:0:
320,192,20998,1,0,0:0:0:0:
64,192,21351,1,0,0:0:0:0:
192,192,21351,1,0,0:0:0:0:
448,192,21704,1,0,0:0:0:0:
64,192,22057,128,0,22322:0:0:0:0:
320,192,22057,1,0,0:0:0:0:
192,192,22322,128,0,22586:0:0:0:0:
320,192,22586,128,0,22763:0:0:0:0:
64,192,22763,1,0,0:0:0:0:
448,192,22763,128,0,23469:0:0:0:0:
192,192,23116,1,0,0:0:0:0:
64,192,23469,1,0,0:0:0:0:
320,192,23469,1,0,0:0:0:0:
192,192,23822,1,0,0:0:0:0:
320,192,24174,1,0,0:0:0:0:
448,192,24174,1,0,0:0:0:0:
192,192,24527,1,0,0:0:0:0:
64,192,24880,1,0,0:0:0:0:
448,192,24880,1,0,0:0:0:0:
320,192,25233,1,0,0:0:0:0:
64,192,25586,1,0,0:0:0:0:
192,192,25586,1,0,0:0:0:0:
320,192,25939,1,0,0:0:0:0:
64,192,26292,1,0,0:0:0:0:
448,192,26292,1,0,0:0:0:0:
192,192,26645,1,0,0:0:0:0:
64,192,26954,1,0,0:0:0:0:
320,192,26998,1,0,0:0:0:0:
448,192,27020,128,0,27704:0:0:0:0:
192,192,27704,128,0,28057:0:0:0:0:
64,192,28057,128,0,28410:0:0:0:0:
320,192,28233,1,0,0:0:0:0:
192,192,28322,1,0,0:0:0:0:
320,192,28410,1,4,0:0:0:0:
448,192,28410,128,2,29822:0:0:0:0:
320,192,28586,1,0,0:0:0:0:
64,192,28763,1,2,0:0:0:0:
192,192,28763,1,0,0:0:0:0:
64,192,28939,1,0,0:0:0:0:
192,192,29116,1,2,0:0:0:0:
320,192,29116,1,0,0:0:0:0:
192,192,29292,1,0,0:0:0:0:
64,192,29469,1,2,0:0:0:0:
320,192,29469,1,0,0:0:0:0:
320,192,29645,1,0,0:0:0:0:
64,192,29822,1,2,0:0:0:0:
192,192,29822,1,0,0:0:0:0:
192,192,29998,1,0,0:0:0:0:
320,192,30174,1,2,0:0:0:0:
448,192,30174,1,0,0:0:0:0:
448,192,30351,1,0,0:0:0:0:
64,192,30527,1,2,0:0:0:0:
320,192,30527,1,0,0:0:0:0:
64,192,30704,1,0,0:0:0:0:
192,192,30880,1,2,0:0:0:0:
448,192,30880,1,0,0:0:0:0:
448,192,31057,1,0,0:0:0:0:
192,192,31233,1,2,0:0:0:0:
320,192,31233,128,0,32645:0:0:0:0:
192,192,31410,1,0,0:0:0:0:
64,192,31586,1,2,0:0:0:0:
448,192,31586,1,0,0:0:0:0:
448,192,31763,1,0,0:0:0:0:
64,192,31939,1,2,0:0:0:0:
192,192,31939,1,0,0:0:0:0:
64,192,32116,1,0,0:0:0:0:
192,192,32292,1,2,0:0:0:0:
448,192,32292,1,0,0:0:0:0:
192,192,32469,1,0,0:0:0:0:
64,192,32645,1,2,0:0:0:0:
448,192,32645,1,0,0:0:0:0:
192,192,32822,1,8,0:0:0:0:
320,192,32822,1,0,0:0:0:0:
192,192,32998,1,8,0:0:0:0:
320,192,32998,1,0,0:0:0:0:
448,192,32998,1,0,0:0:0:0:
64,192,33174,1,8,0:0:0:0:
192,192,33174,1,0,0:0:0:0:
448,192,33174,1,0,0:0:0:0:
64,192,33351,1,8,0:0:0:0:
320,192,33351,1,0,0:0:0:0:
448,192,33351,1,0,0:0:0:0:
64,192,33527,1,8,0:0:0:0:
192,192,33527,1,0,0:0:0:0:
320,192,33527,1,0,0:0:0:0:
320,192,33704,1,8,0:0:0:0:
448,192,33704,1,2,0:0:0:0:
64,192,33792,1,8,0:0:0:0:
192,192,33792,1,0,0:0:0:0:
320,192,33880,1,8,0:0:0:0:
448,192,33880,1,0,0:0:0:0:
192,192,33969,1,8,0:0:0:0:
64,192,34057,1,2,0:0:0:0:
320,192,34057,1,4,0:0:0:0:
448,192,34057,1,0,0:0:0:0:
192,192,34233,1,2,0:0:0:0:
320,192,34233,1,0,0:0:0:0:
64,192,34410,1,8,0:0:0:0:
192,192,34410,1,0,0:0:0:0:
448,192,34410,1,0,0:0:0:0:
320,192,34586,1,0,0:0:0:0:
64,192,34674,1,8,0:0:0:0:
192,192,34674,1,0,0:0:0:0:
320,192,34763,1,2,0:0:0:0:
448,192,34763,1,0,0:0:0:0:
64,192,34939,1,2,0:0:0:0:
320,192,34939,1,0,0:0:0:0:
64,192,35116,1,8,0:0:0:0:
192,192,35116,1,0,0:0:0:0:
448,192,35116,1,0,0:0:0:0:
320,192,35292,1,0,0:0:0:0:
64,192,35469,1,2,0:0:0:0:
448,192,35469,1,0,0:0:0:0:
192,192,35645,1,2,0:0:0:0:
320,192,35645,1,0,0:0:0:0:
64,192,35822,1,8,0:0:0:0:
192,192,35822,1,0,0:0:0:0:
448,192,35822,1,0,0:0:0:0:
320,192,35998,1,0,0:0:0:0:
64,192,36086,1,8,0:0:0:0:
192,192,36086,1,0,0:0:0:0:
320,192,36174,1,2,0:0:0:0:
448,192,36174,1,0,0:0:0:0:
192,192,36351,1,2,0:0:0:0:
320,192,36351,1,0,0:0:0:0:
64,192,36527,1,8,0:0:0:0:
192,192,36527,1,0,0:0:0:0:
448,192,36527,1,0,0:0:0:0:
320,192,36704,1,0,0:0:0:0:
64,192,36880,1,2,0:0:0:0:
192,192,36880,1,0,0:0:0:0:
320,192,37057,1,2,0:0:0:0:
448,192,37057,1,0,0:0:0:0:
64,192,37233,1,8,0:0:0:0:
192,192,37233,1,0,0:0:0:0:
448,192,37233,1,0,0:0:0:0:
320,192,37410,1,0,0:0:0:0:
64,192,37498,1,8,0:0:0:0:
192,192,37498,1,0,0:0:0:0:
320,192,37586,1,2,0:0:0:0:
448,192,37586,1,0,0:0:0:0:
64,192,37763,1,2,0:0:0:0:
192,192,37763,1,0,0:0:0:0:
64,192,37939,1,8,0:0:0:0:
320,192,37939,1,0,0:0:0:0:
448,192,37939,1,0,0:0:0:0:
192,192,38116,1,0,0:0:0:0:
64,192,38292,1,2,0:0:0:0:
448,192,38292,1,0,0:0:0:0:
192,192,38469,1,2,0:0:0:0:
320,192,38469,1,0,0:0:0:0:
64,192,38645,1,8,0:0:0:0:
192,192,38645,1,4,0:0:0:0:
448,192,38645,1,0,0:0:0:0:
320,192,38822,1,2,0:0:0:0:
448,192,38822,1,0,0:0:0:0:
64,192,38910,1,2,0:0:0:0:
192,192,38910,1,0,0:0:0:0:
320,192,38998,1,8,0:0:0:0:
448,192,38998,1,0,0:0:0:0:
192,192,39116,1,2,0:0:0:0:
320,192,39233,1,8,0:0:0:0:
448,192,39233,1,0,0:0:0:0:
320,192,39351,1,8,0:0:0:0:
448,192,39351,1,0,0:0:0:0:
64,192,39469,1,2,0:0:0:70:Tom3.wav
192,192,39586,1,2,0:0:0:70:Tom4.wav
64,192,39704,1,4,0:0:0:0:
320,192,39704,1,2,0:0:0:0:
448,192,39704,128,0,40057:0:0:0:0:
192,192,40057,1,8,0:0:0:50:chi.wav
320,192,40057,1,0,0:0:0:0:
64,192,40410,1,0,0:0:0:0:
448,192,40410,1,0,0:0:0:0:
320,192,40586,1,0,0:0:0:50:chi.wav
64,192,40763,1,8,0:0:0:50:chi.wav
192,192,40763,1,0,0:0:0:0:
448,192,40939,1,0,0:0:0:0:
64,192,41027,1,0,0:0:0:50:chi.wav
320,192,41027,1,0,0:0:0:0:
192,192,41116,1,0,0:0:0:50:chi.wav
448,192,41116,1,0,0:0:0:0:
320,192,41292,1,0,0:0:0:0:
64,192,41469,1,8,0:0:0:50:chi.wav
192,192,41469,1,0,0:0:0:0:
320,192,41645,1,2,0:0:0:0:
448,192,41645,1,0,0:0:0:0:
192,192,41733,1,2,0:0:0:0:
64,192,41822,1,4,0:0:0:0:
320,192,41822,1,2,0:0:0:0:
448,192,41822,1,0,0:0:0:0:
192,192,41998,1,2,0:0:0:0:
320,192,41998,1,0,0:0:0:0:
64,192,42174,1,4,0:0:0:0:
192,192,42174,1,8,0:0:0:0:
320,192,42263,1,8,0:0:0:0:
448,192,42263,1,0,0:0:0:0:
64,192,42351,1,2,0:0:0:0:
192,192,42351,1,0,0:0:0:0:
320,192,42439,1,2,0:0:0:0:
64,192,42527,1,2,0:0:0:0:
192,192,42527,1,4,0:0:0:0:
448,192,42527,1,0,0:0:0:0:
64,192,42880,1,2,0:0:0:0:
320,192,42880,1,0,0:0:0:0:
448,192,42880,1,0,0:0:0:0:
64,192,43057,1,0,0:0:0:0:
320,192,43057,1,0,0:0:0:0:
192,192,43233,1,2,0:0:0:0:
320,192,43233,1,0,0:0:0:0:
448,192,43233,1,0,0:0:0:0:
192,192,43410,1,8,0:0:0:0:
320,192,43410,1,0,0:0:0:0:
64,192,43586,1,8,0:0:0:0:
192,192,43586,1,2,0:0:0:0:
448,192,43586,1,0,0:0:0:0:
64,192,43763,1,8,0:0:0:0:
448,192,43763,1,0,0:0:0:0:
192,192,43939,1,8,0:0:0:0:
320,192,43939,1,2,0:0:0:0:
448,192,43939,1,0,0:0:0:0:
64,192,44116,1,8,0:0:0:0:
192,192,44116,1,2,0:0:0:0:
320,192,44116,1,0,0:0:0:0:
64,192,44292,1,8,0:0:0:0:
192,192,44292,1,2,0:0:0:0:
448,192,44292,1,0,0:0:0:0:
64,192,44469,1,8,0:0:0:0:
320,192,44469,1,2,0:0:0:0:
448,192,44469,1,0,0:0:0:0:
192,192,44645,1,8,0:0:0:0:
320,192,44645,1,2,0:0:0:0:
448,192,44645,1,4,0:0:0:0:
64,192,44822,1,8,0:0:0:0:
448,192,44822,1,0,0:0:0:0:
320,192,44910,1,8,0:0:0:0:
64,192,44998,1,8,0:0:0:0:
192,192,44998,1,2,0:0:0:0:
320,192,45086,1,8,0:0:0:0:
448,192,45086,1,0,0:0:0:0:
64,192,45174,1,8,0:0:0:0:
192,192,45174,1,0,0:0:0:0:
320,192,45263,1,8,0:0:0:0:
64,192,45351,1,4,0:0:0:0:
192,192,45351,1,2,0:0:0:0:
448,192,45351,1,0,0:0:0:0:
320,192,45616,1,8,0:0:0:0:
448,192,45616,1,0,0:0:0:0:
64,192,45704,1,8,0:0:0:0:
192,192,45704,1,0,0:0:0:0:
320,192,45792,1,8,0:0:0:0:
448,192,45792,1,0,0:0:0:0:
64,192,45880,1,8,0:0:0:0:
192,192,45880,1,0,0:0:0:0:
320,192,45969,1,8,0:0:0:0:
448,192,45969,1,0,0:0:0:0:
64,192,46057,1,2,0:0:0:0:
192,192,46057,1,0,0:0:0:0:
320,192,46145,1,8,0:0:0:0:
64,192,46233,1,8,0:0:0:0:
448,192,46233,1,0,0:0:0:0:
192,192,46322,1,8,0:0:0:0:
320,192,46322,1,0,0:0:0:0:
64,192,46410,1,2,0:0:0:0:
448,192,46410,1,0,0:0:0:0:
192,192,46498,1,8,0:0:0:0:
320,192,46498,1,0,0:0:0:0:
64,192,46586,1,0,0:0:0:50:Tom3.wav
448,192,46586,1,0,0:0:0:0:
192,192,46645,1,0,0:0:0:0:
320,192,46704,1,0,0:0:0:0:
64,192,46763,1,2,0:0:0:0:
192,192,46763,1,4,0:0:0:0:
448,192,46763,1,0,0:0:0:0:
64,192,47998,1,0,0:0:0:0:
192,192,48057,1,0,0:0:0:0:
320,192,48116,1,0,0:0:0:0:
64,192,48174,1,2,0:0:0:0:
192,192,48174,1,4,0:0:0:0:
448,192,48174,128,0,49233:0:0:0:0:
64,192,48527,1,8,0:0:0:0:
192,192,48527,1,0,0:0:0:0:
320,192,48527,1,0,0:0:0:0:
192,192,48704,1,0,0:0:0:0:
320,192,48792,1,8,0:0:0:0:
64,192,48880,1,2,0:0:0:0:
192,192,48880,1,0,0:0:0:0:
64,192,49057,1,2,0:0:0:0:
320,192,49057,1,0,0:0:0:0:
64,192,49233,1,8,0:0:0:0:
192,192,49233,1,0,0:0:0:0:
320,192,49233,1,0,0:0:0:0:
64,192,49410,128,2,49939:0:0:0:0:
192,192,49410,1,4,0:0:0:0:
448,192,49410,1,0,0:0:0:0:
320,192,49763,1,2,0:0:0:0:
448,192,49763,1,0,0:0:0:0:
192,192,49939,1,8,0:0:0:0:
320,192,49939,1,0,0:0:0:0:
448,192,49939,128,0,50292:0:0:0:0:
64,192,50116,1,0,0:0:0:0:
320,192,50204,1,8,0:0:0:0:
64,192,50292,1,2,0:0:0:0:
192,192,50292,128,0,50645:0:0:0:0:
320,192,50469,1,2,0:0:0:0:
448,192,50469,1,0,0:0:0:0:
64,192,50645,1,8,0:0:0:0:
320,192,50645,128,0,50998:0:0:0:0:
448,192,50645,1,0,0:0:0:0:
192,192,50822,1,0,0:0:0:0:
64,192,50998,1,2,0:0:0:0:
448,192,50998,128,0,51527:0:0:0:0:
64,192,51351,1,8,0:0:0:0:
192,192,51351,1,0,0:0:0:0:
320,192,51351,1,0,0:0:0:0:
64,192,51527,128,0,51704:0:0:0:0:
192,192,51616,1,8,0:0:0:0:
320,192,51704,128,2,53469:0:0:0:0:
448,192,51704,1,0,0:0:0:0:
64,192,51880,1,2,0:0:0:0:
192,192,51880,1,0,0:0:0:0:
64,192,52057,1,8,0:0:0:0:
192,192,52057,1,0,0:0:0:0:
448,192,52057,1,0,0:0:0:0:
64,192,52233,1,2,0:0:0:0:
192,192,52233,1,4,0:0:0:0:
448,192,52233,1,0,0:0:0:0:
64,192,52586,1,2,0:0:0:0:
448,192,52586,1,0,0:0:0:0:
64,192,52763,1,8,0:0:0:0:
192,192,52763,1,0,0:0:0:0:
448,192,52763,1,0,0:0:0:0:
192,192,52939,1,0,0:0:0:0:
448,192,53027,1,8,0:0:0:0:
64,192,53116,1,2,0:0:0:0:
192,192,53116,1,0,0:0:0:0:
448,192,53204,1,8,0:0:0:0:
64,192,53292,1,2,0:0:0:0:
192,192,53292,1,0,0:0:0:0:
64,192,53469,1,8,0:0:0:0:
192,192,53469,1,0,0:0:0:0:
448,192,53469,1,0,0:0:0:0:
448,192,53645,1,0,0:0:0:0:
64,192,53733,1,0,0:0:0:0:
192,192,53822,1,2,0:0:0:0:
320,192,53822,128,0,54880:0:0:0:0:
64,192,54174,1,8,0:0:0:0:
192,192,54174,1,0,0:0:0:0:
448,192,54174,1,0,0:0:0:0:
192,192,54351,1,0,0:0:0:0:
448,192,54439,1,8,0:0:0:0:
64,192,54527,1,2,0:0:0:0:
192,192,54527,1,0,0:0:0:0:
64,192,54704,1,2,0:0:0:0:
448,192,54704,1,0,0:0:0:0:
64,192,54880,1,8,0:0:0:0:
192,192,54880,1,0,0:0:0:0:
448,192,54880,1,0,0:0:0:0:
320,192,55057,1,2,0:0:0:0:
448,192,55057,128,0,55586:0:0:0:0:
192,192,55410,1,2,0:0:0:0:
320,192,55410,1,0,0:0:0:0:
64,192,55586,1,8,0:0:0:0:
192,192,55586,1,0,0:0:0:0:
320,192,55586,128,0,55939:0:0:0:0:
448,192,55763,1,0,0:0:0:0:
64,192,55851,1,8,0:0:0:0:
192,192,55939,128,2,56292:0:0:0:0:
448,192,55939,1,0,0:0:0:0:
64,192,56116,1,2,0:0:0:0:
320,192,56116,1,0,0:0:0:0:
64,192,56292,128,8,56469:0:0:0:0:
320,192,56292,1,0,0:0:0:0:
448,192,56292,1,0,0:0:0:0:
320,192,56469,128,0,56645:0:0:0:0:
192,192,56645,1,2,0:0:0:0:
448,192,56645,128,0,57174:0:0:0:0:
64,192,56998,1,8,0:0:0:0:
192,192,56998,1,0,0:0:0:0:
320,192,56998,1,0,0:0:0:0:
64,192,57174,128,0,57351:0:0:0:0:
192,192,57263,1,8,0:0:0:0:
320,192,57351,128,2,58410:0:0:0:0:
448,192,57351,1,0,0:0:0:0:
64,192,57527,1,2,0:0:0:0:
192,192,57527,1,0,0:0:0:0:
64,192,57704,1,8,0:0:0:0:
192,192,57704,1,0,0:0:0:0:
448,192,57704,1,0,0:0:0:0:
64,192,57880,1,2,0:0:0:0:
192,192,57880,1,0,0:0:0:0:
448,192,57880,1,0,0:0:0:0:
64,192,58233,1,2,0:0:0:0:
192,192,58233,1,0,0:0:0:0:
64,192,58410,1,8,0:0:0:0:
192,192,58410,1,0,0:0:0:0:
448,192,58410,1,0,0:0:0:0:
192,192,58586,1,2,0:0:0:0:
320,192,58586,1,0,0:0:0:0:
64,192,58763,1,8,0:0:0:0:
192,192,58763,1,0,0:0:0:0:
448,192,58763,1,0,0:0:0:0:
64,192,58939,1,8,0:0:0:0:
320,192,58939,1,0,0:0:0:0:
192,192,59027,1,8,0:0:0:0:
448,192,59027,1,0,0:0:0:0:
320,192,59116,1,2,0:0:0:0:
64,192,59204,1,8,0:0:0:0:
192,192,59204,1,0,0:0:0:0:
320,192,59292,1,8,0:0:0:0:
448,192,59292,1,0,0:0:0:0:
192,192,59380,1,8,0:0:0:0:
64,192,59469,1,2,0:0:0:0:
320,192,59469,1,4,0:0:0:0:
448,192,59469,1,0,0:0:0:0:
192,192,59822,1,8,0:0:0:0:
320,192,59822,1,0,0:0:0:0:
448,192,59822,1,0,0:0:0:0:
64,192,59998,1,0,0:0:0:0:
320,192,60174,1,2,0:0:0:0:
448,192,60174,1,0,0:0:0:0:
64,192,60351,1,2,0:0:0:0:
192,192,60351,1,0,0:0:0:0:
64,192,60527,1,8,0:0:0:0:
320,192,60527,1,0,0:0:0:0:
448,192,60527,1,0,0:0:0:0:
192,192,60704,1,2,0:0:0:0:
320,192,60704,1,0,0:0:0:0:
448,192,60880,1,0,0:0:0:0:
64,192,61057,1,2,0:0:0:0:
320,192,61057,1,0,0:0:0:0:
64,192,61233,1,8,0:0:0:0:
192,192,61233,1,0,0:0:0:0:
448,192,61233,1,0,0:0:0:0:
320,192,61410,1,0,0:0:0:0:
64,192,61498,1,8,0:0:0:0:
192,192,61498,1,0,0:0:0:0:
320,192,61586,1,2,0:0:0:0:
448,192,61586,1,0,0:0:0:0:
64,192,61763,1,2,0:0:0:0:
192,192,61763,1,0,0:0:0:0:
64,192,61939,1,8,0:0:0:0:
320,192,61939,1,0,0:0:0:0:
448,192,61939,1,0,0:0:0:0:
192,192,62116,1,0,0:0:0:0:
320,192,62292,128,2,62645:0:0:0:0:
448,192,62292,1,0,0:0:0:0:
64,192,62645,1,8,0:0:0:0:
192,192,62645,1,0,0:0:0:0:
448,192,62645,1,0,0:0:0:0:
320,192,62822,1,0,0:0:0:0:
192,192,62910,1,8,0:0:0:0:
448,192,62910,1,0,0:0:0:0:
64,192,62998,1,2,0:0:0:0:
320,192,62998,1,0,0:0:0:0:
192,192,63174,1,2,0:0:0:0:
448,192,63174,1,0,0:0:0:0:
64,192,63351,1,8,0:0:0:0:
320,192,63351,1,0,0:0:0:0:
448,192,63351,1,0,0:0:0:0:
64,192,63527,1,2,0:0:0:0:
192,192,63527,1,4,0:0:0:0:
448,192,63527,128,0,64057:0:0:0:0:
192,192,63880,1,2,0:0:0:0:
320,192,63880,1,0,0:0:0:0:
64,192,64057,1,8,0:0:0:0:
192,192,64057,1,0,0:0:0:0:
320,192,64057,1,0,0:0:0:0:
448,192,64233,1,0,0:0:0:0:
320,192,64322,1,0,0:0:0:0:
64,192,64410,1,2,0:0:0:0:
192,192,64410,1,0,0:0:0:0:
320,192,64498,1,8,0:0:0:0:
448,192,64498,1,0,0:0:0:0:
64,192,64586,1,2,0:0:0:0:
192,192,64586,1,0,0:0:0:0:
192,192,64763,1,8,0:0:0:0:
320,192,64763,1,0,0:0:0:0:
448,192,64763,1,0,0:0:0:0:
64,192,64939,1,0,0:0:0:0:
320,192,65027,1,0,0:0:0:0:
64,192,65116,1,2,0:0:0:0:
192,192,65116,1,4,0:0:0:0:
448,192,65116,128,0,65998:0:0:0:0:
320,192,65292,1,0,0:0:0:0:
64,192,65469,1,8,0:0:0:0:
192,192,65469,1,0,0:0:0:50:LR_Ride Med.wav
320,192,65469,1,0,0:0:0:0:
64,192,65645,1,0,0:0:0:0:
192,192,65733,1,8,0:0:0:0:
64,192,65822,1,2,0:0:0:0:
320,192,65822,1,0,0:0:0:50:LR_Ride Med.wav
192,192,65998,1,2,0:0:0:0:
320,192,65998,1,0,0:0:0:0:
64,192,66174,1,8,0:0:0:0:
320,192,66174,1,0,0:0:0:50:LR_Ride Med.wav
448,192,66174,1,0,0:0:0:0:
64,192,66351,128,2,66880:0:0:0:0:
192,192,66351,1,0,0:0:0:0:
320,192,66527,1,0,0:0:0:50:LR_Ride Med.wav
192,192,66704,1,2,0:0:0:0:
448,192,66704,1,0,0:0:0:0:
192,192,66880,1,8,0:0:0:0:
320,192,66880,1,0,0:0:0:50:LR_Ride Med.wav
448,192,66880,1,0,0:0:0:0:
64,192,67057,1,0,0:0:0:0:
192,192,67145,1,8,0:0:0:0:
448,192,67145,1,0,0:0:0:0:
64,192,67233,1,2,0:0:0:0:
320,192,67233,1,0,0:0:0:50:LR_Ride Med.wav
192,192,67410,1,2,0:0:0:0:
320,192,67410,1,0,0:0:0:0:
64,192,67586,1,8,0:0:0:0:
192,192,67586,1,0,0:0:0:50:LR_Ride Med.wav
448,192,67586,1,0,0:0:0:0:
320,192,67763,1,0,0:0:0:0:
64,192,67939,128,2,68292:0:0:0:0:
448,192,67939,1,0,0:0:0:50:LR_Ride Med.wav
320,192,68116,1,0,0:0:0:0:
192,192,68292,1,8,0:0:0:0:
320,192,68292,1,0,0:0:0:0:
448,192,68292,1,0,0:0:0:0:
64,192,68469,1,0,0:0:0:0:
192,192,68557,1,8,0:0:0:0:
320,192,68557,1,0,0:0:0:0:
64,192,68645,1,2,0:0:0:0:
448,192,68645,128,0,68998:0:0:0:0:
320,192,68822,1,0,0:0:0:0:
64,192,68910,1,8,0:0:0:0:
192,192,68910,1,0,0:0:0:0:
64,192,68998,1,8,0:0:0:0:
320,192,68998,1,0,0:0:0:0:
64,192,69174,128,2,69527:0:0:0:0:
192,192,69174,1,4,0:0:0:0:
448,192,69174,1,0,0:0:0:0:
320,192,69527,1,2,0:0:0:0:
448,192,69527,1,0,0:0:0:0:
64,192,69704,1,8,0:0:0:0:
192,192,69704,1,0,0:0:0:0:
320,192,69704,1,0,0:0:0:0:
192,192,69880,1,2,0:0:0:0:
448,192,69880,1,0,0:0:0:0:
64,192,70057,1,8,0:0:0:0:
320,192,70057,1,0,0:0:0:0:
448,192,70057,1,0,0:0:0:0:
64,192,70233,1,8,0:0:0:0:
192,192,70233,1,0,0:0:0:0:
320,192,70322,1,8,0:0:0:0:
448,192,70322,1,0,0:0:0:0:
64,192,70410,1,2,0:0:0:0:
192,192,70410,1,0,0:0:0:0:
320,192,70498,1,8,0:0:0:0:
448,192,70498,1,0,0:0:0:0:
64,192,70586,1,8,0:0:0:0:
192,192,70586,1,0,0:0:0:0:
320,192,70674,1,8,0:0:0:0:
64,192,70763,128,4,71822:0:0:0:0:
192,192,70763,1,2,0:0:0:0:
448,192,70763,1,0,0:0:0:0:
192,192,71116,1,8,0:0:0:0:
320,192,71116,1,0,0:0:0:0:
448,192,71116,1,0,0:0:0:0:
448,192,71292,1,0,0:0:0:0:
192,192,71380,1,8,0:0:0:0:
320,192,71469,1,2,0:0:0:0:
448,192,71469,1,0,0:0:0:0:
192,192,71645,1,2,0:0:0:0:
320,192,71645,1,0,0:0:0:0:
192,192,71822,1,8,0:0:0:0:
320,192,71822,1,0,0:0:0:0:
448,192,71822,1,0,0:0:0:0:
64,192,71998,1,4,0:0:0:0:
192,192,71998,1,2,0:0:0:0:
448,192,71998,128,0,72527:0:0:0:0:
64,192,72351,1,2,0:0:0:0:
192,192,72351,1,0,0:0:0:0:
64,192,72527,1,8,0:0:0:0:
192,192,72527,1,0,0:0:0:0:
320,192,72527,128,0,72880:0:0:0:0:
448,192,72704,1,0,0:0:0:0:
64,192,72792,1,8,0:0:0:0:
192,192,72880,128,2,73233:0:0:0:0:
448,192,72880,1,0,0:0:0:0:
64,192,73057,1,2,0:0:0:0:
320,192,73057,1,0,0:0:0:0:
64,192,73233,1,8,0:0:0:0:
320,192,73233,1,0,0:0:0:0:
448,192,73233,128,0,73586:0:0:0:0:
192,192,73410,1,0,0:0:0:0:
320,192,73498,1,8,0:0:0:0:
64,192,73586,128,2,74116:0:0:0:0:
192,192,73586,1,0,0:0:0:0:
192,192,73939,1,8,0:0:0:0:
320,192,73939,1,0,0:0:0:0:
448,192,73939,1,0,0:0:0:0:
192,192,74116,1,2,0:0:0:0:
320,192,74116,128,0,74292:0:0:0:0:
64,192,74292,1,2,0:0:0:0:
448,192,74292,128,0,75704:0:0:0:0:
192,192,74469,1,8,0:0:0:0:
320,192,74469,1,0,0:0:0:0:
64,192,74557,1,8,0:0:0:0:
192,192,74645,1,8,0:0:0:0:
320,192,74645,1,0,0:0:0:0:
64,192,74822,1,4,0:0:0:0:
192,192,74822,1,2,0:0:0:0:
320,192,74822,1,0,0:0:0:0:
64,192,75174,1,2,0:0:0:0:
320,192,75174,1,0,0:0:0:0:
64,192,75351,1,8,0:0:0:0:
192,192,75351,1,0,0:0:0:0:
320,192,75351,1,0,0:0:0:0:
64,192,75527,1,2,0:0:0:0:
192,192,75527,1,0,0:0:0:0:
64,192,75704,1,8,0:0:0:0:
192,192,75704,1,0,0:0:0:0:
320,192,75704,1,0,0:0:0:0:
320,192,75880,1,8,0:0:0:0:
448,192,75880,1,0,0:0:0:0:
64,192,75969,1,8,0:0:0:0:
192,192,75969,1,0,0:0:0:0:
320,192,76057,1,2,0:0:0:0:
448,192,76057,1,8,0:0:0:0:
64,192,76145,1,8,0:0:0:0:
192,192,76145,1,0,0:0:0:0:
320,192,76233,1,0,0:0:0:50:Tom3.wav
192,192,76322,1,0,0:0:0:50:Tom4.wav
64,192,76410,128,2,77469:0:0:0:0:
320,192,76410,1,4,0:0:0:0:
448,192,76410,1,0,0:0:0:0:
192,192,76763,1,8,0:0:0:0:
320,192,76763,1,0,0:0:0:0:
448,192,76763,1,0,0:0:0:0:
448,192,76939,1,0,0:0:0:0:
320,192,77027,1,8,0:0:0:0:
192,192,77116,1,2,0:0:0:0:
448,192,77116,1,0,0:0:0:0:
192,192,77292,1,2,0:0:0:0:
320,192,77292,1,0,0:0:0:0:
192,192,77469,1,8,0:0:0:0:
320,192,77469,1,0,0:0:0:0:
448,192,77469,1,0,0:0:0:0:
64,192,77645,1,2,0:0:0:0:
448,192,77645,128,0,78174:0:0:0:0:
192,192,77998,1,2,0:0:0:0:
320,192,77998,1,0,0:0:0:0:
64,192,78174,1,8,0:0:0:0:
192,192,78174,1,0,0:0:0:0:
320,192,78174,128,0,78527:0:0:0:0:
448,192,78351,1,0,0:0:0:0:
64,192,78439,1,8,0:0:0:0:
192,192,78527,128,2,78880:0:0:0:0:
448,192,78527,1,0,0:0:0:0:
64,192,78704,1,2,0:0:0:0:
320,192,78704,1,0,0:0:0:0:
64,192,78880,128,8,79057:0:0:0:0:
320,192,78880,1,0,0:0:0:0:
448,192,78880,1,0,0:0:0:0:
320,192,79057,128,0,79233:0:0:0:0:
192,192,79145,1,8,0:0:0:0:
64,192,79233,1,2,0:0:0:0:
448,192,79233,128,0,79763:0:0:0:0:
64,192,79586,1,8,0:0:0:0:
192,192,79586,1,4,0:0:0:0:
320,192,79586,1,0,0:0:0:0:
64,192,79763,128,0,79939:0:0:0:0:
192,192,79851,1,8,0:0:0:0:
320,192,79939,128,2,80998:0:0:0:0:
448,192,79939,1,0,0:0:0:0:
64,192,80027,1,8,0:0:0:0:
192,192,80027,1,0,0:0:0:0:
448,192,80116,1,2,0:0:0:0:
64,192,80292,1,8,0:0:0:0:
192,192,80292,1,0,0:0:0:0:
448,192,80292,1,0,0:0:0:0:
64,192,80469,1,2,0:0:0:0:
192,192,80469,1,4,0:0:0:0:
448,192,80469,1,0,0:0:0:0:
64,192,80822,1,2,0:0:0:0:
192,192,80822,1,0,0:0:0:0:
64,192,80998,1,8,0:0:0:0:
192,192,80998,1,4,0:0:0:0:
448,192,80998,1,0,0:0:0:0:
64,192,81174,1,2,0:0:0:0:
320,192,81174,1,0,0:0:0:0:
192,192,81351,1,8,0:0:0:0:
320,192,81351,1,0,0:0:0:0:
448,192,81351,1,0,0:0:0:0:
64,192,81527,1,8,0:0:0:0:
192,192,81527,1,0,0:0:0:0:
320,192,81616,1,8,0:0:0:0:
448,192,81616,1,0,0:0:0:0:
64,192,81704,1,2,0:0:0:0:
192,192,81704,1,8,0:0:0:0:
320,192,81792,1,8,0:0:0:0:
448,192,81792,1,0,0:0:0:0:
64,192,81880,1,8,0:0:0:0:
192,192,81880,1,0,0:0:0:0:
320,192,81969,1,8,0:0:0:0:
64,192,82057,128,4,82233:0:0:0:0:
192,192,82057,1,2,0:0:0:0:
448,192,82057,1,0,0:0:0:0:
320,192,82233,1,0,0:0:0:0:
448,192,82233,128,0,82410:0:0:0:0:
64,192,82410,1,2,0:0:0:0:
192,192,82410,128,0,82586:0:0:0:0:
320,192,82586,128,0,82763:0:0:0:0:
448,192,82586,1,0,0:0:0:0:
64,192,82763,128,2,82939:0:0:0:0:
192,192,82763,1,0,0:0:0:0:
320,192,82939,1,0,0:0:0:0:
448,192,82939,128,0,83116:0:0:0:0:
64,192,83116,1,2,0:0:0:0:
192,192,83116,128,0,83292:0:0:0:0:
64,192,83292,1,8,0:0:0:0:
320,192,83292,128,0,83469:0:0:0:0:
448,192,83292,1,0,0:0:0:0:
64,192,83469,128,2,83645:0:0:0:0:
448,192,83469,1,0,0:0:0:0:
192,192,83645,1,0,0:0:0:0:
320,192,83645,128,0,83822:0:0:0:0:
64,192,83822,128,2,83998:0:0:0:0:
448,192,83822,1,0,0:0:0:0:
192,192,83998,1,0,0:0:0:50:Tom2.wav
320,192,83998,128,0,84174:0:0:0:0:
64,192,84174,128,2,84351:0:0:0:0:
448,192,84174,1,0,0:0:0:0:
192,192,84351,1,0,0:0:0:50:Tom3.wav
320,192,84351,128,0,84527:0:0:0:0:
64,192,84527,128,2,84704:0:0:0:0:
448,192,84527,1,0,0:0:0:0:
192,192,84704,1,0,0:0:0:50:Tom4.wav
320,192,84704,128,0,84880:0:0:0:0:
64,192,84880,1,2,0:0:0:0:
192,192,84880,1,8,0:0:0:0:
448,192,84880,128,4,85057:0:0:0:0:
64,192,85057,128,0,85233:0:0:0:0:
320,192,85057,1,0,0:0:0:0:
192,192,85233,128,2,85410:0:0:0:0:
320,192,85233,1,0,0:0:0:0:
64,192,85410,1,0,0:0:0:0:
448,192,85410,128,0,85586:0:0:0:0:
192,192,85586,1,2,0:0:0:0:
320,192,85586,128,0,85763:0:0:0:0:
64,192,85763,1,8,0:0:0:0:
192,192,85763,128,0,85939:0:0:0:0:
448,192,85763,1,0,0:0:0:0:
320,192,85939,128,2,86116:0:0:0:0:
448,192,85939,1,0,0:0:0:0:
64,192,86116,1,8,0:0:0:0:
192,192,86116,1,4,0:0:0:0:
448,192,86116,128,0,86645:0:0:0:0:
192,192,86469,1,0,0:0:0:0:
64,192,86645,1,2,0:0:0:0:
192,192,86645,1,8,0:0:0:0:
320,192,86645,1,0,0:0:0:0:
64,192,86822,1,8,0:0:0:0:
192,192,86822,1,0,0:0:0:0:
320,192,86822,1,0,0:0:0:0:
64,192,86998,1,8,0:0:0:0:
320,192,86998,1,0,0:0:0:0:
448,192,86998,1,0,0:0:0:0:
192,192,87174,1,2,0:0:0:0:
320,192,87263,1,8,0:0:0:0:
448,192,87263,1,0,0:0:0:0:
64,192,87351,1,8,0:0:0:0:
192,192,87351,1,0,0:0:0:0:
320,192,87439,1,0,0:0:0:0:
64,192,87527,1,2,0:0:0:0:
448,192,87527,1,0,0:0:0:0:
192,192,87616,1,2,0:0:0:0:
64,192,87704,1,2,0:0:0:0:
320,192,87704,1,4,0:0:0:0:
448,192,87704,1,0,0:0:0:0:
320,192,87880,1,2,0:0:0:0:
320,192,88057,1,2,0:0:0:0:
448,192,88057,1,0,0:0:0:0:
64,192,88233,1,8,0:0:0:0:
192,192,88233,1,4,0:0:0:0:
448,192,88233,1,0,0:0:0:0:
64,192,88410,1,2,0:0:0:0:
64,192,88586,1,2,0:0:0:0:
192,192,88586,1,0,0:0:0:0:
192,192,88763,1,8,0:0:0:0:
320,192,88763,1,4,0:0:0:0:
448,192,88763,1,0,0:0:0:0:
320,192,88939,1,2,0:0:0:0:
448,192,88939,1,0,0:0:0:0:
320,192,89116,1,2,0:0:0:0:
448,192,89116,1,0,0:0:0:0:
64,192,89292,1,8,0:0:0:0:
192,192,89292,1,4,0:0:0:0:
448,192,89292,1,0,0:0:0:0:
320,192,89469,1,2,0:0:0:0:
64,192,89645,1,2,0:0:0:0:
448,192,89645,1,0,0:0:0:0:
320,192,89822,1,8,0:0:0:0:
448,192,89822,1,0,0:0:0:0:
64,192,89910,1,8,0:0:0:0:
192,192,89910,1,0,0:0:0:0:
320,192,89998,1,8,0:0:0:0:
448,192,89998,1,0,0:0:0:0:
64,192,90086,1,8,0:0:0:0:
192,192,90086,1,0,0:0:0:0:
320,192,90174,1,8,0:0:0:0:
448,192,90174,1,0,0:0:0:0:
64,192,90263,1,8,0:0:0:0:
192,192,90263,1,0,0:0:0:0:
320,192,90351,1,8,0:0:0:0:
448,192,90351,1,0,0:0:0:0:
64,192,90439,1,8,0:0:0:0:
192,192,90439,1,0,0:0:0:0:
320,192,90527,1,0,0:0:0:0:
448,192,90527,128,0,91939:0:0:0:0:
320,192,91939,1,0,0:0:0:0:
64,192,92469,1,0,0:0:0:50:Tom2.wav
192,192,92469,1,0,0:0:0:0:
320,192,92822,1,0,0:0:0:50:Tom3.wav
64,192,92998,1,0,0:0:0:50:Tom4.wav
448,192,92998,1,0,0:0:0:0:
192,192,93086,1,0,0:0:0:0:
320,192,93174,1,0,0:0:0:0:
448,192,93263,1,0,0:0:0:0:
64,192,93351,128,2,94763:0:0:0:0:
192,192,93351,1,4,0:0:0:0:
320,192,93351,1,0,0:0:0:0:
320,192,93880,1,8,0:0:0:0:
448,192,93880,1,0,0:0:0:0:
320,192,94233,1,0,0:0:0:50:Tom3.wav
192,192,94410,1,0,0:0:0:50:Tom4.wav
448,192,94410,128,0,94763:0:0:0:0:
320,192,94586,1,0,0:0:0:0:
192,192,94763,128,4,95469:0:0:0:0:
320,192,94763,1,2,0:0:0:0:
448,192,95116,128,0,95292:0:0:0:0:
64,192,95292,1,0,0:0:0:0:
448,192,95380,1,0,0:0:0:0:
64,192,95469,1,2,0:0:0:0:
320,192,95469,128,4,96174:0:0:0:0:
64,192,95822,128,0,96174:0:0:0:0:
192,192,96174,1,2,0:0:0:0:
448,192,96174,128,4,96880:0:0:0:0:
320,192,96704,1,0,0:0:0:0:
64,192,96792,1,0,0:0:0:0:
192,192,96880,128,4,97586:0:0:0:0:
320,192,96880,1,2,0:0:0:0:
320,192,97410,1,8,0:0:0:0:
448,192,97410,1,0,0:0:0:0:
64,192,97498,1,8,0:0:0:0:
320,192,97586,1,2,0:0:0:0:
448,192,97586,1,4,0:0:0:0:
64,192,97939,1,8,0:0:0:0:
320,192,97939,1,0,0:0:0:0:
448,192,97939,1,0,0:0:0:0:
192,192,98116,1,0,0:0:0:0:
64,192,98204,1,8,0:0:0:0:
448,192,98204,1,0,0:0:0:0:
192,192,98292,1,2,0:0:0:0:
320,192,98292,1,0,0:0:0:0:
448,192,98380,1,0,0:0:0:0:
64,192,98469,1,8,0:0:0:0:
192,192,98469,1,0,0:0:0:0:
320,192,98557,1,8,0:0:0:0:
448,192,98557,1,0,0:0:0:0:
64,192,98645,1,2,0:0:0:0:
192,192,98645,1,0,0:0:0:0:
320,192,98733,1,8,0:0:0:0:
448,192,98733,1,0,0:0:0:0:
64,192,98822,1,8,0:0:0:0:
192,192,98822,1,0,0:0:0:0:
320,192,98910,1,8,0:0:0:0:
64,192,98998,1,2,0:0:0:0:
192,192,98998,1,4,0:0:0:0:
448,192,98998,1,0,0:0:0:0:
192,192,99174,1,2,0:0:0:0:
320,192,99174,1,0,0:0:0:0:
64,192,99351,1,8,0:0:0:0:
320,192,99351,1,0,0:0:0:0:
448,192,99351,1,0,0:0:0:0:
192,192,99527,1,0,0:0:0:0:
320,192,99616,1,8,0:0:0:0:
448,192,99616,1,0,0:0:0:0:
64,192,99704,1,2,0:0:0:0:
192,192,99704,1,0,0:0:0:0:
320,192,99880,1,2,0:0:0:0:
448,192,99880,1,0,0:0:0:0:
64,192,100057,1,8,0:0:0:0:
192,192,100057,1,0,0:0:0:0:
448,192,100057,1,0,0:0:0:0:
320,192,100233,1,0,0:0:0:0:
192,192,100322,1,0,0:0:0:0:
64,192,100410,1,2,0:0:0:0:
448,192,100410,1,0,0:0:0:0:
192,192,100586,1,2,0:0:0:0:
320,192,100586,1,0,0:0:0:0:
64,192,100763,1,8,0:0:0:0:
320,192,100763,1,4,0:0:0:0:
448,192,100763,1,0,0:0:0:0:
192,192,100939,1,0,0:0:0:0:
320,192,101027,1,8,0:0:0:0:
448,192,101027,1,0,0:0:0:0:
64,192,101116,1,8,0:0:0:0:
192,192,101116,1,0,0:0:0:0:
320,192,101233,1,8,0:0:0:0:
448,192,101233,1,0,0:0:0:0:
192,192,101351,1,8,0:0:0:0:
320,192,101351,1,0,0:0:0:0:
64,192,101469,1,8,0:0:0:0:
192,192,101469,1,0,0:0:0:0:
320,192,101586,1,0,0:0:0:50:Tom4.wav
448,192,101586,1,0,0:0:0:0:
192,192,101704,1,0,0:0:0:50:Tom4.wav
320,192,101704,1,0,0:0:0:0:
64,192,101822,1,2,0:0:0:0:
192,192,101822,1,4,0:0:0:0:
448,192,101822,1,0,0:0:0:0:
64,192,101998,1,2,0:0:0:0:
448,192,101998,1,0,0:0:0:0:
192,192,102174,1,2,0:0:0:0:
320,192,102174,1,0,0:0:0:0:
448,192,102174,1,0,0:0:0:0:
64,192,102351,1,8,0:0:0:0:
320,192,102351,1,0,0:0:0:0:
192,192,102527,1,8,0:0:0:0:
320,192,102527,1,0,0:0:0:0:
448,192,102527,1,0,0:0:0:0:
64,192,102704,1,8,0:0:0:0:
192,192,102704,1,0,0:0:0:0:
448,192,102704,1,0,0:0:0:0:
64,192,102880,1,8,0:0:0:0:
320,192,102880,1,0,0:0:0:0:
448,192,102880,1,0,0:0:0:0:
64,192,103057,1,8,0:0:0:0:
192,192,103057,1,0,0:0:0:0:
320,192,103057,1,0,0:0:0:0:
192,192,103233,1,8,0:0:0:0:
320,192,103233,1,0,0:0:0:0:
448,192,103233,1,0,0:0:0:0:
64,192,103410,1,8,0:0:0:0:
192,192,103410,1,0,0:0:0:0:
448,192,103410,1,0,0:0:0:0:
64,192,103586,1,8,0:0:0:0:
320,192,103586,1,0,0:0:0:0:
448,192,103586,1,0,0:0:0:0:
64,192,103763,1,8,0:0:0:0:
192,192,103763,1,0,0:0:0:0:
320,192,103763,1,0,0:0:0:0:
192,192,103939,1,8,0:0:0:0:
320,192,103939,1,0,0:0:0:0:
448,192,103939,1,0,0:0:0:0:
64,192,104116,1,8,0:0:0:0:
192,192,104116,1,0,0:0:0:0:
448,192,104116,1,0,0:0:0:0:
64,192,104292,1,8,0:0:0:0:
320,192,104292,1,0,0:0:0:0:
448,192,104292,1,0,0:0:0:0:
64,192,104469,128,8,105351:0:0:0:0:
192,192,104469,1,0,0:0:0:0:
320,192,104469,1,0,0:0:0:0:
192,192,105351,128,4,109233:0:0:0:0:
320,192,105351,128,2,109410:0:0:0:0:
448,192,105351,128,8,109586:0:0:0:0:
